osu file format v14

[General]
AudioFilename: audio.mp3
AudioLeadIn: 0
PreviewTime: 115480
Countdown: 0
SampleSet: Normal
StackLeniency: 0.7
Mode: 0
LetterboxInBreaks: 0
WidescreenStoryboard: 0

[Editor]
Bookmarks: 15451,37394,48365,59337,70308,93622,104594,115565,126537,137165,156708
DistanceSpacing: 1.7
BeatDivisor: 4
GridSize: 32
TimelineZoom: 2.799999

[Metadata]
Title:ROXANNE (Remix) (feat. Swae Lee)
TitleUnicode:ROXANNE (Remix) (feat. Swae Lee)
Artist:Arizona Zervas
ArtistUnicode:Arizona Zervas
Creator:wafer
Version:ROCK SAND (Remix)
Source:
Tags:english hiphop hip-hop hip hop rap agatsu deviouspanda jasontime12345 potatodew kami no kotoba goopert 0ppinosu jamesjan3
BeatmapID:3282876
BeatmapSetID:1607645

[Difficulty]
HPDrainRate:5
CircleSize:5
OverallDifficulty:8.8
ApproachRate:8.5
SliderMultiplier:1.8
SliderTickRate:1

[Events]
//Background and Video events
0,0,"whalesand.jpg",0,0
//Break Periods
//Storyboard Layer 0 (Background)
//Storyboard Layer 1 (Fail)
//Storyboard Layer 2 (Pass)
//Storyboard Layer 3 (Foreground)
//Storyboard Layer 4 (Overlay)
//Storyboard Sound Samples
Sample,2765,0,"wafer pitched.wav",50

[TimingPoints]
4480,342.857142857143,4,1,2,65,1,0
4480,-100,4,1,2,65,0,0
12365,-200,4,1,2,65,0,0
12708,-100,4,1,2,65,0,0
15108,-100,4,1,2,50,0,0
15451,-80,4,1,2,70,0,0
17508,-200,4,1,2,70,0,0
18194,-80,4,1,2,70,0,0
20251,-100,4,1,2,70,0,0
20937,-80,4,1,2,70,0,0
22994,-200,4,1,2,70,0,0
24194,-80,4,1,2,70,0,0
25737,-80,4,1,2,50,0,0
26422,-66.6666666666667,4,1,2,70,0,0
26765,-200,4,1,2,70,0,0
27451,-80,4,1,2,70,0,0
27794,-66.6666666666667,4,1,2,70,0,0
28137,-200,4,1,2,70,0,0
28822,-133.333333333333,4,1,2,70,0,0
29165,-66.6666666666667,4,1,2,70,0,0
29508,-200,4,1,2,70,0,0
29851,-80,4,1,2,70,0,0
30537,-66.6666666666667,4,1,2,70,0,0
30880,-200,4,1,2,70,0,0
31222,-200,4,1,2,50,0,0
31393,-200,4,1,2,70,0,0
31565,-133.333333333333,4,1,2,70,0,0
31908,-80,4,1,2,70,0,0
33965,-200,4,1,2,70,0,0
34651,-80,4,1,2,70,0,0
36708,-100,4,1,2,70,0,0
37394,-100,4,1,2,65,0,0
39451,-133.333333333333,4,1,2,65,0,0
39794,-200,4,1,2,65,0,0
40137,-100,4,1,2,65,0,0
41851,-100,4,1,2,65,0,0
42194,-133.333333333333,4,1,2,65,0,0
42537,-200,4,1,2,65,0,0
42880,-100,4,1,2,65,0,0
43008,-100,4,1,2,5,0,0
43051,-100,4,1,2,65,0,0
43350,-100,4,1,2,5,0,0
43394,-100,4,1,2,65,0,0
43693,-100,4,1,2,5,0,0
43737,-100,4,1,2,65,0,0
44594,-100,4,1,2,65,0,0
44937,-133.333333333333,4,1,2,65,0,0
45280,-200,4,1,2,65,0,0
46308,-100,4,1,2,65,0,0
47337,-200,4,1,2,55,0,0
47422,-200,4,1,2,5,0,0
47508,-200,4,1,2,55,0,0
47680,-200,4,1,2,5,0,0
48365,-90.9090909090909,4,1,2,70,0,0
49737,-100,4,1,2,70,0,0
59337,-333.333333333333,4,1,2,60,0,0
69108,-333.333333333333,4,1,2,5,0,0
69965,-333.333333333333,4,1,2,60,0,0
70308,-80,4,1,2,70,0,0
70651,-133.333333333333,4,1,2,70,0,0
70994,-80,4,1,2,70,0,0
72365,-200,4,1,2,70,0,0
73051,-80,4,1,2,70,0,0
75108,-100,4,1,2,70,0,0
75794,-80,4,1,2,70,0,0
76137,-133.333333333333,4,1,2,70,0,0
76480,-80,4,1,2,70,0,0
77508,-133.333333333333,4,1,2,70,0,0
77851,-200,4,1,2,70,0,0
79051,-80,4,1,2,70,0,0
80594,-80,4,1,2,50,0,0
81279,-66.6666666666667,4,1,2,70,0,0
81622,-200,4,1,2,70,0,0
82308,-80,4,1,2,70,0,0
82651,-66.6666666666667,4,1,2,70,0,0
82994,-200,4,1,2,70,0,0
83679,-133.333333333333,4,1,2,70,0,0
84022,-66.6666666666667,4,1,2,70,0,0
84365,-200,4,1,2,70,0,0
84708,-80,4,1,2,70,0,0
85394,-66.6666666666667,4,1,2,70,0,0
85737,-200,4,1,2,70,0,0
86079,-200,4,1,2,50,0,0
86250,-200,4,1,2,70,0,0
86422,-133.333333333333,4,1,2,70,0,0
86765,-80,4,1,2,70,0,0
87108,-200,4,1,2,70,0,0
87451,-80,4,1,2,70,0,0
88822,-200,4,1,2,70,0,0
89508,-80,4,1,2,70,0,0
91565,-100,4,1,2,70,0,0
93622,-133.333333333333,4,1,2,50,0,0
103222,-133.333333333333,4,1,2,50,0,0
103565,-133.333333333333,4,1,2,5,0,0
104251,-133.333333333333,4,1,2,70,0,0
104594,-100,4,1,2,70,0,0
106994,-166.666666666667,4,1,2,70,0,0
107337,-100,4,1,2,70,0,0
112480,-166.666666666667,4,1,2,70,0,0
112822,-100,4,1,2,70,0,0
115222,-250,4,1,2,70,0,0
115565,-83.3333333333333,4,1,2,65,0,0
116937,-166.666666666667,4,1,2,65,0,0
118308,-83.3333333333333,4,1,2,65,0,0
119680,-166.666666666667,4,1,2,65,0,0
121051,-83.3333333333333,4,1,2,65,0,0
121180,-83.3333333333333,4,1,2,5,0,0
121223,-83.3333333333333,4,1,2,65,0,0
121522,-83.3333333333333,4,1,2,5,0,0
121566,-83.3333333333333,4,1,2,65,0,0
121865,-83.3333333333333,4,1,2,5,0,0
121909,-83.3333333333333,4,1,2,65,0,0
122423,-166.666666666667,4,1,2,65,0,0
123794,-83.3333333333333,4,1,2,65,0,0
125165,-166.666666666667,4,1,2,65,0,0
125509,-166.666666666667,4,1,2,55,0,0
126452,-166.666666666667,4,1,2,5,0,0
126537,-250,4,1,2,60,0,0
137165,-68.9655172413793,4,1,2,60,0,0
137508,-68.9655172413793,4,1,2,65,0,0
137851,-166.666666666667,4,1,2,65,0,0
138194,-80,4,1,2,65,0,0
138537,-100,4,1,2,65,0,0
138880,-68.9655172413793,4,1,2,65,0,0
139565,-142.857142857143,4,1,2,65,0,0
141622,-68.9655172413793,4,1,2,65,0,0
141965,-166.666666666667,4,1,2,65,0,0
142994,-68.9655172413793,4,1,2,65,0,0
143337,-142.857142857143,4,1,2,65,0,0
143680,-80,4,1,2,65,0,0
144022,-166.666666666667,4,1,2,65,0,0
144365,-68.9655172413793,4,1,2,65,0,0
144708,-142.857142857143,4,1,2,65,0,0
146765,-100,4,1,2,65,0,0
147108,-68.9655172413793,4,1,2,65,0,0
147451,-166.666666666667,4,1,2,65,0,0
148480,-66.6666666666667,4,1,2,65,0,0
148822,-200,4,1,2,65,0,0
149508,-80,4,1,2,65,0,0
149851,-66.6666666666667,4,1,2,65,0,0
150194,-200,4,1,2,65,0,0
150879,-133.333333333333,4,1,2,65,0,0
151222,-66.6666666666667,4,1,2,65,0,0
151565,-200,4,1,2,65,0,0
151908,-80,4,1,2,65,0,0
152594,-66.6666666666667,4,1,2,65,0,0
152937,-200,4,1,2,65,0,0
153622,-133.333333333333,4,1,2,65,0,0
153965,-68.9655172413793,4,1,2,65,0,0
154308,-200,4,1,2,65,0,0
154651,-68.9655172413793,4,1,2,65,0,0
155680,-133.333333333333,4,1,2,65,0,0
156022,-200,4,1,2,65,0,0
159451,-200,4,1,2,5,0,0

[Colours]
Combo1 : 255,198,226
Combo2 : 157,206,255
Combo3 : 187,185,185
Combo4 : 242,219,149
Combo5 : 204,201,241

[HitObjects]
79,173,4480,6,0,P|70:117|-9:99,1,135,4|0,3:0|0:0,0:0:0:0:
2,94,4822,2,0,B|27:99|27:99|60:71,1,45
4,15,4994,1,0,3:3:0:0:
79,173,5165,1,8,0:2:0:0:
30,232,5337,1,0,0:0:0:0:
30,232,5508,2,0,L|34:260,2,22.5
316,250,5851,6,0,B|377:258|377:258|384:262|384:262|467:271,1,135,2|0,0:2|0:0,0:0:0:0:
449,269,6194,2,0,L|453:241,2,22.5
505,324,6365,1,0,0:0:0:0:
409,182,6537,1,8,0:2:0:0:
466,130,6708,1,0,0:0:0:0:
352,0,6880,1,2,0:2:0:0:
352,0,7222,6,0,P|318:63|239:54,1,135,4|0,3:3|0:0,0:0:0:0:
260,67,7565,2,0,L|311:71,1,45
374,114,7737,1,0,0:0:0:0:
216,157,7908,1,8,0:2:0:0:
281,203,8080,1,0,0:0:0:0:
137,88,8251,6,0,L|187:84,1,45,0|0,3:3|2:0,0:0:0:0:
134,94,8422,1,8,0:2:0:0:
242,275,8594,6,4,B|181:267|181:267|174:263|174:263|91:254,1,135,2|0,0:2|0:0,0:0:0:0:
108,255,8937,2,0,P|117:315|120:359,1,90,0|0,3:3|0:0,0:0:0:0:
266,384,9280,2,0,P|273:294|286:205,1,180,8|2,0:2|0:2,0:0:0:0:
476,118,9794,1,8,0:2:0:0:
415,61,9965,6,0,P|351:71|333:136,1,135,4|0,3:3|2:0,0:0:0:0:
331,131,10308,2,0,L|359:123,2,22.5
383,185,10480,1,0,3:3:0:0:
240,97,10651,1,8,0:2:0:0:
180,142,10822,1,0,0:0:0:0:
180,142,10994,2,0,L|152:138,2,22.5
35,61,11337,6,0,B|48:121|48:121|52:127|52:127|69:209,1,135,4|0,0:3|0:0,0:0:0:0:
65,192,11680,2,0,L|37:196,2,22.5
139,207,11851,1,0,0:0:0:0:
0,282,12022,6,0,B|48:275|75:303|53:307|79:331|132:321,1,135,8|0,0:2|0:0,0:0:0:0:
121,322,12365,2,0,B|93:303|93:303|73:333,1,67.5,2|0,0:2|0:0,0:0:0:0:
181,370,12708,6,0,B|252:358|252:358|255:353|255:353|321:340,1,135,4|0,3:3|0:0,0:0:0:0:
311,341,13051,2,0,P|280:331|269:307,1,45
287,248,13222,1,0,3:3:0:0:
389,333,13394,2,0,P|383:283|472:224,1,135,8|0,0:2|2:0,0:0:0:0:
439,225,13737,2,0,B|445:202|445:202|427:166,1,45,0|0,3:3|2:0,0:0:0:0:
374,107,13908,1,8,0:2:0:0:
340,183,14080,5,2,0:2:0:0:
340,183,14251,1,8,0:2:0:0:
458,109,14422,5,0,0:0:0:0:
458,109,14594,1,0,0:0:0:0:
492,36,14765,5,0,0:0:0:0:
492,36,15108,1,2,0:2:0:0:
458,109,15451,6,0,B|372:127|372:127|365:136|365:136|227:163,1,225,4|0,3:3|0:0,0:0:0:0:
403,251,15965,2,0,P|407:223|412:195,1,56.25,0|0,3:3|0:0,2:0:0:0:
281,229,16137,1,8,0:2:0:0:
320,299,16308,1,0,0:0:0:0:
73,382,16480,2,0,P|86:307|99:232,1,112.5,0|0,3:3|0:0,0:0:0:0:
241,160,16822,6,0,B|168:180|126:111|161:108|117:40|38:75,1,225,2|0,0:2|3:3,0:0:0:0:
218,87,17337,1,0,0:0:0:0:
70,145,17508,6,2,P|60:164|56:187,1,45,10|0,0:2|0:0,0:1:0:0:
222,282,17851,6,2,P|211:262|207:240,1,45,2|0,0:2|0:0,0:1:0:0:
460,148,18194,5,4,3:3:0:0:
306,207,18365,1,0,0:0:0:0:
466,156,18537,1,0,0:0:0:0:
313,218,18708,2,0,B|317:158,1,56.25,0|0,3:3|0:0,0:0:0:0:
424,41,18880,5,8,0:2:0:0:
498,61,19051,1,0,0:0:0:0:
331,77,19222,6,0,L|270:67,1,56.25,0|0,3:3|0:0,0:0:0:0:
402,43,19394,1,8,0:2:0:0:
480,263,19565,6,0,P|398:265|341:324,1,168.75
341,324,19908,2,0,B|385:361|385:361|463:331,1,112.5,0|0,3:3|0:0,0:0:0:0:
261,373,20251,6,0,P|256:283|245:194,1,180,8|2,0:2|0:2,0:0:0:0:
261,373,20765,1,8,0:3:0:0:
131,165,20937,6,0,P|188:187|264:62,1,225,4|0,3:3|0:0,0:0:0:0:
115,0,21451,2,0,P|109:27|97:59,1,56.25,0|0,3:3|0:0,0:0:0:0:
0,159,21622,1,8,0:2:0:0:
68,124,21794,1,0,0:0:0:0:
336,180,21965,2,0,P|397:164|454:153,1,112.5,0|0,3:3|0:0,0:0:0:0:
272,69,22308,6,0,P|178:122|156:248,1,225,0|0,0:0|3:3,0:0:0:0:
239,317,22822,1,0,0:0:0:0:
297,266,22994,6,2,P|313:280|326:299,1,45,8|0,0:1|0:1,0:1:0:0:
134,343,23337,6,2,P|149:326|159:306,1,45,0|0,0:1|0:1,0:1:0:0:
0,159,23680,5,0,3:3:0:0:
153,227,23851,1,0,0:0:0:0:
9,165,24022,1,0,0:0:0:0:
160,231,24194,2,0,B|168:214|168:214|171:170,1,56.25,0|0,3:3|0:0,0:0:0:0:
148,95,24365,5,8,0:2:0:0:
29,252,24537,1,0,0:0:0:0:
157,102,24708,6,0,L|218:92,1,56.25,0|0,3:3|0:0,0:0:0:0:
86,147,24880,1,8,0:2:0:0:
298,245,25051,6,0,P|215:246|159:306,1,168.75
159,305,25394,2,0,B|202:341|202:341|280:311,1,112.5,0|0,3:3|0:0,0:0:0:0:
357,137,25737,5,2,2:0:0:0:
357,137,25908,1,2,2:0:0:0:
444,175,26080,5,2,2:0:0:0:
444,175,26251,1,2,2:0:0:0:
502,282,26422,6,0,P|492:196|494:73,1,202.500007724762,6|0,3:2|2:0,0:0:0:0:
420,56,26765,2,0,P|428:34|430:12,1,45,0|0,0:0|3:3,0:0:0:0:
256,113,27108,5,8,0:2:0:0:
347,59,27280,1,0,0:0:0:0:
141,67,27451,6,0,L|206:51,1,56.25,0|0,3:3|0:0,0:0:0:0:
195,53,27622,1,0,0:0:0:0:
6,120,27794,6,0,B|72:102|115:155|71:151|130:212|202:182,1,202.500007724762,2|0,0:2|0:0,0:0:0:0:
255,245,28137,2,0,P|227:250|186:274,1,67.5,0|0,3:3|0:0,0:0:0:0:
154,338,28480,5,8,0:2:0:0:
183,188,28651,1,0,0:0:0:0:
90,302,28822,6,0,P|82:269|73:236,1,67.5000025749208,2|0,0:2|0:0,0:0:0:0:
263,166,29165,6,0,P|317:247|414:240,1,202.500007724762,0|0,3:3|0:0,0:0:0:0:
449,172,29508,2,0,P|426:167|395:161,1,45,0|0,0:0|3:3,0:0:0:0:
271,302,29851,6,0,P|301:286|326:282,1,56.25,8|0,0:2|0:0,0:0:0:0:
388,327,30022,1,0,0:0:0:0:
197,210,30194,6,0,P|170:205|146:191,1,56.25,0|0,3:3|0:0,0:0:0:0:
263,166,30365,1,8,0:3:0:0:
170,18,30537,6,0,P|82:28|33:137,1,202.500007724762,2|0,0:2|0:0,0:0:0:0:
63,189,30880,2,0,P|68:212|74:275,1,67.5,0|0,3:3|2:0,0:0:0:0:
0,384,31222,5,2,0:0:0:0:
0,384,31394,1,0,3:3:0:0:
131,344,31565,6,0,P|136:313|153:269,1,67.5000025749208,2|8,0:2|0:2,0:0:0:0:
291,96,31908,6,0,B|379:110|379:110|386:117|386:117|532:140,1,225,4|0,3:3|0:0,0:0:0:0:
350,234,32422,2,0,P|346:206|341:178,1,56.25,0|0,3:3|0:0,0:0:0:0:
388,123,32594,1,8,0:2:0:0:
266,167,32765,1,0,0:0:0:0:
427,317,32937,2,0,P|440:242|453:167,1,112.5,0|0,3:3|0:0,0:0:0:0:
349,24,33280,6,0,P|274:18|194:143,1,225,2|0,0:2|3:3,0:0:0:0:
160,55,33794,1,0,0:0:0:0:
79,133,33965,6,2,P|98:123|121:119,1,45,10|0,0:2|0:0,0:1:0:0:
1,184,34308,6,2,P|23:188|42:198,1,45,2|0,0:2|0:0,0:1:0:0:
302,278,34651,5,4,3:3:0:0:
148,337,34822,1,0,0:0:0:0:
308,286,34994,1,0,0:0:0:0:
155,348,35165,2,0,B|159:288,1,56.25,0|0,3:3|0:0,0:0:0:0:
266,171,35337,5,8,0:2:0:0:
340,191,35508,1,0,0:0:0:0:
173,207,35680,6,0,L|112:197,1,56.25,0|0,3:3|0:0,0:0:0:0:
244,173,35851,1,8,0:2:0:0:
290,365,36022,6,0,P|344:296|427:294,1,168.75,2|0,0:2|0:0,0:0:0:0:
420,291,36365,2,0,B|382:331|382:331|298:298,1,112.5,0|2,3:3|0:2,0:0:0:0:
468,373,36708,6,0,P|473:283|484:194,1,180,8|0,0:2|0:0,0:0:0:0:
468,373,37222,1,8,0:2:0:0:
403,210,37394,6,0,P|376:169|382:137,1,45,4|0,3:3|0:0,0:0:0:0:
418,111,37565,1,0,0:0:0:0:
309,133,37737,2,0,P|312:92|357:55,1,90,0|0,0:0|3:3,0:0:0:0:
427,116,38080,5,8,0:2:0:0:
306,208,38251,1,0,0:0:0:0:
237,171,38422,1,4,3:3:0:0:
294,220,38594,1,0,0:0:0:0:
191,337,38765,2,0,P|151:343|88:353,1,90,2|0,0:2|0:0,0:0:0:0:
259,296,39108,6,0,P|303:303|348:310,1,90,0|0,3:3|0:0,0:0:0:0:
391,246,39451,6,0,P|424:251|457:256,1,67.5000025749208,8|0,0:3|0:0,0:0:0:0:
468,182,39794,6,0,P|490:185|512:188,1,45,2|0,0:2|0:0,0:0:0:0:
334,49,40137,6,0,P|307:90|313:122,1,45,4|0,3:3|0:0,0:0:0:0:
349,148,40308,1,0,0:0:0:0:
203,42,40480,2,0,P|206:83|251:120,1,90,0|0,0:0|3:3,0:0:0:0:
405,99,40823,5,8,0:2:0:0:
281,181,40994,1,0,0:0:0:0:
118,109,41165,2,0,L|76:126,1,45,4|0,3:3|0:0,0:0:0:0:
125,115,41337,2,0,L|83:132,1,45,10|0,0:3|0:0,0:0:0:0:
124,33,41508,2,0,P|79:26|35:19,1,90,2|8,0:2|0:2,0:0:0:0:
36,215,41851,6,0,P|80:207|124:201,1,90,0|0,3:3|0:0,0:0:0:0:
167,266,42194,6,0,P|200:260|233:255,1,67.5000025749208,8|0,0:3|3:3,0:0:0:0:
267,325,42537,6,0,P|282:322|298:320,1,22.5
261,334,42708,1,8,0:2:0:0:
393,246,42880,5,4,3:3:0:0:
482,272,43051,1,2,0:2:0:0:
389,241,43222,1,0,0:0:0:0:
512,191,43393,1,0,3:3:0:0:
407,297,43565,6,0,L|395:250,1,45,8|0,0:2|2:0,0:0:0:0:
367,172,43737,1,2,0:2:0:0:
485,81,43908,6,0,L|473:124,1,45,4|0,3:3|0:0,0:0:0:0:
473,124,44080,1,0,0:0:0:0:
278,57,44251,2,0,P|319:42|344:5,1,90,2|0,0:2|0:0,0:0:0:0:
228,115,44594,6,0,P|186:100|161:63,1,90,0|0,3:3|0:0,0:0:0:0:
96,114,44937,6,0,P|81:76|93:38,1,67.5000025749208,8|0,0:2|0:0,0:0:0:0:
1,29,45280,6,0,P|12:9|31:0,1,45,4|0,0:3|0:0,0:0:0:0:
151,176,45622,5,4,3:3:0:0:
125,265,45793,1,0,0:0:0:0:
54,230,45964,1,2,0:2:0:0:
198,236,46137,1,0,3:3:0:0:
24,327,46308,6,0,L|83:311,1,45,8|0,0:2|0:0,0:0:0:0:
125,265,46479,1,2,0:2:0:0:
153,375,46651,6,0,L|164:331,1,45,4|0,3:3|0:0,0:0:0:0:
165,332,46822,1,8,3:3:0:0:
320,192,46994,5,2,2:0:0:0:
320,192,47337,2,0,L|314:229,1,22.5,2|0,0:2|0:0,0:0:0:0:
372,262,47508,6,2,B|340:240|340:240|322:111|322:111|289:91,1,202.5,0|0,0:0|2:0,0:2:0:0:
294,94,48365,6,0,B|331:113|331:113|448:87|448:87|473:33,1,198.000006042481,4|2,3:3|0:2,0:0:0:0:
415,173,48880,1,0,3:3:0:0:
283,18,49051,2,0,P|238:36|216:80,1,99.0000030212403,8|0,0:2|0:0,0:0:0:0:
421,179,49394,6,0,L|474:168,1,49.5000015106202,4|0,3:3|0:0,0:0:0:0:
388,245,49565,1,0,0:0:0:0:
243,155,49737,6,0,B|200:138|142:186|184:181|144:243|69:214,1,180,0|0,0:0|3:3,0:0:0:0:
21,175,50251,1,0,0:0:0:0:
231,240,50422,5,8,0:2:0:0:
165,207,50593,1,0,0:0:0:0:
92,317,50765,2,0,L|81:370,1,45,2|0,0:2|0:0,0:0:0:0:
158,284,50936,1,0,0:0:0:0:
21,175,51108,5,4,3:3:0:0:
66,112,51280,1,0,0:0:0:0:
228,164,51451,1,0,0:0:0:0:
317,129,51623,1,0,3:3:0:0:
257,2,51794,6,0,P|199:10|162:85,1,135,8|0,0:2|0:0,0:0:0:0:
161,71,52137,2,0,B|175:74|175:74|214:60,1,45,6|0,0:3|0:0,0:0:0:0:
87,30,52308,1,0,3:3:0:0:
229,143,52480,6,0,P|242:228|255:345,1,180,2|0,0:2|3:3,0:0:0:0:
187,365,52994,1,2,0:2:0:0:
321,211,53165,5,8,0:2:0:0:
154,193,53336,1,0,3:3:0:0:
306,126,53508,1,0,0:0:0:0:
217,224,53680,1,8,0:3:0:0:
351,356,53851,6,0,B|378:337|378:337|394:225|394:225|422:208,1,180,4|0,3:3|0:0,0:0:0:0:
500,228,54365,1,0,3:3:0:0:
310,288,54537,2,0,L|192:311,1,90,8|0,0:2|0:0,0:0:0:0:
469,340,54880,2,0,L|458:287,1,45,4|0,3:3|0:0,0:0:0:0:
500,228,55051,1,0,0:0:0:0:
364,100,55222,6,0,P|287:112|250:222,1,180,0|0,0:0|3:3,0:0:0:0:
324,210,55737,1,0,0:0:0:0:
174,237,55908,5,8,0:3:0:0:
301,143,56079,1,0,0:0:0:0:
214,76,56251,2,0,L|225:129,1,45,2|0,0:2|0:0,0:0:0:0:
224,120,56422,1,0,0:0:0:0:
21,178,56594,6,0,B|61:182|61:182|67:190|67:190|115:197,1,90,4|0,3:3|0:0,0:0:0:0:
272,268,56937,1,0,0:0:0:0:
194,317,57108,1,0,3:3:0:0:
115,117,57280,2,0,P|127:59|144:-7,1,90,8|0,0:3|0:0,0:0:0:0:
21,178,57622,2,0,B|21:163|21:163|8:135,1,45,4|0,3:3|0:0,0:0:0:0:
49,73,57793,1,8,0:2:0:0:
197,243,57965,6,0,B|239:226|297:274|255:269|295:331|370:302,1,180,2|0,0:2|3:3,0:0:0:0:
413,260,58480,1,0,0:0:0:0:
219,361,58651,2,0,L|210:305,1,45,8|0,0:3|0:0,0:0:0:0:
211,316,58822,1,0,3:3:0:0:
328,229,58994,1,0,0:0:0:0:
416,329,59165,1,8,0:2:0:0:
136,293,59337,6,0,P|92:289|10:284,1,107.999996704102,2|8,2:0|2:0,0:0:0:0:
31,289,60365,2,0,L|67:294,1,26.9999991760254,0|0,2:0|0:0,0:0:0:0:
255,192,60708,6,0,P|308:196|362:200,1,107.999996704102,2|8,2:0|2:0,0:0:0:0:
360,196,61736,2,0,L|324:191,1,26.9999991760254,0|0,2:0|2:0,0:0:0:0:
211,136,62080,6,0,L|203:75,1,53.9999983520508,2|0,2:0|2:0,0:0:0:0:
203,82,62594,1,0,2:0:0:0:
271,43,62765,1,8,2:0:0:0:
128,154,63108,6,0,L|131:127,1,26.9999991760254,0|0,2:0|2:0,0:0:0:0:
131,126,63451,2,0,P|127:179|122:233,1,107.999996704102,2|8,2:0|2:0,0:0:0:0:
127,232,64480,2,0,L|132:196,1,26.9999991760254,0|0,2:0|0:0,0:0:0:0:
256,320,64822,6,0,P|300:324|382:329,1,107.999996704102,2|8,2:0|2:0,0:0:0:0:
361,324,65850,2,0,L|325:319,1,26.9999991760254,0|0,2:0|0:0,0:0:0:0:
234,223,66194,6,0,P|181:227|127:231,1,107.999996704102,2|8,2:0|2:0,0:0:0:0:
129,227,67222,2,0,L|165:222,1,26.9999991760254,0|0,2:0|0:0,0:0:0:0:
280,160,67565,6,0,L|288:99,1,53.9999983520508,2|0,2:0|2:0,0:0:0:0:
287,106,68079,1,0,2:0:0:0:
223,66,68250,1,8,2:0:0:0:
364,146,68593,6,0,L|390:142,1,26.9999991760254,2|0,2:0|2:0,0:0:0:0:
390,142,68937,2,0,B|416:165|416:165|383:278,1,148.49999546814,2|0,2:0|0:0,0:0:0:0:
442,330,69965,5,2,0:2:0:0:
441,329,70308,6,0,B|406:298|342:330|368:324|332:373|281:346,1,168.75,4|0,3:3|0:0,0:0:0:0:
285,348,70651,2,0,P|244:358|231:379,1,67.5000025749208,0|0,0:0|3:3,0:0:0:0:
110,245,70994,2,0,P|106:272|96:299,1,56.25,8|0,0:2|0:0,0:0:0:0:
29,331,71165,1,0,0:0:0:0:
108,114,71337,6,0,P|32:142|11:220,1,168.75,0|0,3:3|0:0,0:0:0:0:
25,227,71680,2,0,P|123:209|263:187,1,225,2|0,0:2|3:3,0:0:0:0:
440,244,72194,1,0,0:0:0:0:
281,76,72365,6,2,P|275:100|270:121,1,45,10|0,0:2|0:0,0:1:0:0:
440,244,72708,6,2,P|435:222|429:201,1,45,2|0,0:2|0:0,0:1:0:0:
234,268,73051,5,4,3:3:0:0:
408,129,73222,1,0,0:0:0:0:
293,325,73394,5,0,0:0:0:0:
491,363,73565,1,0,3:3:0:0:
311,244,73737,5,8,0:2:0:0:
429,201,73908,1,0,0:0:0:0:
505,287,74080,6,0,B|514:280|514:280|506:227,1,56.25,0|0,3:3|0:0,0:0:0:0:
433,276,74251,1,8,0:2:0:0:
390,364,74422,6,0,P|405:271|435:185,1,168.75
356,174,74765,2,0,P|412:162|439:95,1,112.5,0|0,3:3|0:0,0:0:0:0:
225,11,75108,6,0,P|237:66|255:166,1,135,8|0,0:2|0:0,0:0:0:0:
288,205,75451,1,2,0:2:0:0:
225,11,75622,1,8,0:3:0:0:
12,79,75794,6,0,P|76:76|134:156,1,168.75,4|0,3:3|0:0,0:0:0:0:
134,153,76137,2,0,P|98:165|76:187,1,67.5000025749208,0|0,0:0|3:3,0:0:0:0:
61,365,76480,2,0,P|46:295|-9:181,1,168.75,8|0,0:2|0:0,0:0:0:0:
7,206,76822,6,0,P|36:255|106:259,1,112.5,0|0,3:3|0:0,0:0:0:0:
270,273,77165,2,0,P|184:286|139:360,1,168.75,0|0,0:0|2:0,0:0:0:0:
141,350,77508,2,0,P|177:358|222:374,1,67.5000025749208,0|0,3:3|0:0,0:0:0:0:
340,180,77851,6,2,P|333:201|328:223,1,45,10|0,0:2|0:0,0:1:0:0:
495,359,78194,6,2,P|488:337|483:315,1,45,2|0,0:2|0:0,0:1:0:0:
254,188,78537,5,0,3:3:0:0:
420,275,78708,1,0,0:0:0:0:
270,273,78880,5,0,0:0:0:0:
447,200,79051,1,0,3:3:0:0:
315,104,79222,5,8,0:2:0:0:
447,200,79394,1,0,0:0:0:0:
315,104,79565,2,0,L|237:123,1,56.25,0|0,3:3|0:0,0:0:0:0:
368,43,79737,1,8,0:2:0:0:
329,178,79908,6,0,P|283:110|128:117,1,225,0|0,0:0|3:3,0:0:0:0:
156,109,80594,5,2,2:0:0:0:
156,109,80765,1,2,2:0:0:0:
100,181,80937,5,2,2:0:0:0:
100,181,81108,1,2,2:0:0:0:
89,320,81280,6,0,P|66:205|25:117,1,202.500007724762,6|0,3:2|2:0,0:0:0:0:
31,127,81622,2,0,P|13:154|18:186,1,45,0|0,0:0|3:3,0:0:0:0:
193,244,81965,1,8,0:2:0:0:
7,330,82137,1,0,0:0:0:0:
201,248,82308,2,0,B|211:259|211:259|203:310,1,56.25,0|0,3:3|0:0,0:0:0:0:
191,373,82480,1,0,0:0:0:0:
32,244,82651,6,0,B|98:259|139:205|95:210|152:147|226:171,1,202.500007724762,2|0,0:2|0:0,0:0:0:0:
205,166,82994,2,0,P|201:128|203:94,1,67.5,0|0,3:3|0:0,0:0:0:0:
261,52,83337,1,0,0:0:0:0:
76,21,83508,1,0,0:0:0:0:
261,52,83680,2,0,B|288:69|288:69|351:55,1,67.5000025749208,2|0,0:2|0:0,0:0:0:0:
127,126,84022,6,0,P|232:144|351:243,1,202.500007724762,0|0,3:3|0:0,0:0:0:0:
311,195,84365,2,0,P|278:192|262:177,1,45,0|0,0:0|3:3,0:0:0:0:
489,130,84708,6,0,B|478:152|478:152|491:214,1,56.25,8|0,0:2|0:0,0:0:0:0:
403,316,84880,1,0,0:0:0:0:
485,122,85051,6,0,B|474:112|474:112|423:120,1,56.25,0|0,3:3|0:0,0:0:0:0:
360,133,85223,1,8,0:3:0:0:
503,349,85394,6,0,P|462:288|306:293,1,202.500007724762,2|0,0:2|0:0,0:0:0:0:
341,270,85737,2,0,P|318:275|255:281,1,67.5,0|0,3:3|2:0,0:0:0:0:
195,247,86079,5,2,0:0:0:0:
195,247,86251,1,0,3:3:0:0:
47,351,86422,6,0,P|58:320|63:287,1,67.5000025749208,2|8,0:2|0:2,0:0:0:0:
0,120,86765,6,0,B|35:89|99:121|73:115|109:164|160:137,1,168.75,4|0,3:3|0:0,0:0:0:0:
156,139,87108,2,0,P|159:110|166:76,1,45,0|0,0:0|3:3,0:0:0:0:
311,195,87451,2,0,P|308:166|301:132,1,56.25,8|0,0:2|0:0,0:0:0:0:
349,81,87622,1,0,0:0:0:0:
493,202,87794,6,0,P|413:209|375:281,1,168.75,0|0,3:3|0:0,0:0:0:0:
474,311,88137,2,0,P|391:322|235:351,1,225,2|0,0:2|3:3,0:0:0:0:
114,293,88651,1,0,0:0:0:0:
252,347,88822,6,2,P|258:323|263:302,1,45,10|0,0:2|0:0,0:1:0:0:
32,280,89165,6,2,P|37:302|43:323,1,45,2|0,0:2|0:0,0:1:0:0:
279,230,89508,5,4,3:3:0:0:
82,119,89679,1,0,0:0:0:0:
264,98,89851,5,0,0:0:0:0:
170,281,90022,1,0,3:3:0:0:
215,155,90194,5,8,0:2:0:0:
283,236,90365,1,0,0:0:0:0:
270,102,90537,6,0,B|277:93|277:93|330:101,1,56.25,0|0,3:3|0:0,0:0:0:0:
220,159,90708,1,8,0:2:0:0:
324,333,90879,6,0,P|339:240|369:154,1,168.75,2|0,0:2|0:0,0:0:0:0:
441,131,91222,2,0,P|451:177|490:243,1,112.5,0|2,3:3|0:2,0:0:0:0:
246,309,91565,6,0,B|203:304|171:331|197:328|171:371|121:362,1,135,8|0,0:2|0:0,0:0:0:0:
130,363,91908,1,0,0:0:0:0:
239,32,93622,6,0,B|262:139|248:51|272:171,1,135.000005149842,2|0,0:2|0:0,0:0:0:0:
270,163,94137,1,0,0:0:0:0:
331,86,94308,1,8,0:0:0:0:
192,162,94480,1,0,0:2:0:0:
192,162,94651,2,0,P|153:154|120:151,2,67.5000025749208,0|0|2,0:2|0:2|0:2,0:0:0:0:
200,169,95337,1,0,0:0:0:0:
142,242,95508,2,0,B|18:274|137:246|-4:283,1,135.000005149842,0|0,0:0|0:2,0:0:0:0:
87,301,96022,2,0,P|130:321|155:333,1,67.5000025749208,0|0,0:2|0:2,0:0:0:0:
274,370,96365,6,0,B|259:262|263:372|241:231,1,135.000005149842,2|0,0:2|0:0,0:0:0:0:
242,238,96880,1,0,0:0:0:0:
148,329,97051,1,8,0:0:0:0:
303,291,97223,1,0,0:2:0:0:
171,201,97394,1,0,0:2:0:0:
171,201,97565,2,0,P|176:163|176:125,1,67.5000025749208,0|2,0:2|0:2,0:0:0:0:
307,298,98080,1,0,0:0:0:0:
370,252,98251,2,0,P|361:183|361:115,1,135.000005149842,0|0,0:0|0:2,0:0:0:0:
425,70,98765,1,0,0:2:0:0:
425,70,98937,1,0,0:2:0:0:
278,10,99108,6,0,P|213:27|207:110,1,135.000005149842,2|0,0:2|0:0,0:0:0:0:
196,86,99622,1,0,0:0:0:0:
114,50,99794,1,8,0:0:0:0:
9,101,99965,1,0,0:2:0:0:
86,81,100137,1,0,0:2:0:0:
119,11,100308,1,0,0:2:0:0:
13,105,100480,2,0,P|25:154|35:246,1,135.000005149842,2|0,0:2|0:0,0:0:0:0:
168,293,100994,1,0,0:0:0:0:
120,354,101165,2,0,P|126:286|141:221,1,135.000005149842,8|0,0:0|0:2,0:0:0:0:
141,221,101680,1,0,0:2:0:0:
172,297,101851,6,0,P|237:280|243:197,1,135.000005149842,2|0,0:2|0:0,0:0:0:0:
254,221,102365,1,0,0:0:0:0:
322,268,102537,1,8,0:0:0:0:
395,235,102708,1,0,0:2:0:0:
322,268,102880,1,0,0:2:0:0:
395,235,103051,1,0,0:2:0:0:
340,177,103222,6,1,B|296:172|285:128|285:128|299:68|299:68|283:34|247:34|247:34|116:61|116:61|146:74|155:110,1,405.000015449525,2|0,0:2|0:0,0:0:0:0:
154,109,104594,6,0,L|166:53,1,45,4|0,3:3|0:0,0:0:0:0:
231,21,104765,1,0,0:0:0:0:
95,160,104937,1,0,0:0:0:0:
231,21,105108,1,0,3:3:0:0:
87,74,105280,2,0,L|32:91,1,45,8|0,0:2|0:0,0:0:0:0:
0,24,105451,1,0,0:0:0:0:
170,186,105622,2,0,L|272:196,1,90,4|0,3:3|0:0,0:0:0:0:
74,359,105965,6,0,B|102:374|133:284|53:257|40:328|6:253|13:200,1,180,2|0,0:2|3:3,0:0:0:0:
14,234,106480,1,0,0:0:0:0:
73,359,106651,2,0,P|80:304|87:244,1,90,8|0,0:3|0:0,0:0:0:0:
170,186,106994,2,0,B|160:210|160:210|180:278,1,80.9999975280763,2|0,0:2|0:0,0:0:0:0:
175,262,107337,6,0,L|231:250,1,45,4|0,3:3|0:0,0:0:0:0:
262,188,107508,1,0,0:0:0:0:
207,334,107680,1,0,0:0:0:0:
262,188,107851,1,0,3:3:0:0:
323,314,108022,2,0,L|267:302,1,45,8|0,0:2|0:0,0:0:0:0:
219,252,108193,1,0,0:0:0:0:
386,377,108365,2,0,L|442:365,1,45,4|0,3:3|0:0,0:0:0:0:
429,357,108537,2,0,L|373:369,1,45,10|0,0:3|0:0,0:0:0:0:
323,314,108708,6,0,P|337:233|420:184,1,180,2|0,0:2|3:3,0:0:0:0:
474,229,109223,1,0,0:0:0:0:
336,129,109394,2,0,B|309:143|309:143|229:126,1,90,8|0,0:3|3:3,0:0:0:0:
171,71,109737,2,0,B|144:57|144:57|64:74,1,90,0|8,0:0|0:2,0:0:0:0:
266,209,110080,6,0,L|278:265,1,45,4|0,3:3|2:0,0:0:0:0:
341,298,110251,1,2,0:2:0:0:
250,130,110423,1,0,0:0:0:0:
341,298,110594,1,0,3:3:0:0:
193,186,110766,2,0,L|138:169,1,45,8|0,0:2|2:0,0:0:0:0:
80,202,110937,1,2,0:2:0:0:
298,64,111108,2,0,L|400:54,1,90,4|0,3:3|0:0,0:0:0:0:
211,19,111451,6,0,B|84:33|200:31|60:44,1,135,2|0,0:2|0:0,0:0:0:0:
57,114,111794,2,0,P|72:165|82:224,1,90,0|0,3:3|0:0,0:0:0:0:
211,19,112137,2,0,P|196:70|186:129,1,90,8|0,0:2|0:0,0:0:0:0:
86,202,112480,2,0,B|127:201|127:201|161:240,1,80.9999975280763,4|0,0:3|0:0,0:0:0:0:
131,307,112822,6,0,L|72:319,1,45,4|0,3:3|0:0,0:0:0:0:
32,262,112994,1,0,0:0:0:0:
204,287,113165,1,2,0:2:0:0:
32,262,113337,1,0,3:3:0:0:
230,216,113508,6,0,L|289:228,1,45,8|0,0:2|0:0,0:0:0:0:
327,282,113680,1,2,0:2:0:0:
264,142,113851,1,4,3:3:0:0:
202,8,114022,1,8,3:3:0:0:
273,51,114194,5,2,2:0:0:0:
273,51,114365,1,0,0:0:0:0:
159,164,114537,5,0,0:0:0:0:
230,216,114880,5,0,0:0:0:0:
337,293,115222,6,0,L|382:284,1,36
208,310,115565,5,4,3:3:0:0:
176,383,115737,2,0,P|168:318|141:157,1,215.999993408203,0|0,0:0|3:3,0:0:0:0:
27,43,116251,1,8,0:2:0:0:
143,169,116422,1,0,0:0:0:0:
68,251,116594,2,0,B|118:239|149:280|116:277|159:325|216:306,1,161.999995056153,4|0,3:3|0:0,0:0:0:0:
207,309,116937,6,0,P|143:313|114:359,1,107.999996704102,0|0,0:0|3:3,0:0:0:0:
117,343,117451,1,0,0:0:0:0:
268,261,117622,2,0,P|250:227|251:208,1,53.9999983520508,8|0,0:2|0:0,0:0:0:0:
298,148,117965,1,2,0:2:0:0:
298,148,118137,1,0,0:0:0:0:
181,271,118308,6,0,P|260:280|317:335,2,161.999995056153,4|0|0,3:3|0:0|3:3,0:0:0:0:
320,146,118994,2,0,P|367:160|440:186,1,107.999996704102,8|0,0:2|0:0,0:0:0:0:
184,77,119337,2,0,L|164:23,1,53.9999983520508,6|0,0:3|0:0,0:0:0:0:
190,82,119508,1,0,3:3:0:0:
141,144,119680,6,0,B|73:148|97:171|38:175,1,107.999996704102,2|0,0:2|3:3,0:0:0:0:
39,175,120194,1,2,0:2:0:0:
201,199,120365,2,0,P|183:233|184:252,1,53.9999983520508,8|0,0:2|3:3,0:0:0:0:
231,312,120708,1,0,0:0:0:0:
231,312,120880,1,8,0:3:0:0:
0,372,121051,6,0,P|80:310|139:303,2,161.999995056153,4|0|0,3:3|0:0|3:3,0:0:0:0:
226,310,121737,2,0,P|287:354|318:360,1,107.999996704102,8|0,0:2|0:0,0:0:0:0:
491,254,122080,2,0,B|495:264|495:264|429:248|367:306|367:306|365:291,1,161.999995056153,4|0,3:3|0:0,0:0:0:0:
366,296,122423,6,0,P|332:268|353:214,1,107.999996704102,0|0,0:0|3:3,0:0:0:0:
452,331,122937,1,0,0:0:0:0:
268,185,123108,6,0,P|286:151|285:132,1,53.9999983520508,8|0,0:3|0:0,0:0:0:0:
410,64,123451,6,0,P|392:30|393:11,1,53.9999983520508,2|0,0:2|0:0,0:0:0:0:
177,114,123794,6,0,P|257:111|321:63,2,161.999995056153,4|0|0,3:3|0:0|3:3,0:0:0:0:
11,201,124480,1,8,0:3:0:0:
57,104,124651,1,0,0:0:0:0:
170,240,124822,2,0,L|158:187,1,53.9999983520508,4|0,3:3|0:0,0:0:0:0:
176,245,124993,1,8,0:2:0:0:
127,307,125165,6,0,B|59:311|83:334|24:338,1,107.999996704102,2|0,0:2|3:3,0:0:0:0:
176,245,125679,1,0,0:0:0:0:
289,344,125850,2,0,P|312:338|348:330,1,53.9999983520508,8|0,0:3|3:3,0:0:0:0:
379,268,126193,1,0,0:0:0:0:
379,268,126365,1,8,0:2:0:0:
218,381,126537,6,0,P|203:311|176:245,1,144,2|8,2:0|2:0,0:0:0:0:
167,242,127565,2,0,P|173:258|177:276,1,36,0|0,2:0|0:0,0:0:0:0:
256,224,127908,6,0,P|271:154|298:88,1,144,2|8,2:0|2:0,0:0:0:0:
307,85,128936,2,0,P|301:101|297:119,1,36,0|0,2:0|2:0,0:0:0:0:
186,143,129280,6,0,P|145:152|107:168,1,72,2|0,2:0|2:0,0:0:0:0:
36,104,129965,1,8,2:0:0:0:
36,104,130137,1,0,2:0:0:0:
107,197,130308,6,0,P|110:179|117:162,1,36,0|0,2:0|2:0,0:0:0:0:
108,164,130651,2,0,P|80:230|65:300,1,144,2|8,2:0|2:0,0:0:0:0:
70,309,131680,2,0,P|73:291|80:274,1,36,0|0,2:0|0:0,0:0:0:0:
186,143,132022,6,0,P|256:158|322:185,1,144,2|8,2:0|2:0,0:0:0:0:
325,194,133050,2,0,P|309:188|291:184,1,36,0|0,2:0|2:0,0:0:0:0:
343,105,133394,6,0,P|413:90|479:63,1,144,2|8,2:0|2:0,0:0:0:0:
482,54,134422,2,0,P|466:60|448:64,1,36,0|0,2:0|0:0,0:0:0:0:
405,170,134765,6,0,P|417:203|425:239,1,72,2|0,2:0|2:0,0:0:0:0:
424,238,135280,1,0,2:0:0:0:
489,187,135451,5,8,2:0:0:0:
489,187,135622,1,0,2:0:0:0:
348,230,135794,5,2,2:0:0:0:
348,230,135965,1,0,2:0:0:0:
299,293,136137,5,2,2:0:0:0:
282,368,136651,5,0,3:2:0:0:
377,335,136908,5,0,3:2:0:0:
416,194,137165,5,2,3:2:0:0:
416,194,137508,6,0,B|396:204|368:168|291:221|348:215|286:282|222:243,1,195.750005973816,4|0,3:3|0:0,0:0:0:0:
107,341,137851,6,0,P|66:357|47:371,1,53.9999983520508,0|0,0:0|3:3,0:0:0:0:
125,124,138194,2,0,P|121:220|164:283,1,168.75,8|0,0:2|0:0,0:0:0:0:
158,278,138537,2,0,B|132:293|132:293|56:277,1,90,0|0,3:3|0:0,0:0:0:0:
68,49,138880,6,0,P|137:116|232:138,1,195.750005973816,2|0,0:2|0:0,0:0:0:0:
355,203,139222,2,0,P|416:166|490:161,1,130.500003982544,0|0,3:3|0:0,0:0:0:0:
253,15,139565,6,2,P|263:56|292:90,1,62.9999980773926,10|0,0:2|0:0,0:1:0:0:
479,162,139908,6,2,P|489:120|518:86,1,62.9999980773926,2|0,0:2|0:0,0:1:0:0:
233,142,140251,5,4,3:3:0:0:
437,246,140422,1,0,0:0:0:0:
246,371,140594,1,0,0:0:0:0:
230,144,140765,1,0,3:3:0:0:
250,373,140937,1,8,0:2:0:0:
436,241,141109,1,0,0:0:0:0:
187,263,141280,6,0,L|128:269,1,31.4999990386963,0|0,3:3|0:0,0:0:0:0:
97,218,141451,1,8,0:3:0:0:
340,384,141622,6,0,P|347:296|364:173,1,195.750005973816
408,129,141965,2,0,P|450:124|489:184,1,107.999996704102,0|8,3:3|0:2,0:0:0:0:
307,123,142480,1,0,3:3:0:0:
492,178,142651,6,0,P|465:194|448:215,1,53.9999983520508,2|8,0:2|0:3,0:0:0:0:
236,79,142994,6,0,B|162:94|162:94|149:102|149:102|9:130,1,195.750005973816,4|0,3:3|0:0,0:0:0:0:
40,126,143337,2,0,L|49:50,1,62.9999980773926,0|0,0:0|3:3,0:0:0:0:
205,186,143680,2,0,B|255:173|302:212|256:207|303:261|406:227,1,168.75,8|0,0:2|0:0,0:0:0:0:
357,236,144022,2,0,B|318:222|318:222|286:253,1,80.9999975280763,0|0,3:3|0:0,0:0:0:0:
341,309,144365,6,0,P|348:267|382:105,1,195.750005973816
450,11,144708,2,0,B|466:24|466:24|485:82,1,62.9999980773926,0|0,3:3|0:0,0:0:0:0:
259,161,145051,6,0,L|182:188,1,62.9999980773926,10|0,0:2|0:0,0:0:0:0:
418,289,145394,2,0,L|495:316,1,62.9999980773926,2|0,0:2|0:0,0:0:0:0:
304,99,145737,5,4,3:3:0:0:
85,60,145908,1,0,0:0:0:0:
47,275,146080,1,0,0:0:0:0:
267,314,146251,1,0,3:3:0:0:
52,279,146422,1,8,0:2:0:0:
89,65,146594,1,0,0:0:0:0:
318,101,146765,2,0,B|320:113|320:113|308:164,1,45,0|0,3:3|0:0,0:0:0:0:
278,200,146937,1,8,3:3:0:0:
3,162,147108,5,0,0:0:0:0:
512,77,147451,5,2,0:2:0:0:
280,203,147794,5,2,2:0:0:0:
280,203,147965,1,0,2:0:0:0:
396,281,148137,5,0,2:0:0:0:
396,281,148308,1,0,2:0:0:0:
503,257,148480,6,0,B|443:221|399:290|427:271|405:358|300:321,1,202.500007724762,6|0,3:2|2:0,0:0:0:0:
267,298,148822,2,0,B|258:319|258:319|263:351,1,45,2|0,0:2|3:3,0:0:0:0:
193,244,149165,5,8,0:2:0:0:
7,330,149337,1,0,0:0:0:0:
200,251,149508,2,0,B|190:240|190:240|198:189,1,56.25,0|0,3:3|0:0,0:0:0:0:
141,301,149680,1,0,0:0:0:0:
5,47,149851,6,0,P|35:118|177:103,1,202.500007724762,2|0,0:2|0:0,0:0:0:0:
211,84,150194,2,0,P|196:61|151:50,1,67.5,0|0,3:3|0:0,0:0:0:0:
61,217,150537,5,8,0:2:0:0:
254,145,150708,1,0,0:0:0:0:
61,217,150880,2,0,B|26:224|26:224|0:207,1,67.5000025749208,2|0,0:2|0:0,0:0:0:0:
270,279,151222,6,0,P|288:174|345:33,1,202.500007724762,4|0,3:3|2:0,0:0:0:0:
370,27,151565,2,0,P|392:49|392:66,1,45,2|0,0:2|3:3,0:0:0:0:
348,305,151908,6,0,P|372:284|412:279,1,56.25,8|0,0:2|0:0,0:0:0:0:
455,322,152080,1,0,0:0:0:0:
369,161,152251,6,0,P|398:173|419:208,1,56.25,0|0,3:3|0:0,0:0:0:0:
398,265,152423,1,10,0:3:0:0:
510,384,152594,6,0,P|469:323|313:328,1,202.500007724762,2|0,0:2|0:0,0:0:0:0:
282,276,152937,2,0,P|258:279|224:321,1,67.5,4|0,3:3|2:0,0:0:0:0:
19,372,153279,5,2,0:0:0:0:
19,372,153451,1,0,3:3:0:0:
150,325,153622,6,0,P|151:297|167:260,1,67.5000025749208,0|8,0:0|0:3,0:0:0:0:
1,103,153965,6,0,B|76:114|76:114|108:157|108:157|198:183,1,195.750005973816,4|0,3:3|2:0,0:0:0:0:
281,97,154308,2,0,P|308:90|335:86,1,45,2|0,0:2|3:3,0:0:0:0:
177,181,154651,1,8,0:2:0:0:
324,87,154822,1,0,0:0:0:0:
146,55,154994,6,0,P|83:77|54:228,1,195.750005973816,0|0,3:3|0:0,0:0:0:0:
78,256,155337,2,0,B|147:239|188:279|157:275|205:335|305:305,1,195.750005973816,2|0,0:2|2:0,0:0:0:0:
318,265,155680,2,0,P|323:233|332:195,1,67.5000025749208,4|0,3:3|0:0,0:0:0:0:
100,369,156022,6,0,P|106:345|111:324,1,45,8|0,0:2|0:0,0:0:0:0:
341,323,156365,6,0,P|334:301|329:279,1,45,2|0,0:2|0:0,0:0:0:0:
449,150,156708,5,0,2:0:0:0:
449,150,156880,1,0,2:0:0:0:
396,87,157051,5,0,2:0:0:0:
396,87,157223,1,0,2:0:0:0:
283,38,157394,5,0,2:0:0:0:
283,38,157566,1,0,2:0:0:0:
138,14,157737,5,0,2:0:0:0:
138,14,157909,1,0,2:0:0:0:
72,58,158080,5,0,2:0:0:0:
72,58,158422,5,0,2:0:0:0:
