osu file format v14

[General]
AudioFilename: audio.mp3
AudioLeadIn: 0
PreviewTime: 115480
Countdown: 0
SampleSet: Normal
StackLeniency: 0.7
Mode: 0
LetterboxInBreaks: 0
WidescreenStoryboard: 1

[Editor]
Bookmarks: 93622,137165
DistanceSpacing: 1.8
BeatDivisor: 4
GridSize: 32
TimelineZoom: 2.799999

[Metadata]
Title:ROXANNE (Remix) (feat. Swae Lee)
TitleUnicode:ROXANNE (Remix) (feat. Swae Lee)
Artist:Arizona Zervas
ArtistUnicode:Arizona Zervas
Creator:wafer
Version:NORMAL (feat. KAMI NO POTATO)
Source:
Tags:english hiphop hip-hop hip hop rap agatsu deviouspanda jasontime12345 potatodew kami no kotoba goopert 0ppinosu jamesjan3
BeatmapID:3356596
BeatmapSetID:1607645

[Difficulty]
HPDrainRate:3.5
CircleSize:3.5
OverallDifficulty:3.5
ApproachRate:5.5
SliderMultiplier:1.1
SliderTickRate:1

[Events]
//Background and Video events
0,0,"whalesand.jpg",0,0
//Break Periods
2,156908,157983
//Storyboard Layer 0 (Background)
//Storyboard Layer 1 (Fail)
//Storyboard Layer 2 (Pass)
//Storyboard Layer 3 (Foreground)
//Storyboard Layer 4 (Overlay)
//Storyboard Sound Samples
Sample,2765,0,"wafer pitched.wav",50

[TimingPoints]
4480,342.857142857143,4,1,2,65,1,0
4480,-111.111111111111,4,1,2,65,0,0
15108,-111.111111111111,4,1,2,50,0,0
15451,-95.2380952380952,4,1,2,70,0,0
25737,-95.2380952380952,4,1,2,50,0,0
26422,-95.2380952380952,4,1,2,70,0,0
31222,-95.2380952380952,4,1,2,50,0,0
31393,-95.2380952380952,4,1,2,70,0,0
37394,-105.263157894737,4,1,2,65,0,0
43008,-105.263157894737,4,1,2,5,0,0
43051,-105.263157894737,4,1,2,65,0,0
43350,-105.263157894737,4,1,2,5,0,0
43394,-105.263157894737,4,1,2,65,0,0
43693,-105.263157894737,4,1,2,5,0,0
43737,-105.263157894737,4,1,2,65,0,0
47337,-105.263157894737,4,1,2,55,0,0
48280,-105.263157894737,4,1,2,5,0,0
48365,-105.263157894737,4,1,2,70,0,0
59337,-111.111111111111,4,1,2,60,0,0
70308,-95.2380952380952,4,1,2,70,0,0
80594,-95.2380952380952,4,1,2,50,0,0
81279,-95.2380952380952,4,1,2,70,0,0
86079,-95.2380952380952,4,1,2,50,0,0
86250,-95.2380952380952,4,1,2,70,0,0
93622,-105.263157894737,4,1,2,50,0,0
103908,-105.263157894737,4,1,2,70,0,0
115565,-100,4,1,2,65,0,0
121180,-100,4,1,2,5,0,0
121223,-100,4,1,2,65,0,0
121522,-100,4,1,2,5,0,0
121566,-100,4,1,2,65,0,0
121865,-100,4,1,2,5,0,0
121909,-100,4,1,2,65,0,0
125509,-100,4,1,2,55,0,0
126452,-100,4,1,2,5,0,0
126537,-111.111111111111,4,1,2,60,0,0
137508,-95.2380952380952,4,1,2,65,0,0
159108,-95.2380952380952,4,1,2,20,0,0
159451,-95.2380952380952,4,1,2,5,0,0

[Colours]
Combo1 : 255,198,226
Combo2 : 157,206,255
Combo3 : 187,185,185
Combo4 : 242,219,149
Combo5 : 204,201,241

[HitObjects]
38,334,4479,6,0,P|103:286|141:289,1,110,4|0,3:0|0:0,0:0:0:0:
170,322,4994,1,0,3:3:0:0:
170,322,5165,1,8,0:2:0:0:
243,255,5508,1,4,3:3:0:0:
312,325,5851,2,0,P|357:316|430:317,1,98.9999969787598,2|0,0:2|3:3,0:0:0:0:
457,226,6537,2,0,P|490:212|508:193,2,49.4999984893799,8|0|2,0:2|0:0|0:2,0:0:0:0:
381,161,7222,5,4,3:3:0:0:
299,104,7565,2,0,L|234:95,1,49.4999984893799
214,62,7908,1,8,0:2:0:0:
141,129,8251,1,0,3:3:0:0:
141,129,8422,2,0,P|155:197|160:247,1,98.9999969787599,8|8,0:2|0:3,0:0:0:0:
138,272,8937,1,0,3:3:0:0:
217,331,9280,2,0,L|227:385,2,49.4999984893799,8|0|2,0:2|3:3|0:2,0:0:0:0:
247,291,9794,1,8,0:2:0:0:
247,291,9965,1,4,3:3:0:0:
333,339,10308,6,0,L|400:329,1,49.4999984893799,2|0,0:2|3:3,0:0:0:0:
424,357,10651,1,8,0:2:0:0:
490,283,10994,1,0,3:3:0:0:
427,206,11337,2,0,P|426:157|413:90,1,98.9999969787599,4|0,0:3|3:3,0:0:0:0:
335,53,12022,2,0,P|328:19|327:-1,2,49.4999984893799,8|0|2,0:2|0:0|0:2,0:0:0:0:
268,126,12708,5,4,3:3:0:0:
181,78,13051,2,0,L|115:87,1,49.4999984893799,0|0,0:0|3:3,0:0:0:0:
87,61,13394,1,8,0:2:0:0:
19,133,13737,2,0,P|32:180|37:196,1,49.4999984893799,0|8,3:3|0:2,0:0:0:0:
70,212,14080,2,0,P|133:225|186:239,2,98.9999969787599,2|0|0,0:2|0:0|0:0,0:0:0:0:
19,133,15108,1,2,0:2:0:0:
106,57,15451,6,0,P|166:62|183:125,1,115.49999647522,4|0,3:3|0:0,0:0:0:0:
226,149,15965,1,0,3:3:0:0:
226,149,16137,2,0,P|281:142|294:141,1,57.7499982376099,8|0,0:2|0:0,0:0:0:0:
326,102,16480,1,0,3:3:0:0:
402,188,16822,2,0,P|393:236|390:264,1,57.7499982376099,2|0,0:2|0:0,0:0:0:0:
430,288,17165,2,0,P|439:336|442:364,1,57.7499982376099,0|0,3:3|0:0,0:0:0:0:
395,382,17508,1,10,0:2:0:0:
300,315,17851,1,2,0:2:0:0:
198,370,18194,5,4,3:3:0:0:
154,332,18365,1,0,0:0:0:0:
98,348,18537,2,0,P|59:350|26:355,1,57.7499982376099,0|0,0:0|3:3,0:0:0:0:
4,307,18880,1,8,0:2:0:0:
77,218,19222,2,0,P|81:177|85:139,1,57.7499982376099,0|8,3:3|0:2,0:0:0:0:
125,121,19565,2,0,P|121:80|117:42,1,57.7499982376099,0|8,0:0|0:3,0:0:0:0:
153,17,19908,1,0,3:3:0:0:
253,73,20251,2,0,P|296:67|331:55,1,57.7499982376099,8|0,0:2|3:3,0:0:0:0:
353,24,20594,1,2,0:2:0:0:
429,110,20937,6,0,P|414:157|344:174,1,115.49999647522,4|0,3:3|0:0,0:0:0:0:
312,215,21451,1,0,3:3:0:0:
312,215,21622,2,0,P|317:246|323:293,1,57.7499982376099,8|0,0:2|0:0,0:0:0:0:
359,315,21965,1,0,3:3:0:0:
260,375,22308,2,0,P|202:363|187:360,1,57.7499982376099
168,316,22651,2,0,P|110:304|95:301,1,57.7499982376099,0|0,3:3|0:0,0:0:0:0:
58,328,22994,1,10,0:2:0:0:
4,225,23337,1,2,0:2:0:0:
87,144,23680,5,0,3:3:0:0:
138,169,23851,1,0,0:0:0:0:
184,134,24022,2,0,P|240:143|261:148,1,57.7499982376099,0|0,0:0|3:3,0:0:0:0:
289,111,24365,1,8,0:2:0:0:
366,196,24708,2,0,P|374:241|380:270,1,57.7499982376099,0|8,3:3|0:2,0:0:0:0:
333,292,25051,2,0,P|288:284|259:278,2,57.7499982376099,0|8|0,0:0|0:2|3:3,0:0:0:0:
411,377,25737,1,2,2:0:0:0:
493,161,26422,6,0,P|475:95|414:83,1,115.49999647522,6|0,3:2|0:0,0:0:0:0:
391,41,26937,1,0,3:3:0:0:
391,41,27108,2,0,P|329:34|321:32,1,57.7499982376099,8|0,0:2|0:0,0:0:0:0:
288,70,27451,2,0,P|226:77|218:79,1,57.7499982376099,0|0,3:3|0:0,0:0:0:0:
192,32,27794,1,2,0:2:0:0:
106,109,28137,1,0,3:3:0:0:
186,191,28480,2,0,P|193:228|195:250,1,57.7499982376099,8|0,0:2|0:0,0:0:0:0:
236,287,28822,2,0,P|229:324|227:346,1,57.7499982376099,2|0,0:2|0:0,0:0:0:0:
182,381,29165,6,0,P|132:370|112:292,1,115.49999647522,0|0,3:3|0:0,0:0:0:0:
28,229,29851,2,0,P|27:192|23:156,1,57.7499982376099,8|0,0:2|0:0,0:0:0:0:
63,127,30194,1,0,3:3:0:0:
63,127,30365,1,8,0:3:0:0:
103,85,30537,2,0,P|126:26|196:12,1,115.49999647522,2|0,0:2|3:3,0:0:0:0:
231,106,31222,2,0,P|274:99|308:97,1,57.7499982376099,2|0,0:0|3:3,0:0:0:0:
336,131,31565,1,2,0:2:0:0:
257,215,31908,6,0,P|270:268|341:274,1,115.49999647522,4|0,3:3|0:0,0:0:0:0:
374,310,32422,1,0,3:3:0:0:
374,310,32594,2,0,P|429:317|453:323,1,57.7499982376099,8|0,0:2|0:0,0:0:0:0:
483,293,32937,1,0,3:3:0:0:
427,191,33280,2,0,P|424:147|421:110,1,57.7499982376099,2|0,0:2|0:0,0:0:0:0:
472,103,33622,2,0,P|475:59|478:22,1,57.7499982376099,0|0,3:3|0:0,0:0:0:0:
431,7,33965,1,10,0:2:0:0:
326,56,34308,1,2,0:2:0:0:
220,8,34651,5,4,3:3:0:0:
191,58,34822,1,0,0:0:0:0:
211,112,34994,2,0,P|213:160|213:192,1,57.7499982376099,0|0,0:0|3:3,0:0:0:0:
179,216,35337,1,8,0:2:0:0:
256,301,35680,2,0,P|299:295|326:292,1,57.7499982376099,0|8,3:3|0:2,0:0:0:0:
354,252,36022,2,0,P|397:258|424:261,1,57.7499982376099,2|8,0:2|0:3,0:0:0:0:
449,303,36365,1,0,3:3:0:0:
496,197,36708,2,0,P|495:141|488:61,1,115.49999647522,8|0,0:2|0:0,0:0:0:0:
447,42,37222,1,8,0:2:0:0:
447,42,37394,6,0,P|387:41|357:96,1,104.499997209549,4|0,3:3|0:0,0:0:0:0:
283,142,38080,2,0,P|227:125|169:119,1,104.499997209549,8|4,0:2|3:3,0:0:0:0:
141,153,38594,1,0,0:0:0:0:
141,153,38765,2,0,P|153:207|165:275,1,104.499997209549,2|0,0:2|3:3,0:0:0:0:
239,325,39451,2,0,P|281:336|301:343,2,52.2499986047745,8|0|2,0:3|0:0|0:2,0:0:0:0:
141,364,40137,6,0,P|81:361|58:308,1,104.499997209549,4|0,3:3|0:0,0:0:0:0:
36,285,40651,1,0,3:3:0:0:
36,285,40822,1,8,0:2:0:0:
98,201,41165,2,0,P|155:194|169:192,1,52.2499986047745,4|10,3:3|0:3,0:0:0:0:
192,164,41508,2,0,P|259:171|318:178,1,104.499997209549,2|0,0:2|3:3,0:0:0:0:
375,107,42194,2,0,P|407:102|439:103,2,52.2499986047745,8|0|0,0:3|3:3|0:0,0:0:0:0:
304,29,42880,5,4,3:3:0:0:
214,81,43222,2,0,P|207:125|203:149,1,52.2499986047745,0|0,0:0|3:3,0:0:0:0:
238,173,43565,1,8,0:2:0:0:
151,231,43908,2,0,P|106:237|84:242,2,52.2499986047745,4|0|2,3:3|0:0|0:2,0:0:0:0:
222,308,44594,2,0,P|291:320|340:331,2,104.499997209549,0|8|4,3:3|0:2|0:3,0:0:0:0:
133,363,45622,5,4,3:3:0:0:
76,274,45965,2,0,P|70:234|65:201,1,52.2499986047745,2|0,0:2|3:3,0:0:0:0:
110,190,46308,1,8,0:2:0:0:
216,230,46651,1,4,3:3:0:0:
216,230,46822,1,8,3:3:0:0:
216,230,46994,5,2,0:2:0:0:
178,327,47337,1,2,0:2:0:0:
78,76,48365,6,0,P|119:42|183:34,1,104.499997209549,4|2,3:3|0:2,0:0:0:0:
213,60,48880,1,0,3:3:0:0:
213,60,49051,1,8,0:2:0:0:
164,152,49394,2,0,P|172:200|175:228,1,52.2499986047745,4|0,3:3|0:0,0:0:0:0:
207,242,49737,2,0,P|279:256|323:266,1,104.499997209549,0|0,0:0|3:3,0:0:0:0:
390,329,50422,2,0,P|381:363|378:392,2,52.2499986047745,8|0|2,0:2|0:0|0:2,0:0:0:0:
453,245,51108,6,0,P|456:182|470:122,1,104.499997209549,4|0,3:3|0:0,0:0:0:0:
434,98,51622,1,0,3:3:0:0:
434,98,51794,1,8,0:2:0:0:
347,157,52137,2,0,P|306:151|286:150,1,52.2499986047745,6|0,0:3|3:3,0:0:0:0:
250,177,52480,2,0,P|178:186|138:193,1,104.499997209549,2|0,0:2|3:3,0:0:0:0:
71,118,53165,2,0,P|38:123|5:133,2,52.2499986047745,8|0|0,0:2|3:3|0:0,0:0:0:0:
143,42,53851,6,0,P|195:66|251:69,1,104.499997209549,4|0,3:3|0:0,0:0:0:0:
288,47,54365,1,0,3:3:0:0:
288,47,54537,1,8,0:2:0:0:
370,110,54880,2,0,P|379:156|380:169,1,52.2499986047745,4|0,3:3|0:0,0:0:0:0:
354,207,55222,2,0,P|291:220|230:235,1,104.499997209549,0|0,0:0|3:3,0:0:0:0:
164,287,55908,2,0,P|114:277|91:273,2,52.2499986047745,8|0|2,0:3|0:0|0:2,0:0:0:0:
239,360,56594,6,0,P|283:352|308:297,1,104.499997209549,4|0,3:3|0:0,0:0:0:0:
348,268,57108,1,0,3:3:0:0:
348,268,57280,1,8,0:3:0:0:
300,175,57622,2,0,P|294:139|291:116,1,52.2499986047745,4|8,3:3|0:2,0:0:0:0:
259,82,57965,2,0,P|265:46|268:23,2,52.2499986047745,2|8|0,0:2|0:3|3:3,0:0:0:0:
169,136,58651,1,8,0:3:0:0:
91,65,58994,2,0,P|53:71|28:75,1,52.2499986047745,0|8,0:0|0:2,0:0:0:0:
12,114,59337,6,0,P|18:175|15:328,1,197.99999395752,2|8,2:0|2:0,0:0:0:0:
95,371,60365,1,0,2:0:0:0:
159,295,60708,2,0,P|162:235|287:217,1,197.99999395752,2|8,2:0|2:0,0:0:0:0:
421,345,62080,6,0,P|415:287|416:237,1,98.9999969787599,2|0,2:0|2:0,0:0:0:0:
492,184,62765,2,0,P|498:126|497:76,1,98.9999969787599,8|0,2:0|2:0,0:0:0:0:
419,24,63451,2,0,P|332:28|323:137,1,197.99999395752,2|8,2:0|2:0,0:0:0:0:
356,316,64822,6,0,P|257:297|146:286,1,197.99999395752,2|8,2:0|2:0,0:0:0:0:
103,205,65851,1,0,2:0:0:0:
166,129,66194,2,0,P|251:119|294:212,1,197.99999395752,2|8,2:0|2:0,0:0:0:0:
167,360,67565,6,0,P|121:355|53:353,1,98.9999969787599,2|0,2:0|2:0,0:0:0:0:
6,275,68251,2,0,P|11:229|13:161,1,98.9999969787599,8|2,2:0|2:0,0:0:0:0:
86,109,68937,1,2,2:0:0:0:
330,277,69965,1,2,0:2:0:0:
420,205,70308,6,0,P|409:159|339:147,1,115.49999647522,4|0,3:3|0:0,0:0:0:0:
308,100,70822,1,0,3:3:0:0:
308,100,70994,2,0,P|271:96|236:93,1,57.7499982376099,8|0,0:2|0:0,0:0:0:0:
209,53,71337,1,0,3:3:0:0:
135,142,71680,2,0,P|139:180|141:210,1,57.7499982376099,2|0,0:2|0:0,0:0:0:0:
179,242,72022,2,0,P|175:280|173:310,1,57.7499982376099,0|0,3:3|0:0,0:0:0:0:
207,346,72365,1,10,0:2:0:0:
302,280,72708,1,2,0:2:0:0:
402,337,73051,5,4,3:3:0:0:
436,290,73222,1,0,0:0:0:0:
422,233,73394,2,0,P|420:187|423:160,1,57.7499982376099,0|0,0:0|3:3,0:0:0:0:
457,130,73737,1,8,0:2:0:0:
373,50,74080,2,0,P|339:52|307:57,1,57.7499982376099,0|8,3:3|0:2,0:0:0:0:
276,97,74422,2,0,P|242:95|210:90,1,57.7499982376099,0|8,0:0|0:3,0:0:0:0:
174,129,74765,1,0,3:3:0:0:
229,230,75108,2,0,P|235:273|238:303,1,57.7499982376099,8|0,0:2|3:3,0:0:0:0:
206,336,75451,1,2,0:2:0:0:
104,281,75794,6,0,P|49:279|33:205,1,115.49999647522,4|0,3:3|0:0,0:0:0:0:
60,183,76308,1,0,3:3:0:0:
60,183,76480,2,0,P|66:130|69:113,1,57.7499982376099,8|0,0:2|0:0,0:0:0:0:
108,86,76822,1,0,3:3:0:0:
197,159,77165,2,0,P|240:169|264:174,1,57.7499982376099
295,211,77508,2,0,P|338:221|362:226,1,57.7499982376099,0|0,3:3|0:0,0:0:0:0:
403,197,77851,1,10,0:2:0:0:
456,299,78194,1,2,0:2:0:0:
362,367,78537,5,0,3:3:0:0:
310,340,78708,1,0,0:0:0:0:
255,359,78880,2,0,P|209:353|181:353,1,57.7499982376099,0|0,0:0|3:3,0:0:0:0:
164,305,79222,1,8,0:2:0:0:
226,207,79565,2,0,P|229:170|234:135,1,57.7499982376099,0|8,3:3|0:2,0:0:0:0:
278,115,79908,2,0,P|315:112|350:107,2,57.7499982376099,0|8|0,0:0|0:2|3:3,0:0:0:0:
190,39,80594,1,2,2:0:0:0:
30,206,81280,6,0,P|51:264|101:265,1,115.49999647522,6|0,3:2|0:0,0:0:0:0:
147,296,81794,1,0,3:3:0:0:
147,296,81965,2,0,P|194:286|218:285,1,57.7499982376099,8|0,0:2|0:0,0:0:0:0:
250,250,82308,2,0,P|297:260|321:261,1,57.7499982376099,0|0,3:3|0:0,0:0:0:0:
352,296,82651,1,2,0:2:0:0:
422,204,82994,1,0,3:3:0:0:
355,109,83337,2,0,P|350:66|350:45,1,57.7499982376099
304,15,83680,2,0,P|261:20|240:20,1,57.7499982376099,2|0,0:2|0:0,0:0:0:0:
203,58,84022,6,0,P|149:66|127:141,1,115.49999647522,0|0,3:3|0:0,0:0:0:0:
192,208,84708,2,0,P|203:258|207:282,1,57.7499982376099,8|0,0:2|0:0,0:0:0:0:
172,313,85051,1,0,3:3:0:0:
172,313,85222,1,8,0:3:0:0:
214,352,85394,2,0,P|295:366|349:376,1,115.49999647522,2|0,0:2|3:3,0:0:0:0:
384,270,86080,2,0,P|430:258|451:256,1,57.7499982376099,2|0,0:0|3:3,0:0:0:0:
479,214,86422,1,2,0:2:0:0:
398,130,86765,6,0,P|351:127|319:197,1,115.49999647522,4|0,3:3|0:0,0:0:0:0:
270,215,87280,1,0,3:3:0:0:
270,215,87451,2,0,P|232:208|190:200,1,57.7499982376099,8|0,0:2|0:0,0:0:0:0:
175,160,87794,1,0,3:3:0:0:
251,73,88137,2,0,P|296:64|321:60,1,57.7499982376099,2|0,0:2|0:0,0:0:0:0:
352,25,88480,2,0,P|397:34|422:38,1,57.7499982376099,0|0,3:3|0:0,0:0:0:0:
443,81,88822,1,10,0:2:0:0:
492,185,89165,1,2,0:2:0:0:
417,272,89508,5,4,3:3:0:0:
362,251,89680,1,0,0:0:0:0:
312,281,89851,2,0,P|255:285|243:287,1,57.7499982376099,0|0,0:0|3:3,0:0:0:0:
212,324,90194,1,8,0:2:0:0:
122,250,90537,2,0,P|127:212|133:181,1,57.7499982376099,0|8,3:3|0:2,0:0:0:0:
171,151,90880,2,0,P|166:113|160:82,1,57.7499982376099,2|8,0:2|0:3,0:0:0:0:
195,47,91222,2,0,P|251:40|285:99,1,115.49999647522,0|8,3:3|0:2,0:0:0:0:
287,92,93622,6,0,P|261:40|208:45,1,104.499997209549,2|0,0:2|0:0,0:0:0:0:
85,119,94480,2,0,P|32:109|12:107,2,52.2499986047745,0|0|0,0:2|0:2|0:2,0:0:0:0:
117,159,94994,1,2,0:2:0:0:
158,255,95337,1,0,0:0:0:0:
184,300,95508,2,0,P|198:225|223:129,1,156.749995814324,0|0,0:0|0:2,0:0:0:0:
286,75,96365,6,0,P|335:82|353:128,1,104.499997209549,2|0,0:2|0:0,0:0:0:0:
441,184,97051,1,8,0:0:0:0:
441,184,97223,2,0,P|494:194|514:196,2,52.2499986047745,0|0|0,0:2|0:2|0:2,0:0:0:0:
410,226,97737,1,2,0:2:0:0:
336,300,98080,1,0,0:0:0:0:
301,338,98251,2,0,B|221:325|272:283|156:268,1,156.749995814324,0|0,0:0|0:2,0:0:0:0:
80,331,99108,6,0,P|22:317|43:190,1,208.999994419098,2|8,0:2|0:0,0:0:0:0:
60,148,99965,2,0,P|49:103|42:86,2,52.2499986047745,0|0|0,0:2|0:2|0:2,0:0:0:0:
111,160,100480,1,2,0:2:0:0:
196,100,100822,1,0,0:0:0:0:
236,133,100994,2,0,L|253:20,1,104.499997209549,0|0,0:0|0:2,0:0:0:0:
251,29,101508,1,0,0:2:0:0:
345,72,101851,6,0,B|420:83|370:92|448:107,1,104.499997209549,2|0,0:2|0:0,0:0:0:0:
462,208,102537,2,0,P|454:243|451:270,1,52.2499986047745,8|0,0:0|0:2,0:0:0:0:
468,309,102880,1,0,0:2:0:0:
374,355,103222,6,0,B|243:348|332:306|167:300,1,208.999994419098,2|0,0:2|0:0,0:0:0:0:
84,351,104251,1,0,0:0:0:0:
11,268,104594,6,0,P|10:208|65:178,1,104.499997209549,4|0,3:3|0:0,0:0:0:0:
118,110,105280,2,0,P|149:131|157:159,1,52.2499986047745,8|0,0:2|0:0,0:0:0:0:
191,187,105622,1,4,3:3:0:0:
191,187,105794,2,0,P|203:133|224:66,1,104.499997209549
255,50,106308,1,0,3:3:0:0:
352,11,106651,1,8,0:3:0:0:
395,215,107337,6,0,P|335:218|312:271,1,104.499997209549,4|0,3:3|0:0,0:0:0:0:
306,306,107851,1,0,3:3:0:0:
306,306,108022,1,8,0:2:0:0:
207,341,108365,2,0,P|150:334|136:332,1,52.2499986047745,4|10,3:3|0:3,0:0:0:0:
107,311,108708,2,0,P|114:244|164:232,1,104.499997209549,2|0,0:2|3:3,0:0:0:0:
218,159,109394,1,8,0:3:0:0:
173,64,109737,1,0,0:0:0:0:
69,48,110080,6,0,P|77:91|89:171,1,104.499997209549,4|0,3:3|0:0,0:0:0:0:
55,193,110594,2,0,L|44:253,1,52.2499986047745,0|8,3:3|0:2,0:0:0:0:
70,345,111108,2,0,L|130:334,1,52.2499986047745,4|0,3:3|0:0,0:0:0:0:
160,300,111451,1,2,0:2:0:0:
251,250,111794,1,0,3:3:0:0:
342,299,112137,1,8,0:2:0:0:
443,275,112480,1,4,0:3:0:0:
477,176,112822,6,0,P|450:136|391:145,1,104.499997209549,4|2,3:3|0:2,0:0:0:0:
364,179,113337,2,0,P|315:197|300:205,1,52.2499986047745,0|8,3:3|0:2,0:0:0:0:
224,169,113851,1,4,3:3:0:0:
224,169,114022,1,8,3:3:0:0:
224,169,114194,2,0,P|173:179|117:189,2,104.499997209549,2|0|0,2:0|0:0|0:0,0:0:0:0:
275,78,115222,1,0,0:0:0:0:
176,29,115565,6,0,P|106:55|104:101,1,110,4|2,3:3|0:2,0:0:0:0:
85,133,116080,1,0,3:3:0:0:
85,133,116251,1,8,0:2:0:0:
21,222,116594,2,0,P|29:270|32:298,1,55,4|0,3:3|0:0,0:0:0:0:
64,312,116937,2,0,P|136:326|180:336,2,110,0|0|8,0:0|3:3|0:2,0:0:0:0:
29,276,117794,1,0,0:0:0:0:
29,276,117965,1,2,0:2:0:0:
91,185,118308,6,0,P|136:184|163:236,1,110,4|0,3:3|0:0,0:0:0:0:
212,260,118822,1,0,3:3:0:0:
211,260,118994,1,8,0:2:0:0:
306,205,119337,2,0,P|321:170|332:153,1,55,6|0,0:3|3:3,0:0:0:0:
375,124,119680,2,0,P|438:143|451:186,2,110,2|0|8,0:2|3:3|0:2,0:0:0:0:
330,155,120537,1,0,3:3:0:0:
330,155,120708,1,0,0:0:0:0:
252,232,121051,6,0,P|181:206|179:160,1,110,4|0,3:3|0:0,0:0:0:0:
161,128,121566,1,0,3:3:0:0:
161,128,121737,1,8,0:2:0:0:
58,87,122080,2,0,P|50:135|47:163,1,55,4|0,3:3|0:0,0:0:0:0:
25,191,122423,2,0,P|36:244|47:298,2,110,0|0|8,0:0|3:3|0:3,0:0:0:0:
54,146,123280,1,0,0:0:0:0:
54,146,123451,1,2,0:2:0:0:
111,51,123794,6,0,P|156:50|183:102,1,110,4|0,3:3|0:0,0:0:0:0:
232,127,124308,1,0,3:3:0:0:
231,126,124480,1,8,0:3:0:0:
301,210,124823,2,0,P|293:249|296:274,1,55,4|8,3:3|0:2,0:0:0:0:
321,312,125166,2,0,P|256:309|215:344,2,110,2|0|8,0:2|3:3|0:3,0:0:0:0:
430,319,126194,2,0,P|468:313|493:309,1,55,0|8,0:0|0:2,0:0:0:0:
507,266,126537,6,0,B|492:106|521:225|504:52,1,197.99999395752,2|8,2:0|2:0,0:0:0:0:
421,16,127565,1,0,2:0:0:0:
352,88,127908,2,0,P|349:148|224:166,1,197.99999395752,2|8,2:0|2:0,0:0:0:0:
91,39,129280,6,0,P|97:97|96:147,1,98.9999969787599,2|0,2:0|2:0,0:0:0:0:
20,200,129965,2,0,P|14:258|15:308,1,98.9999969787599,8|0,2:0|2:0,0:0:0:0:
93,360,130651,2,0,P|180:356|189:247,1,197.99999395752,2|8,2:0|2:0,0:0:0:0:
156,68,132022,6,0,B|283:99|222:69|366:98,1,197.99999395752,2|8,2:0|2:0,0:0:0:0:
409,179,133051,1,0,2:0:0:0:
346,255,133394,2,0,P|261:265|218:172,1,197.99999395752,2|8,2:0|2:0,0:0:0:0:
345,24,134765,6,0,P|391:29|459:31,1,98.9999969787599,2|0,2:0|2:0,0:0:0:0:
506,109,135451,2,0,P|501:155|499:223,1,98.9999969787599,8|2,2:0|2:0,0:0:0:0:
426,275,136137,5,2,2:0:0:0:
243,40,137165,1,2,2:0:0:0:
198,144,137508,6,0,P|148:140|118:205,1,115.49999647522,4|0,3:3|0:0,0:0:0:0:
77,234,138022,1,0,3:3:0:0:
77,234,138194,2,0,P|81:288|80:313,1,57.7499982376099,8|0,0:2|0:0,0:0:0:0:
122,332,138537,1,0,3:3:0:0:
211,258,138880,2,0,P|266:264|287:267,1,57.7499982376099,2|0,0:2|0:0,0:0:0:0:
319,237,139222,2,0,P|374:243|395:246,1,57.7499982376099,0|0,3:3|0:0,0:0:0:0:
424,275,139565,1,10,0:2:0:0:
492,181,139908,1,2,0:2:0:0:
417,92,140251,5,4,3:3:0:0:
362,109,140422,1,0,0:0:0:0:
314,75,140594,2,0,P|264:68|244:66,1,57.7499982376099,0|0,0:0|3:3,0:0:0:0:
209,33,140937,1,8,0:2:0:0:
130,117,141280,2,0,P|138:166|142:192,1,57.7499982376099,0|8,3:3|0:3,0:0:0:0:
174,219,141622,2,0,P|169:247|164:276,1,57.7499982376099,0|8,0:0|0:2,0:0:0:0:
119,312,141965,1,0,3:3:0:0:
220,366,142308,2,0,P|270:360|288:358,1,57.7499982376099,8|0,0:2|3:3,0:0:0:0:
333,374,142651,1,2,0:2:0:0:
411,289,142994,6,0,P|392:243|311:237,1,115.49999647522,4|0,3:3|0:0,0:0:0:0:
298,179,143508,1,0,3:3:0:0:
298,179,143680,2,0,P|304:129|311:108,1,57.7499982376099,8|0,0:2|0:0,0:0:0:0:
341,76,144022,1,0,3:3:0:0:
249,5,144365,2,0,P|201:9|180:13,1,57.7499982376099
155,56,144708,2,0,P|107:52|86:48,1,57.7499982376099,0|0,3:3|0:0,0:0:0:0:
52,14,145051,1,10,0:2:0:0:
3,118,145394,1,2,0:2:0:0:
69,212,145737,5,4,3:3:0:0:
44,264,145908,1,0,0:0:0:0:
76,311,146080,2,0,P|133:305|158:306,1,57.7499982376099,0|0,0:0|3:3,0:0:0:0:
178,340,146422,1,8,0:2:0:0:
256,255,146765,2,0,P|262:210|265:187,1,57.7499982376099,0|8,3:3|3:3,0:0:0:0:
226,153,147108,1,2,2:0:0:0:
291,57,147451,1,2,2:0:0:0:
405,73,147794,2,0,L|413:138,1,57.7499982376099,2|0,2:0|2:0,0:0:0:0:
432,184,148137,1,2,0:2:0:0:
370,260,148480,6,0,P|356:315|289:317,1,115.49999647522,6|2,3:2|0:2,0:0:0:0:
261,287,148994,1,0,3:3:0:0:
261,287,149165,2,0,P|207:279|179:275,1,57.7499982376099,8|0,0:2|0:0,0:0:0:0:
160,239,149508,2,0,P|106:247|78:251,1,57.7499982376099,0|0,3:3|0:0,0:0:0:0:
59,285,149851,1,2,0:2:0:0:
1,185,150194,1,0,3:3:0:0:
89,110,150537,2,0,P|142:102|167:99,1,57.7499982376099,8|0,0:2|0:0,0:0:0:0:
198,126,150880,2,0,P|251:118|276:115,1,57.7499982376099,2|0,0:2|0:0,0:0:0:0:
298,79,151222,6,0,P|349:86|375:142,1,115.49999647522,4|2,3:3|0:2,0:0:0:0:
300,228,151908,2,0,P|309:273|309:299,1,57.7499982376099,8|0,0:2|0:0,0:0:0:0:
359,332,152251,1,0,3:3:0:0:
359,332,152422,1,10,0:3:0:0:
414,349,152594,2,0,P|465:337|457:266,1,115.49999647522,2|4,0:2|3:3,0:0:0:0:
473,165,153280,2,0,P|477:133|485:97,1,57.7499982376099,2|0,0:0|3:3,0:0:0:0:
449,60,153622,1,0,0:0:0:0:
350,121,153965,6,0,P|308:127|277:57,1,115.49999647522,4|2,3:3|0:2,0:0:0:0:
233,28,154480,1,0,3:3:0:0:
233,28,154651,2,0,P|174:21|156:20,1,57.7499982376099,8|0,0:2|0:0,0:0:0:0:
133,60,154994,1,0,3:3:0:0:
187,161,155337,2,0,P|194:205|196:232,1,57.7499982376099,2|0,0:2|0:0,0:0:0:0:
159,263,155680,2,0,P|115:270|88:272,1,57.7499982376099,4|0,3:3|0:0,0:0:0:0:
60,230,156022,1,8,0:2:0:0:
6,127,156365,1,2,0:2:0:0:
92,50,156708,5,0,2:0:0:0:
435,312,159108,6,0,P|372:298|308:293,1,115.49999647522,2|0,0:2|2:0,0:0:0:0:
