osu file format v14

[General]
AudioFilename: audio.mp3
AudioLeadIn: 0
PreviewTime: 115480
Countdown: 0
SampleSet: Normal
StackLeniency: 0.7
Mode: 0
LetterboxInBreaks: 0
WidescreenStoryboard: 1

[Editor]
Bookmarks: 4479,93622,137165,142994,148480,151222,153965,156708,159451
DistanceSpacing: 1.6
BeatDivisor: 4
GridSize: 8
TimelineZoom: 2.799999

[Metadata]
Title:ROXANNE (Remix) (feat. Swae Lee)
TitleUnicode:ROXANNE (Remix) (feat. Swae Lee)
Artist:Arizona Zervas
ArtistUnicode:Arizona Zervas
Creator:wafer
Version:ANOTHER (feat. 0ppinJan3)
Source:
Tags:english hiphop hip-hop hip hop rap agatsu deviouspanda jasontime12345 potatodew kami no kotoba goopert 0ppinosu jamesjan3
BeatmapID:3346412
BeatmapSetID:1607645

[Difficulty]
HPDrainRate:5
CircleSize:3.3
OverallDifficulty:8.8
ApproachRate:9
SliderMultiplier:2.22
SliderTickRate:1

[Events]
//Background and Video events
0,0,"whalesand.jpg",0,0
//Break Periods
2,93622,103544
//Storyboard Layer 0 (Background)
//Storyboard Layer 1 (Fail)
//Storyboard Layer 2 (Pass)
//Storyboard Layer 3 (Foreground)
//Storyboard Layer 4 (Overlay)
//Storyboard Sound Samples

[TimingPoints]
4480,342.857142857143,4,1,2,65,1,0
4480,-83.3333333333333,4,1,2,65,0,0
4822,-100,4,1,2,65,0,0
15108,-666.666666666667,4,1,2,50,0,0
15451,-111.111111111111,4,1,2,70,0,0
16822,-83.3333333333333,4,1,2,70,0,0
25394,-100,4,1,2,70,0,0
25737,-100,4,1,2,50,0,0
26422,-83.3333333333333,4,1,2,70,0,0
31222,-83.3333333333333,4,1,2,50,0,0
31393,-83.3333333333333,4,1,2,70,0,0
37394,-166.666666666666,4,1,2,65,0,0
41165,-111.111111111111,4,1,2,65,0,0
41680,-66.6666666666667,4,1,2,65,0,0
41851,-83.3333333333333,4,1,2,65,0,0
42537,-166.666666666666,4,1,2,65,0,0
43008,-166.666666666666,4,1,2,5,0,0
43051,-166.666666666666,4,1,2,65,0,0
43350,-166.666666666666,4,1,2,5,0,0
43394,-166.666666666666,4,1,2,65,0,0
43693,-166.666666666666,4,1,2,5,0,0
43737,-166.666666666666,4,1,2,65,0,0
46308,-83.3333333333332,4,1,2,65,0,0
46651,-83.3333333333333,4,1,2,65,0,0
47337,-83.3333333333333,4,1,2,55,0,0
48280,-83.3333333333333,4,1,2,5,0,0
48365,-83.3333333333333,4,1,2,70,0,0
59337,-333.333333333333,4,1,2,60,0,0
69965,-666.666666666667,4,1,2,60,0,0
70308,-83.3333333333333,4,1,2,70,0,0
71680,-66.6666666666667,4,1,2,70,0,0
72365,-100,4,1,2,70,0,0
73051,-55.5555555555556,4,1,2,70,0,0
75794,-66.6666666666667,4,1,2,70,0,0
76480,-83.3333333333333,4,1,2,70,0,0
77165,-55.5555555555556,4,1,2,70,0,0
77851,-100,4,1,2,70,0,0
78537,-55.5555555555556,4,1,2,70,0,0
79908,-83.3333333333333,4,1,2,70,0,0
80594,-83.3333333333333,4,1,2,50,0,0
81280,-55.5555555555556,4,1,2,70,0,0
86079,-55.5555555555556,4,1,2,50,0,0
86250,-55.5555555555556,4,1,2,70,0,0
86422,-66.6666666666667,4,1,2,70,0,0
87794,-100,4,1,2,70,0,0
88137,-66.6666666666667,4,1,2,70,0,0
88480,-55.5555555555556,4,1,2,70,0,0
91737,-83.3333333333333,4,1,2,70,0,0
91908,-333.333333333333,4,1,2,70,0,0
93622,-333.333333333333,4,1,2,50,0,0
103908,-333.333333333333,4,1,2,70,0,0
115565,-100,4,1,2,65,0,0
116594,-133.333333333333,4,1,2,65,0,0
117280,-200,4,1,2,65,0,0
118480,-100,4,1,2,65,0,0
118822,-80,4,1,2,65,0,0
119337,-133.333333333333,4,1,2,65,0,0
120022,-200,4,1,2,65,0,0
121180,-200,4,1,2,5,0,0
121222,-100,4,1,2,65,0,0
121522,-100,4,1,2,5,0,0
121566,-100,4,1,2,65,0,0
121865,-100,4,1,2,5,0,0
121909,-100,4,1,2,65,0,0
122080,-133.333333333333,4,1,2,65,0,0
123965,-100,4,1,2,65,0,0
124308,-80,4,1,2,65,0,0
124822,-133.333333333333,4,1,2,65,0,0
125509,-133.333333333333,4,1,2,55,0,0
126194,-200,4,1,2,55,0,0
126452,-200,4,1,2,5,0,0
126537,-160,4,1,2,60,0,0
136137,-200,4,1,2,60,0,0
136480,-200,4,1,2,5,0,0
136651,-200,4,1,2,60,0,0
137165,-666.666666666667,4,1,2,60,0,0
137508,-111.111111111111,4,1,2,65,0,0
138194,-83.3333333333333,4,1,2,65,0,0
138537,-66.6666666666667,4,1,2,65,0,0
139222,-55.5555555555556,4,1,2,65,0,0
139565,-100,4,1,2,65,0,0
140251,-55.5555555555556,4,1,2,65,0,0
143337,-66.6666666666667,4,1,2,65,0,0
143680,-133.333333333333,4,1,2,65,0,0
144365,-66.6666666666667,4,1,2,65,0,0
144537,-55.5555555555556,4,1,2,65,0,0
145051,-133.333333333333,4,1,2,65,0,0
145737,-55.5555555555556,4,1,2,65,0,0
146765,-133.333333333333,4,1,2,65,0,0
147108,-400,4,1,2,65,0,0
148308,-66.6666666666667,4,1,2,65,0,0
148480,-55.5555555555556,4,1,2,65,0,0
152251,-55.5555555555556,4,1,2,65,0,0
152937,-66.6666666666667,4,1,2,65,0,0
153965,-55.5555555555556,4,1,2,65,0,0
154308,-66.6666666666667,4,1,2,65,0,0
154651,-83.3333333333333,4,1,2,65,0,0
154994,-66.6666666666667,4,1,2,65,0,0
155337,-55.5555555555556,4,1,2,65,0,0
156022,-66.6666666666667,4,1,2,65,0,0
158080,-133.333333333333,4,1,2,65,0,0
159451,-133.333333333333,4,1,2,5,0,0

[Colours]
Combo1 : 255,198,226
Combo2 : 157,206,255
Combo3 : 187,185,185
Combo4 : 242,219,149
Combo5 : 204,201,241

[HitObjects]
293,230,4480,6,0,P|194:238|118:300,1,199.799993902588,4|0,3:0|0:0,0:0:0:0:
73,375,4822,2,0,P|29:345|36:292,1,111,0|0,0:0|3:3,0:0:0:0:
213,294,5165,1,8,0:2:0:0:
240,370,5337,1,0,0:0:0:0:
222,290,5508,2,0,L|246:229,2,55.5,4|0|0,3:3|0:0|0:0,0:0:0:0:
441,357,5851,6,0,P|508:329|469:268,1,166.5,2|0,0:2|0:0,0:0:0:0:
480,187,6194,2,0,P|410:272|305:302,1,222,0|8,3:3|0:2,0:0:0:0:
145,303,6708,1,0,0:0:0:0:
139,291,6880,2,0,B|200:268|250:328|213:355|277:415|354:365,2,222,2|4|0,0:2|3:3|0:0,0:0:0:0:
66,340,7737,5,0,0:0:0:0:
184,207,7908,2,0,P|196:135|176:29,1,166.5,8|0,0:2|2:0,0:0:0:0:
102,12,8251,2,0,P|84:81|122:106,1,111,0|8,3:3|0:2,0:0:0:0:
322,50,8594,5,2,0:2:0:0:
319,43,8765,2,0,P|282:51|271:87,1,55.5,8|0,0:3|0:0,0:0:0:0:
212,133,8937,2,0,B|301:150|264:191|357:220,1,166.5,0|0,3:3|0:0,0:0:0:0:
466,212,9280,2,0,B|417:194|437:158|375:137,1,111,8|0,0:2|3:3,0:0:0:0:
253,218,9622,1,2,0:2:0:0:
279,294,9794,1,8,0:2:0:0:
409,281,9965,6,0,P|335:278|254:350,1,166.5,4|0,3:3|2:0,0:0:0:0:
184,357,10308,2,0,L|121:373,2,55.5,2|0|0,0:2|0:0|3:3,0:0:0:0:
279,294,10651,2,0,P|207:276|149:184,1,166.5,8|0,0:2|2:0,0:0:0:0:
200,129,10994,2,0,L|263:113,2,55.5,0|0|0,3:3|0:0|0:0,0:0:0:0:
87,76,11337,6,0,P|12:66|0:140,1,166.5,4|0,0:3|0:0,0:0:0:0:
72,192,11680,2,0,P|110:88|206:27,1,222,0|8,3:3|0:2,0:0:0:0:
361,5,12194,1,0,0:0:0:0:
374,7,12365,2,0,P|357:80|283:66,1,166.5,2|0,0:2|0:0,0:0:0:0:
211,31,12708,6,0,P|239:111|230:228,1,166.5,4|0,3:3|0:0,0:0:0:0:
258,289,13051,2,0,B|221:329|221:329|232:273,1,111,0|0,0:0|3:3,0:0:0:0:
472,161,13394,2,0,P|389:181|296:252,1,166.5,8|0,0:2|2:0,0:0:0:0:
312,230,13737,1,0,3:3:0:0:
281,155,13908,1,8,0:2:0:0:
395,271,14080,5,2,0:2:0:0:
390,282,14251,1,8,0:2:0:0:
390,282,15108,6,0,L|395:300,1,16.6499994918823,2|0,0:2|0:0,0:0:0:0:
442,183,15451,2,0,P|411:227|183:309,1,299.699990853882,4|0,3:3|3:3,0:0:0:0:
175,190,16137,1,8,0:2:0:0:
175,190,16480,6,0,P|221:156|258:231,1,149.849995426941,0|0,3:3|0:0,0:0:0:0:
280,228,16822,2,0,P|269:275|289:361,1,133.199995935059,2|0,0:2|0:0,0:0:0:0:
512,223,17165,2,0,P|457:248|371:361,1,199.799993902588,0|0,3:3|2:0,0:0:0:0:
455,384,17508,2,0,P|486:322|450:273,1,133.199995935059,10|0,0:2|0:0,0:0:0:0:
309,136,17851,2,0,P|290:199|379:175,1,199.799993902588,2|0,0:2|0:0,0:0:0:0:
461,154,18194,6,0,P|464:84|500:20,2,133.199995935059,4|0|0,3:3|0:0|0:0,0:0:0:0:
512,220,18708,1,0,3:3:0:0:
380,93,18880,2,0,B|276:79|314:182|202:162,1,199.799993902588,8|0,0:2|0:0,0:0:0:0:
134,123,19222,2,0,P|163:68|225:79,1,133.199995935059,0|8,3:3|0:2,0:0:0:0:
44,157,19565,5,0,0:0:0:0:
21,77,19737,1,8,0:3:0:0:
59,153,19908,2,0,P|79:211|66:355,1,199.799993902588,0|0,3:3|0:0,0:0:0:0:
141,384,20251,2,0,P|191:357|155:297,1,133.199995935059,8|0,0:2|3:3,0:0:0:0:
54,234,20594,2,0,P|136:212|194:219,1,133.199995935059,2|8,0:2|0:3,0:0:0:0:
323,212,20937,6,0,P|205:132|135:129,1,199.799993902588,4|0,3:3|0:0,0:0:0:0:
134,115,21280,2,0,P|128:72|206:35,1,133.199995935059,0|0,0:0|3:3,0:0:0:0:
311,0,21622,2,0,P|336:87|294:10,1,266.399991870117,8|0,0:2|3:3,0:0:0:0:
453,86,22308,6,0,P|500:116|503:191,1,133.199995935059
394,151,22651,2,0,P|387:250|309:300,1,199.799993902588,0|0,3:3|0:0,0:0:0:0:
225,312,22994,2,0,P|228:248|285:221,1,133.199995935059,10|0,0:2|0:0,0:0:0:0:
278,384,23337,2,0,P|240:350|97:332,1,199.799993902588,2|0,0:2|0:0,0:0:0:0:
39,269,23680,2,0,P|0:319|25:377,2,133.199995935059,0|0|0,3:3|0:0|0:0,0:0:0:0:
137,236,24194,1,0,3:3:0:0:
126,243,24365,2,0,P|106:216|105:183,1,66.5999979675294,8|0,0:2|0:0,0:0:0:0:
95,66,24537,2,0,P|75:75|57:116,1,66.5999979675294
23,192,24708,5,0,3:3:0:0:
0,38,24880,1,8,0:2:0:0:
169,120,25051,5,0,0:0:0:0:
247,153,25222,1,8,0:2:0:0:
255,55,25394,2,0,B|133:20|175:143|53:113,1,222,0|2,3:3|2:0,0:0:0:0:
57,113,26422,6,0,P|182:141|400:328,1,399.599987805176,6|0,3:2|3:3,0:0:0:0:
472,326,27108,5,8,0:2:0:0:
511,200,27280,1,0,0:0:0:0:
249,346,27451,5,0,3:3:0:0:
331,371,27623,1,0,0:0:0:0:
353,104,27794,6,0,P|302:189|308:291,1,199.799993902588,2|0,0:2|0:0,0:0:0:0:
388,309,28137,2,0,P|397:252|339:211,1,133.199995935059,0|0,3:3|0:0,0:0:0:0:
146,188,28480,5,8,0:2:0:0:
222,162,28651,1,0,0:0:0:0:
209,13,28822,5,2,0:2:0:0:
161,107,28993,1,0,0:0:0:0:
353,104,29165,2,0,P|227:93|123:0,1,266.399991870117,0|0,3:3|0:0,0:0:0:0:
0,150,29680,1,0,3:3:0:0:
161,107,29851,6,0,P|122:116|84:61,1,66.5999979675294,8|0,0:2|0:0,0:0:0:0:
75,91,30194,6,0,P|53:65|52:33,1,66.5999979675294,0|0,3:3|0:0,0:0:0:0:
25,223,30365,2,0,P|41:252|71:265,1,66.5999979675294,8|0,0:3|0:0,0:0:0:0:
235,153,30537,1,2,0:2:0:0:
97,182,30708,1,8,0:2:0:0:
52,351,30880,2,0,P|84:303|225:261,1,199.799993902588,0|0,3:3|2:0,0:0:0:0:
296,280,31222,2,0,P|295:312|311:342,2,66.5999979675294,2|0|0,0:0|2:0|3:3,0:0:0:0:
467,154,31565,2,0,P|405:173|367:227,1,133.199995935059,2|8,0:2|0:2,0:0:0:0:
212,384,31908,6,0,P|268:350|328:44,1,399.599987805176,4|0,3:3|3:3,0:0:0:0:
249,25,32594,1,8,0:2:0:0:
249,25,32937,6,0,P|250:113|353:126,1,199.799993902588,0|0,3:3|0:0,0:0:0:0:
414,179,33279,2,0,P|361:180|293:235,1,133.199995935059,2|0,0:2|0:0,0:0:0:0:
512,377,33622,2,0,P|452:320|319:306,1,199.799993902588,0|0,3:3|0:0,0:0:0:0:
294,374,33965,2,0,P|237:353|255:296,1,133.199995935059,10|0,0:2|0:0,0:0:0:0:
191,212,34308,2,0,P|218:267|108:304,1,199.799993902588,2|0,0:2|0:0,0:0:0:0:
32,286,34651,6,0,P|51:223|23:165,2,133.199995935059,4|0|0,3:3|0:0|0:0,0:0:0:0:
42,51,35165,1,0,3:3:0:0:
42,51,35337,2,0,P|118:123|232:108,1,199.799993902588,8|0,0:2|0:0,0:0:0:0:
288,78,35679,2,0,P|256:24|194:38,1,133.199995935059,0|8,3:3|0:2,0:0:0:0:
280,161,36022,5,2,0:2:0:0:
374,97,36194,1,8,0:3:0:0:
261,173,36365,2,0,P|352:208|435:267,1,199.799993902588,0|0,3:3|0:0,0:0:0:0:
512,290,36708,2,0,P|530:230|478:197,1,133.199995935059,8|0,0:2|3:3,0:0:0:0:
264,273,37051,1,0,0:0:0:0:
317,384,37222,1,8,0:2:0:0:
281,266,37394,5,4,3:3:0:0:
77,344,37908,1,0,3:3:0:0:
144,384,38080,2,0,P|177:320|170:245,2,133.199995935059,8|4|2,0:2|3:3|0:2,0:0:0:0:
45,143,39108,2,0,P|85:177|100:238,1,99.899996951294,0|0,3:3|0:0,0:0:0:0:
91,236,39451,2,0,L|16:255,1,66.5999979675294,8|0,0:3|0:0,0:0:0:0:
242,140,39794,2,0,L|167:159,1,66.5999979675294,2|0,0:2|0:0,0:0:0:0:
2,7,40137,2,0,P|81:65|180:64,1,199.799993902588,4|0,3:3|3:3,0:0:0:0:
279,8,40822,1,8,0:2:0:0:
279,8,41165,6,0,P|268:32|275:83,1,49.949998475647,4|0,3:3|0:0,0:0:0:0:
363,153,41337,1,10,0:3:0:0:
363,153,41508,6,0,P|346:134|322:123,1,49.949998475647,2|0,0:2|0:0,0:0:0:0:
259,272,41680,2,0,P|291:247|331:240,1,83.2500031757356,8|0,0:2|0:0,0:0:0:0:
500,239,41851,2,0,P|413:301|378:394,1,199.799993902588,0|0,3:3|0:0,0:0:0:0:
379,384,42194,1,8,0:3:0:0:
379,384,42365,1,0,3:3:0:0:
379,383,42537,2,0,L|354:314,1,66.5999979675294,0|8,0:0|0:2,0:0:0:0:
332,240,42880,6,0,P|249:218|164:138,1,199.799993902588,4|0,3:3|3:3,0:0:0:0:
104,198,43565,2,0,P|86:210|59:212,1,33.2999989837647,8|0,0:2|2:0,0:0:0:0:
246,109,43908,2,0,P|265:106|305:37,1,99.899996951294,4|0,3:3|0:0,0:0:0:0:
222,24,44251,6,0,L|137:8,1,66.5999979675294,2|0,0:2|0:0,0:0:0:0:
443,154,44594,2,0,L|358:138,1,66.5999979675294,0|0,3:3|0:0,0:0:0:0:
400,315,44937,2,0,L|325:334,1,66.5999979675294,8|0,0:2|0:0,0:0:0:0:
512,228,45280,2,0,L|437:247,1,66.5999979675294,4|0,0:3|0:0,0:0:0:0:
271,384,45622,6,0,P|300:322|256:180,1,199.799993902588,4|0,3:3|3:3,0:0:0:0:
187,201,46308,2,0,P|188:240|213:265,1,66.5999979675294,8|0,0:2|0:0,0:0:0:0:
209,271,46651,6,0,P|179:284|162:312,1,66.5999979675294,4|0,3:3|0:0,0:0:0:0:
368,193,46822,2,0,P|397:177|430:183,1,66.5999979675294,8|0,3:3|0:0,0:0:0:0:
256,192,47680,12,0,48280,2:0:0:0:
297,257,48365,6,0,P|219:331|125:330,1,199.799993902588,4|0,3:3|0:0,0:0:0:0:
120,312,48708,1,2,0:2:0:0:
0,217,48880,1,0,3:3:0:0:
59,384,49051,2,0,P|85:323|83:187,1,199.799993902588,8|0,0:2|0:0,0:0:0:0:
87,102,49394,2,0,P|106:159|168:138,1,133.199995935059,4|0,3:3|0:0,0:0:0:0:
323,57,49737,2,0,P|242:88|333:76,2,266.399991870117,0|0|8,0:0|3:3|0:2,0:0:0:0:
392,163,50594,1,0,0:0:0:0:
345,231,50765,1,2,0:2:0:0:
345,231,50937,1,0,0:0:0:0:
323,57,51108,6,0,P|372:202|348:341,1,266.399991870117,4|0,3:3|0:0,0:0:0:0:
181,303,51622,2,0,P|208:263|268:268,1,66.5999979675294,0|0,3:3|0:0,0:0:0:0:
431,384,51794,2,0,P|355:322|258:331,1,199.799993902588,8|0,0:2|0:0,0:0:0:0:
249,345,52137,5,6,0:3:0:0:
134,375,52308,1,0,3:3:0:0:
0,217,52480,5,2,0:2:0:0:
83,242,52651,1,8,0:2:0:0:
135,170,52822,5,0,3:3:0:0:
135,170,52994,1,2,0:2:0:0:
135,170,53165,2,0,P|107:99|104:33,2,133.199995935059,8|0|0,0:2|3:3|0:0,0:0:0:0:
170,0,53680,1,8,0:3:0:0:
22,137,53851,6,0,P|111:92|210:81,1,199.799993902588,4|0,3:3|0:0,0:0:0:0:
242,96,54194,1,0,0:0:0:0:
217,175,54366,1,0,3:3:0:0:
290,289,54537,6,0,P|221:215|134:169,1,199.799993902588,8|0,0:2|0:0,0:0:0:0:
67,216,54880,2,0,P|86:273|153:263,1,133.199995935059,4|0,3:3|0:0,0:0:0:0:
311,174,55223,2,0,P|397:143|460:300,2,266.399991870117,0|0|8,0:0|3:3|0:3,0:0:0:0:
371,232,56080,1,0,0:0:0:0:
418,167,56251,1,2,0:2:0:0:
418,167,56423,1,0,0:0:0:0:
339,25,56594,6,0,P|242:111|113:99,1,266.399991870117,4|0,3:3|0:0,0:0:0:0:
86,274,57108,2,0,P|125:256|139:227,1,66.5999979675294,0|0,3:3|0:0,0:0:0:0:
48,3,57280,2,0,P|86:94|62:200,1,199.799993902588,8|0,0:3|0:0,0:0:0:0:
59,195,57623,5,4,3:3:0:0:
223,228,57794,1,8,0:2:0:0:
82,365,57966,5,2,0:2:0:0:
0,384,58137,1,8,0:3:0:0:
94,281,58308,5,0,3:3:0:0:
94,281,58480,1,0,0:0:0:0:
94,281,58651,5,8,0:3:0:0:
172,308,58822,1,0,3:3:0:0:
338,187,58994,5,0,0:0:0:0:
223,228,59166,1,8,0:2:0:0:
430,209,59337,6,0,P|414:255|371:277,1,99.899996951294,2|0,2:0|0:0,0:0:0:0:
419,203,60022,1,8,2:0:0:0:
450,342,60365,2,0,L|456:371,1,16.6499994918823,0|0,2:0|2:0,0:0:0:0:
338,187,60708,6,0,B|343:134|375:152|379:94,1,99.899996951294,2|0,2:0|0:0,0:0:0:0:
419,203,61394,1,8,2:0:0:0:
437,284,61737,1,0,2:0:0:0:
466,367,62080,6,0,P|404:338|362:341,1,99.899996951294,2|0,2:0|2:0,0:0:0:0:
419,203,62765,1,8,2:0:0:0:
293,375,63108,2,0,L|286:341,1,33.2999989837647,0|0,2:0|2:0,0:0:0:0:
385,189,63451,6,0,P|338:239|328:279,1,99.899996951294,2|0,2:0|0:0,0:0:0:0:
419,203,64137,1,8,2:0:0:0:
336,217,64480,1,0,2:0:0:0:
253,231,64822,6,0,P|189:210|172:180,1,99.899996951294,2|0,2:0|0:0,0:0:0:0:
153,286,65508,1,8,2:0:0:0:
194,107,65851,2,0,L|200:78,1,16.6499994918823,0|0,2:0|2:0,0:0:0:0:
78,242,66194,6,0,P|94:196|78:150,1,99.899996951294,2|0,2:0|0:0,0:0:0:0:
153,286,66879,1,8,2:0:0:0:
81,326,67222,1,0,2:0:0:0:
228,243,67565,2,0,B|281:257|258:280|315:297,1,99.899996951294,2|0,2:0|2:0,0:0:0:0:
153,286,68252,1,8,2:0:0:0:
130,205,68594,2,0,L|124:176,1,16.6499994918823,2|0,2:0|0:0,0:0:0:0:
176,368,68937,1,2,2:0:0:0:
126,188,69965,6,0,L|123:204,1,16.6499994918823,2|0,0:2|0:0,0:0:0:0:
27,283,70308,2,0,P|87:233|226:213,1,199.799993902588,4|0,3:3|0:0,0:0:0:0:
290,189,70651,2,0,P|364:132|325:78,1,133.199995935059,0|0,0:0|3:3,0:0:0:0:
276,104,70994,2,0,P|239:219|267:361,1,266.399991870117,8|0,0:2|3:3,0:0:0:0:
266,359,71680,6,0,P|261:323|199:284,1,83.2500031757356,2|0,0:2|0:0,0:0:0:0:
204,209,71851,2,0,P|163:198|125:214,1,83.2500031757356
142,380,72022,2,0,P|250:321|374:320,1,249.750009527207,0|0,3:3|2:0,0:0:0:0:
378,309,72365,2,0,L|486:286,1,111,10|0,0:2|0:0,0:0:0:0:
343,69,72708,2,0,L|451:46,1,111,2|0,0:2|0:0,0:0:0:0:
463,55,73051,6,0,P|437:95|432:163,1,99.8999969512941,4|0,3:3|0:0,0:0:0:0:
298,223,73222,2,0,P|324:157|365:160,1,99.8999969512941
512,151,73394,1,0,0:0:0:0:
384,230,73565,1,0,3:3:0:0:
512,351,73737,2,0,P|483:259|391:234,1,199.799993902588,8|0,0:2|0:0,0:0:0:0:
100,228,74080,6,0,P|125:191|202:198,1,99.8999969512941,0|0,3:3|0:0,0:0:0:0:
288,381,74251,1,8,0:3:0:0:
362,323,74422,2,0,P|271:283|173:266,1,199.799993902588,0|8,0:2|0:3,0:0:0:0:
318,109,74765,2,0,P|242:237|205:382,1,299.699990853882,0|0,3:3|0:0,0:0:0:0:
191,384,75108,1,8,0:2:0:0:
92,236,75280,1,0,3:3:0:0:
90,331,75451,1,2,0:2:0:0:
8,308,75622,1,8,0:3:0:0:
0,360,75794,6,0,P|49:282|30:128,1,249.750009527207,4|0,3:3|0:0,0:0:0:0:
54,53,76137,2,0,P|52:129|128:142,1,166.500006351471,0|0,0:0|3:3,0:0:0:0:
342,99,76480,2,0,P|243:102|158:51,1,199.799993902588,8|0,0:2|0:0,0:0:0:0:
142,59,76822,1,0,3:3:0:0:
304,325,77165,6,0,P|394:337|420:249,1,199.799993902588
337,234,77422,1,0,2:0:0:0:
329,244,77508,2,0,P|361:100|486:24,1,299.699990853882,0|0,3:3|0:0,0:0:0:0:
469,49,77851,6,0,L|493:189,1,111,10|0,0:2|0:0,0:0:0:0:
212,159,78194,2,0,L|236:299,1,111,2|0,0:2|0:0,0:0:0:0:
486,303,78537,6,0,P|461:255|387:273,1,99.8999969512941,0|0,3:3|0:0,0:0:0:0:
223,355,78708,2,0,P|277:357|298:284,1,99.8999969512941
329,244,78880,5,0,0:0:0:0:
154,307,79051,1,0,3:3:0:0:
87,187,79222,2,0,P|182:185|230:268,1,199.799993902588,8|0,0:2|0:0,0:0:0:0:
2,334,79565,6,0,P|25:284|23:227,1,99.8999969512941,0|0,3:3|0:0,0:0:0:0:
49,86,79737,2,0,P|82:123|99:170,1,99.8999969512941,8|0,0:2|0:0,0:0:0:0:
173,216,79908,1,0,0:0:0:0:
213,95,80080,1,8,0:2:0:0:
277,143,80252,1,0,3:3:0:0:
399,33,81280,6,0,P|266:99|172:215,1,299.699990853882,6|0,3:2|2:0,0:0:0:0:
300,292,81622,2,0,P|339:193|412:113,1,199.799993902588,0|0,0:0|3:3,0:0:0:0:
201,332,81965,6,0,P|249:325|276:284,1,99.8999969512941,8|0,0:2|0:0,0:0:0:0:
435,321,82137,2,0,P|444:273|415:234,1,99.8999969512941
165,129,82308,5,0,3:3:0:0:
240,158,82480,1,0,0:0:0:0:
299,291,82651,6,0,P|257:148|264:0,1,299.699990853882,2|0,0:2|0:0,0:0:0:0:
108,1,82994,2,0,P|131:87|223:58,1,199.799993902588,0|0,3:3|0:0,0:0:0:0:
419,50,83337,6,0,P|425:12|414:49,1,99.8999969512941
342,169,83508,1,0,0:0:0:0:
512,253,83680,1,2,0:2:0:0:
485,169,83851,1,0,0:0:0:0:
148,339,84022,6,0,P|299:262|435:251,1,299.699990853882,0|0,3:3|0:0,0:0:0:0:
512,253,84365,2,0,P|497:344|390:302,1,199.799993902588,0|0,0:0|3:3,0:0:0:0:
281,86,84708,2,0,P|300:131|343:156,1,99.8999969512941,8|0,0:2|0:0,0:0:0:0:
341,168,85051,6,0,P|298:172|280:225,1,99.8999969512941,0|0,3:3|0:0,0:0:0:0:
304,384,85222,2,0,P|322:344|285:302,1,99.8999969512941,8|0,0:3|0:0,0:0:0:0:
48,214,85394,1,2,0:2:0:0:
163,258,85565,1,8,0:2:0:0:
69,377,85737,2,0,P|130:239|65:74,1,299.699990853882,0|0,3:3|2:0,0:0:0:0:
8,123,86080,6,0,P|5:74|36:35,1,99.8999969512941,2|0,0:0|2:0,0:0:0:0:
279,73,86251,2,0,P|238:100|188:92,1,99.8999969512941,0|0,3:3|2:0,0:0:0:0:
123,12,86422,5,2,0:2:0:0:
147,171,86594,1,8,0:2:0:0:
341,168,86765,6,0,P|399:137|296:95,1,249.750009527207,4|0,3:3|0:0,0:0:0:0:
254,174,87108,2,0,P|344:197|429:270,1,166.500006351471,0|0,0:0|3:3,0:0:0:0:
330,384,87451,2,0,P|291:321|145:214,1,249.750009527207,8|0,0:2|0:0,0:0:0:0:
152,216,87794,6,0,P|202:258|258:234,1,111,0|0,3:3|0:0,0:0:0:0:
332,98,88137,2,0,P|328:217|391:239,1,166.500006351471,2|0,0:2|0:0,0:0:0:0:
330,384,88480,2,0,P|401:188|471:92,1,299.699990853882,0|0,3:3|0:0,0:0:0:0:
439,101,88822,5,10,0:2:0:0:
474,232,88994,1,0,0:0:0:0:
314,240,89165,1,2,0:2:0:0:
362,306,89337,1,0,0:0:0:0:
143,304,89508,6,0,P|78:281|81:235,1,99.8999969512941,4|0,3:3|0:0,0:0:0:0:
253,173,89680,2,0,P|222:242|219:283,1,99.8999969512941
126,180,89851,5,0,0:0:0:0:
221,362,90022,1,0,3:3:0:0:
6,195,90194,5,8,0:2:0:0:
29,113,90365,1,0,0:0:0:0:
337,125,90537,6,0,P|286:90|240:83,1,99.8999969512941,0|0,3:3|0:0,0:0:0:0:
127,35,90708,2,0,P|169:9|218:2,1,99.8999969512941,8|0,0:2|0:0,0:0:0:0:
415,145,90880,5,2,0:2:0:0:
253,173,91051,1,8,0:3:0:0:
435,21,91222,6,0,P|363:153|339:300,1,299.699990853882,0|0,3:3|0:0,0:0:0:0:
354,380,91565,6,0,P|402:367|404:297,1,99.8999969512941,8|0,0:2|0:0,0:0:0:0:
306,249,91737,2,0,P|325:294|360:295,1,66.5999979675294,0|0,3:3|0:0,0:0:0:0:
440,345,91908,2,0,P|472:354|502:368,1,66.5999979675294
122,156,104594,5,4,3:3:0:0:
127,149,104765,1,0,0:0:0:0:
94,74,104937,5,0,0:0:0:0:
298,185,105108,1,0,3:3:0:0:
339,73,105280,5,8,0:2:0:0:
417,44,105451,1,0,0:0:0:0:
208,183,105622,5,4,3:3:0:0:
383,312,105794,1,0,0:0:0:0:
398,268,105880,1,0,0:0:0:0:
357,251,105965,1,2,0:2:0:0:
512,173,106308,5,0,3:3:0:0:
10,216,106651,5,8,0:3:0:0:
18,223,107337,5,4,3:3:0:0:
167,74,107508,1,0,0:0:0:0:
102,17,107680,5,0,0:0:0:0:
97,25,107851,1,0,3:3:0:0:
199,151,108022,5,8,0:2:0:0:
320,49,108194,1,0,0:0:0:0:
240,17,108365,5,4,3:3:0:0:
330,270,108537,1,10,0:3:0:0:
269,331,108708,5,2,0:2:0:0:
262,323,108880,1,8,0:2:0:0:
466,280,109051,1,0,3:3:0:0:
512,204,109394,5,8,0:3:0:0:
12,179,109737,5,0,0:0:0:0:
60,108,109908,1,8,0:2:0:0:
37,264,110080,5,4,3:3:0:0:
37,264,110165,1,0,2:0:0:0:
145,99,110422,5,0,0:0:0:0:
317,245,110594,1,0,3:3:0:0:
380,188,110765,5,8,0:2:0:0:
371,182,110937,1,2,0:2:0:0:
347,324,111108,5,4,3:3:0:0:
454,153,111280,1,0,0:0:0:0:
498,144,111365,1,0,0:0:0:0:
510,190,111451,5,2,0:2:0:0:
10,201,111794,1,0,3:3:0:0:
405,216,112137,5,8,0:2:0:0:
119,162,112480,1,4,0:3:0:0:
262,195,112822,5,4,3:3:0:0:
105,19,112994,1,0,0:0:0:0:
198,45,113165,1,2,0:2:0:0:
243,283,113337,5,0,3:3:0:0:
380,151,113508,1,8,0:2:0:0:
456,206,113680,1,2,0:2:0:0:
264,367,113851,5,4,3:3:0:0:
254,23,114022,1,8,3:3:0:0:
356,304,115565,6,0,B|401:243|326:142|245:177|254:198|171:254|109:123|155:73,1,388.5,4|0,3:3|0:0,0:0:0:0:
205,13,116251,2,0,P|231:49|223:117,1,111,8|0,0:2|0:0,0:0:0:0:
55,195,116594,6,0,P|41:165|0:130,1,83.2500031757356,4|0,3:3|0:0,0:0:0:0:
446,190,116937,2,0,P|475:218|514:238,1,83.2500031757356,0|2,0:0|0:2,0:0:0:0:
141,221,117280,5,0,3:3:0:0:
374,148,117622,1,8,0:2:0:0:
446,190,117794,5,0,0:0:0:0:
306,220,117965,1,2,0:2:0:0:
319,361,118137,1,0,0:0:0:0:
495,347,118308,5,4,3:3:0:0:
297,143,118480,2,0,P|304:85|368:71,1,111
347,66,118822,2,0,P|307:50|217:178,1,208.125,0|0,3:3|0:0,0:0:0:0:
261,222,119165,5,0,0:0:0:0:
463,204,119337,6,0,P|475:169|509:123,1,83.2500031757356,6|0,0:3|3:3,0:0:0:0:
44,168,119680,2,0,P|32:203|-2:249,1,83.2500031757356,2|8,0:2|0:2,0:0:0:0:
376,212,120022,5,0,3:3:0:0:
128,180,120365,1,8,0:2:0:0:
102,98,120537,5,0,3:3:0:0:
214,203,120708,1,0,0:0:0:0:
72,248,120880,1,8,0:3:0:0:
235,7,121051,5,4,3:3:0:0:
284,77,121222,2,0,P|273:139|268:247,1,166.5
245,322,121565,2,0,P|251:348|251:376,1,55.5,0|0,3:3|0:0,0:0:0:0:
252,154,121908,5,0,0:0:0:0:
38,201,122080,6,0,P|13:170|15:117,1,83.25,4|0,3:3|0:0,0:0:0:0:
500,157,122422,2,0,P|498:197|472:230,1,83.2500031757356
114,242,122765,5,0,3:3:0:0:
411,162,123108,1,8,0:3:0:0:
476,234,123280,5,0,0:0:0:0:
424,73,123451,1,2,0:2:0:0:
476,234,123622,1,0,0:0:0:0:
228,20,123794,5,4,3:3:0:0:
292,92,123965,2,0,P|311:141|280:184,1,111
281,184,124308,2,0,P|217:183|209:311,1,208.125,0|0,3:3|0:0,0:0:0:0:
258,367,124651,5,0,0:0:0:0:
57,208,124822,6,0,P|42:170|10:125,1,83.2500031757356,4|8,3:3|0:2,0:0:0:0:
454,215,125165,2,0,P|469:177|501:132,1,83.2500031757356,2|8,0:2|0:3,0:0:0:0:
202,3,125508,5,0,3:3:0:0:
383,142,125680,1,0,0:0:0:0:
166,242,125851,1,8,0:3:0:0:
259,134,126022,5,0,3:3:0:0:
259,134,126194,2,0,L|263:171,1,27.75
259,134,126365,1,8,0:2:0:0:
301,320,126537,6,0,B|371:344|390:277|377:286|397:217|467:238,1,208.125,2|0,2:0|0:0,0:0:0:0:
301,320,127222,1,8,2:0:0:0:
189,105,127908,6,0,B|118:129|99:62|112:71|92:2|22:23,1,208.125,2|0,2:0|0:0,0:0:0:0:
189,105,128593,1,8,2:0:0:0:
16,333,129280,6,0,P|14:300|2:266,1,69.375,2|0,2:0|2:0,0:0:0:0:
94,365,129622,2,0,P|111:340|171:293,1,104.0625,0|0,2:0|0:0,0:0:0:0:
201,218,129965,5,8,2:0:0:0:
310,355,130137,1,0,2:0:0:0:
275,317,130309,1,0,2:0:0:0:
235,341,130480,1,0,2:0:0:0:
384,273,130651,6,0,P|410:184|505:212,1,208.125,2|0,2:0|0:0,0:0:0:0:
384,273,131336,1,8,2:0:0:0:
13,43,132022,6,0,B|83:18|102:85|89:76|109:145|179:124,1,208.125,2|0,2:0|0:0,0:0:0:0:
13,43,132707,1,8,2:0:0:0:
472,254,133394,6,0,B|401:229|382:296|395:287|375:356|305:335,1,208.125,2|0,2:0|0:0,0:0:0:0:
472,254,134079,1,8,2:0:0:0:
376,106,134765,5,2,2:0:0:0:
154,176,134937,1,0,2:0:0:0:
213,241,135108,5,0,2:0:0:0:
317,266,135280,1,0,2:0:0:0:
273,346,135451,5,8,2:0:0:0:
236,356,135622,1,0,2:0:0:0:
252,371,136137,6,0,B|296:321|247:283|250:297|201:256|242:206,1,166.5,2|0,2:0|0:0,0:0:0:0:
247,128,136822,1,0,2:0:0:0:
429,348,137165,6,0,L|434:366,1,16.6499994918823,2|0,2:0|0:0,0:0:0:0:
236,234,137508,6,0,P|309:245|374:281,1,149.849995426941,4|0,3:3|0:0,0:0:0:0:
389,266,137851,6,0,P|403:266|434:223,1,49.949998475647
448,162,138022,1,0,3:3:0:0:
265,48,138194,2,0,P|234:124|316:112,1,199.799993902588,8|0,0:2|0:0,0:0:0:0:
366,31,138537,6,0,P|338:107|367:183,1,166.500006351471,0|0,3:3|0:0,0:0:0:0:
512,78,138880,2,0,P|472:68|422:92,1,83.2500031757356,2|0,0:2|0:0,0:0:0:0:
430,244,139051,2,0,P|408:278|415:332,1,83.2500031757356
512,384,139222,6,0,P|423:296|257:258,1,299.699990853882,0|0,3:3|0:0,0:0:0:0:
133,373,139565,2,0,P|186:376|221:336,1,111,10|0,0:2|0:0,0:0:0:0:
83,239,139908,2,0,P|122:275|175:266,1,111,2|0,0:2|0:0,0:0:0:0:
255,122,140251,6,0,P|109:148|0:247,1,299.699990853882,4|0,3:3|0:0,0:0:0:0:
0,115,140594,2,0,P|47:103|91:125,1,99.8999969512941
147,190,140765,1,0,3:3:0:0:
335,184,140937,2,0,P|374:96|329:10,1,199.799993902588,8|0,0:2|0:0,0:0:0:0:
329,10,141280,6,0,P|359:69|402:68,1,99.8999969512941,0|0,3:3|0:0,0:0:0:0:
499,184,141451,2,0,P|457:156|408:150,1,99.8999969512941,8|0,0:3|0:0,0:0:0:0:
352,265,141622,1,0,0:0:0:0:
331,179,141794,1,8,0:2:0:0:
355,352,141965,2,0,B|256:363|241:258|289:266|239:160|148:192,1,299.699990853882,0|0,3:3|0:0,0:0:0:0:
90,256,142308,6,0,P|54:262|85:243,1,99.8999969512941,8|0,0:2|0:0,0:0:0:0:
255,304,142480,2,0,P|237:348|180:350,1,99.8999969512941,0|0,3:3|0:0,0:0:0:0:
5,375,142651,2,0,P|61:317|182:276,1,199.799993902588,2|8,0:2|0:3,0:0:0:0:
9,379,142994,6,0,P|77:350|92:127,1,299.699990853882,4|0,3:3|0:0,0:0:0:0:
174,91,143337,2,0,P|93:94|90:15,1,166.500006351471,0|0,0:0|3:3,0:0:0:0:
83,24,143594,1,0,0:0:0:0:
90,28,143680,2,0,P|112:14|95:30,1,83.2500031757356,8|0,0:2|0:0,0:0:0:0:
0,290,144022,5,0,3:3:0:0:
374,211,144365,6,0,P|331:237|277:218,1,83.2500031757356
293,43,144537,2,0,P|318:91|358:101,1,99.8999969512941
445,91,144708,6,0,P|342:75|307:241,1,299.699990853882,0|0,3:3|0:0,0:0:0:0:
304,327,145051,6,0,P|352:308|391:302,1,83.2500031757356,10|0,0:2|0:0,0:0:0:0:
387,286,145308,1,0,0:0:0:0:
372,284,145394,2,0,P|346:316|310:341,1,83.2500031757356,2|0,0:2|0:0,0:0:0:0:
41,270,145737,6,0,P|47:222|96:181,1,99.8999969512941,4|0,3:3|0:0,0:0:0:0:
206,243,145908,2,0,P|200:291|151:332,1,99.8999969512941
123,257,146080,2,0,P|101:181|1:79,1,199.799993902588,0|0,0:0|3:3,0:0:0:0:
290,16,146422,5,8,0:2:0:0:
81,186,146594,1,0,0:0:0:0:
149,94,146765,6,0,L|188:106,1,41.6250015878678,0|0,3:3|0:0,0:0:0:0:
440,158,146937,1,8,3:3:0:0:
375,218,147108,5,0,0:0:0:0:
370,211,147451,1,0,0:0:0:0:
377,206,147794,1,0,0:0:0:0:
400,297,148137,5,0,0:0:0:0:
400,297,148222,1,0,0:0:0:0:
400,297,148308,2,0,P|449:269|456:223,1,83.2500031757356,0|0,2:0|0:0,0:0:0:0:
227,111,148480,6,0,P|282:186|274:390,1,299.699990853882,6|0,3:2|2:0,0:0:0:0:
276,384,148822,2,0,P|251:348|271:278,1,99.8999969512941,2|0,0:2|2:0,0:0:0:0:
350,132,148994,2,0,P|315:153|299:228,1,99.8999969512941,0|0,3:3|2:0,0:0:0:0:
46,335,149165,2,0,P|110:261|203:227,1,199.799993902588,8|0,0:2|0:0,0:0:0:0:
203,227,149508,6,0,P|154:218|147:144,1,99.8999969512941,0|0,3:3|0:0,0:0:0:0:
50,191,149680,2,0,P|34:152|66:103,1,99.8999969512941
95,14,149851,6,0,P|240:40|348:141,1,299.699990853882,2|0,0:2|0:0,0:0:0:0:
424,317,150194,2,0,P|294:338|295:206,1,299.699990853882,0|0,3:3|0:0,0:0:0:0:
430,159,150537,6,0,P|409:217|348:212,1,99.8999969512941,8|0,0:2|0:0,0:0:0:0:
249,73,150708,1,0,0:0:0:0:
244,287,150880,6,0,P|281:253|295:206,1,99.8999969512941,2|0,0:2|0:0,0:0:0:0:
329,47,151051,2,0,P|350:91|348:140,1,99.8999969512941
424,317,151222,6,0,P|300:220|154:201,1,299.699990853882,4|0,3:3|2:0,0:0:0:0:
93,158,151565,2,0,P|27:193|11:225,1,99.8999969512941,2|0,0:2|2:0,0:0:0:0:
445,13,151908,5,8,0:2:0:0:
445,13,151994,1,0,0:0:0:0:
446,104,152251,6,0,P|397:103|370:60,1,99.8999969512941,0|0,3:3|0:0,0:0:0:0:
215,2,152422,2,0,P|175:36|188:87,1,99.8999969512941,10|0,0:3|0:0,0:0:0:0:
328,182,152594,6,0,P|337:78|257:79,1,199.799993902588,2|8,0:2|0:2,0:0:0:0:
225,153,152851,1,0,0:0:0:0:
246,156,152937,2,0,P|319:80|445:3,1,249.750009527207,4|0,3:3|2:0,0:0:0:0:
512,60,153280,5,2,0:0:0:0:
265,73,153451,1,0,3:3:0:0:
142,43,153622,1,0,0:0:0:0:
119,24,153794,1,8,0:3:0:0:
151,127,153965,6,0,P|241:197|449:229,1,299.699990853882,4|0,3:3|0:0,0:0:0:0:
505,194,154308,2,0,P|481:153|433:154,1,83.2500031757356,2|0,0:2|0:0,0:0:0:0:
482,318,154480,1,0,3:3:0:0:
421,233,154651,6,0,P|326:299|373:404,1,199.799993902588,8|0,0:2|0:0,0:0:0:0:
203,327,154994,2,0,P|258:215|268:49,1,249.750009527207,0|0,3:3|0:0,0:0:0:0:
277,98,155337,6,0,P|247:154|271:214,1,99.8999969512941,2|0,0:2|0:0,0:0:0:0:
421,234,155508,2,0,P|387:180|323:170,1,99.8999969512941,0|0,0:0|2:0,0:0:0:0:
116,299,155680,2,0,P|32:318|99:197,1,299.699990853882,4|0,3:3|0:0,0:0:0:0:
172,210,156022,6,0,P|112:187|82:71,1,166.500006351471,8|0,0:2|0:0,0:0:0:0:
407,19,156365,2,0,P|365:18|275:102,1,166.500006351471,2|0,0:2|0:0,0:0:0:0:
224,288,156708,5,0,2:0:0:0:
510,363,156880,1,0,2:0:0:0:
468,289,157051,5,0,2:0:0:0:
278,346,157222,1,0,2:0:0:0:
336,364,157394,5,0,2:0:0:0:
411,280,157565,1,0,2:0:0:0:
367,302,157737,5,0,2:0:0:0:
362,340,157908,1,0,2:0:0:0:
364,319,158080,6,0,P|346:232|294:155,1,166.500006351471,0|0,2:0|2:0,0:0:0:0:
