osu file format v14

[General]
AudioFilename: audio.mp3
AudioLeadIn: 0
PreviewTime: 15058
Countdown: 0
SampleSet: Normal
StackLeniency: 0.7
Mode: 1
LetterboxInBreaks: 0
WidescreenStoryboard: 0

[Editor]
Bookmarks: 37430,48401,59373
DistanceSpacing: 1.1
BeatDivisor: 4
GridSize: 16
TimelineZoom: 3.099999

[Metadata]
Title:ROXANNE (Cut Ver.)
TitleUnicode:ROXANNE (Cut Ver.)
Artist:Arizona Zervas
ArtistUnicode:Arizona Zervas
Creator:wafer
Version:Rock Sand
Source:
Tags:english hip hop hip-hop rap version 94 Skrt kami no kotoba goopert tadahitotsu
BeatmapID:2945160
BeatmapSetID:1430721

[Difficulty]
HPDrainRate:7
CircleSize:5
OverallDifficulty:5
ApproachRate:7
SliderMultiplier:1.4
SliderTickRate:1

[Events]
//Background and Video events
0,0,"doggy.jpg",0,45
//Break Periods
//Storyboard Layer 0 (Background)
//Storyboard Layer 1 (Fail)
//Storyboard Layer 2 (Pass)
//Storyboard Layer 3 (Foreground)
//Storyboard Layer 4 (Overlay)
//Storyboard Sound Samples

[TimingPoints]
4516,342.857142857143,4,1,0,65,1,0
15487,-86.9565217391304,4,1,0,65,0,1
25430,-86.9565217391304,4,1,0,65,0,0
26458,-86.9565217391304,4,1,0,65,0,1
37430,-86.9565217391304,4,1,0,65,0,0
37516,-111.111111111111,4,1,0,65,0,0
48401,-100,4,1,0,65,0,0
59373,-100,4,1,0,65,0,0
59458,-117.647058823529,4,1,0,65,0,0
70344,-86.9565217391304,4,1,0,65,0,1
79944,-86.9565217391304,4,1,0,65,0,0
81316,-86.9565217391304,4,1,0,65,0,1
89544,-86.9565217391304,4,1,0,65,0,0

[HitObjects]
256,192,4515,5,12,0:0:0:0:
256,192,4687,1,0,0:0:0:0:
256,192,5030,1,0,0:0:0:0:
256,192,5201,1,8,0:0:0:0:
256,192,5544,1,0,0:0:0:0:
256,192,5630,1,0,0:0:0:0:
256,192,5716,1,0,0:0:0:0:
256,192,5887,1,8,0:0:0:0:
256,192,6230,1,8,0:0:0:0:
256,192,6316,1,8,0:0:0:0:
256,192,6401,1,8,0:0:0:0:
256,192,6573,1,0,0:0:0:0:
256,192,7258,1,8,0:0:0:0:
256,192,7430,1,0,0:0:0:0:
256,192,7773,1,0,0:0:0:0:
256,192,7944,1,8,0:0:0:0:
256,192,8287,1,0,0:0:0:0:
256,192,8458,1,0,0:0:0:0:
256,192,8630,1,8,0:0:0:0:
256,192,8801,1,8,0:0:0:0:
256,192,8973,1,0,0:0:0:0:
256,192,9316,1,8,0:0:0:0:
256,192,9487,1,0,0:0:0:0:
256,192,9659,1,0,0:0:0:0:
256,192,10001,1,12,0:0:0:0:
256,192,10173,1,0,0:0:0:0:
256,192,10344,1,0,0:0:0:0:
256,192,10430,1,0,0:0:0:0:
256,192,10516,1,0,0:0:0:0:
256,192,10687,1,8,0:0:0:0:
256,192,11030,1,0,0:0:0:0:
256,192,11373,1,8,0:0:0:0:
256,192,11544,1,0,0:0:0:0:
256,192,11716,1,8,0:0:0:0:
256,192,11801,1,8,0:0:0:0:
256,192,11887,1,8,0:0:0:0:
256,192,12059,1,0,0:0:0:0:
256,192,12744,1,8,0:0:0:0:
256,192,12916,1,0,0:0:0:0:
256,192,13259,1,0,0:0:0:0:
256,192,13430,1,8,0:0:0:0:
256,192,13773,1,0,0:0:0:0:
256,192,13859,1,0,0:0:0:0:
256,192,13944,1,0,0:0:0:0:
256,192,14116,1,0,0:0:0:0:
256,192,14287,1,8,0:0:0:0:
256,192,15144,1,8,0:0:0:0:
256,192,15487,1,0,0:0:0:0:
256,192,15573,1,0,0:0:0:0:
256,192,15658,1,0,0:0:0:0:
256,192,16001,1,0,0:0:0:0:
256,192,16173,1,8,0:0:0:0:
256,192,16516,1,0,0:0:0:0:
256,192,16858,1,8,0:0:0:0:
256,192,16944,1,8,0:0:0:0:
256,192,17030,1,8,0:0:0:0:
256,192,17201,1,0,0:0:0:0:
256,192,17372,1,0,0:0:0:0:
256,192,17544,1,12,0:0:0:0:
256,192,17887,1,12,0:0:0:0:
256,192,18230,1,0,0:0:0:0:
256,192,18401,1,0,0:0:0:0:
256,192,18573,1,8,0:0:0:0:
256,192,18744,1,0,0:0:0:0:
256,192,18916,1,8,0:0:0:0:
256,192,19258,1,0,0:0:0:0:
256,192,19430,1,0,0:0:0:0:
256,192,19601,1,8,0:0:0:0:
256,192,19944,1,0,0:0:0:0:
256,192,20458,1,0,0:0:0:0:
256,192,20630,1,8,0:0:0:0:
256,192,20973,1,8,0:0:0:0:
256,192,21059,1,8,0:0:0:0:
256,192,21144,1,8,0:0:0:0:
256,192,21487,1,8,0:0:0:0:
256,192,21658,1,0,0:0:0:0:
256,192,22001,1,8,0:0:0:0:
256,192,22344,1,0,0:0:0:0:
256,192,22430,1,0,0:0:0:0:
256,192,22516,1,0,0:0:0:0:
256,192,22687,1,8,0:0:0:0:
256,192,23030,1,12,0:0:0:0:
256,192,23373,1,12,0:0:0:0:
256,192,23716,1,8,0:0:0:0:
256,192,23887,1,8,0:0:0:0:
256,192,24059,1,0,0:0:0:0:
256,192,24230,1,0,0:0:0:0:
256,192,24402,1,8,0:0:0:0:
256,192,24744,1,0,0:0:0:0:
256,192,24916,1,8,0:0:0:0:
256,192,25087,1,8,0:0:0:0:
256,192,25430,1,0,0:0:0:0:
256,192,26458,1,4,0:0:0:0:
256,192,26801,1,0,0:0:0:0:
256,192,26887,1,0,0:0:0:0:
256,192,26973,1,0,0:0:0:0:
256,192,27144,1,8,0:0:0:0:
256,192,27316,1,8,0:0:0:0:
256,192,27487,1,0,0:0:0:0:
256,192,27830,1,8,0:0:0:0:
256,192,27916,1,8,0:0:0:0:
256,192,28001,1,8,0:0:0:0:
256,192,28173,1,0,0:0:0:0:
256,192,28516,1,0,0:0:0:0:
256,192,28688,1,0,0:0:0:0:
256,192,28859,1,8,0:0:0:0:
256,192,29202,1,0,0:0:0:0:
256,192,29288,1,0,0:0:0:0:
256,192,29373,1,0,0:0:0:0:
256,192,29545,1,8,0:0:0:0:
256,192,29716,1,0,0:0:0:0:
256,192,29887,1,8,0:0:0:0:
256,192,30230,1,0,0:0:0:0:
256,192,30401,1,0,0:0:0:0:
256,192,30573,1,8,0:0:0:0:
256,192,30659,1,8,0:0:0:0:
256,192,30744,1,8,0:0:0:0:
256,192,30916,1,0,0:0:0:0:
256,192,31258,1,8,0:0:0:0:
256,192,31430,1,0,0:0:0:0:
256,192,31944,1,8,0:0:0:0:
256,192,32030,1,8,0:0:0:0:
256,192,32115,1,8,0:0:0:0:
256,192,32458,1,0,0:0:0:0:
256,192,32630,1,8,0:0:0:0:
256,192,32973,1,0,0:0:0:0:
256,192,33315,1,0,0:0:0:0:
256,192,33401,1,0,0:0:0:0:
256,192,33487,1,0,0:0:0:0:
256,192,33658,1,0,0:0:0:0:
256,192,33829,1,0,0:0:0:0:
256,192,34001,1,12,0:0:0:0:
256,192,34344,1,12,0:0:0:0:
256,192,34687,1,0,0:0:0:0:
256,192,34858,1,0,0:0:0:0:
256,192,35030,1,0,0:0:0:0:
256,192,35201,1,0,0:0:0:0:
256,192,35373,1,8,0:0:0:0:
256,192,35715,1,0,0:0:0:0:
256,192,35887,1,0,0:0:0:0:
256,192,36058,1,8,0:0:0:0:
256,192,36401,1,0,0:0:0:0:
256,192,36744,1,8,0:0:0:0:
256,192,36915,1,0,0:0:0:0:
256,192,37087,1,8,0:0:0:0:
256,192,37430,1,12,0:0:0:0:
256,192,37944,1,0,0:0:0:0:
256,192,38116,1,8,0:0:0:0:
256,192,38458,1,0,0:0:0:0:
256,192,38801,1,8,0:0:0:0:
256,192,39144,1,0,0:0:0:0:
256,192,39487,1,0,0:0:0:0:
256,192,40173,1,8,0:0:0:0:
256,192,40687,1,0,0:0:0:0:
256,192,40859,1,8,0:0:0:0:
256,192,41201,1,0,0:0:0:0:
256,192,41373,1,0,0:0:0:0:
256,192,41544,1,8,0:0:0:0:
256,192,41887,1,0,0:0:0:0:
256,192,42230,1,0,0:0:0:0:
256,192,42573,1,0,0:0:0:0:
256,256,42744,1,8,0:0:0:0:
256,192,42916,1,0,0:0:0:0:
256,192,43258,1,0,0:0:0:0:
256,192,43430,1,0,0:0:0:0:
256,192,43601,1,8,0:0:0:0:
256,192,43944,1,0,0:0:0:0:
256,192,44030,1,0,0:0:0:0:
256,192,44287,1,0,0:0:0:0:
256,192,44630,1,8,0:0:0:0:
256,192,44973,1,8,0:0:0:0:
256,192,45316,1,8,0:0:0:0:
256,192,45659,1,0,0:0:0:0:
256,192,46173,1,0,0:0:0:0:
256,192,46345,1,8,0:0:0:0:
256,192,46687,1,8,0:0:0:0:
256,192,46859,1,8,0:0:0:0:
256,192,47030,1,0,0:0:0:0:
256,192,47373,1,8,0:0:0:0:
256,192,48401,1,4,0:0:0:0:
256,192,48744,1,8,0:0:0:0:
256,192,48916,1,8,0:0:0:0:
256,192,49087,1,0,0:0:0:0:
256,192,49430,1,8,0:0:0:0:
256,192,49773,1,0,0:0:0:0:
256,192,49858,1,0,0:0:0:0:
256,192,49944,1,0,0:0:0:0:
256,192,50116,1,0,0:0:0:0:
256,192,50458,1,8,0:0:0:0:
256,192,50630,1,8,0:0:0:0:
256,192,50801,1,8,0:0:0:0:
256,192,51144,1,0,0:0:0:0:
256,192,51316,1,0,0:0:0:0:
256,192,51487,1,0,0:0:0:0:
256,192,51658,1,0,0:0:0:0:
256,192,51830,1,8,0:0:0:0:
256,192,52173,1,0,0:0:0:0:
256,192,52344,1,0,0:0:0:0:
256,192,52516,1,8,0:0:0:0:
256,192,52601,1,8,0:0:0:0:
256,192,52687,1,8,0:0:0:0:
256,192,52858,1,0,0:0:0:0:
256,192,53201,1,8,0:0:0:0:
256,192,53373,1,0,0:0:0:0:
256,192,53544,1,0,0:0:0:0:
256,192,53716,1,8,0:0:0:0:
256,192,53887,1,0,0:0:0:0:
256,192,54402,1,8,0:0:0:0:
256,192,54573,1,0,0:0:0:0:
256,192,54916,1,8,0:0:0:0:
256,192,55259,1,0,0:0:0:0:
256,192,55344,1,0,0:0:0:0:
256,192,55430,1,0,0:0:0:0:
256,192,55602,1,0,0:0:0:0:
256,192,55944,1,8,0:0:0:0:
256,192,56116,1,8,0:0:0:0:
256,192,56287,1,8,0:0:0:0:
256,192,56630,1,0,0:0:0:0:
256,192,56973,1,0,0:0:0:0:
256,192,57144,1,0,0:0:0:0:
256,192,57316,1,8,0:0:0:0:
256,192,57659,1,0,0:0:0:0:
256,192,57830,1,0,0:0:0:0:
256,192,58002,1,8,0:0:0:0:
256,192,58087,1,8,0:0:0:0:
256,192,58173,1,8,0:0:0:0:
256,192,58344,1,8,0:0:0:0:
256,192,58687,1,8,0:0:0:0:
256,192,58859,1,0,0:0:0:0:
256,192,59030,1,0,0:0:0:0:
256,192,59201,1,8,0:0:0:0:
256,192,59373,1,4,0:0:0:0:
256,192,60058,1,8,0:0:0:0:
256,192,60401,1,0,0:0:0:0:
256,192,60744,1,0,0:0:0:0:
256,192,61429,1,8,0:0:0:0:
256,192,61772,1,0,0:0:0:0:
256,192,62116,1,0,0:0:0:0:
256,192,62801,1,8,0:0:0:0:
256,192,63144,1,0,0:0:0:0:
256,192,63487,1,8,0:0:0:0:
256,192,64173,1,8,0:0:0:0:
256,192,64516,1,0,0:0:0:0:
256,192,64858,1,0,0:0:0:0:
256,192,65544,1,8,0:0:0:0:
256,192,65887,1,0,0:0:0:0:
256,192,66230,1,0,0:0:0:0:
256,192,66916,1,8,0:0:0:0:
256,192,67259,1,0,0:0:0:0:
256,192,67601,1,0,0:0:0:0:
256,192,68286,1,8,0:0:0:0:
256,192,68630,1,0,0:0:0:0:
256,192,68973,1,8,0:0:0:0:
256,192,70001,1,8,0:0:0:0:
256,192,70344,1,0,0:0:0:0:
256,192,70430,1,0,0:0:0:0:
256,192,70515,1,0,0:0:0:0:
256,192,70858,1,0,0:0:0:0:
256,192,71030,1,8,0:0:0:0:
256,192,71373,1,0,0:0:0:0:
256,192,71715,1,0,0:0:0:0:
256,192,71801,1,0,0:0:0:0:
256,192,71887,1,0,0:0:0:0:
256,192,72058,1,0,0:0:0:0:
256,192,72229,1,0,0:0:0:0:
256,192,72401,1,12,0:0:0:0:
256,192,72744,1,12,0:0:0:0:
256,192,73087,1,0,0:0:0:0:
256,192,73258,1,0,0:0:0:0:
256,192,73430,1,8,0:0:0:0:
256,192,73601,1,0,0:0:0:0:
256,192,73773,1,8,0:0:0:0:
256,192,74115,1,0,0:0:0:0:
256,192,74287,1,0,0:0:0:0:
256,192,74458,1,8,0:0:0:0:
256,192,74801,1,8,0:0:0:0:
256,192,75315,1,0,0:0:0:0:
256,192,75487,1,8,0:0:0:0:
256,192,75830,1,8,0:0:0:0:
256,192,75916,1,8,0:0:0:0:
256,192,76001,1,8,0:0:0:0:
256,192,76173,1,8,0:0:0:0:
256,192,76344,1,8,0:0:0:0:
256,192,76515,1,0,0:0:0:0:
256,192,76858,1,8,0:0:0:0:
256,192,77201,1,0,0:0:0:0:
256,192,77287,1,0,0:0:0:0:
256,192,77373,1,0,0:0:0:0:
256,192,77544,1,8,0:0:0:0:
256,192,77716,1,0,0:0:0:0:
256,192,77887,1,12,0:0:0:0:
256,192,78230,1,12,0:0:0:0:
256,192,78573,1,8,0:0:0:0:
256,192,78744,1,8,0:0:0:0:
256,192,78916,1,0,0:0:0:0:
256,192,79087,1,0,0:0:0:0:
256,192,79259,1,8,0:0:0:0:
256,192,79601,1,0,0:0:0:0:
256,192,79773,1,8,0:0:0:0:
256,192,79944,1,8,0:0:0:0:
256,192,80630,1,0,0:0:0:0:
256,192,80801,1,0,0:0:0:0:
256,192,80973,1,0,0:0:0:0:
256,192,81144,1,0,0:0:0:0:
256,192,81316,1,12,0:0:0:0:
256,192,81658,1,0,0:0:0:0:
256,192,81744,1,0,0:0:0:0:
256,192,81830,1,0,0:0:0:0:
256,192,82001,1,8,0:0:0:0:
256,192,82344,1,0,0:0:0:0:
256,192,82515,1,0,0:0:0:0:
256,192,82687,1,8,0:0:0:0:
256,192,82773,1,8,0:0:0:0:
256,192,82858,1,8,0:0:0:0:
256,192,83030,1,0,0:0:0:0:
256,192,83545,1,0,0:0:0:0:
256,192,83716,1,8,0:0:0:0:
256,192,84059,1,0,0:0:0:0:
256,192,84145,1,0,0:0:0:0:
256,192,84230,1,0,0:0:0:0:
256,192,84402,1,8,0:0:0:0:
256,192,84573,1,0,0:0:0:0:
256,192,84744,1,8,0:0:0:0:
256,192,85087,1,0,0:0:0:0:
256,192,85258,1,0,0:0:0:0:
256,192,85430,1,8,0:0:0:0:
256,192,85516,1,8,0:0:0:0:
256,192,85601,1,8,0:0:0:0:
256,192,85773,1,0,0:0:0:0:
256,192,86116,1,8,0:0:0:0:
256,192,86287,1,0,0:0:0:0:
256,192,86801,1,8,0:0:0:0:
256,192,86887,1,8,0:0:0:0:
256,192,86972,1,8,0:0:0:0:
256,192,87315,1,0,0:0:0:0:
256,192,87487,1,8,0:0:0:0:
256,192,87830,1,0,0:0:0:0:
256,192,88172,1,0,0:0:0:0:
256,192,88258,1,0,0:0:0:0:
256,192,88344,1,0,0:0:0:0:
256,192,88515,1,0,0:0:0:0:
256,192,88686,1,0,0:0:0:0:
256,192,88858,1,12,0:0:0:0:
256,192,89201,1,12,0:0:0:0:
256,192,89544,1,0,0:0:0:0:
