osu file format v14

[General]
AudioFilename: audio.mp3
AudioLeadIn: 0
PreviewTime: 52803
Countdown: 0
SampleSet: Soft
StackLeniency: 0.7
Mode: 0
LetterboxInBreaks: 0
WidescreenStoryboard: 1

[Editor]
Bookmarks: 105406
DistanceSpacing: 2.5
BeatDivisor: 4
GridSize: 8
TimelineZoom: 1.3

[Metadata]
Title:NIGHTRIDER (Cut Ver.)
TitleUnicode:NIGHTRIDER (Cut Ver.)
Artist:Arizona Zervas
ArtistUnicode:Arizona Zervas
Creator:tadahitotsu
Version:under the moonlight
Source:
Tags:rap pop hip hop english single jasontime12345 chiga hazu-
BeatmapID:2836795
BeatmapSetID:1372144

[Difficulty]
HPDrainRate:5.5
CircleSize:4.7
OverallDifficulty:8.5
ApproachRate:9
SliderMultiplier:1.8
SliderTickRate:1

[Events]
//Background and Video events
0,0,"bg.jpg",0,0
//Break Periods
//Storyboard Layer 0 (Background)
//Storyboard Layer 1 (Fail)
//Storyboard Layer 2 (Pass)
//Storyboard Layer 3 (Foreground)
//Storyboard Layer 4 (Overlay)
//Storyboard Sound Samples

[TimingPoints]
201,410.958904109589,4,2,0,40,1,0
201,-125,4,2,0,40,0,0
13351,-100,4,2,0,50,0,0
13659,-100,4,2,0,5,0,0
13762,-100,4,2,0,50,0,0
15303,-100,4,2,0,5,0,0
15406,-100,4,2,0,50,0,0
18591,-100,4,2,0,5,0,0
18694,-100,4,2,0,50,0,0
20235,-100,4,2,0,5,0,0
20338,-100,4,2,0,50,0,0
21879,-100,4,2,0,5,0,0
21982,-100,4,2,0,50,0,0
23522,-100,4,2,0,5,0,0
23625,-100,4,2,0,50,0,0
25166,-100,4,2,0,5,0,0
25269,-100,4,2,0,50,0,0
26810,-100,4,2,0,5,0,0
26913,-100,4,2,0,50,0,0
28454,-100,4,2,0,5,0,0
28557,-100,4,2,0,50,0,0
31742,-100,4,2,0,5,0,0
31845,-100,4,2,0,50,0,0
33385,-100,4,2,0,5,0,0
33488,-100,4,2,0,50,0,0
35029,-100,4,2,0,5,0,0
35132,-100,4,2,0,50,0,0
36673,-100,4,2,0,5,0,0
36776,-100,4,2,0,50,0,0
39653,-76.9230769230769,4,2,0,65,0,1
40885,-62.5,4,2,0,65,0,1
42529,-208.333333333333,4,2,0,65,0,1
42837,-208.333333333333,4,2,0,5,0,1
42940,-76.9230769230769,4,2,0,65,0,1
44173,-62.5,4,2,0,65,0,1
46228,-76.9230769230769,4,2,0,65,0,1
47461,-62.5,4,2,0,65,0,1
49105,-208.333333333333,4,2,0,65,0,1
49413,-208.333333333333,4,2,0,5,0,1
49516,-76.9230769230769,4,2,0,65,0,1
50748,-62.5,4,2,0,65,0,1
52803,-76.9230769230769,4,2,0,50,0,0
62666,-66.6666666666667,4,2,0,50,0,0
63077,-76.9230769230769,4,2,0,50,0,0
65954,-55.5555555555556,4,2,0,50,0,0
66262,-55.5555555555556,4,2,0,5,0,0
66365,-71.4285714285714,4,2,0,50,0,0
69242,-62.5,4,2,0,50,0,0
69550,-55.5555555555556,4,2,0,5,0,0
69653,-76.9230769230769,4,2,0,50,0,0
72529,-62.5,4,2,0,50,0,0
72837,-55.5555555555556,4,2,0,5,0,0
72940,-76.9230769230769,4,2,0,50,0,0
79105,-71.4285714285714,4,2,0,65,0,1
80337,-55.5555555555556,4,2,0,65,0,1
81981,-208.333333333333,4,2,0,65,0,1
82290,-208.333333333333,4,2,0,5,0,1
82392,-71.4285714285714,4,2,0,65,0,1
83625,-55.5555555555556,4,2,0,65,0,1
85680,-71.4285714285714,4,2,0,65,0,1
86913,-55.5555555555556,4,2,0,65,0,1
88557,-208.333333333333,4,2,0,65,0,1
88865,-208.333333333333,4,2,0,5,0,1
88968,-71.4285714285714,4,2,0,65,0,1
90201,-55.5555555555556,4,2,0,65,0,1
92255,-66.6666666666667,4,2,0,65,0,1
95851,-208.333333333333,4,2,0,5,0,1
95954,-66.6666666666667,4,2,0,65,0,1
100064,-55.5555555555556,4,2,0,65,0,1
101707,-208.333333333333,4,2,0,65,0,1
102016,-208.333333333333,4,2,0,5,0,1
102118,-66.6666666666667,4,2,0,65,0,1
103351,-55.5555555555556,4,2,0,65,0,1
105406,-76.9230769230769,4,2,0,65,0,0

[Colours]
Combo1 : 139,23,255
Combo2 : 255,170,130

[HitObjects]
153,233,201,6,0,P|163:295|174:383,1,144,2|8,0:0|0:0,0:0:0:0:
137,220,817,1,0,0:0:0:0:
62,141,1228,6,0,P|102:146|126:98,1,72,2|8,0:0|0:0,0:0:0:0:
100,55,1639,1,0,0:0:0:0:
284,76,1844,6,0,P|222:96|229:166,1,144,2|8,0:0|0:0,0:0:0:0:
296,94,2461,1,0,0:0:0:0:
327,208,2872,6,0,L|412:185,1,72,2|8,0:0|0:0,0:0:0:0:
443,125,3283,1,0,0:0:0:0:
505,290,3488,6,0,B|475:271|475:271|355:309,1,144,0|8,0:0|0:0,0:0:0:0:
512,307,4105,1,0,0:0:0:0:
296,315,4516,6,0,P|257:291|229:305,1,72,2|8,0:0|0:0,0:0:0:0:
196,356,4927,1,0,0:0:0:0:
27,282,5132,6,0,B|97:303|75:233|166:258,1,144,2|8,0:0|0:0,0:0:0:0:
12,270,5748,1,0,0:0:0:0:
105,40,6159,5,2,0:0:0:0:
142,113,6365,1,8,0:0:0:0:
210,67,6570,1,0,0:0:0:0:
312,173,6776,6,0,B|298:107|298:107|305:94|305:94|292:26,1,144,2|8,0:0|0:0,0:0:0:0:
305,193,7392,1,0,0:0:0:0:
439,196,7803,6,0,P|473:225|475:254,1,72,2|8,0:0|0:0,0:0:0:0:
432,315,8214,1,0,0:0:0:0:
256,295,8420,6,0,P|321:295|340:363,1,144,2|10,0:0|0:0,0:0:0:0:
246,317,9036,1,0,0:0:0:0:
56,285,9447,6,0,L|64:365,1,72,2|8,0:0|0:0,0:0:0:0:
98,217,9858,1,0,0:0:0:0:
316,175,10064,6,0,P|243:159|172:146,1,144,2|10,0:0|0:0,0:0:0:0:
325,196,10680,1,0,0:0:0:0:
76,45,11091,6,0,P|45:77|51:104,1,72,2|8,0:0|0:0,0:0:0:0:
102,157,11502,1,0,0:0:0:0:
235,45,11707,6,0,L|391:33,1,144,2|8,0:0|0:0,0:0:0:0:
221,64,12324,1,0,0:0:0:0:
237,241,12529,5,0,0:0:0:0:
257,164,12735,1,0,0:0:0:0:
335,305,12940,1,8,0:0:0:0:
323,233,13146,1,0,0:0:0:0:
235,368,13351,6,0,P|173:348|104:334,1,135,2|0,0:0|0:0,0:0:0:0:
85,353,13762,2,0,P|125:339|133:291,1,90,10|0,0:0|0:0,0:0:0:0:
30,173,14173,5,0,0:0:0:0:
55,259,14379,1,2,0:0:0:0:
149,130,14584,1,8,0:0:0:0:
132,215,14790,1,0,0:0:0:0:
109,54,14995,6,0,B|182:18|169:77|248:38,1,135,2|0,0:0|0:0,0:0:0:0:
254,28,15406,2,0,P|244:66|241:122,1,90,10|0,0:0|0:0,0:0:0:0:
318,188,15817,5,0,0:0:0:0:
421,155,16022,1,2,0:0:0:0:
495,240,16228,5,8,0:0:0:0:
413,180,16433,1,0,0:0:0:0:
406,339,16639,5,2,0:0:0:0:
380,248,16844,1,2,0:0:0:0:
393,357,17050,2,0,L|286:338,1,90,10|0,0:0|0:0,0:0:0:0:
222,263,17461,5,0,0:0:0:0:
203,365,17666,1,2,0:0:0:0:
101,297,17872,2,0,P|55:320|50:363,1,90,8|0,0:0|0:0,0:0:0:0:
244,274,18283,6,0,P|208:225|161:165,1,135,2|0,0:0|0:0,0:0:0:0:
167,151,18694,2,0,P|197:188|228:227,1,90,10|0,0:0|0:0,0:0:0:0:
124,287,19105,5,0,0:0:0:0:
34,145,19310,1,2,0:0:0:0:
160,47,19516,5,8,0:0:0:0:
110,176,19721,1,0,0:0:0:0:
247,86,19927,6,0,B|312:72|312:72|325:75|325:75|386:62,1,135,2|0,0:0|0:0,0:0:0:0:
397,79,20337,2,0,P|423:95|399:71,1,90,10|0,0:0|0:0,0:0:0:0:
336,182,20748,5,0,0:0:0:0:
449,235,20954,1,2,0:0:0:0:
266,304,21159,5,8,0:0:0:0:
371,280,21365,1,0,0:0:0:0:
253,332,21570,6,0,P|204:322|217:249,1,135,2|0,0:0|0:0,0:0:0:0:
217,235,21981,2,0,L|120:218,1,90,10|0,0:0|0:0,0:0:0:0:
75,368,22392,2,0,P|37:328|57:283,1,90,0|2,0:0|0:0,0:0:0:0:
118,230,22803,1,8,0:0:0:0:
123,241,23009,1,0,0:0:0:0:
233,225,23214,6,0,P|236:161|248:88,1,135,2|0,0:0|0:0,0:0:0:0:
264,82,23625,1,10,0:0:0:0:
274,162,23831,1,0,0:0:0:0:
383,85,24036,5,0,0:0:0:0:
359,11,24242,1,2,0:0:0:0:
395,97,24447,5,8,0:0:0:0:
381,185,24653,1,0,0:0:0:0:
497,241,24858,6,0,B|417:210|466:292|348:261,1,135,2|0,0:0|0:0,0:0:0:0:
357,276,25269,2,0,P|371:313|381:365,1,90,10|0,0:0|0:0,0:0:0:0:
241,371,25680,5,0,0:0:0:0:
263,271,25885,1,2,0:0:0:0:
137,337,26091,1,8,0:0:0:0:
129,209,26296,1,0,0:0:0:0:
280,176,26502,6,0,P|229:182|203:110,1,135,2|0,0:0|0:0,0:0:0:0:
219,104,26913,2,0,P|203:67|153:64,1,90,10|0,0:0|0:0,0:0:0:0:
66,137,27324,5,0,0:0:0:0:
35,47,27529,1,2,0:0:0:0:
57,156,27735,1,8,0:0:0:0:
26,66,27940,1,0,0:0:0:0:
20,231,28146,6,0,P|36:272|123:260,1,135,2|0,0:0|0:0,0:0:0:0:
109,248,28557,2,0,P|125:290|132:340,1,90,10|0,0:0|0:0,0:0:0:0:
245,278,28968,5,0,0:0:0:0:
241,300,29173,1,2,0:0:0:0:
385,363,29379,1,8,0:0:0:0:
377,342,29584,1,0,0:0:0:0:
476,278,29790,5,2,0:0:0:0:
339,246,29995,1,2,0:0:0:0:
412,123,30200,2,0,L|423:224,1,90,10|0,0:0|0:0,0:0:0:0:
340,72,30611,6,0,P|288:75|278:114,1,90,0|2,0:0|0:0,0:0:0:0:
301,178,31022,1,8,0:0:0:0:
221,235,31228,1,0,0:0:0:0:
82,102,31433,6,0,P|145:95|168:176,1,135,2|0,0:0|0:0,0:0:0:0:
158,162,31844,2,0,P|144:211|133:257,1,90,10|0,0:0|0:0,0:0:0:0:
209,355,32255,5,0,0:0:0:0:
50,306,32461,1,2,0:0:0:0:
328,290,32666,5,8,0:0:0:0:
130,337,32872,1,0,0:0:0:0:
295,373,33077,6,0,P|299:316|287:220,1,135,2|0,0:0|0:0,0:0:0:0:
271,230,33488,2,0,P|296:192|345:199,1,90,10|0,0:0|0:0,0:0:0:0:
439,331,33899,6,0,L|423:234,1,90,0|2,0:0|0:0,0:0:0:0:
493,162,34310,1,8,0:0:0:0:
501,181,34516,1,0,0:0:0:0:
385,74,34721,6,0,B|323:104|322:15|244:59,1,135,2|0,0:0|0:0,0:0:0:0:
246,68,35132,2,0,P|245:118|285:130,1,90,10|0,0:0|0:0,0:0:0:0:
393,85,35543,5,0,0:0:0:0:
403,102,35748,1,2,0:0:0:0:
295,221,35954,5,8,0:0:0:0:
410,176,36159,1,0,0:0:0:0:
319,328,36365,6,0,P|247:295|170:270,1,135,2|0,0:0|0:0,0:0:0:0:
174,292,36776,2,0,P|150:309|170:285,1,90,10|0,0:0|0:0,0:0:0:0:
186,167,37187,5,0,0:0:0:0:
87,236,37392,1,2,0:0:0:0:
147,67,37598,1,8,0:0:0:0:
48,136,37803,1,0,0:0:0:0:
48,136,38009,5,0,0:0:0:0:
429,148,39653,6,0,B|288:163|367:60|201:78,1,233.999989288331,4|8,3:2|0:0,0:0:0:0:
448,130,40269,1,0,0:0:0:0:
277,313,40474,1,0,0:0:0:0:
284,332,40680,1,2,3:2:0:0:
37,170,40885,6,0,B|199:169|100:315|279:297,1,288,12|0,0:0|3:2,0:0:0:0:
22,185,41502,1,0,0:0:0:0:
121,14,41707,5,10,0:0:0:0:
161,84,41913,1,0,0:0:0:0:
235,63,42118,1,0,0:0:0:0:
203,362,42324,5,2,3:2:0:0:
425,261,42529,2,0,P|442:298|450:320,1,64.8000015820313,10|0,0:0|0:0,0:0:0:0:
464,332,42940,6,0,P|424:228|352:103,1,233.999989288331,4|8,3:2|0:0,0:0:0:0:
455,350,43557,1,0,3:0:0:0:
196,336,43762,1,0,0:0:0:0:
135,370,43968,1,2,3:2:0:0:
244,57,44173,6,0,P|223:205|210:354,1,288,12|0,0:0|3:0,0:0:0:0:
261,42,44790,1,0,0:0:0:0:
13,238,44995,5,10,0:0:0:0:
97,284,45201,1,0,3:0:0:0:
256,178,45406,1,0,0:0:0:0:
282,246,45611,5,2,3:2:0:0:
117,100,45817,1,8,3:2:0:0:
385,22,46022,1,0,3:2:0:0:
452,341,46228,6,0,B|461:267|368:249|322:350|287:343|231:315,1,233.999989288331,4|8,3:2|0:0,0:0:0:0:
445,357,46844,1,0,0:0:0:0:
467,83,47050,1,0,0:0:0:0:
422,140,47255,1,2,3:2:0:0:
170,134,47461,6,0,B|195:57|250:52|318:62|350:187|399:163|470:133,1,288,12|0,0:0|3:2,0:0:0:0:
180,153,48077,1,0,0:0:0:0:
27,344,48283,5,10,0:0:0:0:
100,326,48488,1,0,0:0:0:0:
154,379,48694,1,0,0:0:0:0:
56,60,48899,5,2,3:2:0:0:
281,281,49105,2,0,P|249:294|216:298,1,64.8000015820313,10|0,0:0|0:0,0:0:0:0:
213,313,49516,6,0,P|297:288|368:149,1,233.999989288331,4|8,3:2|0:0,0:0:0:0:
194,298,50132,1,0,3:0:0:0:
65,76,50337,1,0,0:0:0:0:
34,142,50543,1,2,3:2:0:0:
420,48,50748,6,0,P|267:55|179:178,1,288,12|0,0:0|3:0,0:0:0:0:
428,66,51365,1,0,0:0:0:0:
442,239,51570,5,10,0:0:0:0:
399,144,51776,1,0,3:0:0:0:
333,112,51981,5,0,0:0:0:0:
310,309,52187,1,2,3:2:0:0:
249,354,52392,5,8,3:2:0:0:
216,67,52598,1,0,3:2:0:0:
85,305,52803,6,0,L|207:281,1,116.999994644165,2|0,3:2|0:0,0:0:0:0:
464,346,53214,1,8,0:0:0:0:
392,310,53420,1,0,0:0:0:0:
489,225,53625,1,0,0:0:0:0:
371,86,53831,6,0,P|345:115|337:153,1,58.4999973220826,2|0,3:2|0:0,0:0:0:0:
404,293,54036,2,0,P|355:242|268:228,1,116.999994644165,8|0,0:0|0:0,0:0:0:0:
104,334,54447,5,2,3:2:0:0:
179,358,54653,1,0,0:0:0:0:
110,207,54858,1,10,0:0:0:0:
35,231,55064,1,0,0:0:0:0:
258,296,55269,1,0,0:0:0:0:
132,74,55474,5,2,3:2:0:0:
223,116,55680,1,8,0:0:0:0:
116,98,55885,1,0,0:0:0:0:
23,309,56091,6,0,P|67:266|125:225,1,116.999994644165,2|0,3:2|0:0,0:0:0:0:
196,52,56502,1,8,0:0:0:0:
219,132,56707,1,0,3:2:0:0:
378,83,56913,1,0,0:0:0:0:
439,255,57118,6,0,L|457:188,1,58.4999973220826,2|0,3:2|0:0,0:0:0:0:
270,207,57324,1,8,0:0:0:0:
295,140,57529,1,0,0:0:0:0:
313,336,57735,5,2,3:2:0:0:
219,132,57940,1,0,0:0:0:0:
154,196,58146,5,10,0:0:0:0:
395,141,58351,1,0,3:2:0:0:
362,222,58557,5,0,0:0:0:0:
370,242,58762,1,2,3:2:0:0:
304,115,58968,5,10,3:2:0:0:
244,356,59173,1,2,3:2:0:0:
219,132,59379,6,0,P|171:94|112:61,1,116.999994644165,2|0,3:2|0:0,0:0:0:0:
83,319,59790,1,8,0:0:0:0:
27,269,59995,1,0,0:0:0:0:
89,135,60200,1,0,0:0:0:0:
204,276,60406,6,0,P|166:260|146:238,1,58.4999973220826,2|0,3:2|0:0,0:0:0:0:
323,320,60611,2,0,P|266:340|208:371,1,116.999994644165,8|0,0:0|0:0,0:0:0:0:
489,210,61022,5,2,3:2:0:0:
420,168,61228,1,0,0:0:0:0:
396,354,61433,1,10,0:0:0:0:
489,329,61639,1,0,0:0:0:0:
310,311,61844,1,0,0:0:0:0:
301,64,62050,5,2,3:2:0:0:
364,109,62255,1,8,0:0:0:0:
212,194,62461,2,0,P|230:179|222:202,1,58.4999973220826,0|0,0:0|0:0,0:0:0:0:
60,62,62666,6,0,B|116:77|116:77|127:77|127:77|190:96,1,135.000005149842,2|0,3:2|0:0,0:0:0:0:
398,17,63077,1,8,0:0:0:0:
445,82,63283,1,0,3:2:0:0:
273,121,63488,1,0,0:0:0:0:
437,238,63694,6,0,P|411:266|381:278,1,58.4999973220826,2|0,3:2|0:0,0:0:0:0:
242,267,63899,1,8,0:0:0:0:
250,293,64105,1,0,0:0:0:0:
289,49,64310,5,2,3:2:0:0:
134,218,64516,1,0,0:0:0:0:
159,294,64721,5,10,0:0:0:0:
202,78,64927,1,0,3:2:0:0:
179,311,65132,1,0,0:0:0:0:
419,308,65337,5,2,3:2:0:0:
429,317,65543,1,2,3:2:0:0:
435,329,65748,1,2,3:2:0:0:
493,366,65954,6,0,P|408:280|279:184,1,242.999992584229,4|0,3:2|0:0,0:0:0:0:
296,240,66365,6,0,P|296:191|288:171,1,62.9999980773926,10|0,0:0|0:0,0:0:0:0:
208,53,66570,1,0,0:0:0:0:
202,66,66776,6,0,P|234:51|262:41,1,62.9999980773926,2|0,0:0|0:0,0:0:0:0:
409,40,66981,1,2,3:2:0:0:
404,56,67187,5,8,0:0:0:0:
445,131,67392,1,0,0:0:0:0:
337,327,67598,5,2,3:2:0:0:
212,273,67803,1,0,0:0:0:0:
236,147,68009,1,10,0:0:0:0:
361,201,68214,1,0,0:0:0:0:
91,84,68420,5,0,0:0:0:0:
73,264,68625,5,0,3:2:0:0:
110,321,68831,1,8,0:0:0:0:
92,245,69036,1,0,0:0:0:0:
329,70,69242,6,0,B|274:60|234:102|234:102|231:117|231:117|192:162|120:152,1,216,4|0,3:2|0:0,0:0:0:0:
130,134,69653,6,0,P|156:164|170:191,1,58.4999973220826,10|0,0:0|0:0,0:0:0:0:
146,358,69858,1,0,3:2:0:0:
136,373,70064,6,0,P|183:344|229:338,1,58.4999973220826,2|0,0:0|0:0,0:0:0:0:
340,348,70269,1,2,3:2:0:0:
352,358,70474,5,8,0:0:0:0:
428,331,70680,1,0,0:0:0:0:
471,111,70885,5,2,3:2:0:0:
353,87,71091,1,0,0:0:0:0:
302,201,71296,1,10,0:0:0:0:
420,225,71502,1,2,3:2:0:0:
237,90,71707,5,0,0:0:0:0:
186,342,71913,5,2,3:2:0:0:
201,356,72118,1,10,3:2:0:0:
223,361,72324,1,2,3:2:0:0:
4,212,72529,6,0,P|22:106|126:60,1,216,4|0,3:2|0:0,0:0:0:0:
131,77,72940,6,0,P|110:111|97:146,1,58.4999973220826,10|0,0:0|0:0,0:0:0:0:
113,280,73146,1,0,0:0:0:0:
106,297,73351,6,0,P|127:270|173:243,1,58.4999973220826,2|0,0:0|0:0,0:0:0:0:
290,242,73557,1,2,3:2:0:0:
285,260,73762,5,8,0:0:0:0:
63,364,73968,1,0,0:0:0:0:
6,306,74173,5,2,3:2:0:0:
305,355,74379,1,0,0:0:0:0:
354,173,74584,6,0,P|369:210|361:241,1,58.4999973220826,10|0,0:0|0:0,0:0:0:0:
298,366,74790,1,0,0:0:0:0:
290,377,74995,6,0,P|267:335|242:313,1,58.4999973220826,2|0,0:0|0:0,0:0:0:0:
122,270,75201,1,0,3:2:0:0:
113,280,75406,5,8,0:0:0:0:
145,165,75611,1,0,0:0:0:0:
67,53,75817,1,0,0:0:0:0:
256,192,75920,12,0,78694,0:0:0:0:
6,136,79105,6,0,B|-20:101|17:62|51:53|111:77|79:148|235:126,1,251.999992309571,4|8,3:2|0:0,0:0:0:0:
16,153,79721,1,0,0:0:0:0:
296,308,79927,1,0,0:0:0:0:
306,327,80132,1,2,3:2:0:0:
43,320,80337,6,0,B|25:269|53:221|110:205|166:248|131:323|324:291,1,323.999990112305,12|0,0:0|3:2,0:0:0:0:
53,336,80954,1,0,0:0:0:0:
228,45,81159,5,10,0:0:0:0:
216,153,81365,1,0,0:0:0:0:
255,37,81570,1,0,0:0:0:0:
484,95,81776,5,2,3:2:0:0:
384,276,81981,2,0,P|399:313|407:340,1,64.8000015820313,10|0,0:0|0:0,0:0:0:0:
424,351,82392,6,0,P|387:244|336:112,1,251.999992309571,4|8,3:2|0:0,0:0:0:0:
418,372,83009,1,0,3:0:0:0:
111,317,83214,1,0,0:0:0:0:
50,368,83420,1,2,3:2:0:0:
223,27,83625,6,0,P|161:190|117:341,1,323.999990112305,12|0,0:0|3:0,0:0:0:0:
239,18,84242,1,0,0:0:0:0:
15,76,84447,5,10,0:0:0:0:
110,53,84653,1,0,3:0:0:0:
230,140,84858,5,0,0:0:0:0:
85,124,85064,1,2,3:2:0:0:
35,180,85269,5,8,3:2:0:0:
273,263,85474,1,0,3:2:0:0:
372,55,85680,6,0,B|342:203|482:120|432:308,1,251.999992309571,4|8,3:2|0:0,0:0:0:0:
386,41,86296,1,0,0:0:0:0:
123,42,86502,1,0,0:0:0:0:
190,110,86707,1,2,3:2:0:0:
66,373,86913,6,0,B|235:293|61:186|181:100,1,323.999990112305,12|0,0:0|3:2,0:0:0:0:
45,367,87529,1,0,0:0:0:0:
316,277,87735,5,10,0:0:0:0:
374,333,87940,1,0,0:0:0:0:
454,337,88146,1,0,0:0:0:0:
329,50,88351,5,2,3:2:0:0:
137,108,88557,2,0,P|103:95|81:58,1,64.8000015820313,10|0,0:0|0:0,0:0:0:0:
92,54,88968,6,0,P|128:112|16:218,1,251.999992309571,4|8,3:2|0:0,0:0:0:0:
70,53,89584,1,0,3:0:0:0:
142,372,89790,1,0,0:0:0:0:
100,315,89995,1,2,3:2:0:0:
412,340,90201,6,0,P|308:365|206:202,1,323.999990112305,12|0,0:0|3:0,0:0:0:0:
421,321,90817,1,0,0:0:0:0:
365,121,91022,5,10,0:0:0:0:
451,143,91228,1,0,3:0:0:0:
353,96,91433,1,0,0:0:0:0:
456,255,91639,5,2,3:2:0:0:
416,34,91844,1,8,3:2:0:0:
242,194,92050,1,0,3:2:0:0:
87,47,92255,6,0,B|47:102|85:140|167:186|165:128|223:108|257:157|261:228,1,270.000010299683,6|8,3:2|0:0,0:0:0:0:
104,40,92872,1,0,0:0:0:0:
39,302,93077,5,0,0:0:0:0:
101,366,93283,1,2,3:2:0:0:
186,352,93488,1,8,0:0:0:0:
124,288,93694,1,0,0:0:0:0:
439,350,93899,6,0,P|394:259|238:266,1,270.000010299683,4|8,3:2|0:0,0:0:0:0:
430,369,94516,1,0,0:0:0:0:
363,106,94721,5,0,0:0:0:0:
416,19,94927,1,2,3:2:0:0:
357,266,95132,5,8,0:0:0:0:
304,353,95338,1,0,0:0:0:0:
30,293,95543,6,0,B|54:243|115:271|115:271|125:271|125:271|173:295|221:235,1,202.500007724762,4|0,3:2|0:0,0:0:0:0:
206,231,95954,1,8,0:0:0:0:
159,100,96159,1,0,3:0:0:0:
115,162,96365,5,0,0:0:0:0:
295,52,96570,1,2,3:2:0:0:
459,236,96776,5,8,0:0:0:0:
279,126,96981,1,0,0:0:0:0:
317,351,97187,6,0,P|362:221|420:78,1,270.000010299683,4|8,3:2|0:0,0:0:0:0:
326,369,97803,1,0,3:2:0:0:
472,251,98009,5,0,0:0:0:0:
432,141,98214,1,2,3:2:0:0:
204,205,98420,5,8,3:2:0:0:
289,46,98625,1,0,3:2:0:0:
212,338,98831,6,0,B|188:279|132:258|132:258|103:180|175:71,1,270.000010299683,4|8,3:2|0:0,0:0:0:0:
204,356,99447,1,0,0:0:0:0:
304,26,99653,1,0,0:0:0:0:
365,77,99858,1,2,3:2:0:0:
447,343,100064,6,0,B|412:267|312:278|312:278|235:209|250:112,1,323.999990112305,12|0,0:0|3:2,0:0:0:0:
441,362,100680,1,0,0:0:0:0:
131,349,100885,5,10,0:0:0:0:
45,322,101091,1,0,0:0:0:0:
145,322,101296,1,0,0:0:0:0:
17,84,101502,5,2,3:2:0:0:
259,248,101707,2,0,P|226:220|195:212,1,64.8000015820313,10|0,0:0|0:0,0:0:0:0:
190,217,102118,6,0,P|288:191|404:48,1,270.000010299683,4|8,3:2|0:0,0:0:0:0:
173,198,102735,1,0,3:0:0:0:
473,91,102940,1,0,0:0:0:0:
492,166,103146,1,2,3:2:0:0:
441,352,103351,6,0,P|420:258|232:78,1,323.999990112305,12|0,0:0|3:0,0:0:0:0:
435,371,103968,1,0,0:0:0:0:
120,324,104173,5,10,0:0:0:0:
126,337,104379,1,0,3:0:0:0:
130,350,104584,1,0,0:0:0:0:
44,196,104790,5,2,3:2:0:0:
49,101,104995,1,8,3:2:0:0:
135,128,105200,1,0,3:2:0:0:
130,223,105405,1,0,0:0:0:0:
