osu file format v14

[General]
AudioFilename: audio.mp3
AudioLeadIn: 0
PreviewTime: 52803
Countdown: 0
SampleSet: Soft
StackLeniency: 0.7
Mode: 0
LetterboxInBreaks: 0
WidescreenStoryboard: 1

[Editor]
Bookmarks: 39653,79105
DistanceSpacing: 1
BeatDivisor: 4
GridSize: 8
TimelineZoom: 1.3

[Metadata]
Title:NIGHTRIDER (Cut Ver.)
TitleUnicode:NIGHTRIDER (Cut Ver.)
Artist:Arizona Zervas
ArtistUnicode:Arizona Zervas
Creator:tadahitotsu
Version:normal (feat. jasontime)
Source:
Tags:rap pop hip hop english single jasontime12345 chiga hazu-
BeatmapID:2836794
BeatmapSetID:1372144

[Difficulty]
HPDrainRate:3.1
CircleSize:3.2
OverallDifficulty:3.9
ApproachRate:5.5
SliderMultiplier:1.2
SliderTickRate:1

[Events]
//Background and Video events
0,0,"bg.jpg",0,0
//Break Periods
//Storyboard Layer 0 (Background)
//Storyboard Layer 1 (Fail)
//Storyboard Layer 2 (Pass)
//Storyboard Layer 3 (Foreground)
//Storyboard Layer 4 (Overlay)
//Storyboard Sound Samples

[TimingPoints]
201,410.958904109589,4,2,0,40,1,0
39653,-95.2380952380952,4,2,0,60,0,1
52803,-95.2380952380952,4,2,0,50,0,0
79105,-95.2380952380952,4,2,0,60,0,1
105406,-95.2380952380952,4,2,0,50,0,0

[Colours]
Combo1 : 139,23,255
Combo2 : 255,170,130

[HitObjects]
62,34,201,6,0,L|185:61,1,120,2|8,0:0|0:0,0:0:0:0:
235,38,817,1,0,0:0:0:0:
341,93,1228,6,0,L|364:17,2,60,2|8|0,0:0|0:0|0:0,0:0:0:0:
383,135,1844,2,0,L|412:271,1,120,2|8,0:0|0:0,0:0:0:0:
377,304,2461,1,0,0:0:0:0:
268,356,2872,6,0,L|201:341,1,60,2|8,0:0|0:0,0:0:0:0:
155,316,3283,1,0,0:0:0:0:
155,316,3488,2,0,L|20:345,1,120,0|8,0:0|0:0,0:0:0:0:
0,293,4105,1,0,0:0:0:0:
68,186,4516,6,0,L|74:126,2,60,2|8|0,0:0|0:0|0:0,0:0:0:0:
111,227,5132,2,0,P|174:213|207:151,1,120,2|8,0:0|0:0,0:0:0:0:
248,129,5748,2,0,L|231:61,1,60,0|0,0:0|0:0,0:0:0:0:
279,32,6159,5,2,0:0:0:0:
279,32,6365,2,0,L|342:53,1,60,8|0,0:0|0:0,0:0:0:0:
392,31,6776,6,0,L|421:165,1,120,2|8,0:0|0:0,0:0:0:0:
454,195,7392,1,0,0:0:0:0:
432,313,7803,6,0,L|513:291,2,60,2|8|0,0:0|0:0|0:0,0:0:0:0:
390,356,8420,2,0,L|247:328,1,120,2|10,0:0|0:0,0:0:0:0:
214,348,9036,1,0,0:0:0:0:
112,283,9447,1,2,0:0:0:0:
112,283,9653,2,0,L|99:211,1,60,8|0,0:0|0:0,0:0:0:0:
58,181,10064,5,2,0:0:0:0:
115,75,10474,1,10,0:0:0:0:
248,196,11091,1,2,0:0:0:0:
248,196,11296,2,0,L|275:265,1,60,8|0,0:0|0:0,0:0:0:0:
317,288,11707,6,0,P|369:304|435:331,1,120,2|8,0:0|0:0,0:0:0:0:
490,224,12529,2,0,P|439:229|416:205,1,60,0|0,0:0|0:0,0:0:0:0:
411,170,12940,2,0,P|385:154|373:127,1,60,8|0,0:0|0:0,0:0:0:0:
393,82,13351,6,0,P|323:93|267:107,1,120,2|10,0:0|0:0,0:0:0:0:
198,11,14173,2,0,P|179:32|156:70,1,60,0|2,0:0|0:0,0:0:0:0:
105,78,14584,2,0,P|115:108|123:149,1,60,8|0,0:0|0:0,0:0:0:0:
153,186,14995,6,0,P|86:201|61:253,1,120,2|10,0:0|0:0,0:0:0:0:
63,362,15817,2,0,P|97:378|135:372,1,60,0|2,0:0|0:0,0:0:0:0:
148,326,16228,2,0,L|215:312,1,60,8|0,0:0|0:0,0:0:0:0:
259,284,16639,6,0,L|317:302,1,60,2|2,0:0|0:0,0:0:0:0:
363,339,17050,1,10,0:0:0:0:
459,267,17461,2,0,L|482:200,1,60,0|2,0:0|0:0,0:0:0:0:
429,175,17872,2,0,L|435:110,1,60,8|0,0:0|0:0,0:0:0:0:
478,74,18283,6,0,P|435:24|382:26,1,120,2|10,0:0|0:0,0:0:0:0:
290,99,19105,2,0,L|304:164,1,60,0|2,0:0|0:0,0:0:0:0:
336,207,19516,2,0,L|321:279,1,60,8|0,0:0|0:0,0:0:0:0:
335,324,19927,6,0,P|272:337|217:364,1,120,2|10,0:0|0:0,0:0:0:0:
104,338,20748,2,0,L|86:265,1,60,0|2,0:0|0:0,0:0:0:0:
46,238,21159,1,8,0:0:0:0:
24,119,21570,6,0,P|35:66|107:51,1,120,2|10,0:0|0:0,0:0:0:0:
164,142,22392,2,0,L|228:157,1,60,0|2,0:0|0:0,0:0:0:0:
251,98,22803,2,0,L|314:82,1,60,8|0,0:0|0:0,0:0:0:0:
356,42,23214,6,0,P|334:108|325:166,1,120,2|10,0:0|0:0,0:0:0:0:
375,191,23831,1,0,0:0:0:0:
375,191,24036,2,0,P|411:176|433:180,1,60,0|2,0:0|0:0,0:0:0:0:
472,222,24447,2,0,L|454:291,1,60,8|0,0:0|0:0,0:0:0:0:
479,335,24858,6,0,P|419:356|368:381,1,120,2|10,0:0|0:0,0:0:0:0:
290,271,25680,2,0,P|316:280|357:296,2,60,0|2|8,0:0|0:0|0:0,0:0:0:0:
256,227,26296,1,0,0:0:0:0:
256,227,26502,6,0,L|385:196,1,120,2|10,0:0|0:0,0:0:0:0:
315,93,27324,6,0,P|343:103|379:107,2,60,0|2|8,0:0|0:0|0:0,0:0:0:0:
280,43,27940,1,0,0:0:0:0:
280,43,28146,2,0,P|232:64|152:78,1,120,2|10,0:0|0:0,0:0:0:0:
86,167,28968,6,0,P|60:135|28:133,2,60,0|2|8,0:0|0:0|0:0,0:0:0:0:
72,225,29584,1,0,0:0:0:0:
72,225,29790,2,0,P|133:228|159:281,1,120,2|10,0:0|0:0,0:0:0:0:
255,346,30611,6,0,L|327:330,1,60,0|2,0:0|0:0,0:0:0:0:
351,286,31022,2,0,L|420:298,1,60,8|0,0:0|0:0,0:0:0:0:
465,319,31433,2,0,L|436:186,1,120,2|10,0:0|0:0,0:0:0:0:
437,81,32255,6,0,P|406:86|364:100,1,60,0|2,0:0|0:0,0:0:0:0:
343,149,32666,2,0,P|331:182|292:195,1,60,8|0,0:0|0:0,0:0:0:0:
273,240,33077,2,0,L|147:213,1,120,2|10,0:0|0:0,0:0:0:0:
37,237,33899,6,0,L|14:162,1,60,0|2,0:0|0:0,0:0:0:0:
10,117,34310,2,0,P|48:83|67:83,1,60,8|0,0:0|0:0,0:0:0:0:
114,91,34721,2,0,P|161:112|226:76,1,120,2|10,0:0|0:0,0:0:0:0:
340,87,35543,6,0,L|356:151,1,60,0|2,0:0|0:0,0:0:0:0:
409,170,35954,2,0,L|397:228,1,60,8|0,0:0|0:0,0:0:0:0:
414,286,36365,2,0,P|360:311|300:316,1,120,2|10,0:0|0:0,0:0:0:0:
245,293,36981,1,0,0:0:0:0:
245,293,37187,2,0,P|236:266|224:226,1,60,0|2,0:0|0:0,0:0:0:0:
248,180,37598,1,8,0:0:0:0:
274,126,37803,2,0,P|300:98|326:91,1,60,0|0,0:0|0:0,0:0:0:0:
30,127,39653,6,0,P|67:73|147:66,1,125.999996154785,4|8,3:2|0:0,0:0:0:0:
192,104,40269,1,0,0:0:0:0:
192,104,40474,2,0,L|272:87,1,62.9999980773926,0|2,0:0|3:2,0:0:0:0:
315,36,40885,2,0,L|462:64,1,125.999996154785,12|0,0:0|3:2,0:0:0:0:
457,222,41707,6,0,P|492:193|530:178,2,62.9999980773926,10|0|0,0:0|0:0|0:0,0:0:0:0:
442,303,42324,1,2,3:2:0:0:
442,303,42529,1,10,0:0:0:0:
282,341,42940,6,0,P|252:291|171:280,1,125.999996154785,4|8,3:2|0:0,0:0:0:0:
137,339,43557,1,0,3:0:0:0:
137,339,43762,2,0,P|103:325|73:316,1,62.9999980773926,0|2,0:0|3:2,0:0:0:0:
0,340,44173,2,0,B|-20:310|-20:310|8:199,1,125.999996154785,12|0,0:0|3:0,0:0:0:0:
107,96,44995,5,10,0:0:0:0:
107,96,45201,2,0,L|240:115,1,125.999996154785,0|2,3:0|3:2,0:0:0:0:
254,192,45817,1,8,3:2:0:0:
254,192,46022,1,0,3:2:0:0:
254,192,46228,6,0,P|327:182|361:121,1,125.999996154785,4|8,3:2|0:0,0:0:0:0:
416,86,46844,1,0,0:0:0:0:
416,86,47050,2,0,P|394:52|386:26,1,62.9999980773926,0|2,0:0|3:2,0:0:0:0:
308,8,47461,2,0,L|169:28,1,125.999996154785,12|0,0:0|3:2,0:0:0:0:
42,110,48283,6,0,P|32:74|14:43,2,62.9999980773926,10|0|0,0:0|0:0|0:0,0:0:0:0:
7,184,48899,1,2,3:2:0:0:
7,184,49105,1,10,0:0:0:0:
30,346,49516,6,0,B|63:372|63:372|157:349,1,125.999996154785,4|8,3:2|0:0,0:0:0:0:
189,282,50132,1,0,3:0:0:0:
189,282,50337,2,0,L|271:304,1,62.9999980773926,0|2,0:0|3:2,0:0:0:0:
303,360,50748,2,0,P|368:366|407:309,1,125.999996154785,12|0,0:0|3:0,0:0:0:0:
462,161,51570,5,10,0:0:0:0:
462,161,51776,2,0,P|405:147|361:201,1,125.999996154785,0|2,3:0|3:2,0:0:0:0:
321,266,52392,1,8,3:2:0:0:
321,266,52598,1,0,3:2:0:0:
321,266,52803,6,0,P|267:268|229:198,1,125.999996154785,2|8,3:2|0:0,0:0:0:0:
269,174,53420,1,0,0:0:0:0:
269,174,53625,2,0,L|284:91,1,62.9999980773926,0|2,0:0|3:2,0:0:0:0:
264,56,54036,1,8,0:0:0:0:
146,40,54447,6,0,L|134:108,1,62.9999980773926,2|0,3:2|0:0,0:0:0:0:
84,140,54858,2,0,L|96:208,1,62.9999980773926,10|0,0:0|0:0,0:0:0:0:
140,245,55269,2,0,P|115:288|86:302,1,62.9999980773926,0|2,0:0|3:2,0:0:0:0:
43,280,55680,1,8,0:0:0:0:
120,379,56091,6,0,L|248:359,1,125.999996154785,2|8,3:2|0:0,0:0:0:0:
275,304,56707,1,0,3:2:0:0:
275,304,56913,2,0,P|268:258|261:222,1,62.9999980773926,0|2,0:0|3:2,0:0:0:0:
214,204,57324,1,8,0:0:0:0:
128,296,57735,6,0,P|121:258|104:235,1,62.9999980773926,2|0,3:2|0:0,0:0:0:0:
45,226,58146,2,0,P|28:199|24:167,1,62.9999980773926,10|0,0:0|3:2,0:0:0:0:
68,122,58557,2,0,L|97:50,1,62.9999980773926,0|2,0:0|3:2,0:0:0:0:
151,44,58968,1,10,3:2:0:0:
274,68,59379,6,0,P|341:43|418:25,1,125.999996154785,2|8,3:2|0:0,0:0:0:0:
452,52,59995,1,0,0:0:0:0:
452,52,60200,2,0,L|440:132,1,62.9999980773926,0|2,0:0|3:2,0:0:0:0:
479,165,60611,1,8,0:0:0:0:
465,304,61022,6,0,P|432:293|397:288,1,62.9999980773926,2|0,3:2|0:0,0:0:0:0:
356,329,61433,2,0,P|324:323|295:313,1,62.9999980773926,10|0,0:0|0:0,0:0:0:0:
265,258,61844,2,0,L|281:186,1,62.9999980773926,0|2,0:0|3:2,0:0:0:0:
260,136,62255,1,8,0:0:0:0:
176,41,62666,6,0,P|108:46|59:93,1,125.999996154785,2|8,3:2|0:0,0:0:0:0:
62,145,63283,1,0,3:2:0:0:
62,145,63488,2,0,L|72:224,1,62.9999980773926,0|2,0:0|3:2,0:0:0:0:
32,258,63899,1,8,0:0:0:0:
109,357,64310,6,0,P|149:375|173:388,1,62.9999980773926,2|0,3:2|0:0,0:0:0:0:
222,355,64721,2,0,P|246:326|241:294,1,62.9999980773926,10|0,0:0|3:2,0:0:0:0:
202,255,65132,1,0,0:0:0:0:
456,215,65954,6,0,P|461:160|465:142,1,62.9999980773926,4|0,3:2|0:0,0:0:0:0:
506,106,66365,1,10,0:0:0:0:
382,51,66776,2,0,P|339:40|310:39,1,62.9999980773926,2|2,0:0|3:2,0:0:0:0:
266,71,67187,1,8,0:0:0:0:
343,169,67598,6,0,P|302:220|226:221,1,125.999996154785,2|10,3:2|0:0,0:0:0:0:
207,176,68214,1,0,0:0:0:0:
207,176,68420,2,0,L|132:205,1,62.9999980773926,0|0,0:0|3:2,0:0:0:0:
88,179,68831,1,8,0:0:0:0:
2,285,69242,6,0,P|36:300|59:319,1,62.9999980773926,4|0,3:2|0:0,0:0:0:0:
76,375,69653,1,10,0:0:0:0:
201,359,70064,2,0,L|219:286,1,62.9999980773926,2|2,0:0|3:2,0:0:0:0:
179,246,70474,1,8,0:0:0:0:
291,188,70885,6,0,L|270:59,1,125.999996154785,2|10,3:2|0:0,0:0:0:0:
320,24,71502,1,2,3:2:0:0:
320,24,71707,2,0,P|370:1|399:-2,1,62.9999980773926,0|2,0:0|3:2,0:0:0:0:
434,27,72118,1,10,3:2:0:0:
434,27,72324,2,0,P|417:57|420:96,1,62.9999980773926,2|4,3:2|3:2,0:0:0:0:
472,198,72940,6,0,L|462:267,1,62.9999980773926,10|0,0:0|0:0,0:0:0:0:
477,321,73351,2,0,P|449:341|406:335,1,62.9999980773926,2|2,0:0|3:2,0:0:0:0:
379,293,73762,1,8,0:0:0:0:
379,293,73968,1,0,0:0:0:0:
379,293,74173,6,0,P|313:274|244:272,1,125.999996154785,2|10,3:2|0:0,0:0:0:0:
208,312,74790,1,0,0:0:0:0:
208,312,74995,2,0,P|171:309|137:297,1,62.9999980773926,2|0,0:0|3:2,0:0:0:0:
118,242,75406,1,8,0:0:0:0:
171,127,75817,1,0,0:0:0:0:
256,192,76022,12,0,78694,0:0:0:0:
429,368,79105,6,0,L|403:237,1,125.999996154785,4|8,3:2|0:0,0:0:0:0:
457,181,79721,1,0,0:0:0:0:
457,181,79927,2,0,L|467:96,1,62.9999980773926,0|2,0:0|3:2,0:0:0:0:
411,56,80337,2,0,P|356:89|293:87,1,125.999996154785,12|0,0:0|3:2,0:0:0:0:
139,36,81159,6,0,P|109:5|84:-3,2,62.9999980773926,10|0|0,0:0|0:0|0:0,0:0:0:0:
136,118,81776,1,2,3:2:0:0:
136,118,81981,1,10,0:0:0:0:
6,218,82392,6,0,P|24:283|37:348,1,125.999996154785,4|8,3:2|0:0,0:0:0:0:
115,361,83009,1,0,3:0:0:0:
115,361,83214,2,0,P|158:341|188:334,1,62.9999980773926,0|2,0:0|3:2,0:0:0:0:
248,369,83625,2,0,P|302:361|329:297,1,125.999996154785,12|0,0:0|3:0,0:0:0:0:
188,216,84447,5,10,0:0:0:0:
188,216,84653,2,0,P|200:146|218:81,1,125.999996154785,0|2,3:0|3:2,0:0:0:0:
283,48,85269,1,8,3:2:0:0:
283,48,85474,1,0,3:2:0:0:
283,48,85680,6,0,B|329:38|329:38|419:69,1,125.999996154785,4|8,3:2|0:0,0:0:0:0:
397,145,86296,1,0,0:0:0:0:
397,145,86502,2,0,P|433:144|473:133,1,62.9999980773926,0|2,0:0|3:2,0:0:0:0:
503,68,86913,2,0,P|487:133|477:199,1,125.999996154785,12|0,0:0|3:2,0:0:0:0:
405,338,87735,6,0,P|440:347|471:365,2,62.9999980773926,10|0|0,0:0|0:0|0:0,0:0:0:0:
345,360,88351,1,2,3:2:0:0:
345,360,88557,1,10,0:0:0:0:
242,232,88968,6,0,L|106:263,1,125.999996154785,4|8,3:2|0:0,0:0:0:0:
83,334,89584,1,0,3:0:0:0:
83,334,89790,2,0,P|28:318|11:298,1,62.9999980773926,0|2,0:0|3:2,0:0:0:0:
17,233,90201,2,0,P|31:160|46:105,1,125.999996154785,12|0,0:0|3:0,0:0:0:0:
196,48,91022,5,10,0:0:0:0:
196,48,91228,2,0,P|244:94|306:90,1,125.999996154785,0|2,3:0|3:2,0:0:0:0:
370,49,91844,1,8,3:2:0:0:
370,49,92050,1,0,3:2:0:0:
370,49,92255,6,0,P|357:118|351:184,1,125.999996154785,6|8,3:2|0:0,0:0:0:0:
390,246,92872,1,0,0:0:0:0:
390,246,93077,2,0,P|338:256|315:262,1,62.9999980773926,0|2,0:0|3:2,0:0:0:0:
315,339,93488,2,0,P|284:346|253:351,1,62.9999980773926,8|0,0:0|0:0,0:0:0:0:
177,318,93899,6,0,P|112:315|69:244,1,125.999996154785,4|8,3:2|0:0,0:0:0:0:
75,107,94721,2,0,P|121:80|155:80,1,62.9999980773926,0|2,0:0|3:2,0:0:0:0:
192,131,95132,2,0,P|222:122|246:102,1,62.9999980773926,8|0,0:0|0:0,0:0:0:0:
292,34,95543,6,0,P|359:23|390:78,1,125.999996154785,4|8,3:2|0:0,0:0:0:0:
366,143,96159,1,0,3:0:0:0:
366,143,96365,2,0,P|397:158|418:192,1,62.9999980773926,0|2,0:0|3:2,0:0:0:0:
369,249,96776,2,0,P|361:295|359:321,1,62.9999980773926,8|0,0:0|0:0,0:0:0:0:
436,338,97187,6,0,B|394:330|394:330|312:371,1,125.999996154785,4|8,3:2|0:0,0:0:0:0:
161,322,98009,2,0,P|148:287|135:255,1,62.9999980773926,0|2,0:0|3:2,0:0:0:0:
194,202,98420,1,8,3:2:0:0:
194,202,98625,1,0,3:2:0:0:
194,202,98831,6,0,P|199:134|209:62,1,125.999996154785,4|8,3:2|0:0,0:0:0:0:
284,51,99447,1,0,0:0:0:0:
284,51,99653,2,0,P|324:20|349:15,1,62.9999980773926,0|2,0:0|3:2,0:0:0:0:
404,61,100064,2,0,P|465:70|486:145,1,125.999996154785,12|0,0:0|3:2,0:0:0:0:
374,239,100885,6,0,P|353:212|329:196,2,62.9999980773926,10|0|0,0:0|0:0|0:0,0:0:0:0:
368,326,101502,1,2,3:2:0:0:
368,326,101707,1,10,0:0:0:0:
215,370,102118,6,0,B|172:381|172:381|82:344,1,125.999996154785,4|8,3:2|0:0,0:0:0:0:
52,279,102735,1,0,3:0:0:0:
52,279,102940,2,0,L|72:204,1,62.9999980773926,0|2,0:0|3:2,0:0:0:0:
17,153,103351,2,0,P|53:103|114:93,1,125.999996154785,12|0,0:0|3:0,0:0:0:0:
262,163,104173,5,10,0:0:0:0:
262,163,104379,2,0,L|394:133,1,125.999996154785,0|2,3:0|3:2,0:0:0:0:
444,191,104995,1,8,3:2:0:0:
421,249,105200,1,0,3:2:0:0:
406,307,105406,1,0,0:0:0:0:
