osu file format v14

[General]
AudioFilename: audio.mp3
AudioLeadIn: 0
PreviewTime: 52803
Countdown: 0
SampleSet: Soft
StackLeniency: 0.7
Mode: 0
LetterboxInBreaks: 0
WidescreenStoryboard: 0

[Editor]
Bookmarks: 105406
DistanceSpacing: 2.7
BeatDivisor: 4
GridSize: 32
TimelineZoom: 1.3

[Metadata]
Title:NIGHTRIDER (Cut Ver.)
TitleUnicode:NIGHTRIDER (Cut Ver.)
Artist:Arizona Zervas
ArtistUnicode:Arizona Zervas
Creator:tadahitotsu
Version:hazu's insane
Source:
Tags:rap pop hip hop english single jasontime12345 chiga hazu-
BeatmapID:2852162
BeatmapSetID:1372144

[Difficulty]
HPDrainRate:5
CircleSize:4.3
OverallDifficulty:7.3
ApproachRate:8.5
SliderMultiplier:1.6
SliderTickRate:1

[Events]
//Background and Video events
0,0,"bg.jpg",0,0
//Break Periods
2,76017,78430
//Storyboard Layer 0 (Background)
//Storyboard Layer 1 (Fail)
//Storyboard Layer 2 (Pass)
//Storyboard Layer 3 (Foreground)
//Storyboard Layer 4 (Overlay)
//Storyboard Sound Samples

[TimingPoints]
201,410.958904109589,4,2,0,40,1,0
201,-111.111111111111,4,2,0,40,0,0
1125,-111.111111111111,4,2,0,5,0,0
1228,-111.111111111111,4,2,0,40,0,0
2769,-111.111111111111,4,2,0,5,0,0
2872,-111.111111111111,4,2,0,40,0,0
4413,-111.111111111111,4,2,0,5,0,0
4516,-111.111111111111,4,2,0,40,0,0
6057,-111.111111111111,4,2,0,5,0,0
6159,-111.111111111111,4,2,0,40,0,0
7701,-111.111111111111,4,2,0,5,0,0
7803,-111.111111111111,4,2,0,40,0,0
9344,-111.111111111111,4,2,0,5,0,0
9447,-111.111111111111,4,2,0,40,0,0
12016,-111.111111111111,4,2,0,5,0,0
12118,-111.111111111111,4,2,0,40,0,0
13351,-111.111111111111,4,2,0,50,0,0
13659,-111.111111111111,4,2,0,5,0,0
13762,-111.111111111111,4,2,0,50,0,0
15303,-111.111111111111,4,2,0,5,0,0
15406,-111.111111111111,4,2,0,50,0,0
18591,-111.111111111111,4,2,0,5,0,0
18694,-111.111111111111,4,2,0,50,0,0
25166,-111.111111111111,4,2,0,5,0,0
25269,-111.111111111111,4,2,0,50,0,0
26810,-111.111111111111,4,2,0,5,0,0
26913,-111.111111111111,4,2,0,50,0,0
28454,-111.111111111111,4,2,0,5,0,0
28557,-111.111111111111,4,2,0,50,0,0
31742,-111.111111111111,4,2,0,5,0,0
31844,-111.111111111111,4,2,0,50,0,0
39653,-86.9565217391304,4,2,0,65,0,1
41194,-86.9565217391304,4,2,0,5,0,1
41296,-86.9565217391304,4,2,0,65,0,1
44481,-86.9565217391304,4,2,0,5,0,1
44584,-86.9565217391304,4,2,0,65,0,1
47769,-86.9565217391304,4,2,0,5,0,1
47872,-86.9565217391304,4,2,0,65,0,1
51057,-86.9565217391304,4,2,0,5,0,1
51159,-86.9565217391304,4,2,0,65,0,1
52803,-100,4,2,0,50,0,0
54344,-100,4,2,0,5,0,0
54447,-100,4,2,0,50,0,0
55988,-100,4,2,0,5,0,0
56091,-100,4,2,0,50,0,0
60920,-100,4,2,0,5,0,0
61022,-100,4,2,0,50,0,0
62564,-100,4,2,0,5,0,0
62666,-100,4,2,0,50,0,0
66262,-100,4,2,0,5,0,0
66365,-100,4,2,0,50,0,0
69550,-100,4,2,0,5,0,0
69653,-100,4,2,0,50,0,0
72837,-100,4,2,0,5,0,0
72940,-100,4,2,0,50,0,0
74892,-100,4,2,0,5,0,0
74995,-100,4,2,0,50,0,0
75714,-100,4,2,0,5,0,0
75817,-100,4,2,0,50,0,0
79105,-86.9565217391304,4,2,0,65,0,1
80646,-86.9565217391304,4,2,0,5,0,1
80748,-86.9565217391304,4,2,0,65,0,1
83933,-86.9565217391304,4,2,0,5,0,1
84036,-86.9565217391304,4,2,0,65,0,1
87221,-86.9565217391304,4,2,0,5,0,1
87324,-86.9565217391304,4,2,0,65,0,1
90509,-86.9565217391304,4,2,0,5,0,1
90611,-86.9565217391304,4,2,0,65,0,1
100372,-86.9565217391304,4,2,0,5,0,1
100474,-86.9565217391304,4,2,0,65,0,1
103659,-86.9565217391304,4,2,0,5,0,1
103762,-86.9565217391304,4,2,0,65,0,1
105406,-76.9230769230769,4,2,0,65,0,0

[Colours]
Combo1 : 139,23,255
Combo2 : 255,170,130

[HitObjects]
94,245,201,6,0,B|155:239|155:239|181:252|181:252|266:245,1,143.999995605469,2|8,0:0|0:0,0:0:0:0:
373,209,817,2,0,P|348:173|275:174,1,107.999996704102,0|0,0:0|0:0,0:0:0:0:
279,175,1228,1,2,0:0:0:0:
162,118,1433,2,0,P|197:111|232:104,1,71.9999978027344,8|0,0:0|0:0,0:0:0:0:
386,19,1844,6,0,P|372:89|358:160,1,143.999995605469,2|8,0:0|0:0,0:0:0:0:
281,259,2461,2,0,P|272:198|261:136,1,107.999996704102,0|0,0:0|0:0,0:0:0:0:
252,144,2872,1,2,0:0:0:0:
128,227,3077,2,0,P|158:244|205:235,1,71.9999978027344,8|0,0:0|0:0,0:0:0:0:
355,139,3488,6,0,B|381:175|381:175|358:287,1,143.999995605469,0|8,0:0|0:0,0:0:0:0:
267,366,4105,2,0,P|238:315|260:261,1,107.999996704102,0|0,0:0|0:0,0:0:0:0:
264,267,4516,1,2,0:0:0:0:
142,218,4721,2,0,P|151:261|164:320,1,71.9999978027344,8|0,0:0|0:0,0:0:0:0:
69,122,5132,6,0,P|60:165|36:275,1,143.999995605469,2|8,0:0|0:0,0:0:0:0:
88,364,5748,2,0,P|127:327|183:343,1,107.999996704102,0|0,0:0|0:0,0:0:0:0:
184,348,6159,1,2,0:0:0:0:
285,282,6365,1,8,0:0:0:0:
353,340,6570,1,0,0:0:0:0:
192,256,6776,6,0,P|182:192|169:105,1,143.999995605469,2|8,0:0|0:0,0:0:0:0:
90,18,7392,2,0,P|80:80|70:141,1,107.999996704102,0|0,0:0|0:0,0:0:0:0:
65,135,7803,1,2,0:0:0:0:
159,82,8009,2,0,P|209:74|259:64,1,71.9999978027344,8|0,0:0|0:0,0:0:0:0:
349,218,8420,6,0,P|284:218|241:141,1,143.999995605469,2|10,0:0|0:0,0:0:0:0:
306,28,9036,2,0,P|313:75|325:146,1,107.999996704102,0|0,0:0|0:0,0:0:0:0:
333,142,9447,1,2,0:0:0:0:
404,29,9653,2,0,P|411:76|418:125,1,71.9999978027344,8|0,0:0|0:0,0:0:0:0:
512,231,10064,6,0,B|451:225|451:225|425:238|425:238|340:231,1,143.999995605469,2|10,0:0|0:0,0:0:0:0:
184,221,10680,1,0,0:0:0:0:
341,149,10885,1,0,0:0:0:0:
302,296,11091,1,2,0:0:0:0:
262,213,11296,1,8,0:0:0:0:
294,307,11502,1,0,0:0:0:0:
453,183,11707,6,0,P|424:164|345:184,1,107.999996704102,2|0,0:0|0:0,0:0:0:0:
345,190,12118,2,0,P|353:229|364:280,1,71.9999978027344,8|0,0:0|0:0,0:0:0:0:
286,379,12529,1,0,0:0:0:0:
370,274,12735,1,0,0:0:0:0:
216,250,12940,1,8,0:0:0:0:
285,300,13146,1,0,0:0:0:0:
347,188,13351,6,0,P|332:109|321:51,1,107.999996704102,2|0,0:0|0:0,0:0:0:0:
332,69,13762,2,0,P|323:116|299:231,1,143.999995605469,10|0,0:0|0:0,0:0:0:0:
262,367,14379,1,2,0:0:0:0:
383,261,14584,1,8,0:0:0:0:
294,287,14790,1,0,0:0:0:0:
469,373,14995,6,0,P|493:323|471:273,1,107.999996704102,2|0,0:0|0:0,0:0:0:0:
462,271,15406,2,0,P|449:208|431:118,1,143.999995605469,10|0,0:0|0:0,0:0:0:0:
283,218,16022,1,2,0:0:0:0:
377,250,16228,2,0,P|367:200|358:160,1,71.9999978027344,8|0,0:0|0:0,0:0:0:0:
331,15,16639,5,2,0:0:0:0:
439,133,16844,1,2,0:0:0:0:
250,78,17050,2,0,B|193:84|193:84|175:72|175:72|82:82,1,143.999995605469,10|0,0:0|0:0,0:0:0:0:
9,247,17666,1,2,0:0:0:0:
126,161,17872,1,8,0:0:0:0:
18,225,18077,1,0,0:0:0:0:
220,220,18283,6,0,P|208:277|192:347,1,107.999996704102,2|0,0:0|0:0,0:0:0:0:
187,338,18694,2,0,P|118:333|145:263,1,143.999995605469,10|0,0:0|0:0,0:0:0:0:
305,177,19310,1,2,0:0:0:0:
292,362,19516,1,8,0:0:0:0:
189,207,19721,1,0,0:0:0:0:
403,239,19927,6,0,B|325:225|349:295|256:276,1,143.999995605469,2|10,0:0|0:0,0:0:0:0:
168,257,20543,1,0,0:0:0:0:
258,126,20748,2,0,P|250:174|241:223,1,71.9999978027344,0|2,0:0|0:0,0:0:0:0:
220,353,21159,1,8,0:0:0:0:
259,215,21365,1,0,0:0:0:0:
88,314,21570,6,0,P|37:270|73:182,1,143.999995605469,2|10,0:0|0:0,0:0:0:0:
115,137,22187,1,0,0:0:0:0:
233,234,22392,2,0,P|185:226|142:219,1,71.9999978027344,0|2,0:0|0:0,0:0:0:0:
282,102,22803,2,0,P|291:144|303:197,1,71.9999978027344,8|0,0:0|0:0,0:0:0:0:
276,329,23214,6,0,P|321:274|401:294,1,143.999995605469,2|10,0:0|0:0,0:0:0:0:
462,332,23831,1,0,0:0:0:0:
421,199,24036,1,0,0:0:0:0:
367,359,24242,1,2,0:0:0:0:
312,187,24447,1,8,0:0:0:0:
387,282,24653,1,0,0:0:0:0:
451,98,24858,6,0,P|401:87|339:72,1,107.999996704102,2|0,0:0|0:0,0:0:0:0:
338,57,25269,2,0,P|273:40|218:102,1,143.999995605469,10|0,0:0|0:0,0:0:0:0:
156,242,25885,1,2,0:0:0:0:
284,157,26091,1,8,0:0:0:0:
254,275,26296,1,0,0:0:0:0:
146,127,26502,6,0,P|94:135|15:147,1,107.999996704102,2|0,0:0|0:0,0:0:0:0:
26,135,26913,2,0,P|78:143|199:161,1,143.999995605469,10|0,0:0|0:0,0:0:0:0:
376,187,27529,1,2,0:0:0:0:
225,234,27735,1,8,0:0:0:0:
290,169,27940,1,0,0:0:0:0:
381,377,28146,6,0,P|390:319|353:283,1,107.999996704102,2|0,0:0|0:0,0:0:0:0:
340,285,28557,2,0,P|276:296|194:308,1,143.999995605469,10|0,0:0|0:0,0:0:0:0:
76,238,29173,1,2,0:0:0:0:
182,153,29379,2,0,P|175:192|163:247,1,71.9999978027344,8|0,0:0|0:0,0:0:0:0:
133,384,29790,5,2,0:0:0:0:
262,233,29995,1,2,0:0:0:0:
62,152,30200,2,0,P|73:208|94:313,1,143.999995605469,10|0,0:0|0:0,0:0:0:0:
245,349,30817,1,2,0:0:0:0:
102,305,31023,1,8,0:0:0:0:
214,268,31228,1,0,0:0:0:0:
169,97,31434,6,0,P|157:154|141:224,1,107.999996704102,2|0,0:0|0:0,0:0:0:0:
128,220,31844,2,0,P|139:167|161:69,1,143.999995605469,10|0,0:0|0:0,0:0:0:0:
208,274,32461,1,2,0:0:0:0:
51,165,32667,1,8,0:0:0:0:
240,115,32872,1,0,0:0:0:0:
128,267,33077,6,0,P|139:214|161:116,1,143.999995605469,2|10,0:0|0:0,0:0:0:0:
116,44,33694,1,0,0:0:0:0:
239,103,33899,2,0,P|244:137|251:177,1,71.9999978027344,0|2,0:0|0:0,0:0:0:0:
216,312,34310,1,8,0:0:0:0:
320,226,34516,1,0,0:0:0:0:
150,136,34721,6,0,P|99:180|135:268,1,143.999995605469,2|10,0:0|0:0,0:0:0:0:
175,311,35338,1,0,0:0:0:0:
277,227,35543,2,0,P|229:219|194:250,1,71.9999978027344,0|2,0:0|0:0,0:0:0:0:
320,147,35954,2,0,P|368:139|403:170,1,71.9999978027344,8|0,0:0|0:0,0:0:0:0:
512,289,36365,6,0,B|455:283|455:283|437:295|437:295|344:285,1,143.999995605469,2|10,0:0|0:0,0:0:0:0:
201,261,36982,1,0,0:0:0:0:
347,261,37187,1,0,0:0:0:0:
197,232,37393,1,2,0:0:0:0:
311,351,37598,1,8,0:0:0:0:
297,160,37804,1,0,0:0:0:0:
213,234,38009,1,0,0:0:0:0:
213,234,39653,6,0,P|147:188|188:89,1,184.000003509522,4|8,3:2|0:0,0:0:0:0:
303,25,40269,1,0,0:0:0:0:
384,168,40474,2,0,P|343:159|281:146,1,92.0000017547608,0|2,0:0|3:2,0:0:0:0:
453,8,40885,2,0,P|466:83|481:166,1,138.000002632141,12|0,0:0|0:0,0:0:0:0:
492,154,41296,5,0,3:2:0:0:
330,225,41502,1,0,0:0:0:0:
374,42,41707,2,0,P|381:82|395:155,1,92.0000017547608,10|0,0:0|0:0,0:0:0:0:
271,31,42118,2,0,P|278:71|292:144,1,92.0000017547608,0|2,0:0|3:2,0:0:0:0:
175,21,42529,1,10,0:0:0:0:
175,21,42940,6,0,P|182:61|209:212,1,184.000003509522,4|8,3:2|0:0,0:0:0:0:
97,142,43557,1,0,3:0:0:0:
264,74,43762,2,0,P|317:86|373:100,1,92.0000017547608,0|2,0:0|3:2,0:0:0:0:
168,15,44173,2,0,P|113:-1|70:63,1,138.000002632141,12|0,0:0|0:0,0:0:0:0:
78,75,44584,5,0,3:0:0:0:
209,140,44790,1,0,0:0:0:0:
87,249,44995,2,0,P|94:216|108:143,1,92.0000017547608,10|0,0:0|3:0,0:0:0:0:
215,34,45406,2,0,P|222:67|236:140,1,92.0000017547608,0|2,0:0|3:2,0:0:0:0:
294,333,45817,1,8,3:2:0:0:
142,182,46022,1,0,3:2:0:0:
372,71,46228,6,0,P|360:126|330:254,1,184.000003509522,4|8,3:2|0:0,0:0:0:0:
262,111,46844,1,0,0:0:0:0:
442,165,47050,2,0,P|454:231|463:281,1,92.0000017547608,0|2,0:0|3:2,0:0:0:0:
359,56,47461,2,0,P|347:122|328:207,1,138.000002632141,12|0,0:0|0:0,0:0:0:0:
318,203,47872,5,0,3:2:0:0:
446,82,48077,1,0,0:0:0:0:
249,25,48283,2,0,P|261:91|270:141,1,92.0000017547608,10|0,0:0|0:0,0:0:0:0:
128,200,48694,2,0,P|140:134|149:84,1,92.0000017547608,0|2,0:0|3:2,0:0:0:0:
240,255,49105,1,10,0:0:0:0:
240,255,49516,6,0,B|339:235|316:331|406:313,1,184.000003509522,4|8,3:2|0:0,0:0:0:0:
512,202,50132,1,0,3:0:0:0:
369,101,50337,2,0,P|378:144|390:206,1,92.0000017547608,0|2,0:0|3:2,0:0:0:0:
439,373,50748,2,0,P|485:331|449:262,1,138.000002632141,12|0,0:0|0:0,0:0:0:0:
445,263,51159,5,0,3:0:0:0:
254,178,51365,1,0,0:0:0:0:
319,381,51570,1,10,0:0:0:0:
398,161,51776,1,0,3:0:0:0:
177,275,51981,1,0,0:0:0:0:
387,181,52187,1,2,3:2:0:0:
159,105,52392,1,8,3:2:0:0:
289,306,52598,1,0,3:2:0:0:
423,79,52803,6,0,B|354:69|354:69|327:81|327:81|237:69,1,160,2|8,3:2|0:0,0:0:0:0:
110,48,53420,1,0,0:0:0:0:
183,197,53625,2,0,P|205:161|188:112,1,80,0|2,0:0|3:2,0:0:0:0:
29,76,54036,2,0,P|38:120|56:211,1,120,8|0,0:0|0:0,0:0:0:0:
41,206,54447,5,2,3:2:0:0:
222,271,54653,1,0,0:0:0:0:
185,95,54858,1,10,0:0:0:0:
134,199,55064,1,0,0:0:0:0:
278,134,55269,2,0,P|335:145|384:154,1,80,0|2,0:0|3:2,0:0:0:0:
471,26,55680,2,0,P|408:21|384:80,1,120,8|0,0:0|0:0,0:0:0:0:
392,78,56091,6,0,P|407:154|423:241,1,160,2|8,3:2|0:0,0:0:0:0:
235,190,56707,1,0,3:2:0:0:
315,112,56913,2,0,P|330:188|337:223,1,80,0|2,0:0|3:2,0:0:0:0:
366,333,57324,1,8,0:0:0:0:
366,333,57529,1,0,0:0:0:0:
229,204,57735,5,2,3:2:0:0:
417,233,57940,1,0,0:0:0:0:
225,308,58146,1,10,0:0:0:0:
391,220,58351,1,0,3:2:0:0:
139,161,58557,2,0,P|148:203|160:258,1,80,0|2,0:0|3:2,0:0:0:0:
254,77,58968,2,0,P|263:119|275:174,1,80,10|2,3:2|3:2,0:0:0:0:
475,236,59379,6,0,B|395:219|412:293|324:278,1,160,2|8,3:2|0:0,0:0:0:0:
271,114,59995,2,0,P|305:98|328:189,1,160,0|2,0:0|3:2,0:0:0:0:
161,263,60611,2,0,P|199:208|259:219,1,120,8|0,0:0|0:0,0:0:0:0:
256,227,61022,5,2,3:2:0:0:
422,269,61228,1,0,0:0:0:0:
329,148,61433,1,10,0:0:0:0:
289,328,61639,1,0,0:0:0:0:
431,171,61844,2,0,P|438:131|447:79,1,80,0|2,0:0|3:2,0:0:0:0:
248,20,62255,2,0,P|258:77|273:166,1,120,8|0,0:0|0:0,0:0:0:0:
257,147,62666,6,0,P|179:160|194:240,1,160,2|8,3:2|0:0,0:0:0:0:
261,314,63283,1,0,3:2:0:0:
387,243,63488,2,0,P|350:237|302:227,1,80,0|2,0:0|3:2,0:0:0:0:
149,200,63899,1,8,0:0:0:0:
149,200,64105,1,0,0:0:0:0:
303,138,64310,5,2,3:2:0:0:
213,316,64516,1,0,0:0:0:0:
299,122,64721,1,10,0:0:0:0:
200,325,64927,1,0,3:2:0:0:
318,281,65132,1,0,0:0:0:0:
131,162,65337,5,2,3:2:0:0:
358,272,65543,1,2,3:2:0:0:
102,343,65748,1,2,3:2:0:0:
227,134,65954,6,0,P|234:191|246:276,1,120,4|0,3:2|0:0,0:0:0:0:
229,273,66365,2,0,P|240:198|252:107,1,160,10|2,0:0|0:0,0:0:0:0:
320,223,66981,1,2,3:2:0:0:
158,176,67187,2,0,P|114:184|63:193,1,80,8|0,0:0|0:0,0:0:0:0:
244,84,67598,5,2,3:2:0:0:
219,257,67803,1,0,0:0:0:0:
140,92,68009,1,10,0:0:0:0:
336,179,68214,1,0,0:0:0:0:
162,325,68420,2,0,P|128:272|176:180,1,160,0|8,0:0|0:0,0:0:0:0:
259,136,69036,1,0,0:0:0:0:
431,246,69242,6,0,P|378:237|309:225,1,120,4|0,3:2|0:0,0:0:0:0:
295,238,69653,2,0,P|348:229|469:207,1,160,10|2,0:0|0:0,0:0:0:0:
365,310,70269,1,2,3:2:0:0:
310,153,70474,2,0,P|257:144|204:134,1,80,8|0,0:0|0:0,0:0:0:0:
76,244,70885,5,2,3:2:0:0:
151,87,71091,1,0,0:0:0:0:
212,269,71296,1,10,0:0:0:0:
72,152,71502,1,2,3:2:0:0:
272,94,71707,2,0,P|266:133|257:194,1,80,0|2,0:0|3:2,0:0:0:0:
118,46,72118,2,0,P|162:38|223:27,1,80,10|2,3:2|3:2,0:0:0:0:
360,116,72529,6,0,P|382:169|351:229,1,120,4|0,3:2|0:0,0:0:0:0:
345,230,72940,2,0,B|265:213|282:287|194:272,1,160,10|2,0:0|0:0,0:0:0:0:
130,198,73557,1,2,3:2:0:0:
63,345,73762,2,0,P|113:347|143:314,1,80,8|0,0:0|0:0,0:0:0:0:
232,147,74173,5,2,3:2:0:0:
50,234,74379,1,0,0:0:0:0:
237,369,74584,2,0,P|244:324|257:238,1,120,10|0,0:0|0:0,0:0:0:0:
245,223,74995,2,0,P|236:282|228:335,1,80,2|0,0:0|3:2,0:0:0:0:
80,155,75406,2,0,P|124:118|192:143,1,120,8|0,0:0|0:0,0:0:0:0:
183,147,75817,5,0,0:0:0:0:
183,147,79105,6,0,P|175:202|154:334,1,184.000003509522,4|8,3:2|0:0,0:0:0:0:
85,193,79721,1,0,0:0:0:0:
265,131,79927,2,0,P|273:186|282:238,1,92.0000017547608,0|2,0:0|3:2,0:0:0:0:
160,364,80337,2,0,P|127:308|167:237,1,138.000002632141,12|0,0:0|0:0,0:0:0:0:
167,243,80748,5,0,3:2:0:0:
284,343,80954,1,0,0:0:0:0:
362,187,81159,2,0,B|318:169|318:169|264:193,1,92.0000017547608,10|0,0:0|0:0,0:0:0:0:
404,349,81570,2,0,P|415:294|425:245,1,92.0000017547608,0|2,0:0|3:2,0:0:0:0:
512,146,81981,1,10,0:0:0:0:
512,146,82392,6,0,B|431:137|431:137|408:150|408:150|308:139,1,184.000003509522,4|8,3:2|0:0,0:0:0:0:
135,114,83009,1,0,3:0:0:0:
275,8,83214,2,0,P|267:43|250:116,1,92.0000017547608,0|2,0:0|3:2,0:0:0:0:
222,285,83625,2,0,P|214:228|287:238,1,138.000002632141,12|0,0:0|0:0,0:0:0:0:
286,238,84036,5,0,3:0:0:0:
144,315,84242,1,0,0:0:0:0:
374,375,84447,2,0,P|364:322|353:264,1,92.0000017547608,10|0,0:0|3:0,0:0:0:0:
201,189,84858,2,0,P|211:242|222:300,1,92.0000017547608,0|2,0:0|3:2,0:0:0:0:
270,110,85269,1,8,3:2:0:0:
100,216,85474,1,0,3:2:0:0:
308,326,85680,6,0,P|318:273|344:129,1,184.000003509522,4|8,3:2|0:0,0:0:0:0:
408,272,86296,1,0,0:0:0:0:
244,194,86502,2,0,P|197:202|137:212,1,92.0000017547608,0|2,0:0|3:2,0:0:0:0:
16,96,86913,2,0,P|56:39|128:61,1,138.000002632141,12|0,0:0|0:0,0:0:0:0:
125,63,87324,5,0,3:2:0:0:
189,183,87529,1,0,0:0:0:0:
313,46,87735,2,0,P|266:38|206:28,1,92.0000017547608,10|0,0:0|0:0,0:0:0:0:
112,163,88146,2,0,P|159:155|219:145,1,92.0000017547608,0|2,0:0|3:2,0:0:0:0:
369,222,88557,1,10,0:0:0:0:
369,222,88968,6,0,P|325:181|362:68,1,184.000003509522,4|8,3:2|0:0,0:0:0:0:
447,190,89584,1,0,3:0:0:0:
264,241,89790,2,0,P|205:230|161:222,1,92.0000017547608,0|2,0:0|3:2,0:0:0:0:
18,154,90201,2,0,P|63:145|170:125,1,138.000002632141,12|0,0:0|0:0,0:0:0:0:
166,119,90611,5,0,3:0:0:0:
78,241,90817,1,0,0:0:0:0:
253,158,91022,2,0,P|265:106|276:52,1,92.0000017547608,10|0,0:0|3:0,0:0:0:0:
329,267,91433,1,0,0:0:0:0:
150,179,91639,1,2,3:2:0:0:
360,140,91844,1,8,3:2:0:0:
141,200,92050,1,0,3:2:0:0:
348,364,92255,6,0,P|377:302|310:216,1,184.000003509522,6|8,3:2|0:0,0:0:0:0:
216,287,92872,1,0,0:0:0:0:
214,93,93077,2,0,P|225:147|237:200,1,92.0000017547608,0|2,0:0|3:2,0:0:0:0:
288,360,93488,1,8,0:0:0:0:
145,216,93694,1,0,0:0:0:0:
370,103,93899,6,0,P|359:157|328:299,1,184.000003509522,4|8,3:2|0:0,0:0:0:0:
441,200,94516,1,0,0:0:0:0:
243,127,94721,2,0,P|251:177|261:238,1,92.0000017547608,0|2,0:0|3:2,0:0:0:0:
406,81,95132,2,0,P|357:72|299:60,1,92.0000017547608,8|0,0:0|0:0,0:0:0:0:
117,13,95543,6,0,P|55:47|74:163,1,184.000003509522,4|8,3:2|0:0,0:0:0:0:
170,256,96159,1,0,3:0:0:0:
317,151,96365,2,0,P|267:143|205:131,1,92.0000017547608,0|2,0:0|3:2,0:0:0:0:
38,231,96776,1,8,0:0:0:0:
215,162,96981,1,0,0:0:0:0:
100,34,97187,6,0,B|68:137|143:108|123:215,1,184.000003509522,4|8,3:2|0:0,0:0:0:0:
46,317,97803,1,0,3:2:0:0:
240,245,98009,1,0,0:0:0:0:
53,287,98214,1,2,3:2:0:0:
298,349,98420,1,8,3:2:0:0:
61,258,98625,1,0,3:2:0:0:
275,129,98831,6,0,P|260:192|228:324,1,184.000003509522,4|8,3:2|0:0,0:0:0:0:
165,162,99447,1,0,0:0:0:0:
342,248,99653,2,0,P|412:236|452:228,1,92.0000017547608,0|2,0:0|3:2,0:0:0:0:
331,53,100064,2,0,P|279:93|286:173,1,138.000002632141,12|0,0:0|0:0,0:0:0:0:
289,169,100474,5,0,3:2:0:0:
452,229,100680,1,0,0:0:0:0:
296,344,100885,2,0,P|305:292|314:234,1,92.0000017547608,10|0,0:0|0:0,0:0:0:0:
145,168,101296,2,0,P|154:220|163:278,1,92.0000017547608,0|2,0:0|3:2,0:0:0:0:
268,106,101707,1,10,0:0:0:0:
268,106,102118,6,0,B|196:100|196:100|171:76|171:76|86:70,1,184.000003509522,4|8,3:2|0:0,0:0:0:0:
258,22,102735,1,0,3:0:0:0:
342,154,102940,2,0,P|334:194|319:264,1,92.0000017547608,0|2,0:0|3:2,0:0:0:0:
121,293,103351,2,0,P|167:235|232:246,1,138.000002632141,12|0,0:0|0:0,0:0:0:0:
236,256,103762,5,0,3:0:0:0:
321,366,103968,1,0,0:0:0:0:
409,205,104173,2,0,P|356:214|300:222,1,92.0000017547608,10|0,0:0|3:0,0:0:0:0:
461,359,104584,2,0,P|470:305|482:240,1,92.0000017547608,0|2,0:0|3:2,0:0:0:0:
385,78,104995,1,8,3:2:0:0:
509,161,105200,1,0,3:2:0:0:
399,212,105406,1,0,0:0:0:0:
