osu file format v14

[General]
AudioFilename: audio.mp3
AudioLeadIn: 0
PreviewTime: 121968
Countdown: 0
SampleSet: Soft
StackLeniency: 0.7
Mode: 0
LetterboxInBreaks: 0
WidescreenStoryboard: 0

[Editor]
DistanceSpacing: 1
BeatDivisor: 4
GridSize: 32
TimelineZoom: 1.1

[Metadata]
Title:DITTO
TitleUnicode:DITTO
Artist:Aries
ArtistUnicode:Aries
Creator:jamesjan3
Version:SHIINOHA'S INSANE
Source:
Tags:english hip hop hip-hop pop rap rosiie cacturne le mirai sirmirai jamesjan tomadoi shiinoha kotone tricolor
BeatmapID:3025519
BeatmapSetID:1474180

[Difficulty]
HPDrainRate:5.5
CircleSize:4
OverallDifficulty:7.5
ApproachRate:7.5
SliderMultiplier:1.9
SliderTickRate:1

[Events]
//Background and Video events
0,0,"79436635_p0_master1200.jpg",0,0
//Break Periods
2,52974,55907
2,93780,102613
//Storyboard Layer 0 (Background)
//Storyboard Layer 1 (Fail)
//Storyboard Layer 2 (Pass)
//Storyboard Layer 3 (Foreground)
//Storyboard Layer 4 (Overlay)
//Storyboard Sound Samples

[TimingPoints]
678,645.161290322581,4,2,1,50,1,0
41968,-83.3333333333333,4,2,1,60,0,0
42613,-83.3333333333333,4,2,1,60,0,0
42694,-83.3333333333333,4,2,1,5,0,0
42774,-83.3333333333333,4,2,1,60,0,0
42855,-83.3333333333333,4,2,1,5,0,0
42936,-83.3333333333333,4,2,1,60,0,0
43016,-83.3333333333333,4,2,1,5,0,0
43097,-83.3333333333333,4,2,1,60,0,0
57452,-76.9230769230769,4,2,1,60,0,0
60032,-76.9230769230769,4,2,1,55,0,0
61645,-55.5555555555556,4,2,1,55,0,0
61887,-55.5555555555556,4,2,1,5,0,0
61968,-55.5555555555556,4,2,1,55,0,0
62532,-55.5555555555556,4,2,1,5,0,0
62613,-62.5,4,2,1,70,0,0
72936,-62.5,4,2,1,80,0,0
83258,-83.3333333333333,4,2,1,50,0,0
103903,-71.4285714285714,4,2,1,60,0,0
114226,-76.9230769230769,4,2,1,50,0,0
121968,-76.9230769230769,4,2,1,55,0,0
123258,-55.5555555555556,4,2,1,55,0,0
123581,-50,4,2,1,55,0,0
123823,-50,4,2,1,5,0,0
123903,-50,4,2,1,55,0,0
124548,-62.5,4,2,1,70,0,0
134871,-62.5,4,2,1,80,0,0
144226,-52.6315789473684,4,2,1,80,0,0
144871,-66.6666666666667,4,2,1,80,0,0
145194,-66.6666666666667,4,2,1,50,0,0

[Colours]
Combo1 : 173,255,95
Combo2 : 17,254,176
Combo3 : 255,88,100
Combo4 : 255,94,55

[HitObjects]
439,310,21323,5,0,1:2:0:0:
446,313,21645,2,0,L|435:248,1,47.5,0|0,1:2|0:0,0:0:0:0:
462,171,21968,2,0,B|425:166|397:200|397:200|420:157|464:152,1,142.5,8|2,0:0|0:0,0:0:0:0:
358,276,22613,6,0,P|318:287|288:242,1,95,0|2,0:0|1:2,0:0:0:0:
365,286,23097,1,2,0:0:0:0:
233,171,23258,2,0,P|228:194|220:216,1,47.5,8|0,0:0|0:0,0:0:0:0:
206,196,23581,2,0,P|212:218|215:242,1,47.5,2|2,0:0|0:0,0:0:0:0:
146,330,23903,5,0,1:2:0:0:
89,284,24226,2,0,B|65:278|65:278|96:302,1,47.5
219,367,24548,2,0,B|266:334|266:334|217:344,1,95,8|0,0:0|1:2,0:0:0:0:
134,366,25032,2,0,B|98:363|90:376|27:372,1,95,0|0,1:2|0:0,0:0:0:0:
28,362,25516,1,2,0:0:0:0:
82,294,25678,5,0,0:0:0:0:
0,245,25839,5,10,0:0:0:0:
83,155,26000,2,0,P|86:144|67:116,1,47.5,2|2,1:2|0:0,0:0:0:0:
78,164,26323,1,0,1:2:0:0:
84,292,26484,6,0,P|105:255|161:243,1,95,0|2,1:2|1:2,0:0:0:0:
162,255,26968,1,0,0:0:0:0:
231,186,27129,6,0,P|249:163|259:143,1,47.5,8|0,0:0|0:0,0:0:0:0:
282,271,27452,1,0,0:0:0:0:
240,134,27613,2,0,P|196:127|139:113,1,95
98,55,28097,2,0,P|115:71|138:88,1,47.5,0|0,1:2|0:0,0:0:0:0:
104,36,28419,5,8,0:0:0:0:
166,95,28581,5,0,0:0:0:0:
248,90,28742,5,0,0:0:0:0:
329,7,28903,5,0,0:0:0:0:
483,101,29065,6,0,L|480:126,1,23.75,0|0,1:2|0:0,0:0:0:0:
469,69,29387,2,0,B|452:53|452:53|466:135,1,95,0|8,0:0|0:0,0:0:0:0:
483,145,30032,1,0,1:2:0:0:
385,92,30194,2,0,B|340:89|328:109|266:107,1,95,2|2,1:3|0:3,0:0:0:0:
425,207,30678,2,0,B|447:214|454:220|473:226,1,47.5,0|2,1:2|0:3,0:0:0:0:
327,248,31000,1,8,0:0:0:0:
309,218,31161,5,0,1:2:0:0:
415,260,31323,1,2,0:3:0:0:
315,337,31484,1,0,1:2:0:0:
403,170,31645,6,0,B|410:116|422:118|434:74,1,95,2|2,1:3|1:3,0:0:0:0:
351,84,32129,1,2,0:0:0:0:
344,88,32290,2,0,B|308:46|318:39|293:0,1,95,8|0,0:0|0:0,0:0:0:0:
241,67,32774,2,0,P|217:63|192:62,1,47.5,2|0,0:0|0:0,0:0:0:0:
73,146,33097,1,2,0:0:0:0:
30,83,33258,2,0,P|46:57|61:32,1,47.5,0|2,1:2|0:0,0:0:0:0:
203,159,33581,1,8,0:0:0:0:
145,216,33742,2,0,P|157:249|172:329,1,95
191,137,34226,5,0,1:2:0:0:
80,374,34548,2,0,P|95:351|120:358,1,47.5,2|2,0:0|0:0,0:0:0:0:
100,276,34871,2,0,P|126:289|152:356,1,95,8|0,0:0|0:0,0:0:0:0:
235,272,35355,2,0,P|256:280|282:294,1,47.5,2|0,1:2|0:0,0:0:0:0:
408,184,35678,1,2,0:0:0:0:
359,244,35839,2,0,P|384:230|406:212,1,47.5,0|2,0:0|0:0,0:0:0:0:
425,106,36161,5,8,0:0:0:0:
286,195,36323,1,0,1:2:0:0:
480,217,36484,5,4,0:3:0:0:
485,209,36645,1,4,0:3:0:0:
328,113,36807,6,0,B|290:102|276:122|224:113,1,95,0|2,1:2|1:2,0:0:0:0:
382,17,37290,2,0,P|406:19|450:33,1,47.5,2|8,0:0|0:0,0:0:0:0:
225,88,37613,1,0,0:0:0:0:
225,105,37774,2,0,P|172:121|136:48,1,142.5,2|2,0:0|0:0,0:0:0:0:
151,137,38419,1,0,0:0:0:0:
27,200,38581,2,0,P|36:179|41:149,1,47.5,2|8,0:0|0:0,0:0:0:0:
178,313,38903,5,0,0:0:0:0:
77,364,39065,1,0,0:0:0:0:
88,255,39226,1,0,0:0:0:0:
212,332,39387,6,0,B|258:331|268:353|325:356,1,95,0|2,1:2|0:0,0:0:0:0:
203,352,39871,1,2,0:0:0:0:
370,298,40032,2,0,P|412:297|441:338,1,95,8|0,0:0|1:2,0:0:0:0:
382,141,40516,2,0,L|371:196,1,47.5,2|0,1:2|0:0,0:0:0:0:
293,230,40839,1,2,0:0:0:0:
288,219,41000,2,0,P|246:218|217:259,1,95,0|8,1:0|0:0,0:0:0:0:
217,271,41484,1,0,1:2:0:0:
294,309,41645,5,4,2:3:0:0:
140,361,41807,1,4,2:3:0:0:
364,371,41968,6,0,B|385:361|420:359|420:359|385:351|344:366,1,113.999996520996,2|2,1:2|1:2,0:0:0:0:
443,369,42452,1,0,0:0:0:0:
407,284,42613,6,0,P|410:267|420:247,1,28.4999991302491,10|0,0:0|0:0,0:0:0:0:
342,229,42774,2,0,P|336:212|334:190,1,28.4999991302491,2|0,0:0|0:0,0:0:0:0:
258,213,42936,2,0,P|245:201|232:183,1,28.4999991302491,2|0,0:0|0:0,0:0:0:0:
199,263,43097,1,2,0:0:0:0:
316,99,43258,6,0,P|329:76|271:28,1,113.999996520996,2|2,0:0|1:2,0:0:0:0:
328,110,43742,1,0,0:0:0:0:
200,19,43903,2,0,B|149:11|130:28|70:21,1,113.999996520996,8|2,0:0|0:0,0:0:0:0:
156,94,44387,1,0,0:0:0:0:
12,171,44548,6,0,P|29:142|50:115,1,56.9999982604981,2|2,1:2|0:0,0:0:0:0:
141,209,44871,2,0,B|149:243|149:243|135:275|135:275|142:321,1,113.999996520996,2|10,0:0|0:0,0:0:0:0:
134,335,45355,1,2,0:0:0:0:
46,297,45516,5,2,1:2:0:0:
230,336,45678,2,0,B|290:330|294:363|360:363,1,113.999996520996,2|0,1:2|0:0,0:0:0:0:
417,384,46161,2,0,B|431:372|448:365|448:365|423:364|407:380,1,56.9999982604981,2|0,0:0|0:0,0:0:0:0:
362,126,46484,5,8,0:0:0:0:
467,236,46645,1,0,1:0:0:0:
327,281,46807,1,4,0:3:0:0:
381,206,46968,5,4,0:3:0:0:
385,215,47048,1,0,1:0:0:0:
376,217,47129,2,0,P|386:152|396:90,1,113.999996520996,2|0,1:2|1:0,0:0:0:0:
415,91,47613,1,2,0:0:0:0:
258,9,47774,5,10,0:0:0:0:
305,84,47936,1,2,0:0:0:0:
157,175,48097,5,2,0:0:0:0:
207,79,48258,1,2,0:0:0:0:
221,275,48419,6,0,P|189:287|158:290,1,56.9999982604981,2|0,0:0|0:0,0:0:0:0:
124,384,48742,2,0,P|104:334|52:339,1,113.999996520996,2|8,1:2|0:0,0:0:0:0:
19,325,49226,1,0,0:0:0:0:
15,336,49387,1,2,0:0:0:0:
120,216,49548,1,0,0:0:0:0:
6,151,49710,6,0,P|-7:156|11:155,1,56.9999982604981,2|2,1:2|0:0,0:0:0:0:
99,56,50032,2,0,P|81:17|2:35,1,113.999996520996,2|10,0:0|0:0,0:0:0:0:
8,29,50516,1,2,0:0:0:0:
150,128,50678,2,0,P|175:113|214:104,1,56.9999982604981,2|2,1:2|1:2,0:0:0:0:
350,63,51000,1,2,0:0:0:0:
294,145,51161,5,0,0:0:0:0:
258,9,51323,1,2,1:2:0:0:
399,131,51484,1,0,0:0:0:0:
261,174,51645,6,0,B|248:223|267:242|251:294,1,113.999996520996,8|8,0:0|0:3,0:0:0:0:
340,368,52129,6,0,P|364:322|477:345,1,170.999994781494,10|0,0:3|0:0,0:0:0:0:
481,313,52774,1,0,0:0:0:0:
219,41,56807,5,8,0:0:0:0:
230,56,57129,1,8,0:3:0:0:
187,178,57290,1,8,0:3:0:0:
320,241,57452,6,0,B|384:228|395:262|463:251,2,123.499994346619,2|0|8,1:2|1:2|0:0,0:0:0:0:
105,166,58258,5,0,0:0:0:0:
31,229,58419,1,2,0:0:0:0:
138,276,58581,1,2,0:0:0:0:
281,159,58742,6,0,P|292:103|239:83,1,123.499994346619,0|0,0:0|1:2,0:0:0:0:
233,302,59226,2,0,B|225:322|225:322|225:339|225:339|214:372,1,61.7499971733095,2|8,0:0|0:0,0:0:0:0:
219,286,59548,1,0,0:0:0:0:
241,65,59710,1,2,0:0:0:0:
236,41,59871,1,2,0:0:0:0:
131,293,60032,6,0,P|82:304|52:236,1,123.499994346619,2|2,1:2|0:0,0:0:0:0:
100,190,60678,1,2,0:0:0:0:
110,193,60839,1,2,0:0:0:0:
235,328,61000,2,0,P|284:339|314:271,1,123.499994346619,2|0,0:0|0:0,0:0:0:0:
487,367,61645,6,0,P|471:319|379:313,1,128.249996086121,12|0,3:0|0:0,0:0:0:0:
348,384,61968,6,0,L|397:76,1,299.249990867615,10|0,0:0|0:0,0:0:0:0:
463,50,62613,6,0,B|391:35|380:87|302:71,1,152,6|2,1:2|1:2,0:0:0:0:
463,50,63097,1,0,0:0:0:0:
234,165,63258,2,0,P|230:126|217:88,1,76,10|2,0:0|0:0,0:0:0:0:
455,226,63581,5,2,0:0:0:0:
340,299,63742,1,2,0:0:0:0:
331,163,63903,1,2,0:0:0:0:
442,266,64065,1,2,0:0:0:0:
279,238,64226,2,0,B|210:227|198:261|119:253,2,152,2|10|2,1:2|0:0|0:0,0:0:0:0:
370,227,65032,1,2,0:0:0:0:
313,315,65194,6,0,P|300:347|280:389,1,76,2|0,1:2|0:0,0:0:0:0:
419,316,65516,2,0,P|407:279|387:238,1,76,2|0,1:2|0:0,0:0:0:0:
296,81,65839,1,10,0:0:0:0:
368,57,66000,1,2,0:0:0:0:
419,112,66161,1,2,1:2:0:0:
411,126,66323,1,2,1:2:0:0:
250,201,66484,5,2,0:0:0:0:
151,117,66645,1,2,0:0:0:0:
33,206,66807,2,0,B|39:242|39:242|31:284,1,76,2|0,0:0|0:0,0:0:0:0:
124,191,67129,2,0,L|103:35,1,152,10|4,0:0|0:3,0:0:0:0:
22,117,67613,1,4,0:3:0:0:
211,40,67774,6,0,P|246:48|297:49,1,76,2|0,1:2|0:0,0:0:0:0:
391,245,68097,2,0,P|356:237|305:236,1,76,2|0,1:2|0:0,0:0:0:0:
371,29,68419,1,10,0:0:0:0:
458,73,68581,1,2,0:0:0:0:
418,163,68742,1,2,0:0:0:0:
330,118,68904,1,2,0:0:0:0:
488,235,69065,6,0,P|478:265|473:310,1,76,2|2,0:0|0:0,0:0:0:0:
316,235,69387,2,0,B|246:224|248:276|156:264,2,152,2|10|2,1:2|0:0|0:0,0:0:0:0:
391,245,70194,1,0,0:0:0:0:
191,167,70355,6,0,P|183:126|170:92,1,76,2|0,1:2|0:0,0:0:0:0:
28,167,70678,2,0,P|14:202|7:239,1,76,2|0,1:2|0:0,0:0:0:0:
164,347,71000,1,10,0:0:0:0:
164,347,71161,1,2,0:0:0:0:
95,230,71323,2,0,P|132:222|168:212,1,76,2|0,1:2|1:0,0:0:0:0:
391,245,71645,2,0,P|319:230|273:293,1,152,2|2,0:0|1:2,0:0:0:0:
470,234,72129,1,0,0:0:0:0:
408,322,72290,2,0,L|425:171,1,152,10|6,0:0|0:3,0:0:0:0:
370,10,72774,1,4,0:3:0:0:
499,61,72936,6,0,B|447:66|447:66|411:96|411:96|343:104,1,152,4|2,1:2|1:2,0:0:0:0:
292,171,73419,1,0,0:0:0:0:
207,86,73581,2,0,P|219:46|237:12,1,76,8|0,0:0|0:0,0:0:0:0:
336,94,73903,1,2,0:0:0:0:
200,173,74065,2,0,B|120:163|109:197|37:193,1,152
260,261,74548,2,0,P|298:274|346:282,1,76,2|0,1:2|0:0,0:0:0:0:
271,355,74871,1,10,0:0:0:0:
179,261,75032,2,0,P|166:215|144:167,1,76,0|2,1:2|0:0,0:0:0:0:
53,64,75355,5,0,1:0:0:0:
46,74,75436,1,0,1:0:0:0:
62,79,75516,2,0,B|143:67|131:116|212:122,1,152,0|2,1:2|1:2,0:0:0:0:
368,203,76000,1,0,0:0:0:0:
430,151,76161,2,0,P|416:111|398:82,1,76,8|0,0:0|0:0,0:0:0:0:
219,206,76484,1,0,1:2:0:0:
267,290,76645,2,0,P|315:322|407:340,1,152,0|0,1:2|0:0,0:0:0:0:
512,212,77129,2,0,P|481:219|438:248,1,76,2|0,0:0|0:0,0:0:0:0:
323,208,77452,5,10,0:0:0:0:
371,35,77613,1,0,1:0:0:0:
430,99,77774,5,6,0:3:0:0:
264,139,77936,1,4,0:3:0:0:
285,58,78097,5,0,1:2:0:0:
402,179,78419,1,2,1:2:0:0:
285,58,78581,1,0,0:0:0:0:
320,215,78742,2,0,P|308:251|304:288,1,76,8|0,0:0|0:0,0:0:0:0:
342,122,79065,1,2,0:0:0:0:
246,151,79226,2,0,B|173:149|171:182|97:186,1,152
3,255,79710,2,0,P|32:265|75:291,1,76,2|0,1:2|0:0,0:0:0:0:
119,39,80032,1,10,0:0:0:0:
32,86,80194,1,0,1:2:0:0:
80,171,80355,1,2,0:0:0:0:
167,124,80517,1,0,0:0:0:0:
236,311,80678,6,0,P|301:314|367:379,1,152,0|2,1:2|1:2,0:0:0:0:
483,331,81161,1,0,0:0:0:0:
414,294,81323,2,0,P|405:250|390:208,1,76,10|0,0:0|0:0,0:0:0:0:
478,56,81645,1,2,1:2:0:0:
463,181,81807,2,0,P|404:183|306:221,1,152,0|0,1:2|0:0,0:0:0:0:
282,130,82290,2,0,P|317:114|356:104,1,76,2|0,1:2|0:0,0:0:0:0:
353,104,82613,1,10,0:0:0:0:
283,30,83258,5,0,1:2:0:0:
236,311,83581,1,0,1:2:0:0:
210,196,83742,5,0,0:0:0:0:
252,326,83903,2,0,P|301:343|337:293,1,113.999996520996,8|2,0:0|0:0,0:0:0:0:
457,263,84387,2,0,P|432:249|410:230,1,56.9999982604981,2|0,0:0|0:0,0:0:0:0:
395,75,84710,1,0,0:0:0:0:
388,152,84871,2,0,P|400:119|407:88,1,56.9999982604981,2|2,1:2|0:0,0:0:0:0:
303,127,85194,2,0,B|251:122|246:93|185:91,1,113.999996520996,8|2,0:0|0:0,0:0:0:0:
315,117,85678,1,2,0:0:0:0:
163,165,85839,5,0,1:2:0:0:
344,41,86161,1,0,0:0:0:0:
147,172,86484,2,0,P|136:199|128:230,1,56.9999982604981,8|0,0:0|0:0,0:0:0:0:
86,110,86807,1,2,1:2:0:0:
196,265,86968,2,0,P|159:269|66:300,1,113.999996520996,2|0,1:2|0:0,0:0:0:0:
264,212,87452,2,0,P|292:219|321:228,1,56.9999982604981,2|0,0:0|0:0,0:0:0:0:
449,361,87774,1,10,0:0:0:0:
489,278,87936,1,2,1:2:0:0:
406,240,88097,1,2,0:0:0:0:
366,323,88259,1,0,1:2:0:0:
478,192,88419,6,0,B|469:150|469:150|449:134|449:134|435:82,1,113.999996520996,0|2,1:2|1:2,0:0:0:0:
467,10,88903,1,0,0:0:0:0:
367,131,89065,2,0,P|340:139|307:155,1,56.9999982604981,8|0,0:0|0:0,0:0:0:0:
319,57,89387,1,2,0:0:0:0:
279,229,89548,2,0,P|238:219|167:176,1,113.999996520996,2|2,0:0|0:0,0:0:0:0:
89,284,90032,2,0,P|114:272|141:262,1,56.9999982604981,2|0,1:2|0:0,0:0:0:0:
120,27,90355,5,10,0:0:0:0:
71,164,90516,1,2,0:0:0:0:
49,57,90678,2,0,B|104:57|108:91|167:96,1,113.999996520996,2|0,0:0|1:2,0:0:0:0:
338,176,91323,5,2,0:0:0:0:
426,119,91484,1,0,0:0:0:0:
335,46,91645,2,0,B|281:31|272:57|210:47,1,113.999996520996,8|2,0:0|1:2,0:0:0:0:
436,98,92129,2,0,P|461:112|496:123,1,56.9999982604981,2|2,1:2|0:0,0:0:0:0:
345,269,92452,1,0,0:0:0:0:
317,188,92613,2,0,P|274:195|221:247,1,113.999996520996,2|10,1:2|0:0,0:0:0:0:
151,329,93097,1,2,1:2:0:0:
89,138,93258,2,0,P|78:110|61:81,2,56.9999982604981,2|0|0,0:0|1:2|0:0,0:0:0:0:
288,348,103903,5,2,1:2:0:0:
214,305,104065,2,0,B|180:296|152:323|152:323|175:289|233:287,1,132.999995941162,2|2,0:0|0:0,0:0:0:0:
369,331,104548,5,8,0:0:0:0:
459,266,104710,1,2,0:0:0:0:
474,353,104871,5,0,0:0:0:0:
372,248,105032,2,0,B|312:235|302:200|243:196,1,132.999995941162,2|0,0:0|0:0,0:0:0:0:
204,69,105516,2,0,P|195:98|178:133,1,66.4999979705811,2|0,1:2|0:0,0:0:0:0:
172,204,105839,2,0,B|131:243|76:220|76:220|59:156|120:130,1,199.499993911743,10|0,0:0|0:0,0:0:0:0:
286,35,106484,5,2,1:2:0:0:
364,90,106645,2,0,B|412:98|412:98|439:123|439:123|520:130,1,132.999995941162,2|2,0:0|0:0,0:0:0:0:
272,46,107129,2,0,P|243:58|205:73,1,66.4999979705811,8|2,0:0|0:0,0:0:0:0:
90,241,107452,1,0,1:0:0:0:
132,116,107613,2,0,P|77:102|21:51,1,132.999995941162,2|0,1:2|0:0,0:0:0:0:
218,226,108097,2,0,P|194:237|158:268,1,66.4999979705811,2|0,0:0|0:0,0:0:0:0:
143,28,108419,5,10,0:0:0:0:
254,146,108581,1,0,1:0:0:0:
299,0,108742,1,6,0:3:0:0:
234,61,108903,5,6,0:3:0:0:
341,162,109065,2,0,P|401:147|432:200,2,132.999995941162,2|0|8,1:2|1:2|0:0,0:0:0:0:
312,183,109871,5,2,0:0:0:0:
444,291,110032,1,0,0:0:0:0:
397,360,110194,6,0,B|416:301|387:278|400:226,1,132.999995941162,2|0,0:0|0:0,0:0:0:0:
476,254,110678,2,0,B|486:224|470:211|483:177,1,66.4999979705811,2|0,1:2|0:0,0:0:0:0:
441,121,111000,1,10,0:0:0:0:
352,55,111161,5,0,0:0:0:0:
282,113,111323,1,0,0:0:0:0:
173,82,111484,1,0,0:0:0:0:
77,150,111645,6,0,B|58:152|11:181|11:181|67:116,1,132.999995941162,2|2,1:2|0:0,0:0:0:0:
90,130,112129,1,2,0:0:0:0:
77,260,112290,2,0,P|58:280|38:321,1,66.4999979705811,8|2,0:0|0:0,0:0:0:0:
47,341,112613,1,2,1:2:0:0:
201,281,112774,2,0,B|213:236|262:215|262:215|204:219|156:195,1,199.499993911743,0|0,1:0|1:0,0:0:0:0:
260,384,113581,1,8,0:0:0:0:
291,26,113903,1,6,0:3:0:0:
336,198,114065,1,4,0:3:0:0:
280,36,114226,6,0,B|231:33|217:59|144:51,1,123.499994346619,0|2,1:2|1:2,0:0:0:0:
263,121,114710,1,0,0:0:0:0:
363,61,114871,2,0,P|395:55|430:45,1,61.7499971733095,8|0,0:0|0:0,0:0:0:0:
499,197,115194,1,2,0:0:0:0:
408,135,115355,6,0,B|396:182|396:182|404:205|404:205|390:264,1,123.499994346619
475,368,115839,2,0,P|482:334|495:304,1,61.7499971733095,2|0,1:2|0:0,0:0:0:0:
336,318,116161,1,8,0:0:0:0:
319,326,116484,1,2,0:0:0:0:
193,260,116645,1,0,0:0:0:0:
48,346,116807,6,0,B|33:279|86:286|65:206,1,123.499994346619,0|2,1:0|0:0,0:0:0:0:
128,330,117290,1,0,0:0:0:0:
48,213,117452,2,0,P|59:186|69:147,1,61.7499971733095,10|0,0:0|0:0,0:0:0:0:
230,47,117774,1,2,1:2:0:0:
48,87,117936,2,0,P|94:112|146:168,1,123.499994346619
247,57,118419,2,0,P|274:40|301:15,1,61.7499971733095,2|0,0:0|0:0,0:0:0:0:
462,161,118742,1,10,0:0:0:0:
392,198,119065,1,6,0:3:0:0:
372,0,119226,1,4,0:3:0:0:
309,185,119387,6,0,B|258:217|257:304,2,123.499994346619,0|2|8,1:2|1:2|0:0,0:0:0:0:
452,24,120194,1,0,0:0:0:0:
497,93,120355,1,2,0:0:0:0:
317,105,120516,2,0,B|259:102|257:140|172:140,1,123.499994346619
121,39,121000,2,0,B|100:31|85:39|60:30,1,61.7499971733095,2|0,1:2|0:0,0:0:0:0:
17,206,121323,5,8,0:0:0:0:
120,132,121484,1,0,0:0:0:0:
79,244,121645,1,2,0:0:0:0:
52,108,121807,1,0,0:0:0:0:
30,317,121968,5,2,1:2:0:0:
138,349,122290,5,2,0:0:0:0:
240,286,122613,5,2,0:0:0:0:
309,252,122774,1,2,0:0:0:0:
229,271,122936,1,2,0:0:0:0:
115,216,123258,6,0,B|111:171|132:176|124:104,1,85.4999973907472
192,203,123581,6,0,B|222:131|259:171|295:90,1,142.5,12|0,3:0|0:0,0:0:0:0:
431,77,123903,5,10,0:0:0:0:
361,32,124226,1,8,0:0:0:0:
511,95,124387,1,0,1:0:0:0:
341,14,124548,6,0,B|279:1|251:45|186:34,1,152,6|2,1:2|1:2,0:0:0:0:
133,108,125032,1,0,0:0:0:0:
56,58,125194,2,0,P|27:35|-2:5,1,76,10|2,0:0|0:0,0:0:0:0:
195,179,125516,5,2,0:0:0:0:
68,287,125678,1,2,0:0:0:0:
60,138,125839,1,2,0:0:0:0:
168,277,126000,1,2,0:0:0:0:
18,215,126161,2,0,B|106:206|101:235|170:227,1,152,2|10,1:2|0:0,0:0:0:0:
246,293,126645,1,0,0:0:0:0:
376,223,126807,1,2,0:0:0:0:
486,288,126968,1,2,0:0:0:0:
470,303,127129,6,0,P|462:339|448:383,1,76,2|0,1:2|0:0,0:0:0:0:
298,374,127452,2,0,P|286:337|278:300,1,76,2|0,1:2|0:0,0:0:0:0:
404,91,127774,1,10,0:0:0:0:
460,172,127936,1,2,0:0:0:0:
376,223,128097,1,2,1:2:0:0:
319,142,128259,1,2,1:2:0:0:
203,38,128419,5,2,0:0:0:0:
56,145,128581,1,2,0:0:0:0:
190,249,128742,2,0,P|185:285|175:330,1,76,2|0,0:0|0:0,0:0:0:0:
295,120,129065,2,0,L|139:159,1,152,10|4,0:0|0:3,0:0:0:0:
294,243,129548,1,4,0:3:0:0:
375,37,129710,6,0,B|411:36|411:36|457:54,1,76,2|0,1:2|0:0,0:0:0:0:
418,293,130032,2,0,B|380:307|380:307|344:306,1,76,2|0,1:2|0:0,0:0:0:0:
400,119,130355,1,10,0:0:0:0:
437,185,130516,1,2,0:0:0:0:
369,220,130678,1,2,0:0:0:0:
332,154,130839,1,2,0:0:0:0:
441,267,131000,5,2,0:0:0:0:
317,326,131161,1,2,0:0:0:0:
229,215,131323,2,0,B|160:195|136:231|64:214,2,152,2|10|2,1:2|0:0|0:0,0:0:0:0:
306,191,132129,1,0,0:0:0:0:
170,370,132290,6,0,P|163:333|152:296,1,76,2|0,1:2|0:0,0:0:0:0:
224,56,132613,2,0,P|231:93|241:129,1,76,2|0,1:2|0:0,0:0:0:0:
2,204,132936,1,10,0:0:0:0:
34,110,133097,2,0,P|106:108|155:168,1,152,2|0,0:0|1:0,0:0:0:0:
244,34,133581,2,0,P|318:23|399:10,2,152,2|2|10,0:0|1:2|0:0,0:0:0:0:
115,205,134387,5,0,1:0:0:0:
89,44,134548,1,6,0:3:0:0:
233,112,134710,1,4,1:3:0:0:
243,122,134790,1,0,1:0:0:0:
229,129,134871,6,0,B|207:192|254:213|231:289,1,152,4|2,1:2|1:2,0:0:0:0:
174,337,135355,1,0,0:0:0:0:
83,290,135516,2,0,P|47:303|11:315,1,76,8|0,0:0|0:0,0:0:0:0:
249,377,135839,5,2,0:0:0:0:
319,281,136000,2,0,P|382:294|452:347,1,152
376,187,136484,2,0,P|406:161|444:142,1,76,2|0,1:2|0:0,0:0:0:0:
294,147,136807,2,0,P|311:111|337:78,1,76,10|0,0:0|1:2,0:0:0:0:
202,151,137129,2,0,P|195:111|197:69,1,76,2|0,0:0|0:0,0:0:0:0:
78,267,137452,6,0,B|19:320|19:320|54:256,1,152,0|2,1:2|1:2,0:0:0:0:
114,190,137936,1,0,0:0:0:0:
175,321,138097,6,0,B|196:348|196:348|191:301,1,76,8|0,0:0|0:0,0:0:0:0:
126,210,138419,1,0,1:2:0:0:
260,263,138581,6,0,B|314:279|314:279|339:310|339:310|401:328,1,152,0|0,1:2|0:0,0:0:0:0:
492,175,139065,2,0,P|456:185|416:200,1,76,2|0,0:0|0:0,0:0:0:0:
256,155,139387,5,10,0:0:0:0:
406,104,139548,1,0,1:0:0:0:
335,207,139710,5,6,0:3:0:0:
168,120,139871,1,4,0:3:0:0:
23,212,140032,6,0,B|-7:299|67:276|40:364,2,152,0|2|8,1:2|1:2|0:0,0:0:0:0:
132,139,140839,1,0,0:0:0:0:
7,112,141000,5,2,0:0:0:0:
130,252,141161,2,0,P|179:266|191:178,1,152
127,8,141645,2,0,P|103:34|85:74,1,76,2|0,1:2|0:0,0:0:0:0:
316,230,141968,5,10,0:0:0:0:
303,152,142129,5,0,1:2:0:0:
227,98,142290,5,2,0:0:0:0:
132,139,142452,5,0,0:0:0:0:
290,318,142613,2,0,B|370:322|365:349|449:360,2,152,0|2|10,1:2|1:2|0:0,0:0:0:0:
177,343,143419,2,0,B|152:347|135:358|135:358|146:337|170:335,1,76,0|2,0:0|1:2,0:0:0:0:
333,198,143742,6,0,B|403:235|403:235|330:225,1,152,0|0,1:2|0:0,0:0:0:0:
353,98,144226,2,0,B|391:71|391:71|380:118,1,90.2499975900651,0|0,1:0|0:0,0:0:0:0:
253,20,144548,5,8,0:0:0:0:
161,111,144710,1,0,1:0:0:0:
49,48,144871,2,0,B|21:33|21:33|69:27,1,71.2500027179719,4|4,0:3|0:3,0:0:0:0:
256,192,145194,12,2,147532,0:0:0:0:
