osu file format v14

[General]
AudioFilename: audio.mp3
AudioLeadIn: 0
PreviewTime: 121968
Countdown: 0
SampleSet: Soft
StackLeniency: 0.7
Mode: 0
LetterboxInBreaks: 0
WidescreenStoryboard: 1

[Editor]
Bookmarks: 52290,57452
DistanceSpacing: 1.2
BeatDivisor: 4
GridSize: 32
TimelineZoom: 0.6999998

[Metadata]
Title:DITTO
TitleUnicode:DITTO
Artist:Aries
ArtistUnicode:Aries
Creator:jamesjan3
Version:MIRAI'S EASY
Source:
Tags:english hip hop hip-hop pop rap rosiie cacturne le mirai sirmirai jamesjan tomadoi shiinoha kotone tricolor
BeatmapID:3162429
BeatmapSetID:1474180

[Difficulty]
HPDrainRate:3
CircleSize:3.5
OverallDifficulty:3
ApproachRate:5
SliderMultiplier:1.6
SliderTickRate:1

[Events]
//Background and Video events
0,0,"79436635_p0_master1200.jpg",0,0
//Break Periods
2,52329,56252
2,93619,102703
//Storyboard Layer 0 (Background)
//Storyboard Layer 1 (Fail)
//Storyboard Layer 2 (Pass)
//Storyboard Layer 3 (Foreground)
//Storyboard Layer 4 (Overlay)
//Storyboard Sound Samples

[TimingPoints]
678,645.161290322581,4,2,1,50,1,0
21323,-125,4,2,1,50,0,0
41968,-125,4,2,1,60,0,0
60032,-125,4,2,1,55,0,0
62613,-111.111111111111,4,2,1,70,0,1
72936,-111.111111111111,4,2,1,80,0,1
83258,-125,4,2,1,50,0,0
103903,-111.111111111111,4,2,1,60,0,0
113903,-125,4,2,1,60,0,0
114226,-125,4,2,1,50,0,0
121968,-125,4,2,1,55,0,0
124548,-111.111111111111,4,2,1,70,0,1
134871,-111.111111111111,4,2,1,80,0,1
144871,-125,4,2,1,80,0,0
145194,-125,4,2,1,50,0,0

[Colours]
Combo1 : 173,255,95
Combo2 : 17,254,176
Combo3 : 255,88,100
Combo4 : 255,94,55

[HitObjects]
19,313,21323,6,0,P|83:318|161:330,1,128,0|8,1:2|0:0,0:0:0:0:
269,309,22452,2,0,P|286:261|256:200,1,96,2|2,0:0|1:2,0:0:0:0:
203,175,23258,2,0,P|184:138|187:109,1,64,8|2,0:0|0:0,0:0:0:0:
255,72,23903,2,0,B|326:56|291:15|378:3,1,128,0|8,1:2|0:0,0:0:0:0:
444,99,25032,2,0,P|439:142|431:214,1,96,0|2,1:2|0:0,0:0:0:0:
488,256,25839,1,10,0:0:0:0:
363,366,26484,6,0,P|306:356|304:275,1,128,0|8,1:2|0:0,0:0:0:0:
279,212,27452,2,0,P|221:223|140:256,1,128,0|0,0:0|1:2,0:0:0:0:
74,233,28419,1,8,0:0:0:0:
46,154,28742,1,0,0:0:0:0:
114,107,29065,2,0,P|119:72|93:30,2,64,0|0|8,1:2|0:0|0:0,0:0:0:0:
47,229,30194,6,0,P|21:286|36:341,1,96,2|0,1:3|1:2,0:0:0:0:
103,345,31000,1,8,0:0:0:0:
180,313,31323,1,0,0:0:0:0:
251,355,31645,6,0,P|308:361|336:355,2,64,2|2|8,1:3|1:3|0:0,0:0:0:0:
209,237,32774,2,0,P|212:190|251:139,1,96,2|0,0:0|1:2,0:0:0:0:
319,135,33581,1,8,0:0:0:0:
467,210,34226,6,0,P|453:246|450:280,2,64,0|2|8,1:2|0:0|0:0,0:0:0:0:
473,85,35355,2,0,P|440:56|372:67,1,96,2|0,1:2|0:0,0:0:0:0:
337,120,36161,1,8,0:0:0:0:
257,95,36484,1,4,0:3:0:0:
194,149,36807,6,0,L|180:231,2,64,0|2|8,1:2|1:2|0:0,0:0:0:0:
88,82,37936,2,0,P|36:107|32:160,1,96
16,223,38742,1,8,0:0:0:0:
121,351,39387,6,0,P|168:317|239:311,1,128,0|8,1:2|0:0,0:0:0:0:
303,261,40355,2,0,P|317:210|308:182,2,64,0|0|0,1:2|0:0|1:0,0:0:0:0:
236,310,41322,1,8,0:0:0:0:
171,257,41645,1,4,2:3:0:0:
91,281,41968,6,0,P|85:249|96:219,2,64,2|2|10,1:2|1:2|0:0,0:0:0:0:
147,342,42936,2,0,L|228:331,1,64,2|2,0:0|0:0,0:0:0:0:
285,297,43581,1,2,1:2:0:0:
375,349,43903,1,8,0:0:0:0:
405,185,44548,2,0,B|403:128|451:122|438:37,1,128,2|10,1:2|0:0,0:0:0:0:
367,23,45516,2,0,L|297:37,1,64,2|2,1:2|0:0,0:0:0:0:
226,6,46161,1,2,0:0:0:0:
181,76,46484,1,8,0:0:0:0:
105,41,46807,1,4,0:3:0:0:
39,91,47129,6,0,P|35:122|32:154,2,64,2|0|10,1:2|1:0|0:0,0:0:0:0:
105,41,48097,2,0,L|178:56,1,64,2|2,0:0|0:0,0:0:0:0:
248,72,48742,1,2,1:2:0:0:
313,312,49710,2,0,B|365:301|365:301|380:282|380:282|452:271,1,128,2|10,1:2|0:0,0:0:0:0:
493,220,50677,1,2,1:2:0:0:
460,143,51000,2,0,P|431:129|399:130,1,64,2|2,0:0|1:2,0:0:0:0:
337,186,51645,1,8,0:0:0:0:
260,152,51968,2,0,L|256:120,1,32,8|10,0:3|0:3,0:0:0:0:
240,101,57452,6,0,P|229:71|235:40,2,64,2|0|8,1:2|1:2|0:0,0:0:0:0:
313,201,58581,2,0,P|325:247|305:318,1,96,2|0,0:0|1:2,0:0:0:0:
247,339,59387,1,8,0:0:0:0:
185,282,59710,1,2,0:0:0:0:
118,332,60032,6,0,P|61:334|39:256,1,128,2|2,1:2|0:0,0:0:0:0:
75,205,61000,1,2,0:0:0:0:
40,129,61323,2,0,P|46:95|86:54,1,64,0|12,0:0|3:0,0:0:0:0:
129,21,61968,2,0,L|181:37,1,32,10|12,0:0|3:0,0:0:0:0:
244,142,62613,6,0,P|309:112|380:102,1,143.999995605469,6|10,1:2|0:0,0:0:0:0:
446,157,63581,2,0,P|457:197|444:231,1,71.9999978027344,2|2,0:0|0:0,0:0:0:0:
403,299,64226,1,2,1:2:0:0:
325,337,64548,1,10,0:0:0:0:
153,360,65194,2,0,P|103:348|56:341,1,71.9999978027344,2|2,1:2|1:2,0:0:0:0:
13,292,65839,2,0,P|6:252|30:204,1,71.9999978027344,10|2,0:0|1:2,0:0:0:0:
71,157,66484,1,2,0:0:0:0:
30,80,66807,1,2,0:0:0:0:
91,19,67129,2,0,P|129:10|175:33,1,71.9999978027344,10|4,0:0|0:3,0:0:0:0:
219,82,67774,6,0,P|286:119|374:99,1,143.999995605469,2|10,1:2|0:0,0:0:0:0:
433,87,68742,1,2,0:0:0:0:
494,148,69065,2,0,P|497:207|477:234,1,71.9999978027344,2|2,0:0|1:2,0:0:0:0:
439,285,69710,1,10,0:0:0:0:
273,335,70356,2,0,P|218:341|181:344,1,71.9999978027344,2|2,1:2|1:2,0:0:0:0:
115,333,71000,1,10,0:0:0:0:
49,276,71323,1,2,1:2:0:0:
100,206,71646,2,0,P|103:165|110:117,1,71.9999978027344,2|2,0:0|1:2,0:0:0:0:
152,60,72290,1,10,0:0:0:0:
220,113,72613,6,0,P|279:153|372:133,1,143.999995605469,6|2,0:3|1:2,0:0:0:0:
420,99,73581,1,8,0:0:0:0:
483,157,73903,2,0,P|477:207|470:261,1,71.9999978027344,2|0,0:0|0:0,0:0:0:0:
431,303,74548,1,2,1:2:0:0:
352,267,74871,1,10,0:0:0:0:
294,331,75194,2,0,B|227:331|240:286|153:281,1,143.999995605469,2|2,0:0|1:2,0:0:0:0:
94,335,76161,1,8,0:0:0:0:
21,177,76807,2,0,P|5:133|17:84,1,71.9999978027344,2|2,0:0|0:0,0:0:0:0:
79,62,77452,1,10,0:0:0:0:
163,78,77774,6,0,P|176:145|129:219,1,143.999995605469,6|2,0:3|1:2,0:0:0:0:
68,255,78742,1,8,0:0:0:0:
101,334,79065,2,0,P|170:312|264:308,1,143.999995605469,2|2,0:0|1:2,0:0:0:0:
311,256,80032,1,10,0:0:0:0:
390,289,80355,2,0,P|393:232|409:116,1,143.999995605469,2|2,0:0|1:2,0:0:0:0:
366,67,81323,1,10,0:0:0:0:
291,109,81645,2,0,B|208:99|245:41|141:27,1,143.999995605469,2|2,1:2|1:2,0:0:0:0:
89,55,82613,1,10,0:0:0:0:
34,198,83258,6,0,P|30:229|27:261,2,64,0|0|8,1:2|1:2|0:0,0:0:0:0:
157,179,84387,2,0,P|202:207|262:216,1,96,2|2,0:0|1:2,0:0:0:0:
262,297,85194,2,0,P|243:335|251:370,1,64,8|2,0:0|0:0,0:0:0:0:
324,380,85839,1,0,1:2:0:0:
405,234,86484,1,8,0:0:0:0:
477,273,86807,2,0,P|479:304|483:336,1,64,2|0,1:2|0:0,0:0:0:0:
410,375,87452,1,2,0:0:0:0:
348,319,87774,1,10,0:0:0:0:
392,248,88097,6,0,B|392:186|435:187|428:128,1,128,2|2,0:0|1:2,0:0:0:0:
269,77,89387,2,0,P|262:107|278:156,1,64,2|2,0:0|0:0,0:0:0:0:
307,212,90032,1,2,1:2:0:0:
303,295,90355,1,10,0:0:0:0:
239,349,90678,2,0,P|204:308|217:221,1,128,2|2,0:0|0:0,0:0:0:0:
343,142,91968,2,0,P|358:92|349:65,1,64,2|2,1:2|0:0,0:0:0:0:
301,20,92613,1,2,1:2:0:0:
222,0,92936,1,10,0:0:0:0:
161,57,93258,2,0,P|157:75|158:88,1,32,2|0,0:0|1:2,0:0:0:0:
0,81,103903,6,0,P|19:28|75:25,1,107.999996704102,2|2,1:2|0:0,0:0:0:0:
135,82,104710,2,0,P|122:136|108:202,1,107.999996704102,2|2,0:0|0:0,0:0:0:0:
159,267,105516,1,2,1:2:0:0:
239,218,105838,1,10,0:0:0:0:
369,352,106484,2,0,P|419:368|481:330,1,107.999996704102,2|2,1:2|0:0,0:0:0:0:
435,260,107290,1,2,0:0:0:0:
504,138,107774,2,0,P|511:77|515:45,1,71.9999978027344,2|2,0:0|0:0,0:0:0:0:
440,6,108419,1,10,0:0:0:0:
367,65,108742,1,6,0:3:0:0:
277,37,109065,6,0,P|240:19|166:10,1,107.999996704102,2|2,1:2|0:0,0:0:0:0:
129,91,109871,2,0,P|75:96|26:118,1,107.999996704102,2|2,0:0|0:0,0:0:0:0:
1,209,110678,1,2,1:2:0:0:
60,284,111000,1,10,0:0:0:0:
274,284,111645,2,0,P|314:234|297:167,1,107.999996704102,2|2,1:2|0:0,0:0:0:0:
179,142,112613,2,0,B|55:163|55:163|96:209|81:268,1,215.999993408203,2|8,1:2|0:0,0:0:0:0:
164,303,113903,6,0,B|228:310|212:350|274:362,1,128,6|2,0:3|1:2,0:0:0:0:
398,251,115194,2,0,P|356:204|294:198,1,128,2|2,0:0|1:2,0:0:0:0:
177,316,116484,2,0,P|135:362|73:368,1,128,2|2,0:0|0:0,0:0:0:0:
15,308,117452,1,10,0:0:0:0:
50,232,117774,2,0,P|55:168|58:104,1,128,2|2,1:2|0:0,0:0:0:0:
120,48,118742,1,10,0:0:0:0:
199,73,119065,6,0,B|264:91|245:133|313:159,1,128,6|2,0:3|1:2,0:0:0:0:
373,120,120032,1,8,0:0:0:0:
451,146,120355,2,0,P|443:210|436:292,1,128,2|2,0:0|1:2,0:0:0:0:
427,355,121323,1,8,0:0:0:0:
261,368,121968,6,0,P|274:310|292:231,1,128,2|2,1:2|0:0,0:0:0:0:
363,205,122936,1,2,0:0:0:0:
326,130,123258,2,0,P|320:83|318:46,1,64,0|12,0:0|3:0,0:0:0:0:
244,27,123903,2,0,L|222:58,1,32,10|12,0:0|3:0,0:0:0:0:
112,136,124548,6,0,B|198:154|152:185|236:201,1,143.999995605469,6|10,1:2|0:0,0:0:0:0:
296,262,125516,2,0,P|279:300|287:338,1,71.9999978027344,2|2,0:0|0:0,0:0:0:0:
360,367,126161,1,2,1:2:0:0:
436,326,126483,1,10,0:0:0:0:
425,153,127129,2,0,P|390:134|327:144,1,71.9999978027344,2|2,1:2|1:2,0:0:0:0:
288,182,127774,2,0,P|257:199|221:202,1,71.9999978027344,10|2,0:0|1:2,0:0:0:0:
178,126,128419,1,2,0:0:0:0:
94,105,128742,1,2,0:0:0:0:
23,155,129065,2,0,P|12:188|27:231,1,71.9999978027344,10|4,0:0|0:3,0:0:0:0:
91,272,129709,6,0,P|160:253|231:243,1,143.999995605469,2|10,1:2|0:0,0:0:0:0:
306,285,130678,1,2,0:0:0:0:
379,240,131000,2,0,P|391:209|372:150,1,71.9999978027344,2|2,0:0|1:2,0:0:0:0:
345,94,131645,1,10,0:0:0:0:
196,182,132290,6,0,P|166:193|107:172,1,71.9999978027344,2|2,1:2|1:2,0:0:0:0:
49,147,132936,1,10,0:0:0:0:
44,60,133258,1,2,1:2:0:0:
119,17,133581,2,0,P|153:10|187:21,1,71.9999978027344,2|2,0:0|1:2,0:0:0:0:
261,65,134226,1,10,0:0:0:0:
342,35,134548,6,0,P|379:95|352:187,1,143.999995605469,6|2,0:3|1:2,0:0:0:0:
321,237,135516,1,8,0:0:0:0:
262,173,135839,2,0,P|220:149|183:152,1,71.9999978027344,2|0,0:0|0:0,0:0:0:0:
141,214,136484,1,2,1:2:0:0:
148,300,136807,1,10,0:0:0:0:
217,350,137129,2,0,B|279:334|279:334|296:314|296:314|373:296,1,143.999995605469,2|2,0:0|1:2,0:0:0:0:
430,329,138096,1,8,0:0:0:0:
470,160,138742,2,0,P|472:119|479:71,1,71.9999978027344,2|2,0:0|0:0,0:0:0:0:
408,33,139387,1,10,0:0:0:0:
345,92,139710,6,0,P|273:121|211:88,1,143.999995605469,6|2,0:3|1:2,0:0:0:0:
148,41,140677,1,8,0:0:0:0:
76,89,141000,2,0,P|79:129|81:167,1,71.9999978027344,2|0,0:0|0:0,0:0:0:0:
30,231,141645,1,2,1:2:0:0:
79,301,141968,1,10,0:0:0:0:
161,275,142290,2,0,B|194:286|230:255|196:241|235:236|208:259|210:227|230:255|210:227|253:191|287:212,1,143.999995605469,2|2,0:0|1:2,0:0:0:0:
334,144,143258,1,10,0:0:0:0:
416,169,143581,2,0,P|419:239|423:336,1,143.999995605469,2|0,1:2|1:0,0:0:0:0:
346,354,144548,2,0,P|321:321|323:289,1,71.9999978027344,8|4,0:0|0:3,0:0:0:0:
256,192,145194,12,2,147532,0:0:0:0:
