osu file format v14

[General]
AudioFilename: audio.mp3
AudioLeadIn: 0
PreviewTime: 121968
Countdown: 0
SampleSet: Soft
StackLeniency: 0.7
Mode: 0
LetterboxInBreaks: 0
WidescreenStoryboard: 1

[Editor]
Bookmarks: 47694
DistanceSpacing: 1
BeatDivisor: 8
GridSize: 32
TimelineZoom: 1.5

[Metadata]
Title:DITTO
TitleUnicode:DITTO
Artist:Aries
ArtistUnicode:Aries
Creator:jamesjan3
Version:HARD
Source:
Tags:english hip hop hip-hop pop rap rosiie cacturne le mirai sirmirai jamesjan tomadoi shiinoha kotone tricolor
BeatmapID:3025516
BeatmapSetID:1474180

[Difficulty]
HPDrainRate:5
CircleSize:3.3
OverallDifficulty:5
ApproachRate:7
SliderMultiplier:2
SliderTickRate:1

[Events]
//Background and Video events
0,0,"79436635_p0_master1200.jpg",0,0
//Break Periods
2,52329,55907
2,95194,103003
//Storyboard Layer 0 (Background)
//Storyboard Layer 1 (Fail)
//Storyboard Layer 2 (Pass)
//Storyboard Layer 3 (Foreground)
//Storyboard Layer 4 (Overlay)
//Storyboard Sound Samples

[TimingPoints]
678,645.161290322581,4,2,1,50,1,0
21323,-80,4,2,1,50,0,0
36242,-80,4,2,1,5,0,0
36484,-80,4,2,1,50,0,0
41161,-66.6666666666667,4,2,1,50,0,0
41968,-66.6666666666667,4,2,1,60,0,0
42613,-80,4,2,1,60,0,0
43258,-66.6666666666667,4,2,1,60,0,0
43903,-100,4,2,1,60,0,0
45194,-80,4,2,1,60,0,0
45839,-66.6666666666667,4,2,1,60,0,0
46565,-66.6666666666667,4,2,1,5,0,0
46807,-80,4,2,1,60,0,0
48419,-66.6666666666667,4,2,1,60,0,0
49065,-100,4,2,1,60,0,0
49710,-80,4,2,1,60,0,0
51000,-66.6666666666667,4,2,1,60,0,0
51726,-66.6666666666667,4,2,1,5,0,0
51887,-66.6666666666667,4,2,1,60,0,0
56887,-66.6666666666667,4,2,1,5,0,0
57129,-80,4,2,1,60,0,0
60032,-80,4,2,1,55,0,0
61726,-66.6666666666667,4,2,1,5,0,0
61968,-80,4,2,1,55,0,0
62613,-57.1428571428571,4,2,1,70,0,0
63581,-66.6666666666667,4,2,1,70,0,0
64548,-57.1428571428571,4,2,1,70,0,0
66161,-66.6666666666667,4,2,1,70,0,0
67210,-66.6666666666667,4,2,1,5,0,0
67452,-66.6666666666667,4,2,1,70,0,0
67774,-57.1428571428571,4,2,1,70,0,0
68742,-66.6666666666667,4,2,1,70,0,0
69710,-57.1428571428571,4,2,1,70,0,0
72371,-66.6666666666667,4,2,1,5,0,0
72613,-57.1428571428571,4,2,1,70,0,0
72936,-57.1428571428571,4,2,1,80,0,0
74548,-66.6666666666667,4,2,1,80,0,0
75194,-57.1428571428571,4,2,1,80,0,0
78097,-50,4,2,1,80,0,0
79629,-66.6666666666667,4,2,1,5,0,0
79710,-57.1428571428571,4,2,1,80,0,0
81323,-66.6666666666667,4,2,1,80,0,0
81645,-80,4,2,1,80,0,0
83258,-80,4,2,1,50,0,0
103903,-66.6666666666667,4,2,1,60,0,1
112613,-80,4,2,1,60,0,1
114226,-80,4,2,1,50,0,0
118823,-66.6666666666667,4,2,1,5,0,0
119065,-80,4,2,1,50,0,0
121968,-80,4,2,1,55,0,0
123661,-66.6666666666667,4,2,1,5,0,0
123903,-80,4,2,1,55,0,0
124548,-66.6666666666667,4,2,1,70,0,0
124871,-57.1428571428571,4,2,1,70,0,0
125194,-66.6666666666667,4,2,1,70,0,0
126484,-57.1428571428571,4,2,1,70,0,0
127129,-66.6666666666667,4,2,1,70,0,0
127452,-57.1428571428571,4,2,1,70,0,0
128097,-66.6666666666667,4,2,1,70,0,0
129145,-66.6666666666667,4,2,1,5,0,0
129387,-66.6666666666667,4,2,1,70,0,0
129710,-57.1428571428571,4,2,1,70,0,0
130678,-66.6666666666667,4,2,1,70,0,0
131645,-57.1428571428571,4,2,1,70,0,0
132290,-66.6666666666667,4,2,1,70,0,0
132613,-57.1428571428571,4,2,1,70,0,0
133258,-66.6666666666667,4,2,1,70,0,0
134307,-66.6666666666667,4,2,1,5,0,0
134548,-57.1428571428571,4,2,1,70,0,0
134871,-57.1428571428571,4,2,1,80,0,0
140032,-50,4,2,1,80,0,0
141645,-57.1428571428571,4,2,1,80,0,0
143258,-66.6666666666667,4,2,1,80,0,0
143581,-80,4,2,1,80,0,0
144629,-66.6666666666667,4,2,1,5,0,0
144871,-80,4,2,1,80,0,0
145194,-80,4,2,1,50,0,0

[Colours]
Combo1 : 173,255,95
Combo2 : 17,254,176
Combo3 : 255,88,100
Combo4 : 255,94,55

[HitObjects]
37,235,21323,6,0,P|36:191|-10:97,2,125,0|0|8,1:2|1:2|0:0,0:0:0:0:
118,353,22290,1,0,0:0:0:0:
94,336,22452,2,0,B|123:303|200:325|172:333|233:357|279:325,1,187.5,2|2,0:0|1:2,0:0:0:0:
296,248,23097,2,0,P|286:203|281:109,1,125,2|0,0:0|0:0,0:0:0:0:
325,51,23581,1,2,0:0:0:0:
356,75,23742,1,2,0:0:0:0:
429,38,23903,5,0,1:2:0:0:
423,215,24226,1,0,0:0:0:0:
280,124,24548,1,8,0:0:0:0:
165,195,24871,1,0,1:2:0:0:
162,202,25032,2,0,P|186:225|209:337,1,125,0|0,1:2|0:0,0:0:0:0:
148,356,25516,6,0,L|9:335,1,125,2|8,0:0|0:0,0:0:0:0:
0,237,26000,1,0,1:0:0:0:
26,252,26161,2,0,P|56:218|72:134,1,125,2|0,0:0|1:2,0:0:0:0:
167,22,26807,5,2,1:2:0:0:
61,131,27129,2,0,P|56:168|62:196,1,62.5,8|0,0:0|0:0,0:0:0:0:
72,182,27452,2,0,P|90:213|124:228,1,62.5
239,175,27936,1,0,0:0:0:0:
254,163,28097,2,0,L|264:84,1,62.5,0|0,1:2|0:0,0:0:0:0:
302,73,28419,2,0,L|281:5,2,62.5,8|0|0,0:0|0:0|0:0,0:0:0:0:
364,207,29065,5,0,1:2:0:0:
379,199,29226,2,0,L|392:160,2,31.25,2|2|0,0:3|0:3|0:0,0:0:0:0:
258,226,29710,6,0,L|275:351,1,125,8|0,0:0|1:2,0:0:0:0:
358,336,30194,6,0,B|402:287|402:287|465:305,2,125,2|2|2,1:3|0:3|0:3,0:0:0:0:
274,349,31000,6,0,B|241:348|241:348|229:310,1,62.5,8|0,0:0|1:2,0:0:0:0:
149,332,31323,2,0,B|133:302|133:302|160:273,1,62.5,2|0,0:3|1:2,0:0:0:0:
230,234,31645,6,0,P|203:142|186:116,1,125,2|2,1:3|1:3,0:0:0:0:
102,102,32129,1,2,0:0:0:0:
149,332,32452,1,2,0:0:0:0:
108,223,32774,2,0,B|199:205|144:248|244:230,2,125,2|2|2,0:0|0:0|0:0,0:0:0:0:
43,167,33581,2,0,P|23:116|123:81,1,187.5,8|0,0:0|0:0,0:0:0:0:
204,119,34226,6,0,P|278:108|333:80,1,125,0|2,1:2|0:0,0:0:0:0:
345,8,34710,1,2,0:0:0:0:
359,210,35032,1,2,0:0:0:0:
498,129,35355,2,0,P|512:68|506:6,2,125,2|2|2,1:2|0:0|0:0,0:0:0:0:
467,209,36161,6,0,L|473:254,1,31.25,8|0,0:0|0:0,0:0:0:0:
329,341,36484,5,4,0:3:0:0:
381,234,36645,1,4,0:3:0:0:
409,323,36807,6,0,P|374:298|273:263,1,125,0|2,1:2|1:2,0:0:0:0:
248,203,37290,2,0,P|211:203|213:288,1,125,2|0,0:0|0:0,0:0:0:0:
149,347,37774,1,2,0:0:0:0:
162,352,37936,2,0,P|162:320|96:249,2,125,0|2|2,0:0|0:0|0:0,0:0:0:0:
248,358,38742,2,0,B|324:369|324:369|373:337|360:257,1,187.5,8|0,0:0|0:0,0:0:0:0:
348,188,39387,6,0,P|317:198|278:240,1,62.5,0|2,1:2|0:0,0:0:0:0:
204,218,39710,1,2,0:0:0:0:
212,208,39871,2,0,P|201:175|119:134,1,125,2|2,0:0|0:0,0:0:0:0:
304,210,40516,2,0,P|315:177|397:136,1,125,2|2,1:2|0:0,0:0:0:0:
258,41,41161,6,0,B|218:98|235:194|252:179|290:230|244:355,1,300.000011444092,2|4,0:0|2:3,0:0:0:0:
178,373,41968,5,2,1:2:0:0:
49,243,42290,1,2,1:2:0:0:
169,122,42613,1,10,0:0:0:0:
195,135,42774,2,0,P|235:114|246:95,2,62.5,2|2|2,0:0|0:0|0:0,0:0:0:0:
144,201,43258,6,0,B|94:242|94:242|94:297|140:314,1,150.000005722046,2|2,0:0|1:2,0:0:0:0:
137,317,43903,2,0,P|106:306|77:242,1,100,8|2,0:0|0:0,0:0:0:0:
93,85,44548,5,2,1:2:0:0:
142,98,44710,1,2,0:0:0:0:
173,58,44871,1,2,0:0:0:0:
262,187,45194,2,0,P|250:217|248:266,2,62.5,10|2|2,0:0|0:0|1:2,0:0:0:0:
339,140,45678,1,2,1:2:0:0:
353,151,45839,6,0,B|384:169|384:169|433:134|417:55,1,150.000005722046,2|2,0:0|0:0,0:0:0:0:
428,74,46484,6,0,L|447:133,1,37.5000014305115,8|0,0:0|0:0,0:0:0:0:
497,243,46807,5,4,0:3:0:0:
395,293,46968,1,4,0:3:0:0:
470,322,47129,6,0,P|438:255|395:191,2,125,2|0|10,1:2|1:0|0:0,0:0:0:0:
404,375,47936,1,2,0:0:0:0:
370,368,48097,2,0,P|338:340|312:330,1,62.5,2|2,0:0|0:0,0:0:0:0:
247,264,48419,6,0,B|254:288|254:288|223:356|142:351,1,150.000005722046,2|2,0:0|1:2,0:0:0:0:
150,347,49065,2,0,P|205:333|238:307,1,100,8|2,0:0|0:0,0:0:0:0:
292,165,49710,6,0,P|283:123|263:96,1,62.5,2|2,1:2|0:0,0:0:0:0:
273,78,50032,2,0,P|236:56|198:43,1,62.5,2|2,0:0|0:0,0:0:0:0:
123,17,50355,2,0,L|58:41,2,62.5,10|2|2,0:0|0:0|1:2,0:0:0:0:
128,105,50839,1,2,1:2:0:0:
109,112,51000,6,0,B|78:137|76:177|76:177|50:143|6:148,1,150.000005722046,2|2,0:0|1:2,0:0:0:0:
8,160,51645,6,0,L|28:210,1,37.5000014305115,8|0,0:0|0:0,0:0:0:0:
117,307,51968,5,8,0:3:0:0:
56,382,52129,1,10,0:3:0:0:
192,47,56807,6,0,L|183:-1,1,37.5000014305115,8|0,0:0|0:0,0:0:0:0:
338,73,57129,5,8,0:3:0:0:
277,176,57290,1,8,0:3:0:0:
358,154,57452,6,0,P|383:190|402:288,1,125,2|0,1:2|1:2,0:0:0:0:
449,338,57936,2,0,B|427:232|500:262|513:206|494:147,1,187.5,2|2,0:0|0:0,0:0:0:0:
473,87,58581,2,0,P|406:86|421:185,1,187.5,2|0,0:0|1:2,0:0:0:0:
402,267,59226,2,0,P|367:189|286:122,1,187.5,2|2,0:0|0:0,0:0:0:0:
190,131,59871,1,2,0:0:0:0:
247,200,60032,5,2,1:2:0:0:
189,11,60355,1,2,0:0:0:0:
245,213,60678,5,2,0:0:0:0:
197,241,60839,1,2,0:0:0:0:
175,290,61000,1,2,0:0:0:0:
27,218,61323,5,0,0:0:0:0:
233,185,61645,6,0,L|244:140,1,31.25,12|0,3:0|0:0,0:0:0:0:
21,229,61968,5,10,0:0:0:0:
47,307,62129,1,12,3:0:0:0:
185,79,62613,6,0,B|175:26|80:22|97:66|80:89|19:69,2,175.00000166893,6|2|10,1:2|1:2|0:0,0:0:0:0:
256,130,63419,1,2,0:0:0:0:
232,151,63581,2,0,P|230:190|252:226,1,75.0000028610231,2|2,0:0|0:0,0:0:0:0:
292,292,63903,2,0,P|325:257|332:212,1,75.0000028610231,2|2,0:0|0:0,0:0:0:0:
414,232,64226,1,2,1:2:0:0:
288,379,64548,6,0,P|264:338|139:280,1,175.00000166893,10|2,0:0|0:0,0:0:0:0:
28,317,65032,1,2,0:0:0:0:
99,358,65194,6,0,B|139:275|57:269|95:190,2,175.00000166893,2|2|10,1:2|1:2|0:0,0:0:0:0:
190,367,66000,1,2,0:0:0:0:
206,365,66161,2,0,P|225:337|232:288,1,75.0000028610231,2|2,1:2|1:2,0:0:0:0:
282,208,66484,2,0,P|266:162|238:138,1,75.0000028610231,2|2,0:0|0:0,0:0:0:0:
230,66,66807,1,2,0:0:0:0:
379,203,67129,6,0,L|450:220,1,37.5000014305115,10|0,0:0|0:0,0:0:0:0:
468,16,67452,5,4,0:3:0:0:
388,103,67613,1,4,0:3:0:0:
381,16,67774,6,0,B|448:59|487:171,2,175.00000166893,2|2|10,1:2|1:2|0:0,0:0:0:0:
298,21,68581,1,2,0:0:0:0:
272,44,68742,2,0,P|213:52|172:32,1,75.0000028610231,2|2,0:0|0:0,0:0:0:0:
115,38,69065,1,2,0:0:0:0:
79,66,69226,1,2,0:0:0:0:
140,129,69387,1,2,1:2:0:0:
15,17,69710,6,0,P|39:56|50:194,1,175.00000166893,10|2,0:0|0:0,0:0:0:0:
0,253,70194,1,0,0:0:0:0:
40,170,70355,5,2,1:2:0:0:
166,334,70678,1,2,1:2:0:0:
351,219,71000,1,10,0:0:0:0:
251,237,71161,1,2,0:0:0:0:
315,298,71323,6,0,P|338:221|246:151,2,175.00000166893,2|2|2,1:2|0:0|1:2,0:0:0:0:
256,364,72129,1,0,0:0:0:0:
192,306,72290,6,0,L|203:260,1,43.7500004172325,10|0,0:0|0:0,0:0:0:0:
271,52,72613,6,0,P|283:130|203:145,1,175.00000166893,6|4,0:3|1:2,0:0:0:0:
59,221,73258,2,0,P|53:134|135:120,1,175.00000166893,2|8,1:2|0:0,0:0:0:0:
289,145,73903,6,0,B|212:199|160:133|188:128|117:67|50:123,1,262.500002503395,2|0,0:0|0:0,0:0:0:0:
21,200,74548,2,0,B|4:231|4:231|41:272,1,75.0000028610231,2|0,1:2|0:0,0:0:0:0:
113,246,74871,2,0,B|129:214|129:214|92:173,1,75.0000028610231,10|0,0:0|1:2,0:0:0:0:
56,112,75194,6,0,P|59:195|106:373,1,262.500002503395,2|0,0:0|0:0,0:0:0:0:
189,377,75839,2,0,P|190:300|176:191,1,175.00000166893,2|8,1:2|0:0,0:0:0:0:
392,171,76484,5,0,1:2:0:0:
262,217,76645,1,0,1:2:0:0:
336,262,76807,6,0,P|364:296|382:336,1,87.500000834465,2|0,0:0|0:0,0:0:0:0:
348,338,77129,2,0,P|354:294|372:255,1,87.500000834465,2|0,0:0|0:0,0:0:0:0:
392,171,77452,6,0,P|383:129|348:106,1,87.500000834465,10|0,0:0|1:0,0:0:0:0:
255,137,77774,2,0,P|243:178|262:217,1,87.500000834465,6|4,0:3|0:3,0:0:0:0:
339,238,78097,6,0,P|244:190|158:214,2,200,0|2|8,1:2|1:2|0:0,0:0:0:0:
317,333,78903,1,0,0:0:0:0:
308,316,79065,2,0,B|224:279|240:181|260:190|273:78|200:50,1,300,2|0,0:0|0:0,0:0:0:0:
127,45,79710,2,0,P|116:118|88:146,1,87.500000834465,2|0,1:2|0:0,0:0:0:0:
31,175,80032,2,0,P|17:210|23:263,1,87.500000834465,10|0,0:0|1:2,0:0:0:0:
103,228,80355,6,0,P|91:175|33:66,1,175.00000166893,2|0,0:0|1:2,0:0:0:0:
196,257,81000,2,0,P|191:206|201:157,1,87.500000834465,2|0,1:2|0:0,0:0:0:0:
300,209,81323,2,0,P|295:171|279:134,1,75.0000028610231,10|0,0:0|0:0,0:0:0:0:
389,255,81645,2,0,P|393:188|457:62,1,187.5,2|0,1:2|0:0,0:0:0:0:
442,79,82290,1,2,1:2:0:0:
256,0,82613,5,10,0:0:0:0:
44,204,83258,5,0,1:2:0:0:
133,273,83581,2,0,P|89:251|21:290,1,125,0|8,1:2|0:0,0:0:0:0:
136,370,84226,1,2,0:0:0:0:
154,360,84387,2,0,B|200:301|122:246|175:183,1,187.5,2|2,0:0|1:2,0:0:0:0:
237,130,85032,2,0,B|290:193|212:248|258:307,1,187.5,2|2,0:0|0:0,0:0:0:0:
341,289,85678,1,2,0:0:0:0:
344,273,85839,6,0,P|366:213|413:148,2,125,0|0|8,1:2|0:0|0:0,0:0:0:0:
453,327,86807,2,0,P|486:311|496:277,1,62.5,2|2,1:2|1:2,0:0:0:0:
506,263,87129,2,0,P|496:186|490:96,1,125,2|2,0:0|0:0,0:0:0:0:
387,5,87774,1,10,0:0:0:0:
414,46,87936,1,2,1:2:0:0:
386,83,88097,2,0,L|311:94,1,62.5,2|0,0:0|1:2,0:0:0:0:
236,84,88419,6,0,P|289:127|316:208,2,125,0|2|8,1:2|1:2|0:0,0:0:0:0:
57,51,89387,1,2,0:0:0:0:
42,62,89548,2,0,P|16:47|1:11,2,62.5,2|2|2,0:0|0:0|0:0,0:0:0:0:
110,115,90032,2,0,P|128:185|100:266,1,125,2|10,1:2|0:0,0:0:0:0:
43,273,90516,1,2,0:0:0:0:
109,222,90678,6,0,B|241:168|222:313|341:266,1,250,2|2,0:0|0:0,0:0:0:0:
468,166,91645,1,8,0:0:0:0:
304,186,91968,5,2,1:2:0:0:
254,190,92129,1,2,1:2:0:0:
224,150,92290,1,2,0:0:0:0:
216,293,92613,1,2,1:2:0:0:
92,323,92936,6,0,P|54:328|32:312,1,62.5,10|2,0:0|1:2,0:0:0:0:
4,239,93258,2,0,P|44:232|133:385,1,250,2|2,0:0|0:0,0:0:0:0:
143,315,103903,5,2,1:2:0:0:
163,307,104065,2,0,B|182:275|182:275|164:223,1,75.0000028610231,2|0,0:0|1:0,0:0:0:0:
92,207,104387,2,0,B|74:179|74:179|107:42,2,150.000005722046,2|2|2,0:0|0:0|0:0,0:0:0:0:
70,289,105194,5,2,0:0:0:0:
222,153,105516,1,2,1:2:0:0:
360,285,105839,2,0,B|341:300|341:300|254:258|254:258|250:227,1,150.000005722046,10|0,0:0|0:0,0:0:0:0:
395,115,106484,6,0,B|467:140|467:140|505:77,1,150.000005722046,2|0,1:2|0:0,0:0:0:0:
429,39,106968,2,0,B|394:20|394:20|274:72,2,150.000005722046,2|2|2,0:0|0:0|1:2,0:0:0:0:
484,102,107774,5,2,0:0:0:0:
333,182,108097,1,2,0:0:0:0:
276,326,108419,2,0,B|298:339|298:339|376:277|376:277|378:247,1,150.000005722046,10|6,0:0|0:3,0:0:0:0:
325,182,108903,1,6,0:3:0:0:
256,237,109065,6,0,B|181:244|181:244|139:172,1,150.000005722046,2|0,1:2|1:2,0:0:0:0:
83,119,109548,2,0,B|119:110|119:110|245:167,2,150.000005722046,2|2|0,0:0|0:0|0:0,0:0:0:0:
31,187,110355,5,2,0:0:0:0:
131,19,110678,1,2,1:2:0:0:
292,112,111000,2,0,B|314:120|314:120|397:58|397:58|399:28,1,150.000005722046,10|0,0:0|0:0,0:0:0:0:
484,187,111645,6,0,B|416:153|416:153|365:225,1,150.000005722046,2|2,1:2|0:0,0:0:0:0:
397,324,112129,2,0,B|465:358|465:358|516:286,1,150.000005722046,2|2,0:0|0:0,0:0:0:0:
440,255,112613,6,0,B|428:251|428:251|417:243|417:243|404:243|404:243|391:238|391:238|377:240|377:240|361:239|361:239|343:249|343:249|323:256|323:256|314:264|314:264|300:272|300:272|292:284|292:284|279:292|279:292|272:301|272:301|260:308|260:308|254:318|254:318|243:324|243:324|229:333|229:333|210:337|210:337|193:343|193:343|178:343|178:343|164:345|164:345|148:340|148:340|132:339|132:339|102:320,1,375,2|8,1:2|0:0,0:0:0:0:
16,183,113903,5,6,0:3:0:0:
113,241,114065,1,4,0:3:0:0:
34,268,114226,6,0,P|60:217|115:145,2,125,0|2|8,1:2|1:2|0:0,0:0:0:0:
109,325,115194,2,0,B|114:191|1:236|14:91,1,250,2|2,0:0|1:2,0:0:0:0:
63,0,116161,1,8,0:0:0:0:
105,104,116484,6,0,B|126:233|10:196|24:329,1,250,2|2,0:0|0:0,0:0:0:0:
199,296,117452,1,10,0:0:0:0:
138,377,117774,2,0,P|185:349|317:298,1,187.5,2|0,1:2|0:0,0:0:0:0:
388,321,118419,2,0,P|415:313|430:278,1,62.5,2|0,0:0|0:0,0:0:0:0:
491,153,118742,6,0,L|472:108,1,31.25,10|0,0:0|0:0,0:0:0:0:
329,28,119065,5,6,0:3:0:0:
366,148,119226,1,4,0:3:0:0:
411,72,119387,6,0,B|343:57|364:116|285:97,2,125,0|2|8,1:2|1:2|0:0,0:0:0:0:
404,202,120355,2,0,P|386:150|258:4,1,250,2|2,0:0|1:2,0:0:0:0:
67,18,121323,1,8,0:0:0:0:
181,111,121645,2,0,P|189:145|184:171,1,62.5,2|0,0:0|0:0,0:0:0:0:
109,218,121968,5,2,1:2:0:0:
366,114,122290,1,2,0:0:0:0:
241,237,122613,5,2,0:0:0:0:
280,280,122774,1,2,0:0:0:0:
253,332,122936,1,2,0:0:0:0:
231,148,123258,5,0,0:0:0:0:
361,240,123581,6,0,L|397:253,1,31.25,12|0,3:0|0:0,0:0:0:0:
241,143,123903,5,10,0:0:0:0:
268,64,124065,1,12,3:0:0:0:
75,119,124548,6,0,B|70:157|70:157|102:173,1,75.0000028610231,6|0,1:2|0:0,0:0:0:0:
156,114,124871,2,0,P|90:146|47:249,1,175.00000166893,2|10,1:2|0:0,0:0:0:0:
58,319,125355,1,2,0:0:0:0:
94,345,125516,2,0,P|131:341|167:319,1,75.0000028610231,2|2,0:0|0:0,0:0:0:0:
251,311,125839,2,0,P|240:280|209:251,1,75.0000028610231,2|2,0:0|0:0,0:0:0:0:
269,184,126161,5,2,1:2:0:0:
321,374,126484,2,0,P|307:334|372:207,1,175.00000166893,10|2,0:0|0:0,0:0:0:0:
434,177,126968,1,2,0:0:0:0:
424,264,127129,6,0,P|382:250|357:218,1,75.0000028610231,2|0,1:2|0:0,0:0:0:0:
311,138,127452,2,0,P|395:131|495:96,1,175.00000166893,2|10,1:2|0:0,0:0:0:0:
446,20,127936,1,2,0:0:0:0:
437,6,128097,2,0,P|419:-3|367:15,1,75.0000028610231,2|2,1:2|1:2,0:0:0:0:
297,68,128419,1,2,0:0:0:0:
240,80,128581,1,2,0:0:0:0:
180,18,128742,1,2,0:0:0:0:
165,202,129065,6,0,L|157:249,1,37.5000014305115,10|0,0:0|0:0,0:0:0:0:
0,127,129387,5,4,0:3:0:0:
108,106,129548,1,4,0:3:0:0:
63,183,129710,6,0,P|52:96|14:18,2,175.00000166893,2|2|10,1:2|1:2|0:0,0:0:0:0:
72,268,130516,1,2,0:0:0:0:
92,294,130678,2,0,P|58:328|21:332,1,75.0000028610231,2|2,0:0|0:0,0:0:0:0:
148,366,131000,2,0,P|196:364|227:326,1,75.0000028610231,2|2,0:0|0:0,0:0:0:0:
253,273,131323,1,2,1:2:0:0:
154,184,131645,6,0,P|165:123|259:139,1,175.00000166893,10|2,0:0|0:0,0:0:0:0:
384,272,132290,6,0,P|360:304|384:352,1,75.0000028610231,2|0,1:2|0:0,0:0:0:0:
454,324,132613,2,0,P|420:296|375:145,1,175.00000166893,2|10,1:2|0:0,0:0:0:0:
341,92,133097,1,2,0:0:0:0:
382,170,133258,2,0,P|361:222|337:235,1,75.0000028610231,2|0,1:2|1:0,0:0:0:0:
270,257,133581,5,2,0:0:0:0:
135,110,133903,1,2,1:2:0:0:
67,281,134226,6,0,L|83:351,1,37.5000014305115,10|0,0:0|0:0,0:0:0:0:
218,156,134548,6,0,P|149:194|51:175,1,175.00000166893,6|4,0:3|1:2,0:0:0:0:
312,316,135194,2,0,P|381:354|479:335,1,175.00000166893,2|8,1:2|0:0,0:0:0:0:
234,361,135839,6,0,B|201:294|259:218|264:256|324:201|298:114,1,262.500002503395,2|0,0:0|0:0,0:0:0:0:
230,70,136484,6,0,B|213:55|187:62|187:62|203:51|214:29,1,87.500000834465,2|0,1:2|0:0,0:0:0:0:
292,0,136807,2,0,B|308:14|334:7|334:7|318:18|307:40,1,87.500000834465,10|0,0:0|1:2,0:0:0:0:
301,117,137129,6,0,P|274:69|72:8,1,262.500002503395,2|0,0:0|0:0,0:0:0:0:
12,46,137774,2,0,P|-3:79|89:85,1,175.00000166893,2|8,1:2|0:0,0:0:0:0:
284,197,138419,5,0,1:2:0:0:
170,165,138581,1,0,1:2:0:0:
191,246,138742,6,0,L|211:347,1,87.500000834465,2|0,0:0|0:0,0:0:0:0:
180,329,139065,2,0,L|221:243,1,87.500000834465,2|0,0:0|0:0,0:0:0:0:
284,197,139387,6,0,P|300:241|298:282,1,87.500000834465,10|0,0:0|1:0,0:0:0:0:
109,224,139710,2,0,P|132:186|169:164,1,87.500000834465,6|4,0:3|0:3,0:0:0:0:
247,125,140032,6,0,P|330:189|453:178,2,200,0|2|8,1:2|1:2|0:0,0:0:0:0:
215,31,140839,1,0,0:0:0:0:
231,13,141000,2,0,B|298:81|282:165|251:148|209:244|265:318,1,300,2|0,0:0|0:0,0:0:0:0:
313,358,141645,6,0,P|367:360|409:304,1,87.500000834465,2|0,1:2|0:0,0:0:0:0:
472,308,141968,2,0,P|476:259|435:218,1,87.500000834465,10|0,0:0|1:2,0:0:0:0:
395,157,142290,6,0,P|372:208|352:360,1,175.00000166893,2|0,0:0|1:2,0:3:0:0:
260,185,142936,2,0,P|268:235|266:280,1,87.500000834465,2|0,1:2|0:0,0:0:0:0:
178,231,143258,2,0,P|172:275|181:320,1,75.0000028610231,10|0,0:0|0:0,0:0:0:0:
75,171,143581,2,0,P|78:229|63:364,1,187.5,2|0,1:2|0:0,0:0:0:0:
64,357,144226,1,0,1:0:0:0:
250,381,144548,6,0,L|262:327,1,31.25,8|0,0:0|0:0,0:0:0:0:
261,178,144871,5,4,0:3:0:0:
229,252,145032,1,4,0:3:0:0:
256,192,145194,12,2,147532,0:0:0:0:
