osu file format v14

[General]
AudioFilename: audio.mp3
AudioLeadIn: 0
PreviewTime: 161872
Countdown: 0
SampleSet: Soft
StackLeniency: 0.7
Mode: 0
LetterboxInBreaks: 0
WidescreenStoryboard: 1

[Editor]
Bookmarks: 6265,10925,15585,20245,24906,29566,34226,38886,43546,48207,52867,57527,62187,66847,71435,76168,80828,85488,90148,94808,99469,104129,108789,113449,118109,122770,127430,132090,136750,141410,150731,162381,171702,181022,190342
DistanceSpacing: 0.5
BeatDivisor: 16
GridSize: 4
TimelineZoom: 2.3

[Metadata]
Title:Problem
TitleUnicode:Problem
Artist:Ariana Grande feat. Iggy Azalea
ArtistUnicode:Ariana Grande feat. Iggy Azalea
Creator:rHO
Version:rHO & emilia's Trouble
Source:
Tags:smh emilia estellia- posydomojka fsjallink vinxis mishima yurara my everything english pop dance r&b rap hiphop hip-hop hip hop
BeatmapID:3243714
BeatmapSetID:1588192

[Difficulty]
HPDrainRate:3
CircleSize:5
OverallDifficulty:10
ApproachRate:9.6
SliderMultiplier:3.59999990463257
SliderTickRate:1

[Events]
//Background and Video events
0,0,"ari2.jpg",0,0
Video,-840,"problem.mp4"
//Break Periods
2,139280,140885
//Storyboard Layer 0 (Background)
//Storyboard Layer 1 (Fail)
//Storyboard Layer 2 (Pass)
//Storyboard Layer 3 (Foreground)
//Storyboard Layer 4 (Overlay)
//Storyboard Sound Samples

[TimingPoints]
-725,582.52427184466,4,2,0,100,1,0
1459,-100,4,2,0,5,0,0
1605,-1000,4,2,0,40,0,0
1896,-1000,4,2,0,5,0,0
2041,-1000,4,2,0,40,0,0
2186,-1000,4,2,0,100,0,0
3862,-1000,4,2,0,5,0,0
3935,-1000,4,2,0,40,0,0
4226,-1000,4,2,0,5,0,0
4408,-1000,4,2,0,100,0,0
6192,-1000,4,2,0,5,0,0
6265,-1000,4,2,0,40,0,0
6556,-1000,4,2,0,5,0,0
6702,-1000,4,2,0,40,0,0
6847,-1000,4,2,0,100,0,0
8595,-333.333333333333,4,2,0,40,0,0
8740,-333.333333333333,4,2,0,100,0,0
8886,-333.333333333333,4,2,0,50,0,0
9177,-222.222222222222,4,2,0,60,0,0
9322,-222.222222222222,4,2,0,100,0,0
9469,-222.222222222222,4,2,0,70,0,0
9614,-222.222222222222,4,2,0,100,0,0
9760,-333.333333333333,4,2,0,80,0,0
10196,-333.333333333333,4,2,0,5,0,0
10342,-333.333333333333,4,2,0,100,0,0
10778,-333.333333333333,4,2,0,5,0,0
10925,-50,4,2,0,60,0,0
11216,-50,4,2,0,5,0,0
11508,-50,4,2,0,60,0,0
12162,-50,4,2,0,100,0,0
12236,-50,4,2,0,60,0,0
12308,-50,4,2,0,100,0,0
12381,-50,4,2,0,60,0,0
12599,-50,4,2,0,100,0,0
12673,-50,4,2,0,60,0,0
12818,-200,4,2,0,60,0,0
13255,-50,4,2,0,60,0,0
13546,-50,4,2,0,5,0,0
13838,-50,4,2,0,60,0,0
14492,-50,4,2,0,100,0,0
14566,-50,4,2,0,60,0,0
14638,-50,4,2,0,100,0,0
14711,-50,4,2,0,60,0,0
14929,-50,4,2,0,100,0,0
15003,-50,4,2,0,60,0,0
15294,-50,4,2,0,100,0,0
15440,-50,4,2,0,60,0,0
15512,-50,4,2,0,100,0,0
15585,-50,4,2,0,60,0,0
15876,-50,4,2,0,5,0,0
16168,-50,4,2,0,60,0,0
16823,-50,4,2,0,100,0,0
16896,-50,4,2,0,60,0,0
16968,-50,4,2,0,100,0,0
17041,-50,4,2,0,60,0,0
17259,-50,4,2,0,100,0,0
17333,-50,4,2,0,60,0,0
17478,-200,4,2,0,60,0,0
17915,-50,4,2,0,60,0,0
18206,-50,4,2,0,5,0,0
18498,-50,4,2,0,60,0,0
19153,-50,4,2,0,100,0,0
19226,-50,4,2,0,60,0,0
19298,-50,4,2,0,100,0,0
19372,-50,4,2,0,60,0,0
19590,-50,4,2,0,100,0,0
19663,-50,4,2,0,60,0,0
19954,-50,4,2,0,100,0,0
20100,-50,4,2,0,60,0,0
20172,-50,4,2,0,100,0,0
20245,-40,4,2,0,60,0,0
20463,-40,4,2,0,100,0,0
20537,-66.6666666666667,4,2,0,100,0,0
20828,-66.6666666666667,4,2,0,60,0,0
21119,-66.6666666666667,4,2,0,5,0,0
21265,-100,4,2,0,60,0,0
21483,-100,4,2,0,100,0,0
21556,-50,4,2,0,60,0,0
21628,-50,4,2,0,100,0,0
21702,-50,4,2,0,60,0,0
21920,-50,4,2,0,100,0,0
21993,-50,4,2,0,60,0,0
22065,-50,4,2,0,100,0,0
22139,-1000,4,2,0,60,0,0
22575,-50,4,2,0,60,0,0
22720,-50,4,2,0,100,0,0
22867,-40,4,2,0,100,0,0
23158,-66.6666666666667,4,2,0,60,0,0
23376,-66.6666666666667,4,2,0,100,0,0
23595,-100,4,2,0,60,0,0
23813,-100,4,2,0,100,0,0
23886,-50,4,2,0,60,0,0
23958,-50,4,2,0,100,0,0
24032,-50,4,2,0,60,0,0
24250,-50,4,2,0,100,0,0
24323,-50,4,2,0,60,0,0
24614,-1000,4,2,0,100,0,0
24759,-1000,4,2,0,60,0,0
24906,-40,4,2,0,60,0,0
24978,-40,4,2,0,100,0,0
25051,-66.6666666666667,4,2,0,100,0,0
25488,-100,4,2,0,60,0,0
25706,-100,4,2,0,100,0,0
25779,-50,4,2,0,100,0,0
25925,-66.6666666666667,4,2,0,60,0,0
26143,-66.6666666666667,4,2,0,100,0,0
26216,-50,4,2,0,60,0,0
26288,-50,4,2,0,100,0,0
26362,-50,4,2,0,60,0,0
26580,-50,4,2,0,100,0,0
26653,-50,4,2,0,60,0,0
26725,-50,4,2,0,100,0,0
26799,-1000,4,2,0,60,0,0
27236,-50,4,2,0,60,0,0
27527,-50,4,2,0,5,0,0
27818,-50,4,2,0,60,0,0
28012,-50,4,2,0,100,0,0
28109,-100,4,2,0,60,0,0
28327,-100,4,2,0,100,0,0
28692,-66.6666666666667,4,2,0,60,0,0
28910,-66.6666666666667,4,2,0,100,0,0
28983,-100,4,2,0,60,0,0
29492,-100,4,2,0,5,0,0
29566,-100,4,2,0,60,0,0
29930,-100,4,2,0,5,0,0
30003,-100,4,2,0,60,0,0
30075,-100,4,2,0,100,0,0
30148,-100,4,2,0,60,0,0
30366,-100,4,2,0,100,0,0
30440,-500,4,2,0,60,0,0
30731,-500,4,2,0,60,0,0
31022,-66.6666666666667,4,2,0,60,0,0
31240,-66.6666666666667,4,2,0,100,0,0
31313,-500,4,2,0,60,0,0
31604,-500,4,2,0,60,0,0
31750,-100,4,2,0,60,0,0
31822,-100,4,2,0,100,0,0
31896,-100,4,2,0,60,0,0
32260,-100,4,2,0,5,0,0
32333,-100,4,2,0,60,0,0
32405,-100,4,2,0,100,0,0
32478,-100,4,2,0,60,0,0
32696,-100,4,2,0,100,0,0
32770,-50,4,2,0,60,0,0
32988,-50,4,2,0,100,0,0
33061,-50,4,2,0,60,0,0
33097,-50,4,2,1,100,0,0
33570,-50,4,2,0,5,0,0
33643,-142.857142857143,4,2,1,60,0,0
33680,-142.857142857143,4,2,0,100,0,0
34079,-142.857142857143,4,2,1,5,0,0
34226,-100,4,2,0,70,0,0
34590,-100,4,2,0,5,0,0
34663,-100,4,2,0,70,0,0
34735,-100,4,2,0,100,0,0
34808,-100,4,2,0,70,0,0
35026,-100,4,2,0,100,0,0
35100,-500,4,2,0,70,0,0
35391,-500,4,2,0,70,0,0
35682,-66.6666666666667,4,2,0,70,0,0
35900,-66.6666666666667,4,2,0,100,0,0
35974,-500,4,2,0,70,0,0
36265,-500,4,2,0,70,0,0
36410,-100,4,2,0,70,0,0
36482,-100,4,2,0,100,0,0
36556,-100,4,2,0,70,0,0
36847,-100,4,2,0,5,0,0
36993,-100,4,2,0,70,0,0
37065,-100,4,2,0,100,0,0
37139,-100,4,2,0,70,0,0
37357,-100,4,2,0,100,0,0
37430,-95.2380952380952,4,2,0,70,0,0
37648,-95.2380952380952,4,2,0,100,0,0
37721,-55.5555555555556,4,2,0,70,0,0
37758,-55.5555555555556,4,2,1,100,0,0
38230,-55.5555555555556,4,2,0,5,0,0
38304,-38.4615384615385,4,2,1,70,0,0
38340,-38.4615384615385,4,2,0,100,0,0
38813,-38.4615384615385,4,2,1,5,0,0
38886,-1000,4,2,0,80,0,1
39177,-1000,4,2,0,5,0,1
39323,-1000,4,2,0,80,0,1
39614,-1000,4,2,0,5,0,1
39760,-1000,4,2,0,80,0,1
40051,-1000,4,2,0,100,0,1
40342,-1000,4,2,0,80,0,1
41507,-1000,4,2,0,5,0,1
41653,-1000,4,2,0,80,0,1
41944,-1000,4,2,0,5,0,1
42090,-1000,4,2,0,80,0,1
42381,-1000,4,2,0,100,0,1
42673,-1000,4,2,0,80,0,1
42964,-200,4,2,0,80,0,1
43546,-1000,4,2,0,80,0,1
43837,-1000,4,2,0,5,0,1
43983,-1000,4,2,0,80,0,1
44274,-1000,4,2,0,5,0,1
44420,-1000,4,2,0,80,0,1
44711,-1000,4,2,0,100,0,1
45003,-1000,4,2,0,80,0,1
45585,-166.666666666667,4,2,0,80,0,1
45803,-166.666666666667,4,2,0,100,0,1
45876,-166.666666666667,4,2,0,80,0,1
46021,-166.666666666667,4,2,0,100,0,1
46168,-166.666666666667,4,2,0,80,0,1
46459,-111.111111111111,4,2,0,80,0,1
46604,-111.111111111111,4,2,0,100,0,1
46750,-111.111111111111,4,2,0,80,0,1
46895,-111.111111111111,4,2,0,100,0,1
47041,-333.333333333333,4,2,0,80,0,1
47477,-333.333333333333,4,2,0,80,0,1
47624,-333.333333333333,4,2,0,80,0,1
47770,-133.333333333333,4,2,0,80,0,1
47915,-90.909090909091,4,2,0,80,0,1
48061,-58.8235294117647,4,2,0,80,0,1
48133,-58.8235294117647,4,2,0,80,0,0
48571,-58.8235294117647,4,2,0,5,0,0
48643,-58.8235294117647,4,2,0,80,0,0
48715,-58.8235294117647,4,2,0,100,0,0
48789,-58.8235294117647,4,2,0,80,0,0
49007,-58.8235294117647,4,2,0,100,0,0
49080,-58.8235294117647,4,2,0,80,0,0
49298,-58.8235294117647,4,2,0,100,0,0
49663,-58.8235294117647,4,2,0,80,0,0
49881,-58.8235294117647,4,2,0,100,0,0
49954,-58.8235294117647,4,2,0,80,0,0
50026,-58.8235294117647,4,2,0,100,0,0
50464,-58.8235294117647,4,2,0,5,0,0
50537,-58.8235294117647,4,2,0,80,0,0
50901,-58.8235294117647,4,2,0,5,0,0
50974,-58.8235294117647,4,2,0,80,0,0
51191,-58.8235294117647,4,2,0,100,0,0
51410,-58.8235294117647,4,2,0,80,0,0
51628,-58.8235294117647,4,2,0,100,0,0
51993,-58.8235294117647,4,2,0,80,0,0
52211,-58.8235294117647,4,2,0,100,0,0
52284,-58.8235294117647,4,2,0,80,0,0
52356,-58.8235294117647,4,2,0,100,0,0
52794,-58.8235294117647,4,2,0,80,0,0
53231,-58.8235294117647,4,2,0,80,0,0
53304,-58.8235294117647,4,2,0,80,0,0
53376,-58.8235294117647,4,2,0,100,0,0
53449,-58.8235294117647,4,2,0,80,0,0
53667,-58.8235294117647,4,2,0,100,0,0
53741,-58.8235294117647,4,2,0,80,0,0
53959,-58.8235294117647,4,2,0,100,0,0
54323,-58.8235294117647,4,2,0,80,0,0
54541,-58.8235294117647,4,2,0,100,0,0
54614,-58.8235294117647,4,2,0,80,0,0
54686,-58.8235294117647,4,2,0,100,0,0
54760,-58.8235294117647,4,2,0,80,0,0
54832,-58.8235294117647,4,2,0,100,0,0
54906,-100,4,2,0,80,0,0
55124,-100,4,2,0,100,0,0
55197,-100,4,2,0,80,0,0
55342,-100,4,2,0,100,0,0
55488,-100,4,2,0,80,0,0
55779,-71.4285714285714,4,2,0,80,0,0
55924,-71.4285714285714,4,2,0,100,0,0
56071,-71.4285714285714,4,2,0,80,0,0
56216,-71.4285714285714,4,2,0,100,0,0
56362,-200,4,2,0,80,0,0
56798,-200,4,2,0,80,0,0
56944,-200,4,2,0,80,0,0
57090,-100,4,2,0,80,0,0
57236,-80,4,2,0,80,0,0
57381,-66.6666666666667,4,2,0,80,0,0
57453,-66.6666666666667,4,2,0,80,0,0
57527,-1000,4,2,0,40,0,0
57818,-1000,4,2,0,5,0,0
57964,-1000,4,2,0,40,0,0
58109,-1000,4,2,0,100,0,0
59784,-1000,4,2,0,5,0,0
59857,-1000,4,2,0,40,0,0
60148,-1000,4,2,0,5,0,0
60330,-1000,4,2,0,100,0,0
62114,-1000,4,2,0,5,0,0
62187,-41.6666666666667,4,2,0,60,0,0
62478,-41.6666666666667,4,2,0,5,0,0
62770,-41.6666666666667,4,2,0,60,0,0
63061,-41.6666666666667,4,2,0,100,0,0
63207,-47.6190476190476,4,2,0,60,0,0
63425,-47.6190476190476,4,2,0,100,0,0
63498,-47.6190476190476,4,2,0,60,0,0
63570,-47.6190476190476,4,2,0,100,0,0
63643,-47.6190476190476,4,2,0,60,0,0
63861,-47.6190476190476,4,2,0,100,0,0
63935,-47.6190476190476,4,2,0,60,0,0
64080,-142.857142857143,4,2,0,60,0,0
64517,-41.6666666666667,4,2,0,60,0,0
64808,-41.6666666666667,4,2,0,5,0,0
65100,-41.6666666666667,4,2,0,60,0,0
65391,-41.6666666666667,4,2,0,60,0,0
65537,-47.6190476190476,4,2,0,60,0,0
65755,-47.6190476190476,4,2,0,100,0,0
65828,-47.6190476190476,4,2,0,60,0,0
65900,-47.6190476190476,4,2,0,100,0,0
65974,-47.6190476190476,4,2,0,60,0,0
66192,-47.6190476190476,4,2,0,100,0,0
66265,-47.6190476190476,4,2,0,60,0,0
66556,-47.6190476190476,4,2,0,100,0,0
66702,-47.6190476190476,4,2,0,60,0,0
66774,-47.6190476190476,4,2,0,100,0,0
66847,-41.6666666666667,4,2,0,60,0,0
67138,-41.6666666666667,4,2,0,5,0,0
67430,-41.6666666666667,4,2,0,60,0,0
67721,-41.6666666666667,4,2,0,100,0,0
67867,-47.6190476190476,4,2,0,60,0,0
68085,-47.6190476190476,4,2,0,100,0,0
68158,-47.6190476190476,4,2,0,60,0,0
68230,-47.6190476190476,4,2,0,100,0,0
68304,-47.6190476190476,4,2,0,60,0,0
68522,-47.6190476190476,4,2,0,100,0,0
68595,-47.6190476190476,4,2,0,60,0,0
68741,-142.857142857143,4,2,0,60,0,0
69177,-41.6666666666667,4,2,0,60,0,0
69468,-41.6666666666667,4,2,0,5,0,0
69760,-41.6666666666667,4,2,0,60,0,0
70051,-41.6666666666667,4,2,0,60,0,0
70197,-47.6190476190476,4,2,0,60,0,0
70415,-47.6190476190476,4,2,0,100,0,0
70488,-47.6190476190476,4,2,0,60,0,0
70560,-47.6190476190476,4,2,0,100,0,0
70634,-47.6190476190476,4,2,0,60,0,0
70852,-47.6190476190476,4,2,0,100,0,0
70925,-47.6190476190476,4,2,0,60,0,0
71216,-47.6190476190476,4,2,0,100,0,0
71362,-47.6190476190476,4,2,0,60,0,0
71434,-47.6190476190476,4,2,0,100,0,0
71508,-50,4,2,0,60,0,0
71726,-50,4,2,0,100,0,0
71799,-66.6666666666667,4,2,0,100,0,0
72090,-83.3333333333333,4,2,0,60,0,0
72381,-83.3333333333333,4,2,0,100,0,0
72527,-83.3333333333333,4,2,0,60,0,0
72709,-83.3333333333333,4,2,0,100,0,0
72818,-66.6666666666667,4,2,0,60,0,0
72890,-66.6666666666667,4,2,0,100,0,0
72964,-50,4,2,0,60,0,0
73182,-50,4,2,0,100,0,0
73255,-50,4,2,0,60,0,0
73327,-50,4,2,0,100,0,0
73401,-1000,4,2,0,60,0,0
73838,-50,4,2,0,60,0,0
73983,-50,4,2,0,100,0,0
74129,-40,4,2,0,100,0,0
74420,-66.6666666666667,4,2,0,60,0,0
74638,-66.6666666666667,4,2,0,100,0,0
74857,-100,4,2,0,60,0,0
75075,-100,4,2,0,100,0,0
75148,-50,4,2,0,60,0,0
75220,-50,4,2,0,100,0,0
75294,-50,4,2,0,60,0,0
75512,-50,4,2,0,100,0,0
75585,-50,4,2,0,60,0,0
75731,-50,4,2,0,100,0,0
75876,-1000,4,2,0,100,0,0
76021,-1000,4,2,0,60,0,0
76168,-40,4,2,0,60,0,0
76240,-40,4,2,0,100,0,0
76313,-66.6666666666667,4,2,0,100,0,0
76750,-100,4,2,0,60,0,0
76944,-100,4,2,0,100,0,0
77041,-50,4,2,0,100,0,0
77187,-66.6666666666667,4,2,0,60,0,0
77405,-66.6666666666667,4,2,0,100,0,0
77478,-50,4,2,0,60,0,0
77550,-50,4,2,0,100,0,0
77624,-50,4,2,0,60,0,0
77842,-50,4,2,0,100,0,0
77915,-50,4,2,0,60,0,0
77987,-50,4,2,0,100,0,0
78061,-1000,4,2,0,60,0,0
78498,-50,4,2,0,60,0,0
78789,-50,4,2,0,5,0,0
79080,-50,4,2,0,60,0,0
79274,-50,4,2,0,100,0,0
79372,-100,4,2,0,60,0,0
79517,-100,4,2,0,60,0,0
79663,-100,4,2,0,100,0,0
79954,-66.6666666666667,4,2,0,60,0,0
80172,-66.6666666666667,4,2,0,100,0,0
80245,-100,4,2,0,60,0,0
80754,-100,4,2,0,5,0,0
80828,-100,4,2,0,60,0,0
81192,-100,4,2,0,5,0,0
81265,-100,4,2,0,60,0,0
81337,-100,4,2,0,100,0,0
81410,-100,4,2,0,60,0,0
81628,-100,4,2,0,100,0,0
81702,-500,4,2,0,60,0,0
81993,-500,4,2,0,60,0,0
82284,-66.6666666666667,4,2,0,60,0,0
82502,-66.6666666666667,4,2,0,100,0,0
82575,-500,4,2,0,60,0,0
82866,-500,4,2,0,60,0,0
83012,-100,4,2,0,60,0,0
83070,-100,4,2,0,100,0,0
83158,-100,4,2,0,60,0,0
83522,-100,4,2,0,5,0,0
83595,-100,4,2,0,60,0,0
83667,-100,4,2,0,100,0,0
83741,-100,4,2,0,60,0,0
83959,-100,4,2,0,100,0,0
84032,-50,4,2,0,60,0,0
84250,-50,4,2,0,100,0,0
84323,-50,4,2,0,60,0,0
84359,-50,4,2,1,100,0,0
84832,-50,4,2,0,5,0,0
84906,-133.333333333333,4,2,1,60,0,0
84942,-133.333333333333,4,2,0,100,0,0
85342,-133.333333333333,4,2,1,5,0,0
85488,-100,4,2,0,70,0,0
85852,-100,4,2,0,5,0,0
85925,-100,4,2,0,70,0,0
85997,-100,4,2,0,100,0,0
86071,-100,4,2,0,70,0,0
86289,-100,4,2,0,100,0,0
86362,-500,4,2,0,70,0,0
86653,-500,4,2,0,70,0,0
86944,-66.6666666666667,4,2,0,70,0,0
87162,-66.6666666666667,4,2,0,100,0,0
87236,-500,4,2,0,70,0,0
87527,-500,4,2,0,70,0,0
87673,-100,4,2,0,70,0,0
87745,-100,4,2,0,100,0,0
87818,-100,4,2,0,70,0,0
88182,-100,4,2,0,5,0,0
88255,-100,4,2,0,70,0,0
88327,-100,4,2,0,100,0,0
88401,-100,4,2,0,70,0,0
88619,-100,4,2,0,100,0,0
88692,-66.6666666666667,4,2,0,70,0,0
88910,-66.6666666666667,4,2,0,100,0,0
88983,-55.5555555555556,4,2,0,70,0,0
89020,-55.5555555555556,4,2,1,100,0,0
89492,-55.5555555555556,4,2,0,5,0,0
89566,-33.3333333333333,4,2,1,70,0,0
89602,-33.3333333333333,4,2,0,100,0,0
90075,-33.3333333333333,4,2,1,5,0,0
90148,-1000,4,2,0,80,0,1
90439,-1000,4,2,0,5,0,1
90585,-1000,4,2,0,80,0,1
90876,-1000,4,2,0,5,0,1
91022,-1000,4,2,0,80,0,1
91313,-1000,4,2,0,100,0,1
91605,-1000,4,2,0,80,0,1
92769,-1000,4,2,0,5,0,1
92915,-1000,4,2,0,80,0,1
93206,-1000,4,2,0,5,0,1
93352,-1000,4,2,0,80,0,1
93643,-1000,4,2,0,100,0,1
93935,-1000,4,2,0,80,0,1
94226,-181.818181818181,4,2,0,80,0,1
94808,-1000,4,2,0,80,0,1
95099,-1000,4,2,0,5,0,1
95245,-1000,4,2,0,80,0,1
95536,-1000,4,2,0,5,0,1
95682,-1000,4,2,0,80,0,1
95973,-1000,4,2,0,100,0,1
96265,-1000,4,2,0,80,0,1
96847,-142.857142857143,4,2,0,80,0,1
97065,-142.857142857143,4,2,0,100,0,1
97139,-142.857142857143,4,2,0,80,0,1
97284,-142.857142857143,4,2,0,100,0,1
97430,-142.857142857143,4,2,0,80,0,1
97721,-100,4,2,0,80,0,1
97866,-100,4,2,0,100,0,1
98012,-100,4,2,0,80,0,1
98157,-100,4,2,0,100,0,1
98304,-200,4,2,0,80,0,1
98740,-200,4,2,0,80,0,1
98886,-200,4,2,0,80,0,1
99032,-100,4,2,0,80,0,1
99177,-66.6666666666667,4,2,0,80,0,1
99323,-50,4,2,0,80,0,1
99395,-50,4,2,0,80,0,0
99469,-58.8235294117647,4,2,0,80,0,0
99833,-58.8235294117647,4,2,0,5,0,0
99906,-58.8235294117647,4,2,0,80,0,0
99978,-58.8235294117647,4,2,0,100,0,0
100051,-58.8235294117647,4,2,0,80,0,0
100269,-58.8235294117647,4,2,0,100,0,0
100342,-58.8235294117647,4,2,0,80,0,0
100560,-58.8235294117647,4,2,0,100,0,0
100925,-58.8235294117647,4,2,0,80,0,0
101143,-58.8235294117647,4,2,0,100,0,0
101216,-58.8235294117647,4,2,0,80,0,0
101288,-58.8235294117647,4,2,0,100,0,0
101726,-58.8235294117647,4,2,0,5,0,0
101799,-58.8235294117647,4,2,0,80,0,0
102163,-58.8235294117647,4,2,0,5,0,0
102236,-58.8235294117647,4,2,0,80,0,0
102453,-58.8235294117647,4,2,0,100,0,0
102673,-58.8235294117647,4,2,0,80,0,0
102891,-58.8235294117647,4,2,0,100,0,0
103255,-58.8235294117647,4,2,0,80,0,0
103473,-58.8235294117647,4,2,0,100,0,0
103546,-58.8235294117647,4,2,0,80,0,0
103618,-58.8235294117647,4,2,0,100,0,0
103838,-40,4,2,0,100,0,0
104129,-58.8235294117647,4,2,0,80,0,0
104493,-58.8235294117647,4,2,0,5,0,0
104566,-58.8235294117647,4,2,0,80,0,0
104638,-58.8235294117647,4,2,0,100,0,0
104711,-58.8235294117647,4,2,0,80,0,0
104929,-58.8235294117647,4,2,0,100,0,0
105003,-58.8235294117647,4,2,0,80,0,0
105221,-58.8235294117647,4,2,0,100,0,0
105585,-58.8235294117647,4,2,0,80,0,0
105657,-58.8235294117647,4,2,0,100,0,0
105731,-40,4,2,0,100,0,0
105876,-40,4,2,0,80,0,0
105949,-40,4,2,0,100,0,0
106022,-58.8235294117647,4,2,0,80,0,0
106094,-58.8235294117647,4,2,0,100,0,0
106168,-100,4,2,0,80,0,0
106386,-100,4,2,0,100,0,0
106459,-100,4,2,0,80,0,0
106677,-100,4,2,0,100,0,0
106750,-100,4,2,0,80,0,0
107041,-71.4285714285714,4,2,0,80,0,0
107186,-71.4285714285714,4,2,0,100,0,0
107333,-71.4285714285714,4,2,0,80,0,0
107478,-71.4285714285714,4,2,0,100,0,0
107624,-166.666666666667,4,2,0,80,0,0
108060,-166.666666666667,4,2,0,80,0,0
108207,-166.666666666667,4,2,0,80,0,0
108352,-66.6666666666667,4,2,0,80,0,0
108498,-50,4,2,0,80,0,0
108643,-40,4,2,0,80,0,0
108715,-40,4,2,0,80,0,0
108789,-1000,4,2,0,40,0,0
109080,-1000,4,2,0,5,0,0
109226,-1000,4,2,0,40,0,0
109371,-1000,4,2,0,100,0,0
111046,-1000,4,2,0,5,0,0
111119,-1000,4,2,0,40,0,0
111410,-1000,4,2,0,5,0,0
111592,-1000,4,2,0,100,0,0
113376,-1000,4,2,0,5,0,0
113449,-142.857142857143,4,2,0,60,0,0
113740,-142.857142857143,4,2,0,5,0,0
113886,-142.857142857143,4,2,0,60,0,0
114177,-142.857142857143,4,2,0,100,0,0
114323,-142.857142857143,4,2,0,60,0,0
114759,-142.857142857143,4,2,0,5,0,0
114906,-142.857142857143,4,2,0,60,0,0
115051,-142.857142857143,4,2,0,100,0,0
115197,-142.857142857143,4,2,0,60,0,0
115488,-142.857142857143,4,2,0,5,0,0
115634,-142.857142857143,4,2,0,60,0,0
115924,-142.857142857143,4,2,0,100,0,0
116216,-142.857142857143,4,2,0,60,0,0
116580,-142.857142857143,4,2,0,100,0,0
116653,-142.857142857143,4,2,0,60,0,0
116944,-142.857142857143,4,2,0,100,0,0
117236,-142.857142857143,4,2,0,60,0,0
117381,-142.857142857143,4,2,0,100,0,0
117527,-142.857142857143,4,2,0,60,0,0
117818,-142.857142857143,4,2,0,5,0,0
118109,-142.857142857143,4,2,0,60,0,0
118400,-142.857142857143,4,2,0,5,0,0
118546,-142.857142857143,4,2,0,60,0,0
118910,-142.857142857143,4,2,0,100,0,0
118983,-142.857142857143,4,2,0,60,0,0
119274,-142.857142857143,4,2,0,100,0,0
119566,-142.857142857143,4,2,0,60,0,0
119711,-142.857142857143,4,2,0,100,0,0
119857,-142.857142857143,4,2,0,60,0,0
120148,-142.857142857143,4,2,0,5,0,0
120294,-142.857142857143,4,2,0,60,0,0
120585,-142.857142857143,4,2,0,100,0,0
120876,-142.857142857143,4,2,0,60,0,0
122623,-142.857142857143,4,2,0,5,0,0
122770,-100,4,2,0,80,0,0
122988,-100,4,2,0,100,0,0
123207,-100,4,2,0,80,0,0
123498,-100,4,2,0,100,0,0
123643,-100,4,2,0,80,0,0
123789,-100,4,2,0,100,0,0
124226,-100,4,2,0,80,0,0
124372,-100,4,2,0,100,0,0
124517,-100,4,2,0,80,0,0
124663,-100,4,2,0,100,0,0
125100,-100,4,2,0,80,0,0
125245,-100,4,2,0,100,0,0
125537,-100,4,2,0,80,0,0
125828,-100,4,2,0,100,0,0
125974,-100,4,2,0,80,0,0
126119,-100,4,2,0,100,0,0
126556,-100,4,2,0,80,0,0
126702,-100,4,2,0,100,0,0
126847,-100,4,2,0,80,0,0
126993,-100,4,2,0,100,0,0
127430,-83.3333333333333,4,2,0,80,0,0
127648,-83.3333333333333,4,2,0,100,0,0
127721,-66.6666666666667,4,2,0,100,0,0
128012,-50,4,2,0,80,0,0
128230,-50,4,2,0,100,0,0
128304,-50,4,2,0,80,0,0
128449,-50,4,2,0,100,0,0
128886,-50,4,2,0,80,0,0
129032,-50,4,2,0,100,0,0
129177,-50,4,2,0,80,0,0
129323,-50,4,2,0,100,0,0
129760,-50,4,2,0,80,0,0
129906,-50,4,2,0,100,0,0
130197,-50,4,2,0,80,0,0
130560,-50,4,2,0,100,0,0
130634,-50,4,2,0,80,0,0
131580,-50,4,2,0,100,0,0
131653,-66.6666666666667,4,2,0,80,0,0
131725,-66.6666666666667,4,2,0,100,0,0
131799,-80,4,2,0,80,0,0
131871,-80,4,2,0,100,0,0
131944,-100,4,2,0,80,0,0
132016,-100,4,2,0,100,0,0
132090,-66.6666666666667,4,2,0,80,0,0
132308,-66.6666666666667,4,2,0,100,0,0
132527,-66.6666666666667,4,2,0,80,0,0
132818,-66.6666666666667,4,2,0,100,0,0
132964,-66.6666666666667,4,2,0,80,0,0
133036,-66.6666666666667,4,2,0,100,0,0
133546,-66.6666666666667,4,2,0,80,0,0
133618,-66.6666666666667,4,2,0,100,0,0
133838,-66.6666666666667,4,2,0,80,0,0
134056,-66.6666666666667,4,2,0,100,0,0
134129,-66.6666666666667,4,2,0,80,0,0
134201,-66.6666666666667,4,2,0,100,0,0
134420,-66.6666666666667,4,2,0,80,0,0
134492,-66.6666666666667,4,2,0,100,0,0
134857,-66.6666666666667,4,2,0,80,0,0
135148,-66.6666666666667,4,2,0,100,0,0
135294,-66.6666666666667,4,2,0,80,0,0
135366,-66.6666666666667,4,2,0,100,0,0
135876,-66.6666666666667,4,2,0,80,0,0
135948,-66.6666666666667,4,2,0,100,0,0
136168,-66.6666666666667,4,2,0,80,0,0
136386,-66.6666666666667,4,2,0,100,0,0
136750,-66.6666666666667,4,2,0,80,0,0
136822,-66.6666666666667,4,2,0,100,0,0
137186,-66.6666666666667,4,2,0,80,0,0
137478,-66.6666666666667,4,2,0,100,0,0
137624,-66.6666666666667,4,2,0,80,0,0
137770,-66.6666666666667,4,2,0,100,0,0
138207,-66.6666666666667,4,2,0,80,0,0
138279,-66.6666666666667,4,2,0,100,0,0
138498,-66.6666666666667,4,2,0,80,0,0
138716,-66.6666666666667,4,2,0,100,0,0
138789,-66.6666666666667,4,2,0,80,0,0
138861,-66.6666666666667,4,2,0,100,0,0
139080,-66.6666666666667,4,2,0,80,0,0
141410,-200,4,2,0,80,0,0
145778,-200,4,2,0,5,0,0
146071,-200,4,2,0,80,0,0
150439,-200,4,2,0,5,0,0
150731,-117.647058823529,4,2,0,50,0,0
151022,-117.647058823529,4,2,0,5,0,0
151168,-117.647058823529,4,2,0,50,0,0
151459,-117.647058823529,4,2,0,5,0,0
151605,-250,4,2,0,50,0,0
151750,-250,4,2,0,100,0,0
151896,-117.647058823529,4,2,0,50,0,0
152187,-117.647058823529,4,2,0,5,0,0
152333,-117.647058823529,4,2,0,50,0,0
152624,-117.647058823529,4,2,0,5,0,0
152770,-117.647058823529,4,2,0,50,0,0
152915,-117.647058823529,4,2,0,100,0,0
153061,-71.4285714285714,4,2,0,50,0,0
153352,-71.4285714285714,4,2,0,100,0,0
153498,-68.9655172413793,4,2,0,50,0,0
153789,-68.9655172413793,4,2,0,5,0,0
153935,-166.666666666667,4,2,0,50,0,0
154080,-166.666666666667,4,2,0,100,0,0
154226,-42.5531914893617,4,2,0,50,0,0
154808,-181.818181818181,4,2,0,50,0,0
155391,-111.111111111111,4,2,0,70,0,0
155682,-111.111111111111,4,2,0,5,0,0
155828,-111.111111111111,4,2,0,70,0,0
156119,-111.111111111111,4,2,0,5,0,0
156265,-133.333333333333,4,2,0,70,0,0
156410,-133.333333333333,4,2,0,100,0,0
156556,-74.0740740740741,4,2,0,70,0,0
156847,-68.9655172413793,4,2,0,5,0,0
156993,-133.333333333333,4,2,0,70,0,0
157284,-133.333333333333,4,2,0,5,0,0
157430,-100,4,2,0,70,0,0
157575,-100,4,2,0,100,0,0
157721,-74.0740740740741,4,2,0,70,0,0
158012,-74.0740740740741,4,2,0,5,0,0
158158,-68.9655172413793,4,2,0,70,0,0
158449,-68.9655172413793,4,2,0,5,0,0
158595,-133.333333333333,4,2,0,70,0,0
158740,-133.333333333333,4,2,0,100,0,0
158886,-38.4615384615385,4,2,0,70,0,0
159469,-35.7142857142857,4,2,0,70,0,0
160051,-35.7142857142857,4,2,0,50,0,0
161216,-35.7142857142857,4,2,0,10,0,0
161944,-35.7142857142857,4,2,1,50,0,0
162090,-35.7142857142857,4,2,0,70,0,0
162236,-35.7142857142857,4,2,1,90,0,0
162381,-50,4,2,0,100,0,1
162745,-50,4,2,0,5,0,1
162818,-50,4,2,0,100,0,1
164420,-33.3333333333333,4,2,0,100,0,1
164711,-50,4,2,0,100,0,1
165075,-50,4,2,0,5,0,1
165148,-50,4,2,0,100,0,1
166168,-100,4,2,0,100,0,1
166459,-50,4,2,0,100,0,1
167041,-28.5714285714286,4,2,0,100,0,1
167405,-28.5714285714286,4,2,0,5,0,1
167478,-50,4,2,0,100,0,1
169372,-100,4,2,0,100,0,1
169954,-33.3333333333333,4,2,0,100,0,1
170245,-47.6190476190476,4,2,0,100,0,1
170537,-38.4615384615385,4,2,0,100,0,1
170828,-50,4,2,0,100,0,1
171410,-40,4,2,0,100,0,1
171556,-33.3333333333333,4,2,0,100,0,1
171702,-50,4,2,0,100,0,1
173449,-57.1428571428571,4,2,0,100,0,1
173741,-66.6666666666667,4,2,0,100,0,1
173886,-33.3333333333333,4,2,0,100,0,1
174032,-58.8235294117647,4,2,0,100,0,1
174396,-58.8235294117647,4,2,0,5,0,1
174469,-50,4,2,0,100,0,1
175488,-40,4,2,0,100,0,1
175779,-50,4,2,0,100,0,1
178983,-133.333333333333,4,2,0,100,0,1
179274,-50,4,2,0,100,0,1
179566,-100,4,2,0,100,0,1
180148,-50,4,2,0,100,0,1
181022,-66.6666666666667,4,2,0,100,0,1
181313,-80,4,2,0,100,0,1
181605,-100,4,2,0,100,0,1
181896,-50,4,2,0,100,0,1
183643,-50,4,2,0,5,0,1
183789,-50,4,2,0,100,0,1
184226,-66.6666666666667,4,2,0,100,0,1
185391,-50,4,2,0,100,0,1
187721,-66.6666666666667,4,2,0,100,0,1
188012,-50,4,2,0,100,0,1
189177,-33.3333333333333,4,2,0,100,0,1
189760,-50,4,2,0,100,0,1
189906,-40,4,2,0,100,0,1
190051,-33.3333333333333,4,2,0,100,0,1
190197,-28.5714285714286,4,2,0,100,0,1
190342,-28.5714285714286,4,2,0,100,0,0

[Colours]
Combo1 : 204,191,168
Combo2 : 222,218,222
Combo3 : 192,180,188
Combo4 : 231,209,218
Combo5 : 215,157,179
Combo6 : 208,216,232
Combo7 : 164,177,208
Combo8 : 228,222,211

[HitObjects]
256,192,585,12,0,1459,0:0:0:0:
256,182,1605,6,0,L|256:201,1,17.9999995231628,2|0,0:0|0:0,2:0:0:0:
321,196,2041,2,0,L|321:187,1,8.99999976158142,2|0,0:0|2:0,2:0:0:0:
385,188,2551,2,0,L|385:197,1,8.99999976158142,0|0,2:0|2:0,2:0:0:0:
256,196,3097,2,0,L|256:187,1,8.99999976158142,0|0,2:0|2:0,2:0:0:0:
191,183,3571,2,0,L|191:201,1,17.9999995231628,0|0,2:0|0:0,2:0:0:0:
256,200,3935,6,0,L|256:182,1,17.9999995231628,2|0,0:0|0:0,2:0:0:0:
321,187,4408,2,0,L|321:196,1,8.99999976158142,0|0,2:0|2:0,2:0:0:0:
385,197,4699,2,0,L|385:188,1,8.99999976158142,0|0,2:0|2:0,2:0:0:0:
256,187,5427,2,0,L|256:196,1,8.99999976158142,0|0,2:0|2:0,2:0:0:0:
191,201,5901,2,0,L|191:183,1,17.9999995231628,0|0,2:0|0:0,2:0:0:0:
256,182,6265,102,0,L|256:201,1,17.9999995231628,2|0,0:0|0:0,2:0:0:0:
191,196,6702,2,0,L|191:187,1,8.99999976158142,2|0,0:0|2:0,2:0:0:0:
127,188,7175,2,0,L|127:197,1,8.99999976158142,0|0,2:0|2:0,2:0:0:0:
256,196,7794,2,0,L|256:187,1,8.99999976158142,0|0,2:0|2:0,2:0:0:0:
321,183,8231,2,0,L|321:199,1,13.4999996423721,0|0,2:0|2:0,2:0:0:0:
255,260,8595,22,0,P|248:267|230:273,1,26.9999992847443,2|0,3:2|2:0,2:0:0:0:
255,260,8886,2,0,P|261:267|279:273,1,26.9999992847443,0|2,3:0|0:0,2:0:0:0:
173,298,9177,6,0,P|164:290|153:262,1,40.4999989271165,2|0,3:2|2:0,2:0:0:0:
339,298,9469,102,0,P|348:290|359:262,1,40.4999989271165,2|0,3:2|2:0,2:0:0:0:
256,192,9760,6,0,B|265:152|292:165|302:123,1,80.9999978542329,2|0,3:2|0:0,2:0:0:0:
256,192,10342,102,0,B|232:159|232:159|234:154|234:154|214:125,1,80.9999978542329,0|0,2:0|0:0,2:0:0:0:
299,0,10925,6,0,B|328:-12|350:6|355:59|315:210|234:324|205:230,1,359.999990463257,6|0,1:2|0:0,2:0:0:0:
213,228,11508,1,2,0:3:0:0:
512,49,11944,102,0,B|534:31|561:-19|506:-74|391:-14|421:96|474:29|435:128|378:121|398:70,1,269.999992847443,0|0,1:0|2:0,2:0:0:0:
371,100,12236,2,0,B|375:143|315:171|312:122,1,89.9999976158143,0|0,1:0|2:0,2:0:0:0:
279,69,12381,2,0,P|145:26|-20:-2,1,269.999992847443,0|0,1:0|2:0,2:0:0:0:
12,8,12673,1,2,0:3:0:0:
117,2,12818,6,0,P|102:47|93:92,1,89.9999976158143,0|8,1:3|0:3,2:0:0:0:
257,370,13255,102,0,B|285:383|315:369|346:271|206:96|158:101|137:152,1,359.999990463257,6|0,1:2|0:0,2:0:0:0:
148,147,13838,1,2,0:3:0:0:
512,201,14274,6,0,B|534:195|564:184|484:109|466:154|473:242|434:281|359:272|338:175|435:136,1,269.999992847443,0|0,1:0|2:0,2:0:0:0:
439,101,14566,2,0,B|463:97|485:106|485:152|452:186,1,89.9999976158143,0|0,1:0|2:0,2:0:0:0:
435,262,14711,2,0,P|230:208|102:195,1,269.999992847443,0|0,1:0|2:0,2:0:0:0:
167,207,15003,1,2,0:3:0:0:
0,282,15294,102,0,B|-8:252|40:246|73:304|61:349,1,89.9999976158143,0|0,2:0|2:0,2:0:0:0:
104,362,15440,2,0,B|112:391|63:397|30:339|42:294,1,89.9999976158143,0|0,1:0|2:0,2:0:0:0:
0,151,15585,6,0,B|-19:182|13:225|218:264|293:73|241:10|114:66,1,359.999990463257,6|0,1:2|0:0,2:0:0:0:
189,61,16168,1,2,0:3:0:0:
512,288,16605,102,0,B|541:321|534:349|447:389|401:365|485:251|450:189|300:212|325:247|487:304|375:323,1,269.999992847443,0|0,1:0|2:0,2:0:0:0:
451,174,16896,2,0,B|464:168|500:197|446:251,1,89.9999976158143,0|0,1:0|2:0,2:0:0:0:
371,344,17041,2,0,P|236:313|60:295,1,269.999992847443,0|0,1:0|2:0,2:0:0:0:
97,290,17333,1,2,0:3:0:0:
194,326,17478,6,0,P|217:274|231:233,1,89.9999976158143,0|8,1:3|0:3,2:0:0:0:
422,48,17915,102,0,B|504:-2|488:178|367:291|284:258|306:201,1,359.999990463257,6|0,1:2|0:0,2:0:0:0:
312,205,18498,1,2,0:3:0:0:
0,94,18935,6,0,B|-31:91|-53:23|-3:-26|89:0|102:110|82:151|29:95|109:177|114:165|61:65,1,269.999992847443,0|0,1:0|2:0,2:0:0:0:
100,119,19226,2,0,B|109:151|147:173|196:120,1,89.9999976158143,0|0,1:0|2:0,2:0:0:0:
200,74,19372,2,0,P|309:46|523:26,1,269.999992847443,0|0,1:0|2:0,2:0:0:0:
475,30,19663,1,2,0:3:0:0:
444,316,19954,102,0,B|420:358|384:355|344:320,1,89.9999976158143,0|0,2:0|2:0,2:0:0:0:
489,245,20100,2,0,B|440:249|421:287|444:333,1,89.9999976158143,0|0,1:0|2:0,2:0:0:0:
257,292,20245,6,0,B|244:342|295:350|315:337|391:158|290:143|222:160|245:344,1,337.499991059303,6|0,1:2|2:0,2:0:0:0:
135,338,20537,2,0,B|172:361|219:324|168:330|245:255|267:349|244:325|256:400|325:369,1,202.499994635582,0|0,2:0|2:0,2:0:0:0:
368,354,20828,102,0,B|375:413|434:423|471:364|464:250|351:238|345:318|400:386,1,269.999992847443,2|0,0:3|0:0,2:0:0:0:
497,115,21265,6,0,B|488:206|452:144|437:251,1,134.999996423721,0|0,1:0|2:0,2:0:0:0:
473,294,21556,2,0,B|487:307|540:275|519:219|485:216,1,89.9999976158143,0|0,1:0|2:0,2:0:0:0:
388,156,21702,102,0,B|351:208|380:287|380:287|354:203|267:190,1,269.999992847443,0|0,1:0|2:0,2:0:0:0:
238,127,21993,2,0,B|293:128|321:177|286:186,1,89.9999976158143,2|0,0:3|2:0,2:0:0:0:
379,355,22139,6,0,L|377:365,2,8.99999976158142,0|8|8,1:3|0:3|0:3,2:0:0:0:
235,233,22575,102,0,P|123:257|30:290,1,179.999995231628,6|0,1:2|2:0,2:0:0:0:
397,61,22867,6,0,B|391:149|295:118|350:131|264:95|310:-59|457:-60|406:86,1,337.499991059303,0|0,2:0|2:0,2:0:0:0:
504,158,23158,2,0,B|471:165|448:137|454:144|461:65|406:56|389:130|397:121|377:147|339:145|319:112,1,202.499994635582,2|0,0:3|2:0,2:0:0:0:
276,98,23449,102,0,B|312:45|347:60|345:93,1,67.4999982118606,0|0,2:0|2:0,2:0:0:0:
512,153,23595,6,0,P|401:195|369:217,1,134.999996423721,0|0,1:0|2:0,2:0:0:0:
463,295,23886,2,0,B|447:248|497:209|516:244,1,89.9999976158143,0|0,1:0|2:0,2:0:0:0:
265,205,24032,102,0,B|383:193|437:298|395:385|322:334|375:287,1,269.999992847443,0|0,1:0|2:0,2:0:0:0:
441,368,24323,1,2,0:3:0:0:
277,8,24614,6,0,L|279:-1,1,8.99999976158142,0|0,2:0|1:0,2:0:0:0:
76,264,24906,102,0,B|64:252|69:197|123:192|136:218,1,112.499997019768,6|0,1:2|2:0,2:0:0:0:
129,214,25051,2,0,P|67:228|-18:259,2,134.999996423721,0|0|0,2:0|2:0|2:0,2:0:0:0:
27,170,25488,6,0,B|30:98|92:131|82:28,1,134.999996423721,2|0,0:3|2:0,2:0:0:0:
38,0,25779,2,0,B|13:0|-9:35|-13:76|43:78,1,89.9999976158143,0|0,2:0|2:0,2:0:0:0:
119,206,25925,102,0,B|196:195|205:293|143:297|160:172|80:159,1,202.499994635582,0|0,1:0|2:0,2:0:0:0:
179,143,26216,2,0,B|167:126|181:101|212:70|265:125,1,89.9999976158143,0|0,1:0|2:0,2:0:0:0:
104,273,26362,6,0,B|49:287|29:374|29:374|58:291|-15:236,1,269.999992847443,0|0,1:0|2:0,2:0:0:0:
82,339,26653,2,0,B|93:325|61:332|82:367|128:385|155:364,1,89.9999976158143,2|0,0:3|2:0,2:0:0:0:
255,199,26799,102,0,L|257:189,2,8.99999976158142,0|8|8,1:3|0:3|0:3,2:0:0:0:
341,27,27236,6,0,B|197:-32|121:157|183:216|252:216|285:101|175:93,1,359.999990463257,6|0,1:2|0:0,2:0:0:0:
223,100,27818,1,2,0:3:0:0:
60,168,28012,101,0,2:0:0:0:
0,146,28109,2,0,B|61:160|23:242|86:249,1,134.999996423721,2|0,0:0|2:0,2:0:0:0:
129,291,28401,6,0,B|137:269|175:271|188:337|164:407|82:306|106:300|126:276,1,134.999996423721,0|0,2:0|2:0,2:0:0:0:
208,221,28692,102,0,B|192:194|227:154|307:198|361:282|184:283|198:252|191:211,1,202.499994635582,0|0,1:0|2:0,2:0:0:0:
164,108,28983,6,0,B|119:112|87:44|192:-35|334:-57|232:175|199:138|141:124,1,314.99999165535,2|0,0:3|0:0,2:3:0:0:
164,129,29566,70,0,L|416:170,1,224.999994039536,10|0,0:0|0:0,2:0:0:0:
370,174,30003,2,0,L|356:114,1,44.9999988079071,10|0,0:0|2:0,2:0:0:0:
483,32,30148,2,0,L|448:201,1,134.999996423721,8|0,0:0|2:0,2:0:0:0:
454,172,30440,6,0,L|444:210,1,35.9999990463257,10|2,0:0|0:0,2:0:0:0:
225,384,31022,22,0,P|330:292|422:290,1,202.499994635582,8|0,0:0|2:0,2:0:0:0:
393,290,31313,2,0,L|403:326,1,35.9999990463257,8|2,0:0|0:0,2:0:0:0:
512,352,31750,70,0,L|432:337,1,44.9999988079071,8|0,0:0|2:0,2:0:0:0:
244,307,31896,2,0,L|22:265,1,224.999994039536,10|0,0:0|0:0,2:0:0:0:
58,282,32333,2,0,L|42:212,1,44.9999988079071,10|0,0:0|2:0,2:0:0:0:
32,113,32478,6,0,B|96:124|95:189|95:189|83:178|69:174,1,134.999996423721,8|0,0:0|2:0,2:0:0:0:
88,351,32770,6,0,B|87:259|188:129|304:242|166:288|142:169,1,269.999992847443,10|0,0:0|2:0,2:0:0:0:
238,65,33061,6,2,B|207:83|184:40|254:-17|446:96|125:80|346:184|401:289|482:183|475:98|362:120|272:57|122:256|388:124|213:263|-17:93|100:-85|130:18,1,629.9999833107,2|0,0:0|0:0,0:0:0:0:
320,216,33643,70,2,B|337:114|418:101|443:154|408:172|379:152,1,188.99999499321,8|0,0:0|0:0,0:0:0:0:
382,154,34226,6,0,L|155:110,1,224.999994039536,10|0,0:0|0:0,2:0:0:0:
178,93,34663,2,0,L|188:136,1,44.9999988079071,10|0,0:0|2:0,2:0:0:0:
110,235,34808,2,0,L|84:102,1,134.999996423721,8|0,0:0|2:0,2:0:0:0:
83,96,35100,102,0,L|75:55,1,35.9999990463257,10|2,0:0|0:0,2:0:0:0:
0,238,35682,38,0,P|96:265|174:329,1,202.499994635582,8|0,0:0|2:0,2:0:0:0:
179,341,35974,2,0,L|157:373,1,35.9999990463257,8|2,0:0|0:0,2:0:0:0:
27,343,36410,70,0,L|81:335,1,44.9999988079071,8|0,0:0|2:0,2:0:0:0:
258,309,36556,2,0,L|448:280,1,179.999995231628,10|0,0:0|0:0,2:0:0:0:
483,193,36993,2,0,L|490:129,1,44.9999988079071,10|0,0:0|2:0,2:0:0:0:
504,176,37139,2,0,L|363:156,1,134.999996423721,8|0,0:0|2:0,2:0:0:0:
415,12,37430,6,0,B|379:38|382:74|382:74|424:85|432:141,1,141.749996244907,10|0,0:0|2:0,2:0:0:0:
329,211,37721,6,2,B|288:251|439:276|317:255|328:301|402:151|337:-33|150:32|46:14|44:-24|126:207|242:25|289:85|290:121|328:148,1,566.999984979629,2|0,0:0|0:0,0:0:0:0:
479,193,38304,6,2,B|535:175|565:148|476:107|495:142|366:193|445:182|409:227|468:297|313:380|275:419|150:470|153:437|159:365|165:358|293:358|343:212|396:432|484:443|604:408|598:159|441:244|488:294|484:319,1,818.999978303909,8|0,0:0|0:0,0:0:0:0:
487,284,38886,38,0,L|483:264,1,17.9999995231628,6|0,1:2|0:0,2:0:0:0:
483,266,39323,2,0,L|463:259,1,17.9999995231628,0|0,1:2|0:0,2:0:0:0:
465,260,39760,2,0,L|449:273,1,17.9999995231628,0|0,1:2|2:0,2:0:0:0:
448,277,40197,1,0,2:0:0:0:
444,283,40342,2,0,L|447:302,1,17.9999995231628,0|0,1:2|3:2,2:0:0:0:
413,360,41216,6,0,L|409:380,1,17.9999995231628,6|0,1:2|0:0,2:0:0:0:
409,378,41653,2,0,L|389:384,1,17.9999995231628,0|0,1:2|0:0,2:0:0:0:
391,384,42090,2,0,L|375:370,1,17.9999995231628,0|0,1:2|2:0,2:0:0:0:
372,367,42527,1,0,2:0:0:0:
367,361,42673,1,0,1:2:0:0:
420,315,42964,6,2,B|442:224|477:278|492:170,1,157.499995827675,0|0,3:0|0:0,0:1:0:0:
490,178,43546,86,0,L|479:165,1,17.9999995231628,6|0,1:2|0:0,2:0:0:0:
478,164,43983,2,0,L|461:167,1,17.9999995231628,0|0,1:2|0:0,2:0:0:0:
460,167,44420,2,0,L|454:183,1,17.9999995231628,0|0,1:2|2:0,2:0:0:0:
452,191,44857,1,0,2:0:0:0:
450,198,45003,1,0,1:2:0:0:
372,147,45294,2,0,L|361:143,1,8.99999976158142,0|2,3:2|0:0,2:0:0:0:
300,150,45585,54,0,B|292:186|264:172|254:214,1,80.9999978542326,2|0,0:0|2:0,2:0:0:0:
256,280,45876,6,0,B|251:305|229:308|200:298,1,53.9999985694884,6|0,1:2|2:0,2:0:0:0:
256,280,46168,2,0,B|261:305|283:308|312:298,1,53.9999985694884,2|0,0:0|1:2,2:0:0:0:
166,352,46459,102,0,B|122:341|120:288|143:276,1,80.9999978542329,2|0,1:3|2:0,2:0:0:0:
346,352,46750,6,0,B|389:341|391:288|368:276,1,80.9999978542329,2|0,1:2|2:0,2:0:0:0:
278,214,47041,102,0,B|268:172|240:186|230:142,1,80.9999978542329,2|0,0:0|3:0,2:0:0:0:
236,141,47551,1,0,3:0:0:0:
243,134,47624,1,2,3:1:0:0:
272,78,47770,86,2,P|284:60|304:44,1,33.7499991059304,2|0,3:1|0:0,0:1:0:0:
221,37,47915,6,2,P|200:25|165:21,1,49.4999986886978,2|0,3:1|0:0,0:1:0:0:
370,91,48061,102,2,B|352:79|314:113|337:145,1,76.4999979734421,2|0,3:1|0:0,0:1:0:0:
256,384,48207,86,0,L|256:0,1,382.499989867211,6|0,1:2|0:0,2:0:0:0:
328,56,48643,2,0,L|328:132,1,76.4999979734421,2|0,1:2|2:0,2:0:0:0:
400,360,48789,2,0,L|400:97,1,229.499993920326,2|0,1:3|2:0,2:0:0:0:
472,0,49080,2,0,L|472:229,1,229.499993920326,2|0,1:2|2:0,2:0:0:0:
472,229,49372,1,0,2:0:0:0:
256,384,49663,6,0,L|256:121,1,229.499993920326,2|0,1:2|2:0,2:0:0:0:
184,192,49954,2,0,L|184:304,1,76.4999979734421,2|0,1:3|2:0,2:0:0:0:
112,384,50100,2,0,L|112:0,1,382.499989867211,0|0,2:0|0:0,2:0:0:0:
256,0,50537,6,0,L|256:384,1,382.499989867211,6|0,1:2|0:0,2:0:0:0:
328,304,50974,2,0,L|328:200,1,76.4999979734421,2|0,1:2|3:0,2:0:0:0:
400,112,51119,2,0,L|400:216,1,76.4999979734421,2|0,1:3|2:0,2:0:0:0:
432,384,51265,2,0,L|432:288,1,76.4999979734421,0|0,2:0|2:0,2:0:0:0:
472,0,51410,2,0,L|472:264,1,229.499993920326,2|0,1:2|2:0,2:0:0:0:
472,229,51702,1,0,2:0:0:0:
256,384,51993,86,0,L|256:121,1,229.499993920326,2|0,1:2|2:0,2:0:0:0:
184,192,52284,2,2,L|184:304,1,76.4999979734421,0|0,3:0|2:0,0:1:0:0:
112,384,52430,2,2,L|112:0,1,382.499989867211,2|0,2:0|0:0,2:1:0:0:
256,384,52867,6,2,L|256:0,1,382.499989867211,6|0,1:2|0:0,1:0:0:0:
184,56,53304,2,0,L|184:132,1,76.4999979734421,2|0,1:2|2:0,2:0:0:0:
112,360,53449,2,0,L|112:97,1,229.499993920326,2|0,1:3|2:0,2:0:0:0:
40,0,53741,2,0,L|40:229,1,229.499993920326,2|0,1:2|2:0,2:0:0:0:
40,229,54032,1,0,2:0:0:0:
256,384,54323,6,0,L|256:121,1,229.499993920326,2|0,1:2|2:0,2:0:0:0:
328,192,54614,2,0,L|328:304,1,76.4999979734421,2|0,1:3|2:0,2:0:0:0:
399,383,54760,2,0,L|399:255,1,76.4999979734421,2|0,0:0|2:0,2:0:0:0:
291,98,54906,22,0,B|276:163|226:138|208:212,1,134.999996423721,2|0,0:0|2:0,2:0:0:0:
256,248,55197,6,0,P|279:284|322:290,1,89.9999976158143,6|0,1:2|2:0,2:0:0:0:
255,248,55488,2,0,P|232:284|189:290,1,89.9999976158143,2|0,0:0|1:2,2:0:0:0:
368,343,55779,102,0,B|427:329|430:251|408:245,1,125.99999666214,2|0,1:3|2:0,2:0:0:0:
143,343,56071,6,0,B|84:329|81:251|103:245,1,125.99999666214,2|0,1:2|2:0,2:0:0:0:
301,201,56362,102,0,B|286:138|236:163|221:98,1,134.999996423721,2|0,0:0|3:0,2:0:0:0:
224,92,56872,1,0,3:0:0:0:
229,87,56944,1,2,3:1:0:0:
340,10,57090,86,2,P|322:24|312:44,1,44.9999988079071,2|0,3:1|0:0,0:1:0:0:
103,169,57236,6,2,P|140:188|161:217,1,56.2499985098839,2|0,3:1|0:0,0:1:0:0:
284,298,57381,102,2,B|277:287|229:331|261:368,1,67.4999982118606,2|0,3:1|0:0,0:1:0:0:
256,354,57527,6,0,L|256:373,1,17.9999995231628,2|0,3:2|0:0,2:0:0:0:
321,368,57964,2,0,L|321:359,1,8.99999976158142,2|0,3:2|2:0,2:0:0:0:
385,360,58474,2,0,L|385:369,1,8.99999976158142,0|0,2:0|2:0,2:0:0:0:
256,368,59020,2,0,L|256:359,1,8.99999976158142,0|0,2:0|2:0,2:0:0:0:
191,355,59493,2,0,L|191:373,1,17.9999995231628,0|0,2:0|0:0,2:0:0:0:
256,372,59857,102,0,L|256:354,1,17.9999995231628,2|0,3:2|0:0,2:0:0:0:
321,359,60330,2,0,L|321:368,1,8.99999976158142,0|0,2:0|2:0,2:0:0:0:
385,369,60622,2,0,L|385:360,1,8.99999976158142,0|0,2:0|2:0,2:0:0:0:
256,359,61350,2,0,L|256:368,1,8.99999976158142,0|0,2:0|2:0,2:0:0:0:
191,373,61823,2,0,L|191:355,1,17.9999995231628,0|0,2:0|0:0,2:0:0:0:
259,215,62187,22,0,B|254:244|228:291|128:258|155:158|177:88|230:35|264:-6|391:11|409:54|408:93|314:51,1,431.999988555908,6|0,1:2|0:0,2:0:0:0:
377,64,62770,1,2,0:3:0:0:
146,125,63061,5,0,2:0:0:0:
146,125,63207,2,0,B|184:130|173:185|127:189|48:127|210:36|93:-30|-78:-3|6:70|102:52,1,283.499992489815,0|0,1:0|2:0,2:0:0:0:
2,138,63498,2,0,B|-2:146|32:176|75:143|80:124,1,94.499997496605,0|0,1:0|2:0,2:0:0:0:
258,238,63643,2,0,B|262:201|-27:283|1:314,1,283.499992489815,0|0,1:0|2:0,2:0:0:0:
7,317,63935,1,2,0:3:0:0:
105,231,64080,102,0,P|96:257|86:315,2,62.9999983310699,0|8|8,1:3|0:3|0:3,2:0:0:0:
287,306,64517,6,0,B|263:340|196:323|180:219|283:197|355:186|426:209|471:288|520:341|491:377|455:393|458:324,1,431.999988555908,6|0,1:2|0:0,2:0:0:0:
462,354,65100,1,2,0:3:0:0:
362,158,65391,101,2,0:0:0:0:
366,161,65537,2,0,B|374:186|400:169|414:201|313:264|315:122|322:111|334:116|367:8|231:34|212:84|227:139|255:156|314:128,1,283.499992489815,0|0,1:0|2:0,2:0:0:0:
375,11,65828,2,0,B|404:27|390:67|362:81|348:71,1,94.499997496605,0|0,1:0|2:0,2:0:0:0:
412,292,65974,2,0,B|375:295|456:7|487:35,1,283.499992489815,0|0,1:0|2:0,2:0:0:0:
492,43,66265,1,2,0:3:0:0:
381,333,66556,6,0,B|366:328|355:355|403:393|442:352|442:294|416:284,1,94.499997496605,0|0,2:0|2:0,2:0:0:0:
484,262,66702,2,0,B|463:236|414:255|416:304|415:338,1,94.499997496605,0|0,1:0|2:0,2:0:0:0:
207,360,66847,102,0,B|225:393|278:393|314:365|319:131|192:57|78:68|151:182,1,431.999988555908,6|0,1:2|0:0,2:0:0:0:
142,150,67430,1,2,0:3:0:0:
33,304,67721,1,0,2:0:0:0:
33,304,67867,6,0,B|16:313|14:329|32:340|46:340|66:320|71:289|48:312|100:196|180:182|234:249|201:326|175:302,1,283.499992489815,0|0,1:0|2:0,2:0:0:0:
105,362,68158,2,0,B|64:315|100:260|121:273,1,94.499997496605,0|0,1:0|2:0,2:0:0:0:
191,85,68304,2,0,B|174:95|157:140|228:411|277:397|285:276,1,283.499992489815,0|0,1:0|2:0,2:0:0:0:
263,340,68595,1,2,0:3:0:0:
397,327,68741,102,0,P|359:315|328:312,2,62.9999983310699,0|8|8,1:3|0:3|0:3,2:0:0:0:
194,162,69177,6,0,B|183:200|204:244|333:283|510:59|415:-46|367:1,1,431.999988555908,6|0,1:2|0:0,2:0:0:0:
376,3,69760,1,2,0:3:0:0:
165,90,70051,1,2,0:0:0:0:
165,90,70197,102,0,B|159:106|167:128|193:136|224:124|177:96|369:152|338:276|210:288|227:230,1,283.499992489815,0|0,1:0|2:0,2:0:0:0:
309,104,70488,2,0,B|351:118|344:151|320:206|293:175,1,94.499997496605,0|0,1:0|2:0,2:0:0:0:
340,287,70634,2,0,B|333:275|320:271|84:319|64:340|86:371,1,283.499992489815,0|0,1:0|2:0,2:0:0:0:
91,365,70925,1,2,0:3:0:0:
3,29,71216,6,0,B|7:0|51:8|76:37|75:51,1,94.499997496605,0|0,2:0|2:0,2:0:0:0:
150,107,71362,2,0,B|151:117|115:121|73:62|90:57,1,94.499997496605,0|0,1:0|2:0,2:0:0:0:
344,111,71508,102,0,B|342:131|316:132|308:101|330:97|292:67|332:70|368:63|388:112|481:46|435:-32|384:-59|329:-20|343:28,1,269.999992847443,6|0,1:2|2:0,2:0:0:0:
271,162,71799,2,0,B|297:250|343:164|277:74|194:94,1,202.500002360344
380,234,72090,2,0,B|409:183|260:147|243:322|324:303,1,215.999987686158,2|0,0:3|2:0,3:0:0:0:
423,155,72527,6,0,B|442:75|511:112|502:42,1,134.999996423721,0|0,1:0|2:0,2:0:0:0:
422,9,72818,2,0,B|394:34|416:89|482:91,1,67.4999982118606,0|0,1:0|2:0,2:0:0:0:
411,294,72964,102,0,B|374:325|375:388|375:388|370:399|366:387|366:387|395:330|399:237|346:210,1,269.999992847443,0|0,1:0|2:0,2:0:0:0:
449,239,73255,2,0,B|471:176|518:188|503:205,1,89.9999976158143,2|0,0:3|2:0,2:0:0:0:
343,40,73401,6,0,L|345:28,2,8.99999976158142,0|8|8,1:3|0:3|0:3,2:0:0:0:
277,300,73838,102,0,B|278:276|98:327|116:346,1,179.999995231628,6|0,1:2|2:0,2:0:0:0:
325,137,74129,6,0,B|327:107|304:97|250:110|320:72|379:87|390:129|364:164|436:215|474:228|474:268|286:362|406:232|404:184|498:161|416:107,1,337.499991059303,0|0,2:0|2:0,2:0:0:0:
482,46,74420,2,0,B|485:62|513:62|520:39|524:31|470:-20|388:38|404:131,1,202.500002360344,2|0,0:3|2:0,2:0:0:0:
460,247,74711,2,0,B|472:251|492:241|516:228|511:195,1,67.4999982118606,0|0,2:0|2:0,2:0:0:0:
443,178,74857,102,0,P|377:192|314:217,1,134.999996423721,0|0,1:0|2:0,2:0:0:0:
289,333,75148,2,0,B|281:319|322:263|349:290,1,89.9999976158143,0|0,1:0|2:0,2:0:0:0:
170,57,75294,6,0,B|288:45|342:150|300:237|227:186|280:139,1,269.999992847443,0|0,1:0|2:0,2:0:0:0:
335,37,75585,1,2,0:3:0:0:
246,249,75731,1,0,2:0:0:0:
246,249,75804,1,0,2:0:0:0:
246,249,75876,102,0,L|244:258,1,8.99999976158142,0|0,2:0|1:0,2:0:0:0:
92,384,76168,6,0,B|162:340|52:240|31:344,1,112.499997019768,6|0,1:2|2:0,2:0:0:0:
67,303,76313,2,0,B|81:338|170:361|198:342,1,134.999996423721,0|0,2:0|2:0,2:0:0:0:
95,143,76653,101,0,2:0:0:0:
17,105,76750,2,0,B|31:189|66:138|78:235,1,119.999996821086,2|0,0:3|2:0,2:0:0:0:
5,265,77041,2,0,B|-20:258|-22:207|17:190,1,89.9999976158143,0|0,2:0|2:0,2:0:0:0:
182,38,77187,6,0,B|192:32|198:63|161:86|131:44|155:-32|46:-70|27:12|52:30,1,202.499994635582,0|0,1:0|2:0,2:0:0:0:
102,148,77478,2,0,B|134:133|156:90|115:61,1,89.9999976158143,0|0,1:0|2:0,2:0:0:0:
0,337,77624,102,0,B|42:212|166:242|166:242|130:278|144:330,1,269.999992847443,0|0,1:0|2:0,2:0:0:0:
163,368,77915,2,0,B|198:353|218:338|223:300|193:294,1,89.9999976158143,2|0,0:3|2:0,2:0:0:0:
64,92,78061,6,0,L|61:80,2,8.99999976158142,0|8|8,1:3|0:3|0:3,2:0:0:0:
248,214,78498,102,0,B|301:277|265:385|265:385|299:271|383:256,1,359.999990463257,6|0,1:2|0:0,2:0:0:0:
374,265,79080,1,2,0:3:0:0:
44,180,79274,5,0,2:0:0:0:
0,252,79372,2,0,B|51:238|26:216|91:202,1,89.9999976158143,2|0,0:0|1:0,2:0:0:0:
160,331,79663,102,0,B|155:334|158:348|182:346|182:339|179:325|173:338|173:300|182:279|214:286|228:299|224:329|215:336|213:328|196:341|211:351|225:368|240:346|228:321,1,134.999996423721,0|0,2:0|2:0,2:0:0:0:
289,374,79954,6,0,B|285:386|294:392|304:391|312:387|323:379|328:360|307:348|310:372|222:343|252:293|328:265|382:284|345:342|339:363|333:341|322:361|343:373|357:378|367:372|373:346|352:345,1,202.499994635582,0|0,1:0|2:0,2:0:0:0:
431,363,80245,102,0,B|438:374|480:372|468:351|499:298|451:320|427:316|439:324|422:359|370:317|343:274|378:209|444:210|512:234|482:286|472:266|442:313|455:346|550:329|542:276|516:252|481:272,1,314.99999165535,2|0,0:3|0:0,2:0:0:0:
512,271,80828,86,0,L|256:230,1,224.999994039536,10|0,0:0|0:0,2:0:0:0:
310,267,81265,2,0,L|332:197,1,44.9999988079071,10|0,0:0|2:0,2:0:0:0:
238,360,81410,2,0,L|212:199,1,134.999996423721,8|0,0:0|2:0,2:0:0:0:
215,217,81702,6,0,L|208:177,1,35.9999990463257,10|2,0:0|0:0,2:0:0:0:
480,24,82284,22,0,B|417:7|314:117|350:180|401:149,1,202.499994635582,8|0,0:0|2:0,2:0:0:0:
373,161,82575,2,0,L|391:197,1,35.9999990463257,8|2,0:0|0:0,2:0:0:0:
512,101,83012,70,0,L|454:90,1,44.9999988079071,8|0,0:0|2:0,2:0:0:0:
349,69,83158,2,0,L|101:28,1,224.999994039536,10|0,0:0|0:0,2:0:0:0:
165,21,83595,2,0,L|151:63,1,44.9999988079071,10|0,0:0|2:0,2:0:0:0:
1,142,83741,6,0,B|19:76|83:85|83:85|67:108|73:131,1,134.999996423721,8|0,0:0|2:0,2:0:0:0:
132,140,84032,6,0,B|128:92|175:121|210:161|171:200|107:292|3:229,1,269.999992847443,10|0,0:0|2:0,2:0:0:0:
246,357,84323,6,2,B|247:358|241:366|243:374|243:371|304:381|370:327|207:180|270:273|106:381|66:174|-6:365|-6:362|-7:364|-11:362|4:360|-7:369|-2:369|-14:371|-8:365|0:362|-3:363|2:366|110:401|113:430|68:156|199:94|239:212|237:278|203:275,1,629.9999833107,2|0,0:0|0:0,0:0:0:0:
92,361,84906,70,2,B|57:257|-28:257|-46:316|-6:329|20:304,1,202.499994635583,8|0,0:0|0:0,0:0:0:0:
92,361,85488,6,0,L|333:318,1,224.999994039536,10|0,0:0|0:0,2:0:0:0:
296,333,85925,2,0,L|303:279,1,44.9999988079071,10|0,0:0|2:0,2:0:0:0:
339,104,86071,2,0,L|371:272,1,134.999996423721,8|0,0:0|2:0,2:0:0:0:
366,246,86362,102,0,L|374:288,1,35.9999990463257,10|2,0:0|0:0,2:0:0:0:
5,318,86944,38,0,B|31:318|59:290|91:162|84:132|14:128,1,202.499994635582,8|0,0:0|2:0,2:0:0:0:
51,138,87236,2,0,L|45:177,1,35.9999990463257,8|2,0:0|0:0,2:0:0:0:
7,75,87673,70,0,L|51:67,1,44.9999988079071,8|0,0:0|2:0,2:0:0:0:
174,47,87818,2,0,L|395:9,1,224.999994039536,10|0,0:0|0:0,2:0:0:0:
384,0,88255,2,0,L|376:53,1,44.9999988079071,10|0,0:0|2:0,2:0:0:0:
512,98,88401,6,0,B|492:63|445:62|445:62|434:109|384:105,1,134.999996423721,8|0,0:0|2:0,2:0:0:0:
346,197,88692,102,0,B|379:105|475:114|475:114|460:139|468:163,1,202.499994635582,10|0,0:0|2:0,2:0:0:0:
389,293,88983,22,2,B|418:307|464:268|460:236|372:262|511:180|530:137|583:247|606:293|459:257|432:246|426:156|441:145|298:131|177:361|279:479|288:321,1,566.999984979629,2|0,0:0|0:0,0:0:0:0:
121,345,89566,6,2,B|85:288|18:315|-116:433|22:425|54:440|134:365|230:408|-209:147|34:-19|221:18|352:19|437:77|378:207|373:164|378:219|370:149|377:260|406:336|149:232|321:34|85:160|148:260,1,944.999974966051,8|0,0:0|0:0,0:0:0:0:
165,177,90148,38,0,L|170:158,1,17.9999995231628,6|0,1:2|0:0,2:0:0:0:
169,159,90585,2,0,L|155:145,1,17.9999995231628,0|0,1:2|0:0,2:0:0:0:
156,146,91022,2,0,L|137:151,1,17.9999995231628,0|0,1:2|2:0,2:0:0:0:
132,147,91459,1,0,2:0:0:0:
125,144,91605,2,0,L|119:125,1,17.9999995231628,0|0,1:2|3:2,2:0:0:0:
155,71,92478,6,0,L|160:52,1,17.9999995231628,6|0,1:2|0:0,2:0:0:0:
159,53,92915,2,0,L|178:47,1,17.9999995231628,0|0,1:2|0:0,2:0:0:0:
176,48,93352,2,0,L|189:60,1,17.9999995231628,0|0,1:2|2:0,2:0:0:0:
193,66,93789,1,0,2:0:0:0:
197,71,93935,1,0,1:2:0:0:
258,91,94226,6,2,B|341:68|303:21|403:5,1,173.250000697613,0|0,3:0|0:0,0:1:0:0:
403,6,94808,86,0,L|420:11,1,17.9999995231628,6|0,1:2|0:0,2:0:0:0:
420,11,95245,2,0,L|423:28,1,17.9999995231628,0|0,1:2|0:0,2:0:0:0:
423,28,95682,2,0,L|409:40,1,17.9999995231628,0|0,1:2|2:0,2:0:0:0:
403,43,96119,1,0,2:0:0:0:
396,46,96265,1,0,1:2:0:0:
430,102,96556,6,0,L|428:112,1,8.99999976158142,0|2,3:2|0:0,2:0:0:0:
411,177,96847,38,0,B|362:162|392:138|315:129,1,94.4999974966049,2|0,0:0|2:0,2:0:0:0:
256,130,97139,6,0,B|230:124|213:98|230:61,1,62.9999983310699,6|0,1:2|2:0,2:0:0:0:
256,130,97430,2,0,B|282:124|299:98|282:61,1,62.9999983310699,2|0,0:0|1:2,2:0:0:0:
120,145,97721,102,0,B|167:115|207:182|182:182,1,89.9999976158143,2|0,1:3|2:0,2:0:0:0:
392,145,98012,6,0,B|345:115|305:182|330:182,1,89.9999976158143,2|0,1:2|2:0,2:0:0:0:
274,377,98304,102,0,B|267:291|235:343|228:246,1,134.999996423721,2|0,0:0|3:0,2:0:0:0:
239,250,98813,1,0,3:0:0:0:
249,247,98886,1,2,3:1:0:0:
357,301,99032,86,2,B|372:317|354:341|314:339,1,44.9999988079071,2|0,3:1|0:0,0:1:0:0:
201,363,99177,6,2,P|164:372|129:389,1,67.4999982118606,2|0,3:1|0:0,0:1:0:0:
298,163,99323,102,2,B|329:158|356:185|351:228|335:216,1,89.9999976158143,2|0,3:1|0:0,0:1:0:0:
256,384,99469,86,0,L|256:1,1,382.499989867211,6|0,1:2|0:0,2:0:0:0:
328,56,99906,2,0,L|328:132,1,76.4999979734421,2|0,1:2|2:0,2:0:0:0:
400,360,100051,2,0,L|400:97,1,229.499993920326,2|0,1:3|2:0,2:0:0:0:
472,0,100342,2,0,L|472:229,1,229.499993920326,2|0,1:2|2:0,2:0:0:0:
472,229,100634,1,0,2:0:0:0:
256,384,100925,6,0,L|256:121,1,229.499993920326,2|0,1:2|2:0,2:0:0:0:
184,192,101216,2,0,L|184:304,1,76.4999979734421,2|0,1:3|2:0,2:0:0:0:
112,384,101362,2,0,L|112:0,1,382.499989867211,0|0,2:0|0:0,2:0:0:0:
256,0,101799,6,0,L|256:384,1,382.499989867211,6|0,1:2|0:0,2:0:0:0:
328,304,102236,2,0,L|328:200,1,76.4999979734421,2|0,1:2|3:0,2:0:0:0:
400,112,102381,2,0,L|400:216,1,76.4999979734421,2|0,1:3|2:0,2:0:0:0:
432,384,102527,2,0,L|432:288,1,76.4999979734421,0|0,2:0|2:0,2:0:0:0:
472,0,102673,2,0,L|472:264,1,229.499993920326,2|0,1:2|2:0,2:0:0:0:
472,229,102964,1,0,2:0:0:0:
256,383,103255,6,0,L|256:120,1,229.499993920326,2|0,1:2|2:0,2:0:0:0:
132,209,103546,6,2,B|150:226|182:201|195:177|187:160,1,76.4999979734421,0|0,3:0|2:0,0:1:0:0:
328,239,103692,2,2,B|317:237|321:224|336:226|359:236|376:264|353:300,1,76.4999979734421,0|0,2:0|2:0,2:1:0:0:
303,108,103838,6,2,B|313:102|344:91|363:119|338:182|236:148|193:60|221:-5|308:-25,1,224.999994039536,0|0,2:0|2:0,2:1:0:0:
256,0,104129,38,0,L|256:384,1,382.499989867211,6|0,1:2|0:0,2:0:0:0:
184,328,104566,2,0,L|184:252,1,76.4999979734421,2|0,1:2|2:0,2:0:0:0:
112,24,104711,2,0,L|112:287,1,229.499993920326,2|0,1:3|2:0,2:0:0:0:
40,384,105003,2,0,L|40:155,1,229.499993920326,2|0,1:2|2:0,2:0:0:0:
40,155,105294,1,0,2:0:0:0:
256,0,105585,6,0,L|256:113,1,76.4999979734421,2|0,1:2|2:0,2:0:0:0:
276,194,105731,38,0,B|284:98|368:67|424:88|393:170|320:140|317:93|358:50,1,224.999994039536,0|2,2:0|1:3,2:0:0:0:
426,62,105949,1,0,2:0:0:0:
426,62,106022,2,0,B|431:96|465:125|496:92,1,76.4999979734421,2|0,0:0|2:0,2:0:0:0:
475,270,106168,6,0,P|402:244|339:232,1,134.999996423721,2|0,0:0|2:0,2:0:0:0:
283,268,106459,102,0,B|272:352|238:297|219:402,1,134.999996423721,6|0,1:2|2:0,2:0:0:0:
271,371,106750,2,0,B|262:313|240:347|232:283,1,89.9999976158143,2|0,0:0|1:2,2:0:0:0:
417,341,107041,6,0,B|435:331|445:372|384:381|349:354|350:286,1,125.99999666214,2|0,1:3|2:0,2:0:0:0:
95,341,107333,2,0,B|77:331|67:372|128:381|163:354|162:286,1,125.99999666214,2|0,1:2|2:0,2:0:0:0:
278,75,107624,102,0,B|290:171|220:126|235:240,1,161.999995708465,2|0,0:0|3:0,2:0:0:0:
243,228,108134,1,0,3:0:0:0:
252,233,108207,1,2,3:1:0:0:
348,86,108352,86,2,B|361:66|349:29|315:16,1,67.4999982118606,2|0,3:1|0:0,0:1:0:0:
171,168,108498,6,2,B|142:172|126:192|124:253|156:231,1,89.9999976158143,2|0,3:1|0:0,0:1:0:0:
397,376,108643,102,2,B|420:363|415:307|351:257|325:327,1,112.499997019768,2|0,3:1|0:0,0:1:0:0:
256,354,108789,6,0,L|256:373,1,17.9999995231628,2|0,3:2|0:0,2:0:0:0:
191,368,109226,2,0,L|191:359,1,8.99999976158142,2|0,3:2|2:0,2:0:0:0:
127,360,109736,2,0,L|127:369,1,8.99999976158142,0|0,2:0|2:0,2:0:0:0:
256,368,110282,2,0,L|256:355,1,13.4999996423721,0|0,2:0|2:0,2:0:0:0:
321,355,110755,2,0,L|321:373,1,17.9999995231628,0|0,2:0|0:0,2:0:0:0:
256,372,111119,102,0,L|256:354,1,17.9999995231628,2|0,3:2|0:0,2:0:0:0:
191,359,111592,2,0,L|191:368,1,8.99999976158142,0|0,2:0|2:0,2:0:0:0:
127,369,111884,2,0,L|127:360,1,8.99999976158142,0|0,2:0|2:0,2:0:0:0:
256,359,112612,2,0,L|256:368,1,8.99999976158142,0|0,2:0|2:0,2:0:0:0:
321,373,113085,2,0,L|321:355,1,17.9999995231628,0|0,2:0|0:0,2:0:0:0:
318,341,113449,54,0,B|330:271|366:318|378:226,1,125.99999666214,4|0,1:3|0:0,2:0:0:0:
359,170,113886,1,4,1:3:0:0:
246,238,114032,6,0,P|244:275|267:299,1,62.9999983310699,4|0,1:3|2:0,2:0:0:0:
434,294,114323,2,0,P|456:240|360:152,1,188.99999499321,4|0,1:3|0:0,2:0:0:0:
246,238,114906,102,0,L|181:223,1,62.9999983310699,4|0,1:3|2:0,2:0:0:0:
6,155,115197,2,0,L|143:187,1,125.99999666214,4|0,1:3|0:0,2:0:0:0:
250,245,115634,1,4,1:3:0:0:
96,297,115779,6,0,P|77:259|91:230,2,62.9999983310699,4|0|0,1:3|2:0|2:0,2:0:0:0:
184,144,116216,1,4,1:3:0:0:
255,174,116362,2,0,P|214:135|160:145,1,94.4999974966049,4|0,1:3|2:0,2:0:0:0:
130,80,116653,2,0,B|202:68|153:36|244:24,1,125.99999666214,4|0,1:3|2:0,2:0:0:0:
238,24,117236,102,0,P|276:1|314:9,1,62.9999983310699,4|0,1:3|2:0,2:0:0:0:
368,123,117527,2,0,P|319:173|256:161,1,125.99999666214,4|0,1:3|0:0,2:0:0:0:
155,80,118109,6,0,P|117:32|56:30,1,125.99999666214,4|0,1:3|0:0,2:0:0:0:
48,38,118546,1,4,1:3:0:0:
87,222,118692,2,0,P|129:204|143:160,1,94.4999974966049,4|0,1:3|2:0,2:0:0:0:
182,246,118983,102,0,B|195:336|212:271|236:379,1,125.999992816925,4|0,1:3|2:0,2:0:0:0:
231,359,119566,6,0,L|314:348,1,62.9999983310699,4|0,1:3|2:0,2:0:0:0:
509,219,119857,2,0,L|379:234,1,125.99999666214,4|0,1:3|0:0,2:0:0:0:
369,235,120294,1,4,1:3:0:0:
438,147,120440,102,0,P|471:137|484:89,2,62.9999983310699,4|0|0,1:3|2:0|2:0,2:0:0:0:
490,100,120876,1,4,1:3:0:0:
348,15,121022,2,0,P|332:45|379:134,1,125.99999666214,4|4,1:3|1:3,2:0:0:0:
256,384,121605,5,2,0:0:0:0:
256,384,122187,38,0,L|256:192,1,188.99999499321,2|0,0:0|0:0,2:0:0:0:
246,202,122770,54,0,B|331:224|276:257|366:278,1,134.999996423721,2|0,1:2|2:0,2:0:0:0:
413,233,123061,1,0,2:0:0:0:
512,217,123207,1,0,1:0:0:0:
252,384,123352,5,2,0:3:0:0:
180,191,123498,1,0,2:0:0:0:
265,220,123643,1,0,1:0:0:0:
239,378,123789,101,0,2:0:0:0:
145,101,123935,1,0,2:0:0:0:
297,214,124080,1,0,2:0:0:0:
224,371,124226,5,0,1:0:0:0:
137,357,124372,1,0,2:0:0:0:
363,253,124517,101,2,0:3:0:0:
339,107,124663,1,0,2:0:0:0:
422,73,124808,5,0,2:0:0:0:
350,290,124954,1,0,2:0:0:0:
512,102,125100,101,2,1:2:0:0:
291,10,125245,1,0,2:0:0:0:
309,92,125391,5,0,2:0:0:0:
437,144,125537,1,0,1:0:0:0:
368,333,125682,101,2,0:3:0:0:
353,256,125828,1,0,2:0:0:0:
497,108,125974,1,0,1:0:0:0:
512,31,126119,1,0,2:0:0:0:
369,0,126265,5,0,2:0:0:0:
348,163,126410,1,0,2:0:0:0:
489,221,126556,1,0,1:0:0:0:
510,384,126702,1,0,2:0:0:0:
150,361,126847,101,0,3:0:0:0:
306,300,126993,1,0,2:0:0:0:
211,286,127139,1,0,2:0:0:0:
176,196,127284,1,0,2:0:0:0:
145,120,127430,6,0,B|121:50|52:66|52:66|72:87|64:116,1,161.999995708466,2|0,1:2|2:0,2:0:0:0:
18,158,127721,102,0,P|127:107|253:83,1,202.499994635582,0|0,2:0|2:0,2:0:0:0:
343,22,128012,6,0,B|307:107|243:42|225:126|225:126|303:154|274:226,1,269.999992847443,2|0,0:3|2:0,2:0:0:0:
285,208,128304,101,0,1:0:0:0:
429,152,128449,1,0,2:0:0:0:
393,296,128595,1,0,2:0:0:0:
375,231,128741,1,0,2:0:0:0:
372,224,128886,1,0,1:0:0:0:
418,363,129032,1,0,2:0:0:0:
216,379,129177,5,2,0:3:0:0:
213,369,129323,1,0,2:0:0:0:
304,270,129469,1,0,2:0:0:0:
168,144,129614,1,0,2:0:0:0:
276,340,129760,101,2,1:2:0:0:
268,328,129906,5,0,2:0:0:0:
200,212,130051,101,0,2:0:0:0:
304,72,130197,5,0,1:0:0:0:
61,23,130342,102,0,B|40:49|0:49|0:49|27:105|60:75|51:98|114:67|132:133|132:133|97:113|46:141,1,269.999992847443,2|0,0:3|2:0,2:0:0:0:
94,131,130634,5,2,0:0:0:0:
147,82,130779,1,2,0:0:0:0:
211,50,130925,1,2,0:0:0:0:
317,31,131071,1,2,0:0:0:0:
452,57,131216,1,2,0:0:0:0:
452,57,131362,5,2,3:2:0:0:
452,57,131435,1,0,3:0:0:0:
451,57,131508,2,0,P|435:32|454:55,1,89.9999976158143,2|0,3:2|2:0,2:0:0:0:
342,100,131653,6,0,P|325:85|343:99,1,67.4999982118606,0|0,3:0|2:0,2:0:0:0:
287,175,131799,6,0,P|271:165|288:174,1,56.2499985098839,0|0,3:0|2:0,2:0:0:0:
296,251,131944,6,0,P|280:252|296:249,1,44.9999988079071,0|0,3:0|2:0,2:0:0:0:
499,384,132090,38,0,B|468:298|378:323|378:323|397:346|388:379,1,202.499994635582,6|0,1:2|2:0,2:0:0:0:
314,345,132381,2,0,P|278:344|246:313,1,67.4999982118606,0|0,2:0|2:0,2:0:0:0:
261,322,132527,1,2,1:2:0:0:
0,128,132673,6,0,B|86:140|37:184|127:196,1,134.999996423721,2|0,1:3|2:0,2:0:0:0:
167,150,132891,1,0,2:0:0:0:
173,145,132964,2,0,P|162:101|136:76,1,67.4999982118606,2|0,1:2|2:0,2:0:0:0:
52,279,133109,102,0,P|151:228|217:239,2,134.999996423721,0|0|0,2:0|2:0|2:0,2:0:0:0:
79,63,133546,2,0,P|87:13|106:-12,1,67.4999982118606,2|0,1:2|2:0,2:0:0:0:
102,6,133692,1,0,2:0:0:0:
335,223,133838,6,0,B|295:258|304:318|304:318|292:257|229:244,1,202.499994635582,2|0,1:3|2:0,2:0:0:0:
272,161,134129,2,0,P|264:185|265:162,1,67.4999982118606,2|0,0:1|2:0,2:0:0:0:
263,153,134274,1,0,2:0:0:0:
501,80,134420,102,0,P|491:134|468:153,1,67.4999982118606,6|0,1:2|2:0,2:0:0:0:
320,19,134566,2,0,B|407:43|355:78|443:96,2,134.999996423721,0|0|2,2:0|2:0|1:2,2:0:0:0:
510,208,135003,6,0,P|427:222|359:258,1,134.999996423721,2|0,1:3|2:0,2:0:0:0:
353,171,135221,1,0,2:0:0:0:
357,164,135294,2,0,P|396:167|422:204,1,67.4999982118606,2|0,1:2|2:0,2:0:0:0:
349,362,135440,102,0,P|300:309|324:237,2,134.999996423721,0|0|0,2:0|2:0|2:0,2:0:0:0:
428,339,135804,1,0,2:0:0:0:
436,336,135876,2,0,P|450:293|451:268,1,67.4999982118606,2|0,1:2|2:0,2:0:0:0:
415,185,136022,2,0,P|429:142|430:117,1,67.4999982118606,0|0,2:0|2:0,2:0:0:0:
284,0,136168,54,2,B|281:26|295:45|295:45|263:101|250:59|217:116|217:116|240:147|223:179,1,202.499994635582,0|0,3:0|2:0,0:1:0:0:
293,133,136459,70,0,B|270:42|237:123|215:9,1,134.999996423721,2|0,2:1|2:0,2:0:0:0:
144,361,136750,102,0,P|175:349|190:320,1,67.4999982118606,6|0,1:2|2:0,2:0:0:0:
146,200,136896,2,0,B|134:193|134:193|97:211|98:234,1,67.4999982118606,0|0,2:0|2:0,2:0:0:0:
0,258,137041,2,0,P|67:266|144:316,1,134.999996423721,0|2,2:0|1:2,2:0:0:0:
266,354,137333,6,0,B|339:334|290:293|375:273,2,134.999996423721,2|0|2,1:3|2:0|1:2,2:0:0:0:
379,272,137770,1,0,2:0:0:0:
225,226,137915,102,0,P|157:185|157:104,1,134.999996423721,0|0,2:0|2:0,2:0:0:0:
171,77,138134,1,0,2:0:0:0:
179,69,138207,2,0,P|199:55|277:75,1,67.4999982118606,2|0,1:2|2:0,2:0:0:0:
369,203,138352,5,0,2:0:0:0:
369,203,138425,1,0,2:0:0:0:
369,203,138498,2,2,B|320:200|294:262|294:262|317:198|274:169,1,202.499994635582,2|0,1:3|2:0,2:1:0:0:
336,131,138789,2,0,P|346:106|381:81,1,67.4999982118606,2|0,0:0|2:0,2:0:0:0:
442,57,138935,1,0,2:0:0:0:
256,384,139080,21,2,0:0:0:0:
26,318,141410,102,1,B|-16:308|-58:454|94:459|136:302|56:323|186:204|320:174|375:219|408:247|408:247|433:214|485:262|472:283|439:380|378:355|330:309|252:195|395:334|297:196|279:154|270:121|187:152|217:171|217:171|81:204|80:73|29:102|439:241|26:245|77:330|142:358|177:370|218:327|162:321,1,1349.99996423721,0|0,2:0|0:0,2:0:0:0:
294,361,146071,6,0,B|306:381|297:390|276:393|249:376|247:360|264:312|314:229|423:183|497:227|520:131|516:63|471:31|462:69|462:69|396:17|353:15|315:28|268:56|268:56|202:59|180:22|223:64|223:64|156:37|151:49|158:73|177:94|205:104|251:83|287:40|322:14|366:9|424:62|426:82|415:97|392:121|401:63|386:104|380:134|400:110|400:110|409:139|453:153|432:124|530:137|562:211|483:240|499:203,1,1349.99996423721,0|0,2:0|0:0,2:0:0:0:
383,232,150731,6,0,B|396:219|376:200|340:224|348:260|385:330|444:301|448:260,1,152.999995946885,2|0,0:0|0:0,2:0:0:0:
476,371,151168,2,0,P|407:329|334:327,1,152.999995946885,2|0,0:0|0:0,2:0:0:0:
287,278,151605,2,0,P|300:266|318:262,1,35.9999990463257,2|0,0:0|2:0,2:0:0:0:
140,383,151896,6,0,B|118:280|94:356|75:243,1,152.999995946885,2|0,0:0|0:0,2:0:0:0:
73,259,152333,2,0,P|118:219|214:198,1,152.999998865128,2|0,0:0|0:0,2:3:0:0:
342,65,152770,2,0,B|341:29|299:8|293:30,1,76.4999994325638,2|0,0:0|0:0,0:0:0:0:
408,21,153061,6,0,B|419:47|443:72|362:131|362:98|237:123|301:207|395:204|338:93,1,251.999985633851,2|0,0:0|2:0,2:0:0:0:
306,238,153498,2,0,B|337:233|333:175|272:105|199:22|123:122|187:163|209:107,1,260.999993085861,2|0,0:0|0:0,2:0:0:0:
215,16,153935,2,0,B|240:17|214:65|187:70,1,53.9999985694884,2|0,0:0|2:0,2:0:0:0:
208,368,154226,22,2,B|208:376|218:372|224:373|237:382|237:382|229:385|222:361|229:336|193:360|125:405|17:320|10:298|10:298|-102:286|180:451|119:241|212:363|172:268|247:255|274:344|284:297,1,634.499983191491,2|0,0:0|0:0,0:0:0:0:
244,220,154808,102,2,B|257:232|273:213|250:180|217:190|154:228|183:280|215:293|222:282,1,148.499996066094,2|0,0:0|0:0,0:0:0:0:
78,53,155391,86,0,B|99:104|7:96|62:0|149:-2|155:41,1,161.999995708466,2|0,0:0|0:0,2:0:0:0:
147,150,155828,2,0,P|80:107|0:110,1,161.999995708466,2|0,0:0|0:0,2:0:0:0:
28,185,156265,2,0,P|62:178|76:151,1,67.4999982118608,2|0,0:0|2:0,2:0:0:0:
288,111,156556,6,0,B|319:116|309:148|292:169|330:187|330:187|326:164|238:122|300:101|244:69|207:85,1,242.99999448967,2|0,0:0|0:0,2:0:0:0:
226,90,156993,2,0,P|292:85|354:37,1,134.999996423722,2|0,0:0|0:0,2:3:0:0:
502,127,157430,102,0,B|521:131|529:112|512:94|481:101|469:133|473:162,1,89.9999976158143,2|0,0:0|2:0,2:0:0:0:
364,146,157721,2,0,B|412:144|485:175|508:289|460:306|413:281|449:204,1,242.999993562698,2|0,0:0|0:0,2:0:0:0:
446,354,158158,6,0,B|453:379|423:381|411:357|415:329|474:387|416:236|348:199|280:244|286:324|317:309,1,260.999993085861,2|0,0:0|0:0,2:0:0:0:
344,369,158595,2,0,B|364:370|387:344|377:314,1,67.4999982118608,2|0,0:0|2:0,2:0:0:0:
98,114,158886,6,2,B|100:104|58:36|5:-81|86:102|-69:174|96:-64|12:24|105:1|61:101|43:159|97:147|177:169|48:268|56:14|116:55|388:190|394:283|267:246|280:297|279:268|279:268|240:285|140:224|173:152|216:183,1,701.999949268344,2|0,0:0|0:0,0:0:0:0:
30,283,159469,6,2,B|65:267|107:297|111:293|106:310|106:310|121:297|102:288|91:271|86:305|107:347|21:350|21:350|34:358|43:344|121:355|138:356|48:226|318:318|67:184|22:-176|543:-44|635:-40|589:153|273:240|395:68|260:-37|262:185,1,1007.9999425354
256,192,161216,12,0,162236,0:0:0:0:
0,303,162381,70,0,L|479:221,1,449.999988079071,6|0,1:2|0:0,2:0:0:0:
429,158,162818,2,0,L|386:287,1,89.9999976158143,2|0,1:2|2:0,2:0:0:0:
298,321,162964,2,0,L|-10:268,1,269.999992847443,2|0,1:3|2:0,2:0:0:0:
48,55,163255,2,0,L|123:343,1,269.999992847443,2|0,1:2|2:0,2:0:0:0:
97,384,163546,1,0,2:0:0:0:
492,5,163838,102,0,L|430:331,1,269.999992847443,2|0,1:2|2:0,2:0:0:0:
440,201,164129,2,0,L|423:94,1,89.9999976158143,2|0,1:3|2:0,2:0:0:0:
379,52,164274,2,0,L|263:29,1,89.9999976158143,0|0,2:0|2:0,2:0:0:0:
234,140,164420,54,0,B|247:114|270:105|284:146|198:224|177:164|218:173|146:144|63:223|92:303|155:285,1,269.999992847443,2|0,0:1|2:0,2:0:0:0:
11,375,164711,70,0,L|405:91,1,449.999988079071,6|0,1:2|0:0,2:0:0:0:
488,128,165148,2,0,L|347:143,1,89.9999976158143,2|0,1:2|3:0,2:0:0:0:
227,8,165294,2,0,L|374:39,1,89.9999976158143,2|0,1:3|2:0,2:0:0:0:
317,278,165440,2,0,L|257:161,1,89.9999976158143,0|0,2:0|2:0,2:0:0:0:
408,58,165585,2,0,L|327:390,1,269.999992847443,2|0,1:2|2:0,2:0:0:0:
379,379,165876,1,0,2:0:0:0:
31,45,166168,6,0,B|19:30|33:11|74:10|115:27|111:95,1,134.999996423721,2|0,1:2|2:0,2:0:0:0:
31,57,166459,6,2,B|8:51|5:43|15:29|44:13|75:16|339:129|63:163|134:95|15:148|115:269|141:146,1,269.999992847443,0|0,3:0|2:0,0:1:0:0:
145,248,166750,102,2,B|154:260|222:224|143:147|130:152,1,89.9999976158143,0|0,2:0|2:0,2:1:0:0:
55,131,166896,2,2,B|25:113|-7:126|-26:220|48:127,1,89.9999976158143,0|0,2:0|0:0,2:1:0:0:
119,373,167041,22,0,B|112:382|93:388|74:385|60:380|110:326|283:99|245:288|286:103|146:381|425:355|550:294|554:54|498:-18|549:48|282:359|392:335,1,787.499979138374,6|0,1:2|0:0,2:0:0:0:
458,349,167478,38,0,L|420:207,1,89.9999976158143,2|0,1:2|2:0,2:0:0:0:
398,91,167624,2,0,L|108:38,1,269.999992847443,2|0,1:3|2:0,2:0:0:0:
367,58,167915,2,0,L|447:370,1,269.999992847443,2|0,1:2|2:0,2:0:0:0:
393,384,168207,1,0,2:0:0:0:
8,282,168498,70,0,B|-20:292|-8:337|10:336|93:226|31:298|96:149|166:275,1,179.999995231628,2|0,1:2|2:0,2:0:0:0:
270,179,168789,70,0,L|125:152,1,89.9999976158143,2|0,1:3|2:0,2:0:0:0:
3,159,168983,21,0,2:0:0:0:
35,100,169080,2,0,B|11:80|38:64|101:109|121:187|68:120|104:253|202:243,1,239.999993642171,2|0,0:0|2:0,2:0:0:0:
302,313,169372,6,0,B|322:323|335:266|291:208|216:240,1,134.999996423721,6|0,1:2|2:0,2:0:0:0:
235,301,169663,2,0,B|221:325|249:354|282:350|296:333,1,89.9999976158143,2|0,0:0|1:2,2:0:0:0:
288,67,169954,102,0,B|295:20|213:-13|55:11|23:245|193:319|233:108,1,359.999990463257,2|0,1:3|2:0,2:0:0:0:
352,114,170245,6,0,B|350:156|431:139|412:1|329:-58|296:36,1,251.99999332428,2|0,1:2|2:0,2:0:0:0:
98,221,170537,102,0,B|85:215|69:248|103:320|177:365|327:326|262:196|210:236,1,311.999991734822,2|0,0:0|2:0,2:0:0:0:
147,140,170828,6,0,B|150:110|76:79|29:108|-4:228|58:167,1,179.999995231628,2|0,1:2|3:0,2:0:0:0:
62,185,171046,1,0,3:0:0:0:
147,204,171119,1,2,3:1:0:0:
393,218,171265,70,2,B|398:237|451:236|450:128|423:172,1,89.9999976158143,2|0,3:1|0:0,0:1:0:0:
324,41,171410,6,2,B|325:7|261:-4|208:94|304:110,1,112.499997019768,2|0,3:1|0:0,0:1:0:0:
422,357,171556,102,2,B|439:370|459:323|421:231|350:284,1,134.999996423721,2|0,3:1|0:0,0:1:0:0:
122,375,171702,38,0,B|112:245|33:215|-19:230|-25:300|47:330,1,269.999992847443,6|0,1:2|2:0,2:0:0:0:
216,265,171993,2,0,B|222:257|211:237|177:268|204:307|156:322|176:292,1,89.9999976158143,0|0,2:0|2:0,2:0:0:0:
175,295,172139,54,0,L|469:342,1,269.999992847443,2|0,1:2|2:0,2:0:0:0:
309,261,172430,2,0,L|341:345,1,89.9999976158143,0|0,2:0|2:0,2:0:0:0:
450,384,172575,2,0,L|498:112,1,269.999992847443,2|0,1:2|2:0,2:0:0:0:
509,53,172867,1,0,2:0:0:0:
31,130,173158,6,0,L|322:89,1,269.999992847443,2|0,1:2|2:0,2:0:0:0:
161,32,173449,70,0,B|180:64|217:71|217:71|218:117|180:136|179:128|137:136|129:215,1,236.249993741513,2|0,1:0|2:0,2:0:0:0:
209,208,173741,2,0,P|215:187|186:156,1,67.4999982118606,0|0,2:0|2:0,2:0:0:0:
13,256,173886,2,0,P|104:216|181:213,1,134.999996423721,0|0,2:0|2:0,2:0:0:0:
329,6,174032,6,0,L|269:384,1,382.499989867211,6|0,1:2|0:0,2:0:0:0:
336,327,174469,2,0,L|211:368,1,89.9999976158143,2|0,1:2|3:0,2:0:0:0:
171,379,174614,2,0,L|201:228,1,89.9999976158143,2|0,1:3|2:0,2:0:0:0:
41,88,174760,2,0,L|83:192,1,89.9999976158143,0|0,2:0|2:0,2:0:0:0:
0,171,174906,2,0,L|282:111,1,269.999992847443,2|0,1:2|2:0,2:0:0:0:
341,168,175197,1,0,2:0:0:0:
62,274,175488,70,0,B|72:388|174:348|192:252|108:136|-3:194|17:280|95:245,1,337.499991059303,2|0,1:2|2:0,2:0:0:0:
15,341,175779,70,2,L|304:279,1,269.999992847443,0|0,3:0|2:0,0:1:0:0:
197,349,176071,22,2,B|169:408|231:417|267:375|261:272|187:290|172:339|221:344,1,179.999995231628,0|0,2:0|2:0,2:1:0:0:
512,187,176362,54,0,L|218:140,1,269.999992847443,6|0,1:2|2:0,2:0:0:0:
413,132,176653,2,0,L|323:146,1,89.9999976158143,0|0,2:0|2:0,2:0:0:0:
195,282,176799,2,0,L|237:15,1,269.999992847443,2|0,1:2|2:0,2:0:0:0:
155,80,177090,2,0,L|142:169,1,89.9999976158143,0|0,2:0|2:0,2:0:0:0:
0,297,177236,2,0,L|266:339,1,269.999992847443,2|0,1:2|2:0,2:0:0:0:
340,353,177527,1,0,2:0:0:0:
461,36,177818,6,0,L|404:299,1,269.999992847443,2|0,1:2|2:0,2:0:0:0:
361,152,178109,2,0,L|386:247,1,89.9999976158143,2|0,1:3|2:0,2:0:0:0:
426,378,178255,2,0,L|259:329,1,89.9999976158143,2|0,0:0|2:0,2:0:0:0:
17,311,178401,54,0,B|-5:316|-17:362|10:364|39:333|94:273|41:302|25:201|137:207|169:221|155:295|112:306,1,269.999992847443,2|0,0:0|2:0,2:0:0:0:
184,194,178692,2,0,B|133:205|65:258|73:383|128:387|170:348|111:278,1,269.999992847443,6|0,1:2|2:0,2:0:0:0:
78,176,178983,2,0,B|74:160|67:135|28:133,1,67.4999982118608,2|0,0:0|1:2,2:0:0:0:
188,60,179274,102,0,B|202:35|164:15|120:65|147:115|230:204|304:140|308:94,1,269.999992847443,2|0,1:3|2:0,2:0:0:0:
326,7,179566,2,0,B|330:-11|285:-10|224:53|293:91,1,89.9999976158143,2|0,1:2|2:0,2:0:0:0:
283,268,179857,6,0,B|275:348|235:298|219:402,1,134.999996423721,2|0,0:0|2:0,2:0:0:0:
283,360,180148,86,0,B|268:303|240:338|234:282,1,89.9999976158143,2|0,1:2|2:0,2:0:0:0:
256,177,180294,1,0,3:0:0:0:
256,168,180367,1,0,3:0:0:0:
257,157,180440,6,2,B|278:109|342:104|339:169,1,89.9999976158143,2|0,3:1|0:0,0:1:0:0:
243,60,180585,70,2,P|202:43|169:13,1,89.9999976158143,2|0,3:1|0:0,0:1:0:0:
322,199,180731,6,2,P|348:243|367:308,1,89.9999976158143,2|0,3:1|0:0,0:1:0:0:
111,301,180876,102,2,P|154:292|174:254,1,89.9999976158143,2|0,3:1|0:0,0:1:0:0:
0,121,181022,54,0,B|-15:78|41:55|107:111|93:195|70:183,1,179.999995231628,6|0,1:2|2:0,2:0:0:0:
115,61,181313,102,0,B|99:67|94:-19|176:-20|232:22|142:64,1,149.999996026357,0|0,2:0|2:0,2:0:0:0:
238,17,181605,6,0,B|253:-6|301:3|285:88|213:14,1,119.999996821086,2|0,1:3|2:0,2:0:0:0:
196,104,181896,86,0,L|511:54,1,269.999992847443,2|0,1:2|2:0,2:0:0:0:
469,67,182187,1,0,2:0:0:0:
200,298,182478,54,0,B|228:324|220:381|220:381|232:326|286:305,1,179.999995231628,2|0,1:2|2:0,2:0:0:0:
109,89,182770,86,0,B|133:88|133:118|86:123|-5:30|88:84|142:0|-211:-107|43:177|22:72,1,269.999992847443,2|0,1:0|2:0,2:0:0:0:
140,153,183061,70,0,B|132:123|177:51|211:98,1,89.9999976158143,2|0,0:1|2:0,2:0:0:0:
330,242,183207,2,0,B|347:257|314:289|269:299|255:271,1,89.9999976158143,0|0,2:0|2:0,2:0:0:0:
174,384,183352,102,0,L|410:55,1,359.999990463257,6|0,1:2|0:0,2:0:0:0:
351,9,183789,2,0,L|321:140,1,89.9999976158143,2|0,1:2|3:0,2:0:0:0:
498,267,183935,2,0,L|446:122,1,89.9999976158143,2|0,1:3|2:0,2:0:0:0:
244,154,184080,2,0,L|388:175,1,89.9999976158143,0|0,2:0|2:0,2:0:0:0:
512,89,184226,70,0,P|472:96|452:116,1,67.4999982118606,2|0,1:2|2:0,2:0:0:0:
325,238,184372,2,0,B|402:224|490:305|423:391|374:313|421:275,1,202.499994635582,0|0,2:0|2:0,2:0:0:0:
497,305,184663,2,0,P|494:350|458:378,1,67.4999982118606,0|0,2:0|2:0,2:0:0:0:
152,357,184808,6,0,B|196:271|272:297|272:297|244:319|247:357,1,202.499994635582,2|0,1:2|2:0,2:0:0:0:
382,384,185100,1,0,3:0:0:0:
401,157,185294,69,0,2:0:0:0:
311,226,185391,2,2,B|266:268|257:181|374:106|307:174|479:145|364:33,1,239.999993642171,0|0,2:0|2:0,2:1:0:0:
242,14,185682,6,0,B|155:-15|125:48|164:197|297:153|216:81,1,239.999993642171,6|0,1:2|2:0,2:0:0:0:
364,270,185974,2,0,B|365:299|447:252|429:127|336:94,1,239.999993642171,0|0,2:0|2:0,2:0:0:0:
408,86,186265,1,2,1:3:0:0:
48,372,186556,102,0,B|33:395|128:402|181:335|132:270,1,179.999995231628,2|0,1:2|2:0,2:0:0:0:
7,190,186847,2,0,B|31:163|-32:161|-73:249|25:374|0:205|148:324|89:375|14:324,1,269.999992847443,0|0,2:0|2:0,2:0:0:0:
198,332,187139,54,2,L|504:393,1,269.999992847443,2|2,1:2|2:0,2:0:0:0:
377,282,187430,70,0,B|403:252|360:233|270:255|263:330|303:249|258:383|207:375|221:335,1,239.999993642171,2|0,1:3|2:0,2:0:0:0:
138,246,187721,2,0,B|120:222|180:160|235:184|235:300|210:270,1,179.999995231628,2|0,0:0|2:0,2:0:0:0:
38,137,188012,102,0,B|12:142|-10:115|30:12|87:-32|232:-14|155:32,1,269.999992847443,6|0,1:2|2:0,2:0:0:0:
147,181,188304,2,0,B|163:210|148:265|34:203|59:142,1,179.999995231628,2|0,0:0|1:2,2:0:0:0:
336,185,188595,6,0,B|354:156|480:192|522:314|488:369|389:326,1,269.999992847443,2|0,1:3|2:0,2:0:0:0:
260,305,188886,2,0,B|235:276|241:186|386:162|335:253,1,179.999995231628,2|0,1:2|2:0,2:0:0:0:
310,381,189105,1,0,2:0:0:0:
310,381,189177,102,0,B|385:346|142:308|111:385|142:345|113:396|70:396|54:390|64:372|156:232|197:274|177:315,1,404.999989271164,2|0,0:0|2:0,2:0:0:0:
28,230,189469,2,0,B|-13:235|-25:198|29:131|106:116|44:189|197:120|57:255|112:258,1,269.999992847443,2|0,1:2|3:0,2:0:0:0:
257,263,189687,1,0,3:0:0:0:
257,263,189760,86,2,B|287:267|274:335|224:341,1,89.9999976158143,2|0,3:1|0:0,0:1:0:0:
116,163,189906,6,2,B|106:145|151:95|251:143|179:131,1,112.499997019768,2|0,3:1|0:0,0:1:0:0:
54,384,190051,70,2,B|56:396|26:401|-5:384|-42:298|18:304,1,134.999996423721,2|0,3:1|0:0,0:1:0:0:
49,91,190197,6,2,B|19:43|169:-9|165:52,1,157.499995827675,2|0,3:1|0:0,0:1:0:0:
382,211,190342,53,2,2:0:0:0:
