osu file format v14

[General]
AudioFilename: audio.mp3
AudioLeadIn: 0
PreviewTime: 161872
Countdown: 0
SampleSet: Soft
StackLeniency: 0.7
Mode: 0
LetterboxInBreaks: 0
WidescreenStoryboard: 1

[Editor]
Bookmarks: 10925,20245,29566,38886,48207,57527,62187,71508,80828,90148,99469,108789,113449,122770,132090,139080,141410,150731,160051,162381,171702,181022,190342
DistanceSpacing: 1
BeatDivisor: 8
GridSize: 32
TimelineZoom: 2.699999

[Metadata]
Title:Problem
TitleUnicode:Problem
Artist:Ariana Grande feat. Iggy Azalea
ArtistUnicode:Ariana Grande feat. Iggy Azalea
Creator:rHO
Version:posydomojka's Extra
Source:
Tags:smh emilia estellia- posydomojka fsjallink vinxis mishima yurara my everything english pop dance r&b rap hiphop hip-hop hip hop
BeatmapID:3645538
BeatmapSetID:1588192

[Difficulty]
HPDrainRate:6
CircleSize:4
OverallDifficulty:8
ApproachRate:9.2
SliderMultiplier:3
SliderTickRate:1

[Events]
//Background and Video events
0,0,"ari2.jpg",0,0
Video,-840,"problem.mp4"
//Break Periods
2,57581,61617
2,108843,112879
2,141410,150234
//Storyboard Layer 0 (Background)
//Storyboard Layer 1 (Fail)
//Storyboard Layer 2 (Pass)
//Storyboard Layer 3 (Foreground)
//Storyboard Layer 4 (Overlay)
//Storyboard Sound Samples

[TimingPoints]
-725,582.52427184466,4,2,0,100,1,0
1605,-100,4,2,0,40,0,0
1896,-100,4,2,0,100,0,0
2041,-100,4,2,0,40,0,0
2186,-100,4,2,0,100,0,0
3935,-100,4,2,0,40,0,0
4226,-100,4,2,0,100,0,0
6265,-100,4,2,0,40,0,0
6556,-100,4,2,0,100,0,0
6702,-100,4,2,0,40,0,0
6847,-100,4,2,0,100,0,0
8595,-100,4,2,0,40,0,0
8740,-100,4,2,0,100,0,0
8886,-100,4,2,0,50,0,0
9177,-100,4,2,0,60,0,0
9322,-100,4,2,0,100,0,0
9469,-100,4,2,0,70,0,0
9614,-100,4,2,0,100,0,0
9760,-100,4,2,0,80,0,0
10196,-100,4,2,0,100,0,0
10925,-100,4,2,0,60,0,0
11216,-100,4,2,0,100,0,0
11361,-100,4,2,0,5,0,0
11508,-100,4,2,0,60,0,0
12162,-100,4,2,0,100,0,0
12235,-100,4,2,0,60,0,0
12308,-100,4,2,0,100,0,0
12381,-100,4,2,0,60,0,0
12599,-100,4,2,0,100,0,0
12673,-100,4,2,0,60,0,0
13546,-100,4,2,0,100,0,0
13691,-100,4,2,0,5,0,0
13838,-100,4,2,0,60,0,0
14129,-100,4,2,0,60,0,0
14274,-100,4,2,0,60,0,0
14492,-100,4,2,0,100,0,0
14566,-100,4,2,0,60,0,0
14638,-100,4,2,0,100,0,0
14711,-100,4,2,0,60,0,0
14929,-100,4,2,0,100,0,0
15003,-100,4,2,0,60,0,0
15294,-100,4,2,0,100,0,0
15439,-100,4,2,0,60,0,0
15512,-100,4,2,0,100,0,0
15585,-133.333333333333,4,2,0,60,0,0
15876,-133.333333333333,4,2,0,5,0,0
16022,-133.333333333333,4,2,0,100,0,0
16168,-100,4,2,0,60,0,0
16459,-100,4,2,0,5,0,0
16605,-100,4,2,0,60,0,0
16823,-100,4,2,0,100,0,0
16896,-100,4,2,0,60,0,0
16932,-100,4,2,0,60,0,0
16968,-100,4,2,0,100,0,0
17041,-100,4,2,0,60,0,0
17259,-100,4,2,0,100,0,0
17332,-100,4,2,0,60,0,0
18206,-100,4,2,0,100,0,0
18351,-100,4,2,0,5,0,0
18498,-100,4,2,0,60,0,0
19153,-100,4,2,0,100,0,0
19226,-100,4,2,0,60,0,0
19298,-100,4,2,0,100,0,0
19372,-100,4,2,0,60,0,0
19590,-100,4,2,0,100,0,0
19663,-100,4,2,0,60,0,0
19954,-100,4,2,0,5,0,0
20100,-100,4,2,0,60,0,0
20172,-100,4,2,0,100,0,0
20245,-100,4,2,0,60,0,0
20463,-100,4,2,0,100,0,0
20537,-100,4,2,0,100,0,0
20828,-100,4,2,0,60,0,0
21119,-100,4,2,0,100,0,0
21264,-100,4,2,0,60,0,0
21483,-100,4,2,0,100,0,0
21556,-100,4,2,0,60,0,0
21628,-100,4,2,0,100,0,0
21701,-100,4,2,0,60,0,0
21920,-100,4,2,0,100,0,0
21992,-100,4,2,0,60,0,0
22065,-100,4,2,0,100,0,0
22139,-100,4,2,0,60,0,0
22575,-71.4285714285714,4,2,0,60,0,0
22720,-71.4285714285714,4,2,0,100,0,0
23011,-71.4285714285714,4,2,0,5,0,0
23158,-133.333333333333,4,2,0,60,0,0
23376,-133.333333333333,4,2,0,100,0,0
23449,-133.333333333333,4,2,0,5,0,0
23595,-133.333333333333,4,2,0,60,0,0
23813,-133.333333333333,4,2,0,100,0,0
23886,-133.333333333333,4,2,0,60,0,0
23958,-133.333333333333,4,2,0,100,0,0
24032,-100,4,2,0,60,0,0
24250,-100,4,2,0,100,0,0
24323,-100,4,2,0,60,0,0
24614,-100,4,2,0,100,0,0
24760,-100,4,2,0,60,0,0
24978,-100,4,2,0,100,0,0
25342,-100,4,2,0,5,0,0
25488,-100,4,2,0,60,0,0
25706,-100,4,2,0,100,0,0
25779,-100,4,2,0,100,0,0
25924,-100,4,2,0,60,0,0
26143,-100,4,2,0,100,0,0
26216,-100,4,2,0,60,0,0
26288,-100,4,2,0,100,0,0
26362,-100,4,2,0,60,0,0
26580,-100,4,2,0,100,0,0
26653,-100,4,2,0,60,0,0
26725,-100,4,2,0,100,0,0
26799,-100,4,2,0,60,0,0
27527,-100,4,2,0,100,0,0
27672,-100,4,2,0,5,0,0
27818,-100,4,2,0,60,0,0
28012,-100,4,2,0,100,0,0
28109,-100,4,2,0,60,0,0
28691,-100,4,2,0,60,0,0
28910,-100,4,2,0,100,0,0
28983,-133.333333333333,4,2,0,60,0,0
29419,-133.333333333333,4,2,0,5,0,0
29492,-133.333333333333,4,2,0,100,0,0
29566,-133.333333333333,4,2,0,60,0,0
29930,-133.333333333333,4,2,0,100,0,0
30003,-133.333333333333,4,2,0,60,0,0
30075,-133.333333333333,4,2,0,100,0,0
30148,-133.333333333333,4,2,0,60,0,0
30366,-133.333333333333,4,2,0,100,0,0
30440,-133.333333333333,4,2,0,60,0,0
30731,-133.333333333333,4,2,0,60,0,0
31022,-133.333333333333,4,2,0,60,0,0
31240,-133.333333333333,4,2,0,100,0,0
31313,-133.333333333333,4,2,0,60,0,0
31605,-133.333333333333,4,2,0,60,0,0
31750,-133.333333333333,4,2,0,60,0,0
31822,-133.333333333333,4,2,0,100,0,0
31896,-133.333333333333,4,2,0,60,0,0
32260,-133.333333333333,4,2,0,100,0,0
32332,-133.333333333333,4,2,0,60,0,0
32405,-133.333333333333,4,2,0,100,0,0
32478,-133.333333333333,4,2,0,60,0,0
32696,-133.333333333333,4,2,0,100,0,0
32769,-133.333333333333,4,2,0,60,0,0
32988,-133.333333333333,4,2,0,100,0,0
33061,-133.333333333333,4,2,0,60,0,0
33207,-133.333333333333,4,2,0,100,0,0
33352,-133.333333333333,4,2,1,60,0,0
33498,-133.333333333333,4,2,1,100,0,0
33643,-133.333333333333,4,2,1,60,0,0
34080,-133.333333333333,4,2,1,100,0,0
34226,-133.333333333333,4,2,0,70,0,0
34590,-133.333333333333,4,2,0,100,0,0
34663,-133.333333333333,4,2,0,70,0,0
34735,-133.333333333333,4,2,0,100,0,0
34808,-133.333333333333,4,2,0,70,0,0
35026,-133.333333333333,4,2,0,100,0,0
35100,-133.333333333333,4,2,0,70,0,0
35391,-133.333333333333,4,2,0,70,0,0
35463,-133.333333333333,4,2,0,100,0,0
35682,-100,4,2,0,70,0,0
35900,-100,4,2,0,100,0,0
35974,-100,4,2,0,70,0,0
36265,-100,4,2,0,70,0,0
36410,-100,4,2,0,70,0,0
36482,-100,4,2,0,100,0,0
36556,-100,4,2,0,70,0,0
36847,-100,4,2,0,100,0,0
36993,-100,4,2,0,70,0,0
37065,-100,4,2,0,100,0,0
37139,-100,4,2,0,70,0,0
37357,-100,4,2,0,100,0,0
37430,-100,4,2,0,70,0,0
37648,-100,4,2,0,100,0,0
37721,-66.6666666666667,4,2,0,70,0,0
37758,-66.6666666666667,4,2,1,100,0,0
37793,-66.6666666666667,4,2,0,100,0,0
38012,-66.6666666666667,4,2,1,70,0,0
38230,-66.6666666666667,4,2,1,100,0,0
38304,-66.6666666666667,4,2,1,70,0,0
38340,-66.6666666666667,4,2,0,100,0,0
38740,-66.6666666666667,4,2,1,5,0,0
38813,-66.6666666666667,4,2,0,100,0,0
38886,-133.333333333333,4,2,0,80,0,0
39177,-133.333333333333,4,2,0,100,0,0
39322,-133.333333333333,4,2,0,80,0,0
39614,-133.333333333333,4,2,0,100,0,0
39760,-133.333333333333,4,2,0,80,0,0
40051,-133.333333333333,4,2,0,100,0,0
40342,-133.333333333333,4,2,0,80,0,0
41070,-133.333333333333,4,2,0,5,0,0
41216,-133.333333333333,4,2,0,80,0,0
41508,-133.333333333333,4,2,0,100,0,0
41653,-133.333333333333,4,2,0,80,0,0
41944,-133.333333333333,4,2,0,100,0,0
42090,-133.333333333333,4,2,0,80,0,0
42381,-133.333333333333,4,2,0,100,0,0
42673,-133.333333333333,4,2,0,80,0,0
42964,-66.6666666666667,4,2,0,80,0,0
43400,-66.6666666666667,4,2,0,5,0,0
43546,-133.333333333333,4,2,0,80,0,0
43838,-133.333333333333,4,2,0,100,0,0
43983,-133.333333333333,4,2,0,80,0,0
44274,-133.333333333333,4,2,0,100,0,0
44420,-133.333333333333,4,2,0,80,0,0
44711,-133.333333333333,4,2,0,100,0,0
45002,-133.333333333333,4,2,0,80,0,0
45803,-133.333333333333,4,2,0,100,0,0
45876,-133.333333333333,4,2,0,80,0,0
46021,-133.333333333333,4,2,0,100,0,0
46167,-133.333333333333,4,2,0,80,0,0
46604,-133.333333333333,4,2,0,100,0,0
46750,-133.333333333333,4,2,0,80,0,0
46895,-133.333333333333,4,2,0,100,0,0
47041,-133.333333333333,4,2,0,80,0,0
47332,-133.333333333333,4,2,0,80,0,0
47478,-133.333333333333,4,2,0,80,0,0
47624,-133.333333333333,4,2,0,80,0,0
47770,-133.333333333333,4,2,0,80,0,0
48133,-133.333333333333,4,2,0,80,0,0
48207,-71.4285714285714,4,2,0,80,0,0
48571,-71.4285714285714,4,2,0,100,0,0
48643,-71.4285714285714,4,2,0,80,0,0
48715,-71.4285714285714,4,2,0,100,0,0
48789,-100,4,2,0,80,0,0
49007,-100,4,2,0,100,0,0
49080,-100,4,2,0,80,0,0
49298,-100,4,2,0,100,0,0
49372,-100,4,2,0,100,0,0
49663,-100,4,2,0,80,0,0
49881,-100,4,2,0,100,0,0
49954,-71.4285714285714,4,2,0,80,0,0
50026,-71.4285714285714,4,2,0,100,0,0
50318,-71.4285714285714,4,2,0,5,0,0
50391,-71.4285714285714,4,2,0,100,0,0
50537,-71.4285714285714,4,2,0,80,0,0
50901,-71.4285714285714,4,2,0,5,0,0
50974,-71.4285714285714,4,2,0,80,0,0
51191,-71.4285714285714,4,2,0,100,0,0
51265,-71.4285714285714,4,2,0,100,0,0
51410,-71.4285714285714,4,2,0,80,0,0
51628,-71.4285714285714,4,2,0,100,0,0
51702,-71.4285714285714,4,2,0,100,0,0
51993,-66.6666666666667,4,2,0,80,0,0
52211,-66.6666666666667,4,2,0,100,0,0
52284,-66.6666666666667,4,2,0,80,0,0
52429,-66.6666666666667,4,2,0,100,0,0
52793,-66.6666666666667,4,2,0,80,0,0
52867,-83.3333333333333,4,2,0,80,0,0
53158,-83.3333333333333,4,2,0,5,0,0
53231,-83.3333333333333,4,2,0,100,0,0
53304,-83.3333333333333,4,2,0,80,0,0
53376,-83.3333333333333,4,2,0,100,0,0
53449,-83.3333333333333,4,2,0,80,0,0
53667,-83.3333333333333,4,2,0,100,0,0
53741,-83.3333333333333,4,2,0,80,0,0
53958,-83.3333333333333,4,2,0,100,0,0
54323,-83.3333333333333,4,2,0,80,0,0
54468,-83.3333333333333,4,2,0,5,0,0
54541,-83.3333333333333,4,2,0,100,0,0
54614,-83.3333333333333,4,2,0,80,0,0
54687,-83.3333333333333,4,2,0,100,0,0
54760,-83.3333333333333,4,2,0,80,0,0
54832,-83.3333333333333,4,2,0,100,0,0
54906,-83.3333333333333,4,2,0,80,0,0
55124,-83.3333333333333,4,2,0,100,0,0
55197,-222.222222222221,4,2,0,80,0,0
55342,-222.222222222221,4,2,0,100,0,0
55488,-222.222222222221,4,2,0,80,0,0
55779,-133.333333333333,4,2,0,80,0,0
55924,-133.333333333333,4,2,0,100,0,0
56070,-133.333333333333,4,2,0,80,0,0
56216,-133.333333333333,4,2,0,100,0,0
56362,-100,4,2,0,80,0,0
56798,-100,4,2,0,80,0,0
56872,-83.3333333333333,4,2,0,80,0,0
56944,-83.3333333333333,4,2,0,80,0,0
57090,-66.6666666666667,4,2,0,80,0,0
57453,-66.6666666666667,4,2,0,80,0,0
57527,-66.6666666666667,4,2,0,40,0,0
57818,-66.6666666666667,4,2,0,100,0,0
57964,-66.6666666666667,4,2,0,40,0,0
58109,-66.6666666666667,4,2,0,100,0,0
59857,-66.6666666666667,4,2,0,40,0,0
60148,-66.6666666666667,4,2,0,100,0,0
62187,-100,4,2,0,60,0,0
62478,-100,4,2,0,100,0,0
62623,-100,4,2,0,5,0,0
62770,-100,4,2,0,60,0,0
63061,-100,4,2,0,100,0,0
63207,-100,4,2,0,60,0,0
63425,-100,4,2,0,100,0,0
63498,-100,4,2,0,60,0,0
63570,-100,4,2,0,100,0,0
63643,-100,4,2,0,60,0,0
63861,-100,4,2,0,100,0,0
63935,-100,4,2,0,60,0,0
64517,-83.3333333333333,4,2,0,60,0,0
64814,-83.3333333333333,4,2,0,60,0,0
64953,-83.3333333333333,4,2,0,5,0,0
65100,-100,4,2,0,60,0,0
65391,-100,4,2,0,60,0,0
65537,-100,4,2,0,60,0,0
65755,-100,4,2,0,100,0,0
65828,-100,4,2,0,60,0,0
65900,-100,4,2,0,100,0,0
65974,-100,4,2,0,60,0,0
66192,-100,4,2,0,100,0,0
66265,-100,4,2,0,60,0,0
66556,-100,4,2,0,100,0,0
66701,-100,4,2,0,60,0,0
66774,-100,4,2,0,100,0,0
66847,-83.3333333333333,4,2,0,60,0,0
67138,-83.3333333333333,4,2,0,100,0,0
67283,-83.3333333333333,4,2,0,5,0,0
67430,-100,4,2,0,60,0,0
67721,-100,4,2,0,100,0,0
67867,-100,4,2,0,60,0,0
68085,-100,4,2,0,100,0,0
68158,-100,4,2,0,60,0,0
68230,-100,4,2,0,100,0,0
68304,-100,4,2,0,60,0,0
68522,-100,4,2,0,100,0,0
68595,-100,4,2,0,60,0,0
69468,-100,4,2,0,100,0,0
69613,-100,4,2,0,5,0,0
69760,-100,4,2,0,60,0,0
70051,-100,4,2,0,60,0,0
70197,-100,4,2,0,60,0,0
70415,-100,4,2,0,100,0,0
70488,-100,4,2,0,60,0,0
70560,-100,4,2,0,100,0,0
70634,-100,4,2,0,60,0,0
70852,-100,4,2,0,100,0,0
70925,-100,4,2,0,60,0,0
71216,-100,4,2,0,100,0,0
71362,-100,4,2,0,60,0,0
71434,-100,4,2,0,100,0,0
71508,-76.9230769230769,4,2,0,60,0,0
71726,-76.9230769230769,4,2,0,100,0,0
71944,-76.9230769230769,4,2,0,5,0,0
72090,-90.9090909090909,4,2,0,60,0,0
72381,-90.9090909090909,4,2,0,100,0,0
72527,-90.9090909090909,4,2,0,60,0,0
72673,-100,4,2,0,80,0,0
72709,-100,4,2,0,100,0,0
72818,-100,4,2,0,60,0,0
72890,-100,4,2,0,100,0,0
72964,-100,4,2,0,60,0,0
73182,-100,4,2,0,100,0,0
73255,-100,4,2,0,60,0,0
73327,-100,4,2,0,100,0,0
73400,-100,4,2,0,60,0,0
73838,-62.5,4,2,0,60,0,0
73983,-62.5,4,2,0,100,0,0
74274,-62.5,4,2,0,5,0,0
74420,-62.5,4,2,0,60,0,0
74638,-62.5,4,2,0,100,0,0
74711,-83.3333333333333,4,2,0,100,0,0
74857,-83.3333333333333,4,2,0,60,0,0
75075,-83.3333333333333,4,2,0,100,0,0
75148,-83.3333333333333,4,2,0,60,0,0
75220,-83.3333333333333,4,2,0,100,0,0
75294,-83.3333333333333,4,2,0,60,0,0
75512,-83.3333333333333,4,2,0,100,0,0
75585,-83.3333333333333,4,2,0,60,0,0
75731,-83.3333333333333,4,2,0,100,0,0
76022,-83.3333333333333,4,2,0,60,0,0
76240,-83.3333333333333,4,2,0,100,0,0
76677,-83.3333333333333,4,2,0,5,0,0
76750,-133.333333333333,4,2,0,60,0,0
76944,-133.333333333333,4,2,0,100,0,0
77041,-133.333333333333,4,2,0,5,0,0
77187,-133.333333333333,4,2,0,60,0,0
77405,-133.333333333333,4,2,0,100,0,0
77478,-133.333333333333,4,2,0,60,0,0
77550,-133.333333333333,4,2,0,100,0,0
77624,-133.333333333333,4,2,0,60,0,0
77842,-133.333333333333,4,2,0,100,0,0
77915,-133.333333333333,4,2,0,60,0,0
77987,-133.333333333333,4,2,0,100,0,0
78061,-133.333333333333,4,2,0,60,0,0
78498,-100,4,2,0,60,0,0
78789,-100,4,2,0,100,0,0
79080,-100,4,2,0,60,0,0
79225,-100,4,2,0,60,0,0
79274,-100,4,2,0,100,0,0
79372,-100,4,2,0,60,0,0
79517,-100,4,2,0,60,0,0
79663,-100,4,2,0,100,0,0
79954,-100,4,2,0,60,0,0
80172,-100,4,2,0,100,0,0
80245,-285.714285714284,4,2,0,60,0,0
80754,-285.714285714284,4,2,0,100,0,0
80827,-285.714285714284,4,2,0,60,0,0
81192,-285.714285714284,4,2,0,100,0,0
81265,-285.714285714284,4,2,0,60,0,0
81337,-285.714285714284,4,2,0,100,0,0
81410,-285.714285714284,4,2,0,60,0,0
81628,-285.714285714284,4,2,0,100,0,0
81702,-285.714285714284,4,2,0,60,0,0
81993,-285.714285714284,4,2,0,60,0,0
82284,-285.714285714284,4,2,0,60,0,0
82502,-285.714285714284,4,2,0,100,0,0
82575,-285.714285714284,4,2,0,60,0,0
82867,-285.714285714284,4,2,0,60,0,0
83012,-285.714285714284,4,2,0,60,0,0
83070,-285.714285714284,4,2,0,100,0,0
83158,-100,4,2,0,60,0,0
83522,-100,4,2,0,100,0,0
83594,-100,4,2,0,60,0,0
83667,-100,4,2,0,100,0,0
83741,-100,4,2,0,60,0,0
83959,-100,4,2,0,100,0,0
84032,-133.333333333333,4,2,0,60,0,0
84250,-133.333333333333,4,2,0,100,0,0
84323,-133.333333333333,4,2,0,60,0,0
84359,-133.333333333333,4,2,1,100,0,0
84468,-133.333333333333,4,2,0,100,0,0
84614,-100,4,2,1,60,0,0
84832,-100,4,2,1,100,0,0
84906,-100,4,2,1,60,0,0
84942,-100,4,2,0,100,0,0
85051,-100,4,2,1,60,0,0
85342,-100,4,2,0,100,0,0
85488,-100,4,2,0,70,0,0
85852,-100,4,2,0,5,0,0
85925,-100,4,2,0,70,0,0
85997,-100,4,2,0,100,0,0
86071,-100,4,2,0,70,0,0
86289,-100,4,2,0,100,0,0
86362,-100,4,2,0,70,0,0
86653,-100,4,2,0,70,0,0
86944,-100,4,2,0,70,0,0
87162,-100,4,2,0,100,0,0
87236,-100,4,2,0,70,0,0
87527,-100,4,2,0,70,0,0
87673,-100,4,2,0,70,0,0
87745,-100,4,2,0,100,0,0
87818,-100,4,2,0,70,0,0
88182,-100,4,2,0,100,0,0
88255,-100,4,2,0,70,0,0
88327,-100,4,2,0,100,0,0
88401,-100,4,2,0,70,0,0
88619,-100,4,2,0,100,0,0
88692,-100,4,2,0,70,0,0
88910,-100,4,2,0,100,0,0
88983,-100,4,2,0,70,0,0
89020,-100,4,2,1,100,0,0
89055,-100,4,2,0,100,0,0
89274,-100,4,2,1,70,0,0
89492,-100,4,2,1,100,0,0
89566,-76.9230769230769,4,2,1,70,0,0
89602,-76.9230769230769,4,2,0,100,0,0
90075,-76.9230769230769,4,2,1,5,0,0
90148,-133.333333333333,4,2,0,80,0,0
90440,-133.333333333333,4,2,0,100,0,0
90585,-133.333333333333,4,2,0,80,0,0
90876,-133.333333333333,4,2,0,100,0,0
91022,-133.333333333333,4,2,0,80,0,0
91313,-133.333333333333,4,2,0,100,0,0
91605,-133.333333333333,4,2,0,80,0,0
92770,-133.333333333333,4,2,0,100,0,0
92915,-133.333333333333,4,2,0,80,0,0
93206,-133.333333333333,4,2,0,100,0,0
93352,-133.333333333333,4,2,0,80,0,0
93643,-133.333333333333,4,2,0,100,0,0
93935,-133.333333333333,4,2,0,80,0,0
94226,-50,4,2,0,80,0,0
94662,-50,4,2,0,5,0,0
94808,-133.333333333333,4,2,0,80,0,0
95100,-133.333333333333,4,2,0,100,0,0
95245,-133.333333333333,4,2,0,80,0,0
95536,-133.333333333333,4,2,0,100,0,0
95682,-133.333333333333,4,2,0,80,0,0
95973,-133.333333333333,4,2,0,100,0,0
96265,-133.333333333333,4,2,0,80,0,0
97065,-133.333333333333,4,2,0,100,0,0
97139,-100,4,2,0,80,0,0
97284,-100,4,2,0,100,0,0
97430,-100,4,2,0,80,0,0
97866,-100,4,2,0,100,0,0
98012,-100,4,2,0,80,0,0
98157,-100,4,2,0,100,0,0
98304,-100,4,2,0,80,0,0
98668,-100,4,2,0,5,0,0
98741,-100,4,2,0,80,0,0
98886,-100,4,2,0,80,0,0
99032,-100,4,2,0,80,0,0
99395,-100,4,2,0,80,0,0
99469,-71.4285714285714,4,2,0,80,0,0
99833,-71.4285714285714,4,2,0,100,0,0
99905,-71.4285714285714,4,2,0,80,0,0
99978,-71.4285714285714,4,2,0,100,0,0
100051,-71.4285714285714,4,2,0,80,0,0
100269,-71.4285714285714,4,2,0,100,0,0
100342,-71.4285714285714,4,2,0,80,0,0
100560,-71.4285714285714,4,2,0,100,0,0
100634,-71.4285714285714,4,2,0,100,0,0
100925,-71.4285714285714,4,2,0,80,0,0
101143,-71.4285714285714,4,2,0,100,0,0
101216,-71.4285714285714,4,2,0,80,0,0
101288,-71.4285714285714,4,2,0,100,0,0
101652,-71.4285714285714,4,2,0,5,0,0
101799,-71.4285714285714,4,2,0,80,0,0
102163,-71.4285714285714,4,2,0,100,0,0
102235,-71.4285714285714,4,2,0,80,0,0
102453,-71.4285714285714,4,2,0,100,0,0
102672,-71.4285714285714,4,2,0,80,0,0
102891,-71.4285714285714,4,2,0,100,0,0
102964,-71.4285714285714,4,2,0,100,0,0
103255,-133.333333333333,4,2,0,80,0,0
103473,-133.333333333333,4,2,0,100,0,0
103546,-66.6666666666667,4,2,0,80,0,0
103618,-66.6666666666667,4,2,0,100,0,0
104056,-66.6666666666667,4,2,0,80,0,0
104129,-62.5,4,2,0,80,0,0
104493,-62.5,4,2,0,100,0,0
104565,-62.5,4,2,0,80,0,0
104638,-62.5,4,2,0,100,0,0
104711,-76.9230769230769,4,2,0,80,0,0
104929,-76.9230769230769,4,2,0,100,0,0
105003,-76.9230769230769,4,2,0,80,0,0
105220,-76.9230769230769,4,2,0,100,0,0
105439,-76.9230769230769,4,2,0,5,0,0
105585,-76.9230769230769,4,2,0,80,0,0
105657,-76.9230769230769,4,2,0,100,0,0
105731,-76.9230769230769,4,2,0,100,0,0
105876,-76.9230769230769,4,2,0,80,0,0
105949,-76.9230769230769,4,2,0,100,0,0
106022,-76.9230769230769,4,2,0,80,0,0
106095,-76.9230769230769,4,2,0,100,0,0
106168,-76.9230769230769,4,2,0,80,0,0
106386,-76.9230769230769,4,2,0,100,0,0
106459,-133.333333333333,4,2,0,80,0,0
106677,-133.333333333333,4,2,0,100,0,0
106750,-133.333333333333,4,2,0,80,0,0
107186,-133.333333333333,4,2,0,100,0,0
107333,-133.333333333333,4,2,0,80,0,0
107478,-133.333333333333,4,2,0,100,0,0
107624,-83.3333333333333,4,2,0,80,0,0
107915,-83.3333333333333,4,2,0,80,0,0
108061,-83.3333333333333,4,2,0,80,0,0
108207,-83.3333333333333,4,2,0,80,0,0
108352,-83.3333333333333,4,2,0,80,0,0
108715,-83.3333333333333,4,2,0,80,0,0
108789,-83.3333333333333,4,2,0,40,0,0
109080,-83.3333333333333,4,2,0,100,0,0
109226,-83.3333333333333,4,2,0,40,0,0
109371,-83.3333333333333,4,2,0,100,0,0
111119,-83.3333333333333,4,2,0,40,0,0
111410,-83.3333333333333,4,2,0,100,0,0
113449,-133.333333333333,4,2,0,60,0,0
113741,-133.333333333333,4,2,0,100,0,0
113886,-133.333333333333,4,2,0,60,0,0
114032,-100,4,2,0,60,0,0
114177,-100,4,2,0,100,0,0
114323,-100,4,2,0,60,0,0
114760,-100,4,2,0,100,0,0
114906,-100,4,2,0,60,0,0
115051,-100,4,2,0,100,0,0
115197,-66.6666666666667,4,2,0,60,0,0
115488,-200,4,2,0,100,0,0
115633,-200,4,2,0,60,0,0
115779,-100,4,2,0,60,0,0
115924,-100,4,2,0,100,0,0
116215,-100,4,2,0,60,0,0
116580,-100,4,2,0,100,0,0
116653,-100,4,2,0,60,0,0
116944,-100,4,2,0,100,0,0
117235,-100,4,2,0,60,0,0
117380,-100,4,2,0,100,0,0
117527,-76.9230769230769,4,2,0,60,0,0
117818,-76.9230769230769,4,2,0,100,0,0
118036,-76.9230769230769,4,2,0,5,0,0
118109,-76.9230769230769,4,2,0,60,0,0
118401,-76.9230769230769,4,2,0,100,0,0
118546,-76.9230769230769,4,2,0,60,0,0
118910,-76.9230769230769,4,2,0,100,0,0
118983,-76.9230769230769,4,2,0,60,0,0
119274,-76.9230769230769,4,2,0,100,0,0
119566,-76.9230769230769,4,2,0,60,0,0
119711,-76.9230769230769,4,2,0,100,0,0
119857,-76.9230769230769,4,2,0,60,0,0
120148,-76.9230769230769,4,2,0,100,0,0
120294,-76.9230769230769,4,2,0,60,0,0
120585,-76.9230769230769,4,2,0,100,0,0
120731,-76.9230769230769,4,2,0,5,0,0
120876,-76.9230769230769,4,2,0,60,0,0
122623,-76.9230769230769,4,2,0,100,0,0
122770,-71.4285714285714,4,2,0,80,0,0
122988,-71.4285714285714,4,2,0,100,0,0
123061,-71.4285714285714,4,2,0,100,0,0
123207,-71.4285714285714,4,2,0,80,0,0
123498,-71.4285714285714,4,2,0,100,0,0
123643,-71.4285714285714,4,2,0,80,0,0
123789,-71.4285714285714,4,2,0,100,0,0
124226,-71.4285714285714,4,2,0,80,0,0
124372,-71.4285714285714,4,2,0,100,0,0
124517,-71.4285714285714,4,2,0,80,0,0
124663,-71.4285714285714,4,2,0,100,0,0
125100,-71.4285714285714,4,2,0,80,0,0
125245,-71.4285714285714,4,2,0,100,0,0
125537,-71.4285714285714,4,2,0,80,0,0
125828,-71.4285714285714,4,2,0,100,0,0
125974,-71.4285714285714,4,2,0,80,0,0
126119,-71.4285714285714,4,2,0,100,0,0
126556,-71.4285714285714,4,2,0,80,0,0
126702,-71.4285714285714,4,2,0,100,0,0
126847,-62.5,4,2,0,80,0,0
127430,-71.4285714285714,4,2,0,80,0,0
127648,-71.4285714285714,4,2,0,100,0,0
127866,-71.4285714285714,4,2,0,80,0,0
128012,-71.4285714285714,4,2,0,80,0,0
128230,-71.4285714285714,4,2,0,100,0,0
128304,-62.5,4,2,0,80,0,0
128449,-62.5,4,2,0,100,0,0
128886,-62.5,4,2,0,80,0,0
129032,-62.5,4,2,0,100,0,0
129177,-62.5,4,2,0,80,0,0
129323,-62.5,4,2,0,100,0,0
129760,-62.5,4,2,0,80,0,0
129906,-62.5,4,2,0,100,0,0
130197,-62.5,4,2,0,80,0,0
130560,-62.5,4,2,0,100,0,0
130634,-62.5,4,2,0,80,0,0
131580,-62.5,4,2,0,100,0,0
131653,-62.5,4,2,0,80,0,0
131725,-62.5,4,2,0,100,0,0
131799,-62.5,4,2,0,80,0,0
131871,-62.5,4,2,0,100,0,0
131944,-62.5,4,2,0,80,0,0
132016,-62.5,4,2,0,100,0,0
132090,-62.5,4,2,0,80,0,0
132308,-62.5,4,2,0,100,0,0
132381,-76.9230769230769,4,2,0,100,0,0
132526,-76.9230769230769,4,2,0,80,0,0
132818,-76.9230769230769,4,2,0,100,0,0
132964,-76.9230769230769,4,2,0,80,0,0
133036,-76.9230769230769,4,2,0,100,0,0
133109,-76.9230769230769,4,2,0,100,0,0
133546,-76.9230769230769,4,2,0,80,0,0
133618,-76.9230769230769,4,2,0,100,0,0
133838,-76.9230769230769,4,2,0,80,0,0
134056,-76.9230769230769,4,2,0,100,0,0
134129,-76.9230769230769,4,2,0,80,0,0
134201,-76.9230769230769,4,2,0,100,0,0
134274,-62.5,4,2,0,100,0,0
134420,-62.5,4,2,0,80,0,0
134492,-62.5,4,2,0,100,0,0
134711,-62.5,4,2,0,5,0,0
134857,-62.5,4,2,0,80,0,0
135003,-83.3333333333333,4,2,0,80,0,0
135148,-83.3333333333333,4,2,0,100,0,0
135294,-83.3333333333333,4,2,0,80,0,0
135366,-83.3333333333333,4,2,0,100,0,0
135440,-83.3333333333333,4,2,0,100,0,0
135876,-83.3333333333333,4,2,0,80,0,0
135948,-83.3333333333333,4,2,0,100,0,0
136168,-62.5,4,2,0,80,0,0
136459,-62.5,4,2,0,5,0,0
136532,-62.5,4,2,0,100,0,0
136677,-62.5,4,2,0,80,0,0
136750,-62.5,4,2,0,80,0,0
136822,-62.5,4,2,0,100,0,0
136896,-62.5,4,2,0,100,0,0
137186,-62.5,4,2,0,80,0,0
137478,-62.5,4,2,0,100,0,0
137624,-62.5,4,2,0,80,0,0
137770,-62.5,4,2,0,100,0,0
138207,-62.5,4,2,0,80,0,0
138279,-62.5,4,2,0,100,0,0
138498,-62.5,4,2,0,80,0,0
138715,-62.5,4,2,0,100,0,0
138789,-62.5,4,2,0,80,0,0
138861,-62.5,4,2,0,100,0,0
139080,-62.5,4,2,0,80,0,0
150731,-62.5,4,2,0,50,0,0
150804,-62.5,4,2,0,50,0,0
151022,-62.5,4,2,0,100,0,0
151168,-62.5,4,2,0,50,0,0
151459,-62.5,4,2,0,100,0,0
151605,-62.5,4,2,0,50,0,0
151750,-62.5,4,2,0,100,0,0
151896,-222.222222222221,4,2,0,50,0,0
152187,-133.333333333333,4,2,0,100,0,0
152333,-133.333333333333,4,2,0,50,0,0
152624,-133.333333333333,4,2,0,100,0,0
152769,-133.333333333333,4,2,0,50,0,0
152915,-133.333333333333,4,2,0,100,0,0
153061,-222.222222222221,4,2,0,50,0,0
153352,-222.222222222221,4,2,0,100,0,0
153497,-222.222222222221,4,2,0,50,0,0
153789,-222.222222222221,4,2,0,100,0,0
153934,-222.222222222221,4,2,0,50,0,0
154080,-222.222222222221,4,2,0,100,0,0
154226,-133.333333333333,4,2,0,50,0,0
154808,-100,4,2,0,50,0,0
155317,-100,4,2,0,5,0,0
155391,-133.333333333333,4,2,0,70,0,0
155682,-133.333333333333,4,2,0,5,0,0
155828,-133.333333333333,4,2,0,70,0,0
156119,-133.333333333333,4,2,0,5,0,0
156265,-133.333333333333,4,2,0,70,0,0
156410,-133.333333333333,4,2,0,100,0,0
156556,-133.333333333333,4,2,0,70,0,0
156847,-100,4,2,0,100,0,0
156993,-100,4,2,0,70,0,0
157284,-100,4,2,0,100,0,0
157429,-100,4,2,0,70,0,0
157575,-100,4,2,0,100,0,0
157721,-100,4,2,0,70,0,0
158012,-100,4,2,0,100,0,0
158157,-100,4,2,0,70,0,0
158449,-100,4,2,0,100,0,0
158594,-100,4,2,0,70,0,0
158740,-100,4,2,0,100,0,0
158886,-100,4,2,0,70,0,0
160051,-100,4,2,0,50,0,0
160634,-100,4,2,0,30,0,0
161216,-100,4,2,0,50,0,0
161944,-100,4,2,1,50,0,0
162090,-100,4,2,0,70,0,0
162236,-100,4,2,1,90,0,0
162381,-66.6666666666667,4,2,0,100,0,0
162672,-66.6666666666667,4,2,0,5,0,0
162818,-66.6666666666667,4,2,0,100,0,0
163692,-100,4,2,0,100,0,0
164711,-66.6666666666667,4,2,0,100,0,0
165658,-66.6666666666667,4,2,0,5,0,0
165731,-66.6666666666667,4,2,0,100,0,0
166168,-50,4,2,0,100,0,0
167332,-50,4,2,0,5,0,0
167478,-40,4,2,0,100,0,0
168061,-66.6666666666667,4,2,0,100,0,0
168352,-100,4,2,0,100,0,0
170828,-66.6666666666667,4,2,0,100,0,0
171265,-50,4,2,0,100,0,0
171702,-66.6666666666667,4,2,0,100,0,0
173012,-66.6666666666667,4,2,0,5,0,0
173158,-66.6666666666667,4,2,0,100,0,0
176362,-83.3333333333333,4,2,0,100,0,0
177672,-83.3333333333333,4,2,0,5,0,0
177818,-83.3333333333333,4,2,0,100,0,0
179274,-55.5555555555556,4,2,0,100,0,0
181022,-100,4,2,0,100,0,0
181605,-66.6666666666667,4,2,0,100,0,0
182478,-55.5555555555556,4,2,0,100,0,0
183643,-66.6666666666667,4,2,0,100,0,0
184372,-100,4,2,0,100,0,0
184663,-100,4,2,0,5,0,0
184808,-66.6666666666667,4,2,0,100,0,0
186847,-55.5555555555556,4,2,0,100,0,0
187939,-55.5555555555556,4,2,0,5,0,0
188012,-55.5555555555556,4,2,0,100,0,0
190925,-133.333333333333,4,2,0,100,0,0

[Colours]
Combo1 : 204,191,168
Combo2 : 222,218,222
Combo3 : 192,180,188
Combo4 : 231,209,218
Combo5 : 215,157,179
Combo6 : 208,216,232
Combo7 : 164,177,208
Combo8 : 228,222,211

[HitObjects]
420,119,10925,38,0,B|494:112|512:292|336:137|382:327|403:319,1,225,6|0,1:2|0:0,2:0:0:0:
430,357,11508,2,0,P|446:375|437:349,1,75,2|0,0:3|0:0,0:0:0:0:
299,92,11944,6,0,P|334:154|369:224,1,150,0|0,1:0|1:0,2:0:0:0:
292,241,12381,2,0,P|232:233|216:207,1,75,0|0,1:0|0:0,2:0:0:0:
399,48,12673,2,0,P|419:52|446:61,1,37.5,2|0,0:3|0:0,0:0:0:0:
437,78,12818,2,0,P|454:86|523:96,2,75,0|8|8,1:3|0:3|0:3,2:0:0:0:
290,11,13255,102,0,P|247:71|100:68,1,225,6|0,1:2|0:0,2:0:0:0:
106,72,13838,2,0,B|124:116|112:135|65:147|41:153|49:86|108:141,1,150,2|2,0:3|0:0,0:0:0:0:
12,55,14274,5,0,1:0:0:0:
80,10,14420,1,0,0:0:0:0:
30,12,14566,1,0,1:0:0:0:
124,156,14711,2,0,P|131:175|136:192,1,37.5,0|0,1:0|0:0,2:0:0:0:
39,272,15003,102,0,B|-18:327|-79:242|69:176|51:321|135:291,1,225,2|0,0:3|1:0,0:0:0:0:
265,361,15585,6,0,P|215:362|203:303,1,112.5,6|0,1:2|0:0,2:0:0:0:
270,279,16022,1,0,0:0:0:0:
381,199,16168,102,0,P|424:253|382:309,1,150,2|0,0:3|0:0,0:0:0:0:
374,305,16605,6,0,B|308:281|344:263|274:238,1,112.5,0|0,1:0|2:0,2:0:0:0:
258,250,16896,1,0,1:0:0:0:
441,374,17041,2,0,P|447:294|457:195,1,150,0|2,1:0|0:3,2:0:0:0:
505,174,17478,1,0,1:3:0:0:
260,13,17915,102,0,B|254:45|181:24|146:85|208:124|263:60|323:2|340:82,1,225,6|0,1:2|0:0,2:0:0:0:
380,107,18498,6,0,P|383:137|371:108,2,75,2|2|2,0:3|0:0|0:0,0:0:0:0:
260,15,18935,102,0,P|248:79|234:170,1,150,0|0,1:0|1:0,2:0:0:0:
243,178,19372,2,0,L|233:232,1,37.5,0|0,1:0|0:0,2:0:0:0:
0,83,19663,6,0,P|65:80|121:169,1,150,2|0,0:3|0:0,0:0:0:0:
65,198,20100,1,0,1:0:0:0:
129,49,20245,102,0,P|95:73|111:102,1,75,6|0,1:2|0:0,2:0:0:0:
246,178,20537,2,0,P|257:214|266:251,1,75,0|0,2:0|0:0,2:0:0:0:
63,373,20828,6,0,P|113:346|72:292,1,112.5,2|0,0:3|0:0,2:0:0:0:
70,285,21119,2,0,P|31:296|-12:315,1,75,0|0,2:0|1:0,0:0:0:0:
226,340,21410,102,0,B|298:317|316:392|392:352,2,150,0|0|2,0:0|1:0|0:3,0:0:0:0:
170,289,22139,1,0,1:3:0:0:
161,370,22284,1,8,0:3:0:0:
425,303,22575,6,0,B|289:220|282:424|152:414|136:348,1,315,6|0,1:2|0:0,2:0:0:0:
17,209,23158,102,0,P|12:155|5:96,1,112.5,2|0,0:3|0:0,2:0:0:0:
17,209,23595,1,0,1:0:0:0:
91,249,23886,1,0,1:0:0:0:
91,249,24032,2,0,B|117:198|162:211|157:252|111:238,1,112.5,0|0,1:0|2:0,2:0:0:0:
91,249,24323,6,0,P|82:285|75:322,1,75,2|0,0:3|0:0,0:0:0:0:
0,138,24614,1,0,2:0:0:0:
62,55,24760,1,0,1:0:0:0:
170,104,24906,102,0,B|254:122|199:-19|72:110|138:188,1,225,6|0,1:2|0:0,2:0:0:0:
209,198,25488,6,0,P|259:210|287:218,1,75,2|0,0:3|0:0,2:0:0:0:
435,254,25779,2,0,P|471:262|507:272,1,75,0|0,2:0|1:0,2:0:0:0:
340,384,26071,102,0,B|289:334|392:300|347:244,1,150,0|0,0:0|1:0,0:0:0:0:
83,66,26653,5,2,0:3:0:0:
312,103,26799,1,0,1:3:0:0:
179,124,26944,101,8,0:3:0:0:
238,53,27090,1,8,0:3:0:0:
175,0,27236,6,0,B|105:76|304:109|219:185,1,225,6|0,1:2|0:0,2:0:0:0:
149,249,27818,102,0,P|50:268|-17:281,1,150,2|2,0:3|0:0,0:0:0:0:
79,301,28255,1,0,1:0:0:0:
45,100,28546,6,0,P|39:58|31:14,1,75,0|0,1:0|1:0,0:0:0:0:
35,372,28983,102,0,P|64:314|137:370,1,168.75,2|0,0:3|0:0,2:3:0:0:
48,126,29566,85,10,0:0:0:0:
48,126,30003,1,10,0:0:0:0:
36,67,30148,1,8,0:0:0:0:
48,126,30440,1,10,0:0:0:0:
116,15,30731,5,2,0:0:0:0:
65,206,31022,2,0,P|57:246|52:274,1,56.2500000000001,8|2,0:0|0:0,2:0:0:0:
214,46,31313,21,8,0:0:0:0:
228,165,31605,1,2,0:0:0:0:
154,223,31750,1,8,0:0:0:0:
0,183,31896,70,0,B|77:153|99:219|176:183,2,168.75,10|10|10,0:0|0:0|0:0,2:0:0:0:
240,266,33061,1,2,0:0:0:0:
235,282,33207,1,0,0:0:0:0:
227,312,33352,1,8,0:0:0:0:
215,356,33498,1,0,0:0:0:0:
62,365,33643,5,8,0:0:0:0:
66,328,33789,1,0,0:0:0:0:
105,319,33935,1,0,0:0:0:0:
120,357,34080,1,0,2:0:0:0:
339,380,34226,5,10,0:0:0:0:
311,221,34517,1,0,0:0:0:0:
311,221,34663,1,10,0:0:0:0:
311,221,34808,1,8,0:0:0:0:
270,8,35100,1,10,0:0:0:0:
417,350,35391,6,0,L|438:305,1,28.1250000000001,2|0,0:0|0:0,0:0:0:0:
419,315,35682,2,0,P|477:344|484:361,1,75,8|2,0:0|0:0,2:0:0:0:
226,207,35974,2,0,P|266:151|360:181,1,150,8|2,0:0|0:0,2:0:0:0:
344,172,36410,2,0,L|331:214,1,37.5,8|0,0:0|2:0,2:0:0:0:
394,115,36556,69,10,0:0:0:0:
459,85,36702,1,0,0:0:0:0:
504,143,36847,1,0,2:0:0:0:
328,27,36993,5,10,0:0:0:0:
328,27,37139,2,0,P|274:35|237:41,1,75,8|0,0:0|0:0,2:0:0:0:
74,71,37430,2,0,P|20:79|-17:85,1,75,10|0,0:0|0:0,2:0:0:0:
154,98,37721,6,2,P|161:117|139:106,3,56.25,2|0|0|0,0:0|0:0|0:0|0:0,0:0:0:0:
119,43,38012,6,0,B|82:68|97:-15|170:0|195:47|183:87|142:102,1,168.75,8|0,0:0|2:0,0:0:0:0:
59,175,38304,70,2,B|63:306|-36:233|-101:314|-14:427|83:412|79:334|78:279|37:265,1,337.5,8|0,0:0|0:0,0:0:0:0:
28,3,38886,86,0,P|23:37|5:36,1,56.2500000000001,6|0,1:2|0:0,2:0:0:0:
20,29,39177,2,0,P|15:63|-3:62,1,56.2500000000001,0|0,2:0|1:2,0:0:0:0:
269,382,39469,6,0,P|286:324|310:249,1,112.5,2|0,1:3|1:2,0:0:0:0:
89,312,39906,6,0,P|114:303|110:278,1,56.2500000000001,0|0,0:0|2:0,0:0:0:0:
138,213,40197,2,0,P|163:204|159:179,2,56.2500000000001,0|0|0,2:0|1:2|0:0,0:0:0:0:
4,147,40634,86,0,P|96:114|166:88,1,168.75,0|0,3:2|0:0,0:0:0:0:
373,27,41216,5,6,1:2:0:0:
373,27,41362,1,0,0:0:0:0:
373,27,41508,1,0,2:0:0:0:
373,27,41653,1,0,1:2:0:0:
290,66,41799,5,2,1:3:0:0:
322,140,41944,1,0,2:0:0:0:
416,132,42090,1,0,1:2:0:0:
493,40,42236,85,0,0:0:0:0:
486,54,42381,1,0,2:0:0:0:
400,234,42527,1,0,2:0:0:0:
389,251,42673,1,0,1:2:0:0:
15,55,42964,6,2,B|-27:37|-27:37|-13:64|-13:64|149:0|149:0|153:54|153:54|109:34,1,337.5,0|0,3:0|0:0,0:1:0:0:
29,73,43546,6,0,P|24:107|6:106,1,56.2500000000001,6|0,1:2|0:0,2:0:0:0:
42,16,43838,2,0,P|37:50|19:49,1,56.2500000000001,0|0,2:0|1:2,0:0:0:0:
205,375,44129,86,0,P|185:311|166:256,1,112.5,2|0,1:3|1:2,0:0:0:0:
94,214,44566,6,0,P|89:248|71:247,1,56.2500000000001,0|0,0:0|2:0,0:0:0:0:
126,126,44857,2,0,P|121:160|103:159,2,56.2500000000001,0|0|0,2:0|1:2|0:0,0:0:0:0:
0,194,45294,5,0,3:2:0:0:
88,215,45440,1,2,0:0:0:0:
190,240,45585,1,2,0:0:0:0:
500,194,45876,22,0,P|488:240|470:313,1,112.5,6|2,1:2|0:0,2:0:0:0:
357,382,46459,2,0,P|397:372|421:369,1,56.2500000000001,2|0,1:3|2:0,2:0:0:0:
431,350,46750,2,0,P|471:340|495:337,1,56.2500000000001,2|0,1:2|2:0,2:0:0:0:
498,180,47041,6,0,L|471:289,1,112.5,2|2,0:0|1:2,2:0:0:0:
288,20,47478,2,0,L|293:54,1,28.1250000000001,0|0,3:0|3:0,0:0:0:0:
309,62,47624,1,2,3:1:0:0:
497,20,47770,69,2,3:1:0:0:
419,14,47915,1,2,3:1:0:0:
400,90,48061,1,2,3:1:0:0:
329,231,48207,86,0,P|453:196|498:185,1,157.5,6|0,1:2|0:0,2:0:0:0:
391,168,48498,2,0,B|415:150|415:150|438:191|513:198,1,105,0|2,0:0|1:2,0:0:0:0:
302,365,48789,2,0,P|253:305|178:309,1,150,2|2,1:3|1:2,2:0:0:0:
36,276,49226,5,0,0:0:0:0:
0,283,49372,1,0,2:0:0:0:
79,335,49517,1,0,0:0:0:0:
16,365,49663,1,2,1:2:0:0:
112,200,49808,1,0,0:0:0:0:
255,223,49954,6,0,B|321:228|195:50|167:233|134:222|56:168|71:135,1,262.5,2|0,1:3|0:0,2:0:0:0:
114,75,50391,2,0,P|133:65|126:83,1,52.5,0|0,0:0|2:0,0:0:0:0:
0,162,50537,86,0,P|115:115|259:60,1,262.5,6|0,1:2|0:0,2:0:0:0:
343,15,50974,2,0,P|302:4|283:0,2,52.5,2|0|2,1:2|3:0|1:3,2:0:0:0:
343,15,51265,2,0,P|305:51|304:107,2,105,0|2|0,2:0|1:2|0:0,2:0:0:0:
468,157,51702,6,0,L|459:120,1,26.25,2|0,2:0|0:0,0:0:0:0:
198,51,51993,6,0,P|268:170|459:159,1,337.5,2|2,1:2|2:0,2:0:0:0:
246,352,52575,86,0,B|220:340|207:393|278:398|309:356|216:295|305:246,1,168.75
228,157,52867,6,2,P|304:143|374:212,1,180,6|0,1:2|0:0,1:0:0:0:
461,334,53304,2,0,P|466:356|470:379,1,45,2|0,1:2|2:0,2:0:0:0:
428,332,53449,2,0,P|437:278|450:232,1,90,2|0,1:3|0:0,2:0:0:0:
512,216,53741,1,2,1:2:0:0:
392,28,53886,6,0,P|335:23|302:56,1,90,0|0,0:0|2:0,0:0:0:0:
267,174,54177,2,0,P|217:191|167:90,1,180
512,122,54614,85,2,1:3:0:0:
512,122,54687,1,0,2:0:0:0:
512,122,54760,1,2,0:0:0:0:
371,154,54906,1,2,0:0:0:0:
9,181,55197,54,0,P|77:198|78:198,1,67.5000000000004,6|2,1:2|0:0,2:0:0:0:
207,177,55779,2,0,P|154:168|90:178,1,112.5,2|2,1:3|1:2,2:0:0:0:
11,182,56362,2,0,P|11:142|7:102,1,75,2|0,0:0|0:0,2:0:0:0:
235,295,56653,2,0,P|236:340|243:375,1,75,2|0,1:2|3:0,0:0:0:0:
240,366,56872,6,0,P|271:384|280:385,1,45,0|2,3:0|3:1,0:0:0:0:
13,310,57090,2,2,P|67:293|94:240,2,112.5,2|2|2,3:1|3:1|3:1,0:1:0:0:
284,384,62187,102,0,B|292:332|242:302|242:302|238:289|238:289|317:294|324:211,1,225,6|0,1:2|0:0,2:0:0:0:
359,335,62770,2,0,P|388:337|360:330,1,75,2|0,0:3|0:0,0:0:0:0:
0,275,63207,6,0,B|83:244|70:340|197:289,1,150,0|0,1:0|1:0,2:0:0:0:
164,297,63643,2,0,P|151:347|143:394,1,75,0|0,1:0|0:0,2:0:0:0:
278,193,63935,2,0,P|287:237|287:243,1,37.5,2|0,0:3|0:0,0:0:0:0:
280,252,64080,1,0,1:3:0:0:
265,189,64226,2,0,P|252:131|251:111,2,50,8|0|0,0:3|0:0|0:0,0:0:0:0:
52,95,64517,102,0,B|38:51|-65:119|3:-49|37:11|44:-57|206:44|30:72|67:94,1,270,6|0,1:2|0:0,2:0:0:0:
41,170,65100,6,0,B|12:210|12:210|-12:203|5:186|25:185,2,75,2|2|2,0:3|0:0|0:0,0:0:0:0:
167,189,65537,102,0,B|72:144|72:144|43:124|65:97|95:126,1,150,0|0,1:0|1:0,2:0:0:0:
183,92,65974,1,0,1:0:0:0:
164,80,66119,1,0,0:0:0:0:
225,272,66265,6,0,B|282:327|343:242|193:181|213:321|129:291,1,225,2|0,0:3|1:0,0:0:0:0:
73,371,66847,102,0,P|25:258|136:206,1,270,6|0,1:2|0:0,2:0:0:0:
273,258,67430,6,0,P|329:273|357:282,1,75,2|0,0:3|0:0,0:0:0:0:
502,335,67721,1,0,2:0:0:0:
496,321,67867,2,0,P|460:310|423:300,1,75,0|0,1:0|0:0,2:0:0:0:
319,384,68158,1,0,1:0:0:0:
401,322,68304,102,0,B|342:272|464:242|394:169,1,150,0|2,1:0|0:3,2:0:0:0:
373,2,68741,5,0,1:3:0:0:
457,112,68886,1,8,0:3:0:0:
326,166,69032,1,8,0:3:0:0:
236,96,69177,102,0,B|214:39|153:49|102:45|144:0|195:28|235:35|268:-6,1,225,6|0,1:2|0:0,2:0:0:0:
258,4,69760,2,0,P|243:56|235:98,2,75,2|2|2,0:3|0:0|0:0,0:0:0:0:
166,204,70197,2,0,P|120:235|65:230,1,112.5,0|0,1:0|2:0,2:0:0:0:
65,230,70488,2,0,L|53:282,1,37.5,0|0,1:0|2:0,2:0:0:0:
45,155,70634,6,0,B|-57:141|3:15|25:94|19:114,1,150,0|2,1:0|0:3,2:0:0:0:
457,363,71216,102,0,L|447:313,1,37.5,0|0,2:0|2:0,2:0:0:0:
377,361,71362,2,0,B|379:371|367:371|367:359|369:371|369:371|355:326,1,37.5,0|0,1:0|2:0,2:0:0:0:
268,296,71508,6,0,B|229:356|214:419|308:394|306:326|184:192|27:327|171:314,1,292.5,6|0,1:2|0:0,2:0:0:0:
135,312,72090,2,0,P|173:277|171:243,1,82.5,2|0,0:3|0:0,3:0:0:0:
73,379,72381,2,0,B|-22:384|-5:331|17:318|20:337|19:362|18:362,1,123.75,0|0,2:0|0:0,0:0:0:0:
25,362,72673,102,0,P|50:291|77:221,1,150,2|0,0:0|1:0,0:0:0:0:
0,27,73255,2,0,L|84:8,2,75,2|0|8,0:3|1:3|0:3,2:0:0:0:
73,382,73838,6,0,P|56:264|5:21,1,360,6|0,1:2|0:0,2:0:0:0:
111,73,74420,102,0,P|159:120|218:125,1,120,2|0,0:3|0:0,2:0:0:0:
72,166,74711,6,0,B|5:160|34:117|74:127|59:175|25:234|-22:183,1,135,0|0,2:0|0:0,2:0:0:0:
9,200,75003,102,0,L|66:214,1,45,2|0,0:0|2:0,0:0:0:0:
427,229,75294,6,0,B|506:239|506:239|490:262|490:262|440:179,2,180,0|2|0,1:0|0:3|2:0,2:0:0:0:
484,377,76022,1,0,1:0:0:0:
350,252,76168,102,0,B|290:337|290:193|188:304|239:443|427:391|368:318,1,315,6|0,1:2|0:0,2:0:0:0:
350,252,76750,6,0,P|327:172|307:122,1,112.5,2|0,0:3|0:0,2:0:0:0:
463,18,77187,102,0,L|522:37,1,56.2500000000001,0|0,1:0|0:0,2:0:0:0:
485,58,77478,1,0,1:0:0:0:
348,203,77624,2,0,P|370:134|395:81,1,112.5,0|2,1:0|0:3,2:0:0:0:
507,125,78061,5,0,1:3:0:0:
433,209,78207,1,8,0:3:0:0:
512,213,78352,1,8,0:3:0:0:
239,67,78498,2,0,P|190:38|155:42,1,75,6|0,1:2|0:0,2:0:0:0:
252,89,78789,102,0,B|195:116|144:120|105:23|145:-65|145:97,1,225,0|2,2:0|0:0,0:0:0:0:
28,206,79372,2,0,P|74:197|87:135,1,112.5,2|0,0:0|0:0,2:0:0:0:
77,129,79663,1,0,2:0:0:0:
251,381,79954,2,0,P|219:327|203:303,1,75,0|0,1:0|0:0,2:0:0:0:
30,57,80245,6,0,P|9:27|-2:7,2,52.5000000000003,2|0|10,0:3|0:0|0:0,2:0:0:0:
203,43,81119,69,0,0:0:0:0:
203,43,81265,1,10,0:0:0:0:
203,43,81410,1,8,0:0:0:0:
174,128,81702,1,10,0:0:0:0:
81,177,81993,1,2,0:0:0:0:
120,6,82284,5,8,0:0:0:0:
256,178,82575,1,8,0:0:0:0:
203,384,82867,1,2,0:0:0:0:
203,384,83012,1,8,0:0:0:0:
203,384,83158,2,0,P|167:326|297:282,1,225,10|10,0:0|0:0,2:0:0:0:
274,260,83741,22,0,P|211:283|185:293,1,75,8|0,0:0|0:0,2:0:0:0:
31,337,84032,2,0,P|25:302|8:243,1,84.3750000000002,10|0,0:0|2:0,2:0:0:0:
59,348,84323,70,2,P|46:375|10:380,1,56.2500000000001,2|0,0:0|0:0,0:0:0:0:
330,316,84614,2,0,P|393:337|452:362,1,112.5,8|0,0:0|2:0,0:0:0:0:
349,352,84906,2,2,P|288:337|259:309,1,75,8|0,0:0|0:0,0:0:0:0:
502,196,85197,5,2,0:0:0:0:
451,375,85488,102,0,P|364:311|419:247,1,187.5,10|0,0:0|0:0,2:0:0:0:
420,264,85925,2,0,L|473:246,1,37.5,10|0,0:0|2:0,2:0:0:0:
511,189,86071,38,0,P|452:171|420:160,1,75,8|0,0:0|0:0,2:0:0:0:
279,69,86362,2,0,P|307:62|355:49,1,75,10|2,0:0|0:0,2:0:0:0:
420,167,86653,70,0,B|359:114|482:97|418:25,1,150,2|8,0:0|0:0,0:0:0:0:
344,67,87090,2,0,L|304:74,1,37.5,2|0,0:0|2:0,0:0:0:0:
410,14,87236,6,0,P|443:81|517:85,1,150,8|2,0:0|0:0,2:0:0:0:
355,195,87673,1,8,0:0:0:0:
277,209,87818,102,0,P|218:222|180:222,2,75,10|0|0,0:0|0:0|0:0,2:0:0:0:
108,271,88255,1,10,0:0:0:0:
155,162,88401,2,0,P|104:148|71:146,1,75,8|0,0:0|0:0,2:0:0:0:
0,337,88692,38,0,P|-17:348|16:342,1,112.5,10|0,0:0|2:0,2:0:0:0:
22,339,88983,2,2,L|3:291,3,37.5,2|0|0|0,0:0|0:0|0:0|0:0,0:0:0:0:
194,371,89274,2,0,L|69:314,1,112.5,8|0,0:0|2:0,0:0:0:0:
89,168,89566,70,2,B|20:140|-54:263|173:316|105:185|116:117|229:118|245:157,1,341.25,8|0,0:0|0:0,0:0:0:0:
480,223,90148,86,0,B|500:211|502:208|474:174,1,56.2500000000001,6|0,1:2|0:0,2:0:0:0:
447,253,90440,2,0,B|459:273|462:275|496:247,1,56.2500000000001,0|0,2:0|1:2,0:0:0:0:
418,208,90731,2,0,B|398:220|396:223|424:257,2,56.2500000000001,2|0|0,1:3|2:0|1:2,0:0:0:0:
429,371,91168,1,0,0:0:0:0:
432,356,91313,1,0,2:0:0:0:
477,120,91459,1,0,2:0:0:0:
480,106,91605,1,0,1:2:0:0:
260,195,91896,5,0,3:2:0:0:
69,236,92478,6,0,B|89:248|91:251|63:285,1,56.2500000000001,6|0,1:2|0:0,2:0:0:0:
36,206,92770,2,0,B|48:186|51:184|85:212,1,56.2500000000001,0|0,2:0|1:2,0:0:0:0:
7,251,93061,2,0,B|-13:239|-15:236|13:202,2,56.2500000000001,2|0|0,1:3|2:0|1:2,0:0:0:0:
18,88,93498,1,0,0:0:0:0:
21,103,93643,1,0,2:0:0:0:
66,339,93789,1,0,2:0:0:0:
69,353,93935,1,0,1:2:0:0:
262,383,94226,86,2,B|181:346|159:256|248:172|364:240|407:45|232:14,1,450,0|0,3:0|0:0,0:1:0:0:
276,28,94808,6,0,P|216:45|214:46,1,56.2500000000001,6|0,1:2|0:0,2:0:0:0:
360,16,95100,2,0,P|299:32|297:33,1,56.2500000000001,0|0,2:0|1:2,0:0:0:0:
54,213,95391,2,0,P|-6:196|-8:195,2,56.2500000000001,2|0|0,1:3|2:0|1:2,0:0:0:0:
129,183,95828,2,0,P|155:192|183:196,1,56.2500000000001,0|0,0:0|2:0,0:0:0:0:
94,110,96119,1,0,2:0:0:0:
94,110,96265,1,0,1:2:0:0:
463,315,96556,6,0,L|453:357,1,28.1250000000001,0|0,3:2|0:0,2:0:0:0:
485,376,96702,1,2,0:0:0:0:
431,249,96847,1,2,0:0:0:0:
248,379,97139,22,0,P|315:332|384:353,1,150,6|2,1:2|0:0,2:0:0:0:
258,376,97721,2,0,P|277:321|224:294,1,112.5,2|0,1:3|0:0,2:0:0:0:
233,272,98012,2,0,L|218:313,1,37.5,2|0,1:2|0:0,2:0:0:0:
10,220,98304,6,0,P|96:186|189:169,1,187.5,2|0,0:0|0:0,2:0:0:0:
212,204,98741,1,0,3:0:0:0:
177,218,98813,1,0,3:0:0:0:
149,187,98886,1,2,3:1:0:0:
92,33,99032,1,2,3:1:0:0:
218,0,99177,1,2,3:1:0:0:
317,101,99323,1,2,3:1:0:0:
25,209,99469,70,0,P|14:263|1:412,1,157.5,6|0,1:2|0:0,2:0:0:0:
83,314,99760,2,0,P|130:368|176:374,1,105,0|2,0:0|1:2,0:0:0:0:
347,193,100051,6,0,B|337:288|201:289|210:206|262:203|279:250,1,210,2|2,1:3|1:2,2:0:0:0:
159,170,100488,1,0,0:0:0:0:
261,118,100634,1,0,2:0:0:0:
185,102,100779,1,0,0:0:0:0:
289,256,100925,2,0,P|282:279|274:319,1,52.5,2|0,1:2|0:0,2:0:0:0:
355,16,101216,102,0,P|469:33|418:192,1,315,2|0,1:3|0:0,2:0:0:0:
164,179,101799,86,0,B|72:140|74:243|-21:179,1,157.5,6|0,1:2|0:0,2:0:0:0:
61,110,102090,2,0,B|16:114|-6:58|30:26|51:68|8:76,1,105,0|2,0:0|1:2,0:0:0:0:
127,308,102381,6,0,B|153:296|201:274|201:274|154:322|127:402,1,210,2|2,1:3|1:2,2:0:0:0:
204,120,102818,1,0,0:0:0:0:
332,71,102964,1,0,2:0:0:0:
242,37,103109,1,0,0:0:0:0:
353,154,103255,2,0,P|337:205|329:224,1,56.2500000000001,2|0,1:2|0:0,2:0:0:0:
506,357,103546,6,2,P|441:386|431:389,3,56.25,0|0|0|0,3:0|2:0|2:0|2:0,0:1:0:0:
510,372,103838,2,2,P|440:346|439:249,1,168.75,0|0,2:0|0:0,2:1:0:0:
313,174,104129,6,0,B|269:157|478:240|301:347|216:300|286:41|409:75|493:184|450:201,1,360,6|2,1:2|1:2,2:0:0:0:
242,95,104711,6,0,P|150:64|102:56,1,97.5,2|0,1:3|0:0,2:0:0:0:
42,182,105003,1,2,1:2:0:0:
254,14,105148,6,0,P|151:38|54:74,1,195
222,289,105585,1,2,1:2:0:0:
289,243,105731,1,0,2:0:0:0:
244,173,105876,1,2,1:3:0:0:
0,384,106022,1,2,0:0:0:0:
0,384,106095,1,0,2:0:0:0:
0,384,106168,1,2,0:0:0:0:
372,129,106459,38,0,P|437:109|490:103,1,112.5,6|2,1:2|0:0,2:0:0:0:
224,251,107041,2,0,P|274:250|312:236,1,84.3750000000002,2|0,1:3|0:0,2:0:0:0:
230,176,107333,2,0,P|214:202|209:231,1,56.2500021457673,2|0,1:2|0:0,2:0:0:0:
512,97,107624,6,0,P|418:68|336:50,1,180,2|2,0:0|1:2,2:0:0:0:
206,0,108061,1,0,3:0:0:0:
233,17,108134,1,0,3:0:0:0:
266,20,108207,1,2,3:1:0:0:
0,197,108352,2,2,P|61:180|97:160,2,90,2|2|2,3:1|3:1|3:1,0:1:0:0:
431,129,113449,70,0,P|446:67|458:28,1,84.3750000000002,4|0,1:3|0:0,2:0:0:0:
499,163,113741,2,0,P|512:209|512:235,1,56.2500000000001,0|4,2:0|1:3,0:0:0:0:
330,182,114032,6,0,P|281:185|264:206,1,75,4|0,1:3|2:0,2:0:0:0:
415,378,114323,2,0,P|409:356|404:332,1,37.5,4|0,1:3|0:0,2:0:0:0:
417,330,114469,2,0,P|411:308|406:284,1,37.5
297,337,114614,101,0,0:0:0:0:
311,377,114760,1,0,2:0:0:0:
500,272,114906,1,4,1:3:0:0:
512,305,115051,1,0,2:0:0:0:
238,269,115197,6,0,B|163:222|143:342|70:278,1,168.75,4|0,1:3|0:0,2:0:0:0:
83,287,115488,2,0,L|99:349,1,37.5,0|4,2:0|1:3,0:0:0:0:
26,162,115779,102,0,B|57:114|57:114|163:161|163:161|150:212,1,225,4|4,1:3|1:3,2:0:0:0:
33,162,116362,6,0,B|96:135|96:135|118:106|70:102,1,112.5,4|0,1:3|2:0,2:0:0:0:
123,219,116653,2,0,L|145:310,1,75,4|0,1:3|0:0,2:0:0:0:
0,363,116944,102,0,B|17:379|17:379|42:369|42:369|41:326,3,75,0|0|4|0,2:0|0:0|1:3|2:0,0:0:0:0:
235,289,117527,6,0,B|273:275|273:275|299:310|299:310|346:298|346:298|374:329|374:329|417:322|417:322|446:354|446:354|484:346|484:346|513:380,1,341.25,4|0,1:3|0:0,2:0:0:0:
510,377,118109,2,0,B|481:337|481:337|508:309|504:271,1,97.5,4|0,1:3|0:0,2:0:0:0:
366,164,118401,2,0,P|360:150|372:163,1,48.75,0|0,2:0|0:0,0:0:0:0:
379,197,118546,2,0,P|391:243|397:269,1,48.75,4|0,1:3|0:0,0:0:0:0:
267,377,118692,102,0,B|293:311|293:311|370:355|426:306,1,195,4|4,1:3|1:3,2:0:0:0:
460,159,119129,2,0,P|469:100|479:56,2,97.5,0|0|0,0:0|2:0|0:0,0:0:0:0:
254,19,119566,1,4,1:3:0:0:
224,83,119711,1,0,2:0:0:0:
299,113,119857,6,0,L|351:94,1,48.75,4|0,1:3|0:0,2:0:0:0:
494,193,120148,102,0,P|468:194|453:168,1,48.75,0|0,2:0|0:0,0:0:0:0:
385,154,120294,2,0,P|359:155|344:129,1,48.75,4|0,1:3|0:0,0:0:0:0:
242,80,120440,6,0,P|170:84|131:200,1,195,4|0,1:3|0:0,2:0:0:0:
228,232,120876,1,4,1:3:0:0:
140,198,121022,102,0,P|179:261|149:300,1,97.5,4|0,1:3|0:0,2:0:0:0:
0,384,121313,2,0,P|60:349|122:323,1,97.5,4|0,1:3|0:0,0:0:0:0:
291,345,121605,5,2,0:0:0:0:
291,345,121750,1,0,0:0:0:0:
359,362,121896,1,2,0:0:0:0:
359,362,122041,1,0,0:0:0:0:
442,377,122187,101,2,0:0:0:0:
0,167,122478,1,2,0:0:0:0:
494,12,122770,6,0,P|486:67|479:142,1,105,2|0,1:2|0:0,2:0:0:0:
257,113,123061,101,0,2:0:0:0:
364,155,123207,1,0,1:0:0:0:
497,106,123352,5,2,0:3:0:0:
403,126,123498,1,0,2:0:0:0:
131,21,123643,101,0,1:0:0:0:
138,68,123789,1,0,2:0:0:0:
140,28,123935,1,0,2:0:0:0:
144,60,124080,1,0,2:0:0:0:
8,157,124226,5,0,1:0:0:0:
257,84,124372,1,0,2:0:0:0:
60,92,124517,101,2,0:3:0:0:
201,173,124663,1,0,2:0:0:0:
185,205,124808,1,0,2:0:0:0:
0,381,124954,5,0,2:0:0:0:
155,368,125100,1,2,1:2:0:0:
20,259,125245,1,0,2:0:0:0:
20,369,125391,101,0,2:0:0:0:
103,316,125537,1,0,1:0:0:0:
282,194,125682,5,2,0:3:0:0:
130,303,125828,1,0,2:0:0:0:
198,259,125974,1,0,1:0:0:0:
456,32,126119,101,0,2:0:0:0:
385,6,126265,1,0,2:0:0:0:
323,55,126410,1,0,2:0:0:0:
494,164,126556,5,0,1:0:0:0:
250,254,126702,1,0,2:0:0:0:
387,124,126847,2,2,P|397:177|417:358,1,180,0|0,3:0|0:0,0:1:0:0:
404,377,127139,2,0,P|399:343|395:304,2,60,2|0|0,2:1|0:0|2:1,0:0:0:0:
383,148,127430,102,0,P|428:222|499:218,1,157.5,2|0,1:2|2:0,2:0:0:0:
316,220,127721,2,0,P|261:221|230:265,1,105,0|0,2:0|1:0,2:0:0:0:
78,384,128012,6,0,B|124:372|117:303|60:303|33:289|60:237,1,157.5,2|0,0:3|2:0,2:0:0:0:
94,195,128304,2,0,P|105:187|110:221,1,60,0|0,1:0|0:0,0:0:0:0:
11,289,128449,101,0,2:0:0:0:
174,228,128595,1,0,2:0:0:0:
271,188,128741,1,0,2:0:0:0:
33,39,128886,5,0,1:0:0:0:
107,61,129032,1,0,2:0:0:0:
195,89,129177,1,2,0:3:0:0:
117,89,129323,1,0,2:0:0:0:
303,33,129469,2,0,P|314:101|321:160,1,120,0|0,2:0|2:0,0:0:0:0:
253,384,129760,101,2,1:2:0:0:
150,242,129906,1,0,2:0:0:0:
316,296,130051,5,0,2:0:0:0:
150,350,130197,1,0,1:0:0:0:
253,209,130342,1,2,0:3:0:0:
253,209,130488,1,0,0:0:0:0:
7,323,130634,1,2,0:0:0:0:
500,206,131362,5,2,3:2:0:0:
483,263,131435,1,0,3:0:0:0:
462,330,131508,1,2,3:2:0:0:
398,384,131653,5,0,3:0:0:0:
364,253,131799,1,0,3:0:0:0:
336,141,131944,1,0,3:0:0:0:
478,53,132090,70,0,B|506:-11|536:2|506:94|430:104|387:62,1,180,6|0,1:2|2:0,2:0:0:0:
266,118,132381,2,0,P|300:107|355:151,1,97.5,0|2,2:0|1:2,2:0:0:0:
428,195,132673,5,2,1:3:0:0:
400,277,132818,1,0,2:0:0:0:
372,361,132964,1,2,1:2:0:0:
233,263,133109,102,0,P|163:279|115:292,2,97.5,0|0|0,2:0|2:0|2:0,2:0:0:0:
494,208,133546,2,0,P|424:224|376:237,1,97.5,2|0,1:2|2:0,2:0:0:0:
321,373,133838,6,0,B|243:333|382:256|293:194,1,195,2|2,1:3|0:1,2:0:0:0:
40,37,134274,102,0,P|37:38|62:57,1,60,0|0,2:0|0:0,0:0:0:0:
122,15,134420,2,0,B|172:1|172:1|118:65|75:199,1,240,6|0,1:2|0:0,2:0:0:0:
182,374,134857,1,2,1:2:0:0:
136,227,135003,2,0,P|163:254|228:230,1,90,2|0,1:3|2:0,2:0:0:0:
9,343,135294,1,2,1:2:0:0:
135,154,135440,6,0,P|121:111|104:69,2,90,0|0|0,2:0|2:0|2:0,2:0:0:0:
212,383,135876,2,0,P|198:340|181:298,1,90,2|0,1:2|2:0,2:0:0:0:
507,192,136168,38,2,P|468:151|377:259,1,240,0|0,3:0|0:0,0:1:0:0:
439,280,136532,1,0,0:0:0:0:
439,280,136605,2,0,L|526:307,1,60,2|0,2:0|0:0,0:0:0:0:
343,329,136750,69,6,1:2:0:0:
253,366,136896,1,0,2:0:0:0:
340,245,137041,102,0,B|254:215|244:320|133:261,1,180,0|0,2:0|0:0,2:0:0:0:
138,240,137333,5,2,1:3:0:0:
250,186,137478,1,0,2:0:0:0:
31,105,137624,1,2,1:2:0:0:
136,60,137770,1,0,2:0:0:0:
56,179,137915,102,0,P|79:297|88:364,1,180,0|0,2:0|2:0,2:0:0:0:
79,373,138207,2,0,P|68:323|63:282,1,60,2|0,1:2|2:0,2:0:0:0:
217,292,138352,6,0,P|223:200|232:95,1,180,0|0,2:0|0:0,0:0:0:0:
265,26,138643,2,0,P|260:84|255:101,1,60,2|0,0:0|2:0,0:0:0:0:
28,22,138789,22,0,B|18:80|-27:98|-26:133|24:110|39:70|80:58|110:89,1,180,2|0,0:0|0:0,2:0:0:0:
126,15,139080,1,2,0:0:0:0:
253,192,150804,101,0,0:0:0:0:
253,192,151168,1,2,0:0:0:0:
253,192,151313,1,0,0:0:0:0:
327,224,151605,1,2,0:0:0:0:
412,167,151896,38,0,L|445:175,1,33.7500000000002,2|0,0:0|0:0,2:0:0:0:
400,161,152187,2,0,P|429:149|511:166,2,112.5,0|0|2,2:0|0:0|0:0,0:0:0:0:
312,281,152915,1,0,2:0:0:0:
246,373,153061,6,0,P|193:375|180:328,2,101.250000000001,2|2|2,0:0|0:0|0:0,2:0:0:0:
313,45,154226,22,2,L|310:14,7,28.1250000000001,2|0|0|0|0|0|0|0,0:0|0:0|0:0|0:0|0:0|0:0|0:0|0:0,0:0:0:0:
333,53,154808,2,2,B|423:61|340:83|240:119|304:264|341:103|432:164,1,262.5,2|0,0:0|0:0,0:0:0:0:
475,215,155391,102,0,P|508:229|486:186,1,112.5,2|0,0:0|0:0,2:0:0:0:
377,359,155828,2,0,P|426:363|433:299,1,112.5,2|0,0:0|0:0,2:0:0:0:
248,159,156265,86,0,P|254:218|254:236,1,56.2500000000001,2|0,0:0|2:0,2:0:0:0:
248,159,156556,1,2,0:0:0:0:
448,233,156847,6,0,P|384:240|363:319,2,150,0|0|2,2:0|0:0|0:0,0:0:0:0:
501,147,157575,1,0,2:0:0:0:
256,321,157721,102,0,P|29:364|24:365,2,225,2|2|2,0:0|0:0|0:0,2:0:0:0:
58,379,158886,2,2,L|33:323,7,37.5,2|0|0|0|0|0|0|0,0:0|0:0|0:0|0:0|0:0|0:0|0:0|0:0,0:0:0:0:
130,371,159469,6,2,B|231:314|204:305|7:270|0:269|124:187,1,300
256,192,160634,12,0,162236,0:0:0:0:
479,27,162381,6,0,P|494:100|373:118,1,225,6|0,1:2|0:0,2:0:0:0:
209,24,162818,2,0,P|172:9|137:3,1,56.25,2|0,1:2|2:0,2:0:0:0:
251,78,162964,6,0,P|252:50|323:56,1,112.5,2|0,1:3|0:0,2:0:0:0:
263,178,163255,1,2,1:2:0:0:
428,384,163401,70,0,P|448:302|472:221,1,168.75
472,221,163692,2,0,P|471:265|464:321,1,75,0|2,0:0|1:2,0:0:0:0:
340,328,163983,1,0,0:0:0:0:
258,254,164129,1,2,1:3:0:0:
258,254,164202,1,0,2:0:0:0:
258,254,164274,1,0,2:0:0:0:
12,363,164420,101,2,0:1:0:0:
104,366,164711,54,0,P|88:271|67:165,1,168.75,6|0,1:2|0:0,2:0:0:0:
74,199,165003,2,0,B|37:230|37:230|76:244|92:284,1,112.5,0|2,0:0|1:2,0:0:0:0:
189,112,165294,70,0,B|229:90|186:-2|14:-19|-53:54|22:86|75:23,1,281.25,2|0,1:3|0:0,2:0:0:0:
117,8,165731,6,0,B|154:12|176:2|176:2|169:22|142:64,1,112.5,0|0,1:0|2:0,0:0:0:0:
57,220,166022,1,0,0:0:0:0:
1,153,166168,6,0,P|137:106|311:53,1,300,2|0,1:2|3:0,2:0:0:0:
426,176,166605,1,0,0:0:0:0:
504,119,166750,1,0,2:0:0:0:
504,119,166823,1,0,2:0:0:0:
504,119,166896,1,0,2:0:0:0:
337,384,167041,102,0,B|277:333|400:246|440:341|585:264|489:192,1,300,6|0,1:2|0:0,2:0:0:0:
336,109,167478,2,0,P|320:79|294:19,1,93.75,2|0,1:2|0:0,2:0:0:0:
372,0,167624,1,2,1:3:0:0:
431,55,167770,1,0,0:0:0:0:
276,180,167915,1,2,1:2:0:0:
512,285,168061,22,0,P|458:296|410:269,1,112.5,0|0,0:0|2:0,0:0:0:0:
156,232,168352,2,0,P|151:210|137:181,1,37.5
175,228,168498,2,0,P|154:280|133:385,1,150,2|2,1:2|1:3,2:0:0:0:
258,377,168935,1,2,0:0:0:0:
258,377,169008,1,0,0:0:0:0:
258,377,169080,1,2,0:0:0:0:
316,283,169226,1,0,0:0:0:0:
5,188,169372,101,6,1:2:0:0:
5,188,169517,1,0,0:0:0:0:
47,384,169663,1,2,0:0:0:0:
26,310,169808,1,0,1:2:0:0:
172,145,169954,5,2,1:3:0:0:
242,57,170100,1,0,0:0:0:0:
71,4,170245,1,2,1:2:0:0:
69,120,170391,1,0,0:0:0:0:
113,327,170537,102,0,P|150:364|154:392,1,75,2|0,0:0|0:0,2:0:0:0:
306,260,170828,2,0,P|255:300|206:285,1,112.5,2|0,1:2|3:0,2:0:0:0:
163,245,171046,1,0,3:0:0:0:
163,245,171119,1,2,3:1:0:0:
413,167,171265,86,2,P|418:80|464:40,2,150,2|2|2,3:1|3:1|3:1,0:1:0:0:
477,226,171702,6,0,B|489:258|529:261|529:261|424:172|260:120,1,337.5,6|2,1:2|1:2,2:0:0:0:
197,179,172284,2,0,B|181:148|157:172|168:202|215:210|265:177,1,112.5,2|0,1:3|2:0,0:0:0:0:
295,52,172575,1,2,1:2:0:0:
28,104,172721,102,0,B|-8:163|71:156|136:99|118:17|43:-10,1,225
70,4,173158,2,0,P|99:67|152:76,1,112.5,2|0,1:2|0:0,2:0:0:0:
325,188,173449,2,0,P|311:238|305:277,1,56.25,2|0,1:0|0:0,2:0:0:0:
306,202,173595,2,0,P|292:252|286:291,1,56.25,0|0,0:0|2:0,0:0:0:0:
199,384,173741,70,0,P|176:271|147:188,1,168.75,0|0,2:0|2:0,2:0:0:0:
178,184,174032,6,0,P|100:186|70:245,1,112.5,6|0,1:2|0:0,2:0:0:0:
302,334,174323,2,0,P|368:361|406:346,1,112.5,0|2,0:0|1:2,0:0:0:0:
467,309,174541,1,0,3:0:0:0:
467,309,174614,2,0,B|473:288|488:261|488:261|405:262|382:156,1,168.75,2|0,1:3|2:0,2:0:0:0:
414,191,174906,1,2,1:2:0:0:
214,292,175051,2,0,P|163:305|99:325,1,112.5,0|0,0:0|2:0,0:0:0:0:
300,267,175342,1,0,0:0:0:0:
496,169,175488,70,0,P|383:206|271:244,1,225,2|0,1:2|3:0,2:0:0:0:
423,107,175925,1,0,0:0:0:0:
180,17,176071,2,2,L|249:114,1,112.5,0|0,2:0|2:0,2:1:0:0:
365,378,176362,70,0,P|424:317|513:335,2,180,6|0|2,1:2|2:0|1:3,2:0:0:0:
353,174,177090,1,0,2:0:0:0:
502,219,177236,1,2,1:2:0:0:
173,259,177381,22,0,B|85:239|84:331|-2:304,1,180
252,351,177818,2,0,B|286:376|304:341|292:298|236:305|206:325|193:339,1,135,2|0,1:2|2:0,2:0:0:0:
137,369,178109,70,0,P|117:295|102:256,1,90,2|2,1:3|0:0,2:0:0:0:
224,161,178401,53,2,0:0:0:0:
224,161,178474,2,0,P|236:87|255:33,1,90,0|0,0:0|2:0,0:0:0:0:
166,0,178692,102,0,P|83:1|44:73,1,135,6|0,1:2|2:0,2:0:0:0:
51,36,178983,2,0,B|94:69|39:87|68:119,1,90,2|0,0:0|1:2,2:0:0:0:
70,376,179274,6,0,B|32:351|37:345|231:317|232:307|96:280,1,202.5,2|0,1:3|2:0,2:0:0:0:
0,260,179566,2,0,P|98:294|143:311,1,135,2|0,1:2|2:0,2:0:0:0:
326,377,179857,86,0,P|321:276|500:178,1,270,2|2,0:0|1:2,2:0:0:0:
511,229,180294,1,0,3:0:0:0:
511,229,180367,5,0,3:0:0:0:
511,229,180440,1,2,3:1:0:0:
263,17,180585,1,2,3:1:0:0:
285,85,180731,1,2,3:1:0:0:
313,174,180876,1,2,3:1:0:0:
411,93,181022,70,0,P|425:47|436:20,2,75,6|0|0,1:2|0:0|2:0,2:0:0:0:
493,90,181459,1,2,1:2:0:0:
213,222,181605,6,0,B|254:203|225:83|64:72|104:175|168:169|193:120,1,225,2|2,1:3|1:2,2:0:0:0:
284,25,182041,102,0,B|260:62|233:71|233:71|248:56|252:25,1,112.5,0|0,0:0|2:0,0:0:0:0:
145,233,182333,1,0,0:0:0:0:
34,207,182478,86,0,P|224:152|344:125,1,270,2|2,1:2|1:0,2:0:0:0:
461,287,182915,1,0,0:0:0:0:
318,370,183061,1,2,0:1:0:0:
366,380,183134,1,0,2:0:0:0:
388,342,183207,1,0,2:0:0:0:
403,215,183352,86,0,B|448:150|273:142|317:43,1,202.5,6|0,1:2|0:0,2:0:0:0:
463,14,183643,2,0,P|436:90|420:137,1,112.5,0|2,2:0|1:2,0:0:0:0:
300,273,183935,70,0,P|373:355|483:366,1,225,2|2,1:3|1:2,2:0:0:0:
166,309,184372,2,0,P|232:286|260:194,1,150,0|0,2:0|0:0,2:0:0:0:
0,327,184808,102,0,P|9:353|16:381,2,56.25,2|0|0,1:2|0:0|0:0,2:0:0:0:
68,281,185100,70,2,P|89:199|109:141,1,112.5,0|0,3:0|0:0,0:1:0:0:
25,13,185391,2,2,P|102:35|152:58,1,112.5,0|0,2:0|0:0,2:1:0:0:
488,153,185682,85,6,1:2:0:0:
488,153,185828,1,0,0:0:0:0:
283,212,185974,5,0,2:0:0:0:
283,212,186119,1,2,1:2:0:0:
42,288,186265,102,0,P|21:313|74:315,1,112.5,2|0,1:3|0:0,0:0:0:0:
295,374,186556,1,2,1:2:0:0:
190,313,186702,1,0,2:0:0:0:
0,384,186847,54,0,P|84:292|39:192,1,202.5,0|0,2:0|2:0,2:0:0:0:
69,225,187139,2,2,P|102:210|144:199,2,67.4999999999999,2|0|0,1:2|0:0|0:0,2:0:0:0:
169,9,187430,2,0,P|68:63|57:387,1,472.5,2|0,1:3|0:0,2:0:0:0:
142,330,188012,69,6,1:2:0:0:
375,367,188158,1,0,0:0:0:0:
200,375,188304,101,2,0:0:0:0:
312,327,188449,1,0,1:2:0:0:
444,236,188595,6,0,P|450:169|459:92,1,135,2|0,1:3|0:0,2:0:0:0:
51,109,188886,102,0,P|57:176|66:253,1,135,2|0,1:2|2:0,2:0:0:0:
288,191,189177,53,2,0:0:0:0:
178,39,189323,1,0,0:0:0:0:
178,154,189469,1,2,1:2:0:0:
354,97,189614,1,0,3:0:0:0:
348,34,189687,1,0,3:0:0:0:
288,4,189760,21,2,3:1:0:0:
329,139,189906,5,2,3:1:0:0:
420,246,190051,69,2,3:1:0:0:
503,289,190197,5,2,3:1:0:0:
503,265,190342,1,2,2:0:0:0:
476,252,190488,1,0,0:0:0:0:
433,267,190634,1,0,0:0:0:0:
431,314,190779,1,0,0:0:0:0:
474,346,190925,2,0,P|504:372|516:388,3,56.2500000000001
