osu file format v14

[General]
AudioFilename: audio.mp3
AudioLeadIn: 0
PreviewTime: 161872
Countdown: 0
SampleSet: Soft
StackLeniency: 0.7
Mode: 0
LetterboxInBreaks: 0
WidescreenStoryboard: 1

[Editor]
Bookmarks: 48207,90148,108935,127284,162090,179274
DistanceSpacing: 1
BeatDivisor: 8
GridSize: 32
TimelineZoom: 3.399999

[Metadata]
Title:Problem
TitleUnicode:Problem
Artist:Ariana Grande feat. Iggy Azalea
ArtistUnicode:Ariana Grande feat. Iggy Azalea
Creator:rHO
Version:Normal
Source:
Tags:smh emilia estellia- posydomojka fsjallink vinxis mishima yurara my everything english pop dance r&b rap hiphop hip-hop hip hop
BeatmapID:3648075
BeatmapSetID:1588192

[Difficulty]
HPDrainRate:3
CircleSize:3.8
OverallDifficulty:4.5
ApproachRate:6
SliderMultiplier:1.6
SliderTickRate:1

[Events]
//Background and Video events
0,0,"ari2.jpg",0,0
Video,-840,"problem.mp4"
//Break Periods
2,57727,61137
2,139280,149531
//Storyboard Layer 0 (Background)
//Storyboard Layer 1 (Fail)
//Storyboard Layer 2 (Pass)
//Storyboard Layer 3 (Foreground)
//Storyboard Layer 4 (Overlay)
//Storyboard Sound Samples

[TimingPoints]
-725,582.52427184466,4,2,0,40,1,0
1605,-100,4,2,0,40,0,0
1896,-100,4,2,0,40,0,0
2041,-100,4,2,0,40,0,0
2186,-100,4,2,0,40,0,0
3935,-100,4,2,0,40,0,0
4226,-100,4,2,0,40,0,0
6265,-100,4,2,0,40,0,0
6556,-100,4,2,0,40,0,0
6702,-100,4,2,0,40,0,0
6847,-100,4,2,0,40,0,0
8595,-100,4,2,0,40,0,0
8740,-100,4,2,0,40,0,0
8886,-100,4,2,0,50,0,0
9177,-100,4,2,0,60,0,0
9322,-100,4,2,0,60,0,0
9469,-100,4,2,0,70,0,0
9614,-100,4,2,0,70,0,0
9760,-100,4,2,0,80,0,0
10196,-100,4,2,0,80,0,0
10925,-100,4,2,0,60,0,0
11216,-100,4,2,0,60,0,0
11508,-100,4,2,0,60,0,0
12162,-100,4,2,0,60,0,0
12236,-100,4,2,0,60,0,0
12308,-100,4,2,0,60,0,0
12381,-100,4,2,0,60,0,0
12599,-100,4,2,0,60,0,0
12673,-100,4,2,0,60,0,0
13546,-100,4,2,0,60,0,0
13837,-100,4,2,0,60,0,0
14492,-100,4,2,0,60,0,0
14566,-100,4,2,0,60,0,0
14638,-100,4,2,0,60,0,0
14711,-100,4,2,0,60,0,0
14929,-100,4,2,0,60,0,0
15002,-100,4,2,0,60,0,0
15294,-100,4,2,0,60,0,0
15440,-100,4,2,0,60,0,0
15512,-100,4,2,0,60,0,0
15585,-100,4,2,0,60,0,0
15876,-100,4,2,0,60,0,0
16167,-100,4,2,0,60,0,0
16823,-100,4,2,0,60,0,0
16896,-100,4,2,0,60,0,0
16968,-100,4,2,0,60,0,0
17041,-100,4,2,0,60,0,0
17259,-100,4,2,0,60,0,0
17333,-100,4,2,0,60,0,0
18206,-100,4,2,0,60,0,0
18497,-100,4,2,0,60,0,0
19153,-100,4,2,0,60,0,0
19226,-100,4,2,0,60,0,0
19298,-100,4,2,0,60,0,0
19371,-100,4,2,0,60,0,0
19590,-100,4,2,0,60,0,0
19662,-100,4,2,0,60,0,0
19954,-100,4,2,0,60,0,0
20100,-100,4,2,0,60,0,0
20172,-100,4,2,0,60,0,0
20245,-100,4,2,0,60,0,0
20463,-100,4,2,0,60,0,0
20827,-100,4,2,0,60,0,0
21119,-100,4,2,0,60,0,0
21265,-100,4,2,0,60,0,0
21410,-100,4,2,0,60,0,0
21483,-100,4,2,0,60,0,0
21556,-100,4,2,0,60,0,0
21628,-100,4,2,0,60,0,0
21701,-100,4,2,0,60,0,0
21920,-100,4,2,0,60,0,0
21993,-100,4,2,0,60,0,0
22065,-100,4,2,0,60,0,0
22139,-100,4,2,0,60,0,0
22720,-100,4,2,0,60,0,0
22867,-100,4,2,0,60,0,0
23158,-100,4,2,0,60,0,0
23376,-100,4,2,0,60,0,0
23595,-100,4,2,0,60,0,0
23741,-100,4,2,0,60,0,0
23813,-100,4,2,0,60,0,0
23886,-100,4,2,0,60,0,0
23958,-100,4,2,0,60,0,0
24032,-100,4,2,0,60,0,0
24250,-100,4,2,0,60,0,0
24323,-100,4,2,0,60,0,0
24614,-100,4,2,0,60,0,0
24759,-100,4,2,0,60,0,0
24978,-100,4,2,0,60,0,0
25488,-100,4,2,0,60,0,0
25706,-100,4,2,0,60,0,0
25779,-100,4,2,0,60,0,0
25925,-100,4,2,0,60,0,0
26071,-100,4,2,0,60,0,0
26143,-100,4,2,0,60,0,0
26216,-100,4,2,0,60,0,0
26288,-100,4,2,0,60,0,0
26362,-100,4,2,0,60,0,0
26580,-100,4,2,0,60,0,0
26653,-100,4,2,0,60,0,0
26725,-100,4,2,0,60,0,0
26799,-100,4,2,0,60,0,0
27527,-100,4,2,0,60,0,0
27818,-100,4,2,0,60,0,0
28012,-100,4,2,0,60,0,0
28109,-100,4,2,0,60,0,0
28692,-100,4,2,0,60,0,0
28910,-100,4,2,0,60,0,0
28983,-100,4,2,0,60,0,0
29492,-100,4,2,0,60,0,0
29566,-100,4,2,0,60,0,0
29930,-100,4,2,0,60,0,0
30002,-100,4,2,0,60,0,0
30075,-100,4,2,0,60,0,0
30148,-100,4,2,0,60,0,0
30366,-100,4,2,0,60,0,0
30439,-100,4,2,0,60,0,0
30731,-100,4,2,0,60,0,0
31022,-100,4,2,0,60,0,0
31240,-100,4,2,0,60,0,0
31313,-100,4,2,0,60,0,0
31604,-100,4,2,0,60,0,0
31750,-100,4,2,0,60,0,0
31822,-100,4,2,0,60,0,0
31896,-100,4,2,0,60,0,0
32260,-100,4,2,0,60,0,0
32333,-100,4,2,0,60,0,0
32405,-100,4,2,0,60,0,0
32478,-100,4,2,0,60,0,0
32696,-100,4,2,0,60,0,0
32770,-100,4,2,0,60,0,0
32988,-100,4,2,0,60,0,0
33061,-100,4,2,0,60,0,0
33097,-100,4,2,1,100,0,0
33643,-100,4,2,1,60,0,0
34079,-100,4,2,0,60,0,0
34226,-100,4,2,0,70,0,0
34590,-100,4,2,0,70,0,0
34662,-100,4,2,0,70,0,0
34735,-100,4,2,0,70,0,0
34808,-100,4,2,0,70,0,0
35026,-100,4,2,0,70,0,0
35099,-100,4,2,0,70,0,0
35391,-100,4,2,0,70,0,0
35682,-100,4,2,0,70,0,0
35900,-100,4,2,0,70,0,0
35973,-100,4,2,0,70,0,0
36265,-100,4,2,0,70,0,0
36410,-100,4,2,0,70,0,0
36482,-100,4,2,0,70,0,0
36556,-100,4,2,0,70,0,0
36847,-100,4,2,0,70,0,0
36992,-100,4,2,0,70,0,0
37065,-100,4,2,0,70,0,0
37139,-100,4,2,0,70,0,0
37357,-100,4,2,0,70,0,0
37429,-100,4,2,0,70,0,0
37648,-100,4,2,0,70,0,0
37721,-100,4,2,0,70,0,0
37758,-100,4,2,1,100,0,0
38012,-100,4,2,1,70,0,0
38304,-100,4,2,1,70,0,0
38813,-100,4,2,0,70,0,0
38886,-100,4,2,0,80,0,0
39177,-100,4,2,0,80,0,0
39323,-100,4,2,0,80,0,0
39469,-100,4,2,0,80,0,0
39614,-100,4,2,0,80,0,0
39760,-100,4,2,0,80,0,0
40051,-100,4,2,0,80,0,0
40342,-100,4,2,0,80,0,0
41507,-100,4,2,0,80,0,0
41653,-100,4,2,0,80,0,0
41799,-100,4,2,0,80,0,0
41944,-100,4,2,0,80,0,0
42090,-100,4,2,0,80,0,0
42381,-100,4,2,0,80,0,0
42673,-100,4,2,0,80,0,0
43837,-100,4,2,0,80,0,0
43983,-100,4,2,0,80,0,0
44129,-100,4,2,0,80,0,0
44274,-100,4,2,0,80,0,0
44420,-100,4,2,0,80,0,0
44711,-100,4,2,0,80,0,0
45003,-100,4,2,0,80,0,0
45803,-100,4,2,0,80,0,0
45876,-100,4,2,0,80,0,0
46021,-100,4,2,0,80,0,0
46167,-100,4,2,0,80,0,0
46604,-100,4,2,0,80,0,0
46750,-100,4,2,0,80,0,0
46895,-100,4,2,0,80,0,0
47041,-100,4,2,0,80,0,0
47477,-100,4,2,0,80,0,0
47624,-100,4,2,0,80,0,0
47770,-100,4,2,0,80,0,0
48133,-100,4,2,0,80,0,0
48571,-100,4,2,0,80,0,0
48643,-100,4,2,0,80,0,0
48715,-100,4,2,0,80,0,0
48789,-100,4,2,0,80,0,0
49007,-100,4,2,0,80,0,0
49080,-100,4,2,0,80,0,0
49298,-100,4,2,0,80,0,0
49662,-100,4,2,0,80,0,0
49881,-100,4,2,0,80,0,0
49954,-100,4,2,0,80,0,0
50026,-100,4,2,0,80,0,0
50245,-100,4,2,0,80,0,0
50537,-100,4,2,0,80,0,0
50901,-100,4,2,0,80,0,0
50974,-100,4,2,0,80,0,0
51191,-100,4,2,0,80,0,0
51410,-100,4,2,0,80,0,0
51628,-100,4,2,0,80,0,0
51993,-100,4,2,0,80,0,0
52211,-100,4,2,0,80,0,0
52284,-100,4,2,0,80,0,0
52794,-100,4,2,0,80,0,0
52867,-100,4,2,0,80,0,0
53231,-100,4,2,0,80,0,0
53304,-100,4,2,0,80,0,0
53376,-100,4,2,0,80,0,0
53449,-100,4,2,0,80,0,0
53667,-100,4,2,0,80,0,0
53741,-100,4,2,0,80,0,0
53958,-100,4,2,0,80,0,0
54323,-100,4,2,0,80,0,0
54541,-100,4,2,0,80,0,0
54614,-100,4,2,0,80,0,0
54686,-100,4,2,0,80,0,0
54760,-100,4,2,0,80,0,0
54832,-100,4,2,0,80,0,0
54906,-100,4,2,0,80,0,0
55124,-100,4,2,0,80,0,0
55197,-100,4,2,0,80,0,0
55342,-100,4,2,0,80,0,0
55488,-100,4,2,0,80,0,0
55924,-100,4,2,0,80,0,0
56070,-100,4,2,0,80,0,0
56216,-100,4,2,0,80,0,0
56362,-100,4,2,0,80,0,0
56798,-100,4,2,0,80,0,0
56944,-100,4,2,0,80,0,0
57090,-100,4,2,0,80,0,0
57236,-100,4,2,0,80,0,0
57453,-100,4,2,0,80,0,0
57527,-100,4,2,0,40,0,0
57818,-100,4,2,0,40,0,0
57964,-100,4,2,0,40,0,0
58109,-100,4,2,0,40,0,0
59857,-100,4,2,0,40,0,0
60148,-100,4,2,0,40,0,0
62187,-100,4,2,0,60,0,0
62478,-100,4,2,0,60,0,0
62769,-100,4,2,0,60,0,0
63060,-100,4,2,0,60,0,0
63207,-100,4,2,0,60,0,0
63352,-100,4,2,0,60,0,0
63425,-100,4,2,0,60,0,0
63498,-100,4,2,0,60,0,0
63570,-100,4,2,0,60,0,0
63643,-100,4,2,0,60,0,0
63861,-100,4,2,0,60,0,0
63934,-100,4,2,0,60,0,0
65391,-100,4,2,0,60,0,0
65537,-100,4,2,0,60,0,0
65682,-100,4,2,0,60,0,0
65755,-100,4,2,0,60,0,0
65828,-100,4,2,0,60,0,0
65900,-100,4,2,0,60,0,0
65973,-100,4,2,0,60,0,0
66192,-100,4,2,0,60,0,0
66265,-100,4,2,0,60,0,0
66556,-100,4,2,0,60,0,0
66702,-100,4,2,0,60,0,0
66774,-100,4,2,0,60,0,0
66847,-100,4,2,0,60,0,0
67139,-100,4,2,0,60,0,0
67430,-100,4,2,0,60,0,0
67721,-100,4,2,0,60,0,0
67867,-100,4,2,0,60,0,0
68012,-100,4,2,0,60,0,0
68085,-100,4,2,0,60,0,0
68158,-100,4,2,0,60,0,0
68230,-100,4,2,0,60,0,0
68303,-100,4,2,0,60,0,0
68522,-100,4,2,0,60,0,0
68595,-100,4,2,0,60,0,0
69468,-100,4,2,0,60,0,0
69759,-100,4,2,0,60,0,0
70051,-100,4,2,0,60,0,0
70197,-100,4,2,0,60,0,0
70415,-100,4,2,0,60,0,0
70488,-100,4,2,0,60,0,0
70560,-100,4,2,0,60,0,0
70633,-100,4,2,0,60,0,0
70852,-100,4,2,0,60,0,0
70925,-100,4,2,0,60,0,0
71216,-100,4,2,0,60,0,0
71362,-100,4,2,0,60,0,0
71434,-100,4,2,0,60,0,0
71508,-100,4,2,0,60,0,0
71726,-100,4,2,0,60,0,0
72090,-100,4,2,0,60,0,0
72381,-100,4,2,0,60,0,0
72527,-100,4,2,0,60,0,0
72673,-100,4,2,0,60,0,0
72709,-100,4,2,0,60,0,0
72818,-100,4,2,0,60,0,0
72890,-100,4,2,0,60,0,0
72964,-100,4,2,0,60,0,0
73182,-100,4,2,0,60,0,0
73255,-100,4,2,0,60,0,0
73327,-100,4,2,0,60,0,0
73401,-100,4,2,0,60,0,0
73983,-100,4,2,0,60,0,0
74129,-100,4,2,0,60,0,0
74420,-100,4,2,0,60,0,0
74638,-100,4,2,0,60,0,0
74857,-100,4,2,0,60,0,0
75003,-100,4,2,0,60,0,0
75075,-100,4,2,0,60,0,0
75148,-100,4,2,0,60,0,0
75220,-100,4,2,0,60,0,0
75294,-100,4,2,0,60,0,0
75512,-100,4,2,0,60,0,0
75585,-100,4,2,0,60,0,0
75731,-100,4,2,0,60,0,0
76021,-100,4,2,0,60,0,0
76240,-100,4,2,0,60,0,0
76750,-100,4,2,0,60,0,0
76944,-100,4,2,0,60,0,0
77187,-100,4,2,0,60,0,0
77333,-100,4,2,0,60,0,0
77405,-100,4,2,0,60,0,0
77478,-100,4,2,0,60,0,0
77550,-100,4,2,0,60,0,0
77624,-100,4,2,0,60,0,0
77842,-100,4,2,0,60,0,0
77915,-100,4,2,0,60,0,0
77987,-100,4,2,0,60,0,0
78061,-100,4,2,0,60,0,0
78789,-100,4,2,0,60,0,0
79080,-100,4,2,0,60,0,0
79274,-100,4,2,0,60,0,0
79517,-100,4,2,0,60,0,0
79662,-100,4,2,0,60,0,0
79954,-100,4,2,0,60,0,0
80172,-100,4,2,0,60,0,0
80245,-100,4,2,0,60,0,0
80754,-100,4,2,0,60,0,0
80828,-100,4,2,0,60,0,0
81192,-100,4,2,0,60,0,0
81265,-100,4,2,0,60,0,0
81337,-100,4,2,0,60,0,0
81410,-100,4,2,0,60,0,0
81628,-100,4,2,0,60,0,0
81702,-100,4,2,0,60,0,0
81993,-100,4,2,0,60,0,0
82284,-100,4,2,0,60,0,0
82502,-100,4,2,0,60,0,0
82575,-100,4,2,0,60,0,0
82866,-100,4,2,0,60,0,0
83012,-100,4,2,0,60,0,0
83070,-100,4,2,0,60,0,0
83158,-100,4,2,0,60,0,0
83522,-100,4,2,0,60,0,0
83594,-100,4,2,0,60,0,0
83667,-100,4,2,0,60,0,0
83741,-100,4,2,0,60,0,0
83959,-100,4,2,0,60,0,0
84031,-100,4,2,0,60,0,0
84250,-100,4,2,0,60,0,0
84323,-100,4,2,0,60,0,0
84359,-100,4,2,1,100,0,0
84905,-100,4,2,1,60,0,0
85342,-100,4,2,0,60,0,0
85488,-100,4,2,0,70,0,0
85852,-100,4,2,0,70,0,0
85924,-100,4,2,0,70,0,0
85997,-100,4,2,0,70,0,0
86071,-100,4,2,0,70,0,0
86289,-100,4,2,0,70,0,0
86361,-100,4,2,0,70,0,0
86653,-100,4,2,0,70,0,0
86944,-100,4,2,0,70,0,0
87162,-100,4,2,0,70,0,0
87235,-100,4,2,0,70,0,0
87527,-100,4,2,0,70,0,0
87673,-100,4,2,0,70,0,0
87745,-100,4,2,0,70,0,0
87818,-100,4,2,0,70,0,0
88182,-100,4,2,0,70,0,0
88254,-100,4,2,0,70,0,0
88327,-100,4,2,0,70,0,0
88401,-100,4,2,0,70,0,0
88619,-100,4,2,0,70,0,0
88691,-100,4,2,0,70,0,0
88910,-100,4,2,0,70,0,0
88983,-100,4,2,0,70,0,0
89020,-100,4,2,1,100,0,0
89274,-100,4,2,1,70,0,0
89566,-100,4,2,1,70,0,0
90075,-100,4,2,0,70,0,0
90148,-100,4,2,0,80,0,0
90439,-100,4,2,0,80,0,0
90585,-100,4,2,0,80,0,0
90731,-100,4,2,0,80,0,0
90876,-100,4,2,0,80,0,0
91022,-100,4,2,0,80,0,0
91313,-100,4,2,0,80,0,0
91605,-100,4,2,0,80,0,0
92769,-100,4,2,0,80,0,0
92915,-100,4,2,0,80,0,0
93061,-100,4,2,0,80,0,0
93206,-100,4,2,0,80,0,0
93352,-100,4,2,0,80,0,0
93643,-100,4,2,0,80,0,0
93935,-100,4,2,0,80,0,0
95099,-100,4,2,0,80,0,0
95245,-100,4,2,0,80,0,0
95391,-100,4,2,0,80,0,0
95536,-100,4,2,0,80,0,0
95682,-100,4,2,0,80,0,0
95973,-100,4,2,0,80,0,0
96265,-100,4,2,0,80,0,0
97065,-100,4,2,0,80,0,0
97139,-100,4,2,0,80,0,0
97284,-100,4,2,0,80,0,0
97430,-100,4,2,0,80,0,0
97866,-100,4,2,0,80,0,0
98012,-100,4,2,0,80,0,0
98157,-100,4,2,0,80,0,0
98303,-100,4,2,0,80,0,0
98740,-100,4,2,0,80,0,0
98886,-100,4,2,0,80,0,0
99032,-100,4,2,0,80,0,0
99395,-100,4,2,0,80,0,0
99833,-100,4,2,0,80,0,0
99906,-100,4,2,0,80,0,0
99978,-100,4,2,0,80,0,0
100051,-100,4,2,0,80,0,0
100269,-100,4,2,0,80,0,0
100342,-100,4,2,0,80,0,0
100560,-100,4,2,0,80,0,0
100924,-100,4,2,0,80,0,0
101143,-100,4,2,0,80,0,0
101216,-100,4,2,0,80,0,0
101288,-100,4,2,0,80,0,0
101508,-100,4,2,0,80,0,0
101799,-100,4,2,0,80,0,0
102163,-100,4,2,0,80,0,0
102236,-100,4,2,0,80,0,0
102453,-100,4,2,0,80,0,0
102673,-100,4,2,0,80,0,0
102890,-100,4,2,0,80,0,0
103255,-100,4,2,0,80,0,0
103473,-100,4,2,0,80,0,0
103546,-100,4,2,0,80,0,0
104129,-100,4,2,0,80,0,0
104493,-100,4,2,0,80,0,0
104566,-100,4,2,0,80,0,0
104638,-100,4,2,0,80,0,0
104711,-100,4,2,0,80,0,0
104929,-100,4,2,0,80,0,0
105003,-100,4,2,0,80,0,0
105220,-100,4,2,0,80,0,0
105585,-100,4,2,0,80,0,0
105657,-100,4,2,0,80,0,0
105876,-100,4,2,0,80,0,0
105949,-100,4,2,0,80,0,0
106022,-100,4,2,0,80,0,0
106094,-100,4,2,0,80,0,0
106168,-100,4,2,0,80,0,0
106386,-100,4,2,0,80,0,0
106459,-100,4,2,0,80,0,0
106677,-100,4,2,0,80,0,0
106750,-100,4,2,0,80,0,0
107186,-100,4,2,0,80,0,0
107332,-100,4,2,0,80,0,0
107478,-100,4,2,0,80,0,0
107624,-100,4,2,0,80,0,0
108060,-100,4,2,0,80,0,0
108206,-100,4,2,0,80,0,0
108352,-100,4,2,0,80,0,0
108498,-100,4,2,0,80,0,0
108789,-100,4,2,0,40,0,0
109080,-100,4,2,0,40,0,0
109226,-100,4,2,0,40,0,0
109371,-100,4,2,0,40,0,0
111119,-100,4,2,0,40,0,0
111410,-100,4,2,0,40,0,0
113449,-100,4,2,0,60,0,0
113740,-100,4,2,0,60,0,0
113885,-100,4,2,0,60,0,0
114177,-100,4,2,0,60,0,0
114323,-100,4,2,0,60,0,0
114759,-100,4,2,0,60,0,0
114906,-100,4,2,0,60,0,0
115051,-100,4,2,0,60,0,0
115197,-100,4,2,0,60,0,0
115488,-100,4,2,0,60,0,0
115634,-100,4,2,0,60,0,0
115924,-100,4,2,0,60,0,0
116215,-100,4,2,0,60,0,0
116580,-100,4,2,0,60,0,0
116653,-100,4,2,0,60,0,0
116944,-100,4,2,0,60,0,0
117236,-100,4,2,0,60,0,0
117381,-100,4,2,0,60,0,0
117527,-100,4,2,0,60,0,0
117818,-100,4,2,0,60,0,0
118109,-100,4,2,0,60,0,0
118400,-100,4,2,0,60,0,0
118545,-100,4,2,0,60,0,0
118910,-100,4,2,0,60,0,0
118983,-100,4,2,0,60,0,0
119274,-100,4,2,0,60,0,0
119566,-100,4,2,0,60,0,0
119711,-100,4,2,0,60,0,0
119857,-100,4,2,0,60,0,0
120148,-100,4,2,0,60,0,0
120293,-100,4,2,0,60,0,0
120585,-100,4,2,0,60,0,0
120876,-100,4,2,0,60,0,0
122623,-100,4,2,0,60,0,0
122770,-100,4,2,0,80,0,0
122988,-100,4,2,0,80,0,0
123061,-100,4,2,0,80,0,0
123206,-100,4,2,0,80,0,0
123497,-100,4,2,0,80,0,0
123643,-100,4,2,0,80,0,0
123789,-100,4,2,0,80,0,0
123935,-100,4,2,0,80,0,0
124226,-100,4,2,0,80,0,0
124372,-100,4,2,0,80,0,0
124517,-100,4,2,0,80,0,0
124662,-100,4,2,0,80,0,0
125100,-100,4,2,0,80,0,0
125245,-100,4,2,0,80,0,0
125537,-100,4,2,0,80,0,0
125682,-100,4,2,0,80,0,0
125827,-100,4,2,0,80,0,0
125974,-100,4,2,0,80,0,0
126119,-100,4,2,0,80,0,0
126556,-100,4,2,0,80,0,0
126702,-100,4,2,0,80,0,0
126847,-100,4,2,0,80,0,0
127430,-100,4,2,0,80,0,0
127648,-100,4,2,0,80,0,0
128012,-100,4,2,0,80,0,0
128230,-100,4,2,0,80,0,0
128303,-100,4,2,0,80,0,0
128449,-100,4,2,0,80,0,0
128595,-100,4,2,0,80,0,0
128886,-100,4,2,0,80,0,0
129032,-100,4,2,0,80,0,0
129177,-100,4,2,0,80,0,0
129323,-100,4,2,0,80,0,0
129469,-100,4,2,0,80,0,0
129760,-100,4,2,0,80,0,0
129906,-100,4,2,0,80,0,0
130197,-100,4,2,0,80,0,0
130342,-100,4,2,0,80,0,0
130560,-100,4,2,0,80,0,0
130633,-100,4,2,0,80,0,0
131580,-100,4,2,0,80,0,0
131653,-100,4,2,0,80,0,0
131725,-100,4,2,0,80,0,0
131799,-100,4,2,0,80,0,0
131871,-100,4,2,0,80,0,0
131944,-100,4,2,0,80,0,0
132016,-100,4,2,0,80,0,0
132090,-100,4,2,0,80,0,0
132308,-100,4,2,0,80,0,0
132527,-100,4,2,0,80,0,0
132818,-100,4,2,0,80,0,0
132964,-100,4,2,0,80,0,0
133036,-100,4,2,0,80,0,0
133255,-100,4,2,0,80,0,0
133546,-100,4,2,0,80,0,0
133618,-100,4,2,0,80,0,0
133838,-100,4,2,0,80,0,0
134056,-100,4,2,0,80,0,0
134129,-100,4,2,0,80,0,0
134201,-100,4,2,0,80,0,0
134420,-100,4,2,0,80,0,0
134492,-100,4,2,0,80,0,0
134856,-100,4,2,0,80,0,0
135148,-100,4,2,0,80,0,0
135294,-100,4,2,0,80,0,0
135366,-100,4,2,0,80,0,0
135876,-100,4,2,0,80,0,0
135948,-100,4,2,0,80,0,0
136168,-100,4,2,0,80,0,0
136386,-100,4,2,0,80,0,0
136459,-100,4,2,0,80,0,0
136750,-100,4,2,0,80,0,0
136822,-100,4,2,0,80,0,0
137186,-100,4,2,0,80,0,0
137333,-100,4,2,0,80,0,0
137478,-100,4,2,0,80,0,0
137624,-100,4,2,0,80,0,0
137769,-100,4,2,0,80,0,0
138206,-100,4,2,0,80,0,0
138279,-100,4,2,0,80,0,0
138498,-100,4,2,0,80,0,0
138716,-100,4,2,0,80,0,0
138789,-100,4,2,0,80,0,0
138861,-100,4,2,0,80,0,0
139080,-100,4,2,0,80,0,0
150731,-100,4,2,0,50,0,0
151022,-100,4,2,0,50,0,0
151167,-100,4,2,0,50,0,0
151459,-100,4,2,0,50,0,0
151604,-100,4,2,0,50,0,0
151750,-100,4,2,0,50,0,0
151896,-100,4,2,0,50,0,0
152187,-100,4,2,0,50,0,0
152332,-100,4,2,0,50,0,0
152624,-100,4,2,0,50,0,0
152770,-100,4,2,0,50,0,0
152915,-100,4,2,0,50,0,0
153061,-100,4,2,0,50,0,0
153352,-100,4,2,0,50,0,0
153497,-100,4,2,0,50,0,0
153789,-100,4,2,0,50,0,0
153934,-100,4,2,0,50,0,0
154080,-100,4,2,0,50,0,0
154226,-100,4,2,0,50,0,0
155391,-100,4,2,0,70,0,0
155682,-100,4,2,0,70,0,0
155827,-100,4,2,0,70,0,0
156119,-100,4,2,0,70,0,0
156264,-100,4,2,0,70,0,0
156410,-100,4,2,0,70,0,0
156556,-100,4,2,0,70,0,0
156847,-100,4,2,0,70,0,0
156992,-100,4,2,0,70,0,0
157284,-100,4,2,0,70,0,0
157430,-100,4,2,0,70,0,0
157575,-100,4,2,0,70,0,0
157721,-100,4,2,0,70,0,0
158012,-100,4,2,0,70,0,0
158157,-100,4,2,0,70,0,0
158449,-100,4,2,0,70,0,0
158594,-100,4,2,0,70,0,0
158740,-100,4,2,0,70,0,0
158886,-100,4,2,0,70,0,0
160051,-100,4,2,0,50,0,0
160634,-100,4,2,0,30,0,0
161216,-100,4,2,0,10,0,0
161799,-100,4,2,0,30,0,0
161944,-100,4,2,1,50,0,0
162090,-100,4,2,0,70,0,0
162236,-100,4,2,1,90,0,0
162381,-100,4,2,0,100,0,0

[Colours]
Combo1 : 204,191,168
Combo2 : 222,218,222
Combo3 : 192,180,188
Combo4 : 231,209,218
Combo5 : 215,157,179
Combo6 : 208,216,232
Combo7 : 164,177,208
Combo8 : 228,222,211

[HitObjects]
246,159,10925,38,0,L|140:178,1,80,6|0,1:2|0:0,0:0:0:0:
95,207,11508,2,0,P|78:159|100:117,2,80,2|0|0,0:3|0:0|0:0,0:0:0:0:
162,250,12381,1,0,1:0:0:0:
162,250,12673,2,0,P|166:285|142:340,1,80,2|8,0:3|0:3,0:0:0:0:
230,342,13255,2,0,L|402:322,1,160,6|2,1:2|0:3,0:0:0:0:
442,264,14129,1,2,0:0:0:0:
373,221,14420,2,0,P|402:178|398:114,2,80,0|0|2,0:0|1:0|0:3,0:0:0:0:
320,69,15585,6,0,L|155:47,1,160,6|2,1:2|0:3,0:0:0:0:
81,57,16459,1,0,0:0:0:0:
120,126,16750,2,0,P|111:164|88:197,1,80,0|0,0:0|1:0,0:0:0:0:
126,267,17333,2,0,P|151:295|200:291,1,80,2|8,0:3|0:3,0:0:0:0:
246,238,17915,2,0,L|350:252,1,80,6|0,1:2|0:0,0:0:0:0:
395,288,18498,1,2,0:3:0:0:
460,241,18789,1,2,0:0:0:0:
461,161,19080,2,0,P|461:114|485:73,2,80,0|0|2,0:0|1:0|0:3,0:0:0:0:
329,65,20245,102,0,B|211:87|299:109|170:131,1,160,6|2,1:2|0:3,0:0:0:0:
126,74,21119,1,0,0:0:0:0:
51,45,21410,2,0,P|35:81|44:119,1,80,0|0,0:0|1:0,0:0:0:0:
58,198,21993,2,0,P|39:274|68:347,1,160,2|6,0:3|1:2,0:0:0:0:
148,342,22867,1,0,0:0:0:0:
208,289,23158,2,0,P|247:292|290:266,1,80,2|0,0:3|0:0,0:0:0:0:
321,203,23741,2,0,P|321:124|375:68,1,160,0|2,0:0|0:3,0:0:0:0:
215,47,24906,6,0,P|157:43|112:78,2,80,6|0|2,1:2|0:0|0:3,0:0:0:0:
263,110,25779,1,0,0:0:0:0:
204,164,26071,2,0,L|181:322,1,160,0|2,0:0|0:3,0:0:0:0:
341,324,27236,2,0,B|352:242,1,80,6|0,1:2|0:0,0:0:0:0:
368,166,27818,1,2,0:3:0:0:
437,204,28109,1,2,0:0:0:0:
500,155,28401,2,0,P|505:99|490:62,1,80,0|0,0:0|1:0,0:0:0:0:
434,29,28983,1,2,0:3:0:0:
302,123,29566,70,0,P|310:181|289:237,2,120,10|10|10,0:0|0:0|0:0,0:0:0:0:
223,105,30731,1,2,0:0:0:0:
146,82,31022,1,8,0:0:0:0:
68,62,31313,2,0,L|78:147,1,80,8|2,0:0|0:0,0:0:0:0:
39,211,31896,2,0,P|31:271|75:371,1,160,10|8,0:0|0:0,0:0:0:0:
139,327,32770,1,10,0:0:0:0:
215,305,33061,2,2,B|312:289|268:371|376:355,1,160,2|8,0:0|0:0,0:0:0:0:
450,226,34226,38,0,P|486:174|491:111,2,120,10|10|10,0:0|0:0|0:0,0:0:0:0:
377,192,35391,2,0,P|286:186|204:139,1,160,2|8,0:0|0:0,0:0:0:0:
145,169,36265,1,2,0:0:0:0:
117,243,36556,2,0,P|113:302|157:348,1,120,10|10,0:0|0:0,0:0:0:0:
151,345,37139,1,8,0:0:0:0:
221,308,37430,1,10,0:0:0:0:
292,265,37721,2,2,L|305:157,1,80,2|8,0:0|0:0,0:0:0:0:
272,110,38304,1,8,0:0:0:0:
418,45,38886,38,0,L|403:142,1,80,6|0,1:2|0:0,0:0:0:0:
427,201,39469,1,2,1:3:0:0:
406,278,39760,2,0,L|305:287,1,80,0|0,1:2|0:0,0:0:0:0:
263,334,40342,2,0,L|164:341,1,80,0|0,1:2|3:2,0:0:0:0:
59,229,41216,2,0,L|72:150,1,80,6|0,1:2|0:0,0:0:0:0:
138,104,41799,1,2,1:3:0:0:
199,155,42090,2,0,B|235:174|235:174|273:167,1,80,0|0,1:2|0:0,0:0:0:0:
315,98,42673,2,0,B|279:79|279:79|240:85,1,80,0|0,1:2|3:0,0:0:0:0:
88,40,43546,6,0,L|73:118,1,80,6|0,1:2|0:0,0:0:0:0:
65,198,44129,1,2,1:3:0:0:
122,253,44420,2,0,L|217:267,1,80,0|0,1:2|0:0,0:0:0:0:
233,191,45003,2,0,L|330:204,1,80,0|0,1:2|3:2,0:0:0:0:
469,174,45876,2,0,P|473:224|453:287,1,80,6|2,1:2|0:0,0:0:0:0:
396,216,46459,2,0,L|378:58,1,160,2|2,1:3|0:0,0:0:0:0:
297,58,47333,1,2,1:2:0:0:
222,87,47624,1,2,3:1:0:0:
191,217,48207,102,0,L|113:204,1,80,6|0,1:2|0:0,0:0:0:0:
73,196,48643,1,2,1:2:0:0:
8,99,49080,2,0,B|104:83|48:42|176:33,1,160,2|2,1:2|1:2,0:0:0:0:
215,83,49954,1,2,1:3:0:0:
286,46,50245,1,0,0:0:0:0:
325,115,50537,2,0,P|367:124|430:114,1,80,6|0,1:2|0:0,0:0:0:0:
483,118,51119,2,0,L|470:187,1,40,2|0,1:3|0:0,0:0:0:0:
484,196,51410,2,0,L|462:310,1,80,2|0,1:2|0:0,0:0:0:0:
406,325,51993,1,2,1:2:0:0:
336,286,52284,2,2,B|301:293|301:293|298:303|298:303|236:316,1,80,0|0,3:0|0:0,0:1:0:0:
209,251,52867,6,2,L|223:155,1,80,6|0,1:2|0:0,1:0:0:0:
226,132,53304,1,2,1:2:0:0:
172,24,53741,2,0,B|168:117|115:76|103:186,1,160,2|2,1:2|1:2,0:0:0:0:
85,242,54614,1,2,1:3:0:0:
118,314,54906,1,2,0:0:0:0:
189,278,55197,2,0,P|224:266|279:270,1,80,6|2,1:2|0:0,0:0:0:0:
320,325,55779,2,0,P|351:340|399:332,1,80,2|2,1:3|1:2,0:0:0:0:
461,289,56362,2,0,P|480:224|465:130,1,160,2|2,0:0|3:1,0:0:0:0:
388,151,57236,1,2,3:1:0:0:
331,94,57527,5,2,3:2:0:0:
28,355,62187,21,6,1:2:0:0:
66,284,62478,2,0,L|53:190,2,80,0|2|0,0:0|0:3|0:0,0:0:0:0:
135,331,63352,2,0,B|142:238|188:280|185:156,1,160,0|2,0:0|0:3,0:0:0:0:
149,110,64226,1,8,0:3:0:0:
212,57,64517,2,0,P|251:61|285:82,1,80,6|0,1:2|0:0,0:0:0:0:
336,144,65100,2,0,L|393:133,2,40,2|2|2,0:3|0:0|0:0,0:0:0:0:
278,199,65682,2,0,B|258:234|271:284,1,80,0|0,0:0|1:0,0:0:0:0:
340,313,66265,2,0,B|359:273|347:235,1,80,2|0,0:3|0:0,0:0:0:0:
422,206,66847,5,6,1:2:0:0:
470,142,67139,2,0,L|486:51,1,80,0|2,0:0|0:3,0:0:0:0:
413,24,67721,1,0,0:0:0:0:
359,83,68012,2,0,P|320:93|282:83,1,80,0|0,0:0|1:0,0:0:0:0:
213,51,68595,2,0,P|175:40|137:51,1,80,2|8,0:3|0:3,0:0:0:0:
57,39,69177,2,0,B|82:197,1,160,6|2,1:2|0:3,0:0:0:0:
259,323,70342,2,0,P|298:319|336:332,1,80,0|0,0:0|1:0,0:0:0:0:
393,275,70925,1,2,0:3:0:0:
352,206,71216,1,0,0:0:0:0:
425,173,71508,102,0,P|451:125|444:71,2,80,6|0|2,1:2|0:0|0:3,0:0:0:0:
370,114,72381,1,0,0:0:0:0:
289,110,72673,2,0,B|199:83|250:46|128:24,1,160,0|2,0:0|0:3,0:0:0:0:
76,169,73838,1,6,1:2:0:0:
85,248,74129,2,0,P|87:287|110:320,1,80,0|2,0:0|0:3,0:0:0:0:
187,300,74711,1,0,0:0:0:0:
261,272,75003,2,0,P|266:194|230:123,1,160,0|2,0:0|0:3,0:0:0:0:
383,76,76168,6,0,P|374:93|372:114,1,40,6|0,1:2|0:0,0:0:0:0:
361,149,76459,2,0,P|352:166|350:187,1,40
365,216,76750,2,0,L|389:327,1,80,2|0,0:3|0:0,0:0:0:0:
339,362,77333,1,0,0:0:0:0:
260,347,77624,2,0,L|164:322,2,80,0|2|8,1:0|0:3|0:3,0:0:0:0:
270,267,78498,2,0,L|280:166,1,80,6|0,1:2|0:0,0:0:0:0:
258,109,79080,2,0,P|166:109|82:56,1,160,2|0,0:3|0:0,0:0:0:0:
32,108,79954,2,0,L|48:152,1,40,0|0,1:0|0:0,0:0:0:0:
56,184,80245,2,0,P|41:237|49:284,1,80,2|0,0:3|0:0,0:0:0:0:
113,299,80828,70,0,P|151:302|184:324,1,80,10|0,0:0|0:0,0:0:0:0:
219,345,81265,2,0,P|256:355|294:344,1,80,10|0,0:0|0:0,0:0:0:0:
329,322,81702,1,10,0:0:0:0:
449,216,82284,1,8,0:0:0:0:
402,150,82575,2,0,L|291:127,1,80,8|2,0:0|0:0,0:0:0:0:
263,80,83158,2,0,P|240:134|255:192,2,120,10|10|10,0:0|0:0|0:0,0:0:0:0:
193,40,84323,2,2,B|166:130|129:79|107:201,1,160,2|8,0:0|0:0,0:0:0:0:
171,323,85488,38,0,B|233:304|198:278|282:263,2,120,10|10|10,0:0|0:0|0:0,0:0:0:0:
98,288,86653,2,0,P|84:238|85:197,1,80,2|8,0:0|0:0,0:0:0:0:
101,174,87090,2,0,P|122:147|132:60,1,120,2|2,0:0|0:0,0:0:0:0:
209,38,87818,2,0,B|284:57|265:20|357:50,2,120,10|10|10,0:0|0:0|0:0,0:0:0:0:
197,117,88983,2,2,P|194:156|201:195,1,80,2|8,0:0|0:0,0:0:0:0:
252,257,89566,1,8,0:0:0:0:
410,248,90148,38,0,L|423:169,1,80,6|0,1:2|0:0,0:0:0:0:
438,90,90731,1,2,1:3:0:0:
361,112,91022,2,0,L|273:128,1,80,0|0,1:2|0:0,0:0:0:0:
204,106,91605,2,0,L|125:120,1,80,0|0,1:2|3:2,0:0:0:0:
59,266,92478,2,0,L|46:345,1,80,6|0,1:2|0:0,0:0:0:0:
125,359,93061,1,2,1:3:0:0:
197,326,93352,2,0,B|301:342,1,80,0|0,1:2|0:0,0:0:0:0:
336,284,93935,2,0,B|440:300,1,80,0|0,1:2|3:0,0:0:0:0:
458,229,94517,2,0,P|441:188|439:181,1,40
467,160,94808,6,0,L|481:81,1,80,6|0,1:2|0:0,0:0:0:0:
411,41,95391,1,2,1:3:0:0:
342,82,95682,2,0,B|300:73|300:73|265:93,1,80,0|0,1:2|0:0,0:0:0:0:
296,166,96265,2,0,B|262:184|262:184|221:175,1,80,0|0,1:2|3:2,0:0:0:0:
76,218,97139,2,0,L|90:306,1,80,6|2,1:2|0:0,0:0:0:0:
148,349,97721,2,0,B|238:322|187:285|309:263,1,160,2|2,1:3|0:0,0:0:0:0:
360,250,98595,1,2,1:2:0:0:
393,177,98886,1,2,3:1:0:0:
234,154,99469,6,0,L|247:72,1,80,6|0,1:2|0:0,0:0:0:0:
246,34,99906,2,0,P|223:36|192:49,1,40,2|2,1:2|1:3,0:0:0:0:
142,88,100342,2,0,B|124:182|78:127|56:249,1,160,2|2,1:2|1:2,0:0:0:0:
111,285,101216,1,2,1:3:0:0:
200,298,101508,1,0,0:0:0:0:
267,255,101799,2,0,P|309:244|338:217,1,80,6|0,1:2|0:0,0:0:0:0:
414,206,102381,2,0,L|421:163,1,40,2|0,1:3|0:0,0:0:0:0:
440,131,102673,2,0,L|454:50,1,80,2|0,1:2|0:0,0:0:0:0:
369,27,103255,1,2,1:2:0:0:
297,77,103546,2,2,B|235:87|264:33|179:40,1,120,0|0,3:0|0:0,0:1:0:0:
148,57,104129,6,0,P|128:93|133:135,1,80,6|0,1:2|0:0,0:0:0:0:
160,163,104566,1,2,1:2:0:0:
68,237,105003,2,0,L|235:262,1,160,2|2,1:2|1:2,0:0:0:0:
304,274,105876,1,2,1:3:0:0:
373,314,106168,2,0,P|401:296|426:293,1,40,2|0,0:0|0:0,0:0:0:0:
446,287,106459,2,0,P|456:244|438:197,1,80,6|2,1:2|0:0,0:0:0:0:
430,131,107041,2,0,P|416:97|438:41,1,80,2|2,1:3|1:2,0:0:0:0:
346,41,107624,2,0,P|270:45|196:93,1,160,2|2,0:0|3:1,0:0:0:0:
151,152,108498,2,2,P|185:171|224:169,1,80,2|2,3:1|3:2,0:1:0:0:
121,337,113449,38,0,B|173:309|173:309|257:325,1,120,4|4,1:3|1:3,0:0:0:0:
271,331,114032,2,0,L|312:338,1,40,4|0,1:3|0:0,0:0:0:0:
349,344,114323,1,4,1:3:0:0:
411,294,114614,1,0,0:0:0:0:
464,233,114906,1,4,1:3:0:0:
432,159,115197,1,4,1:3:0:0:
335,97,115634,1,4,1:3:0:0:
335,97,115779,2,0,B|346:154|346:154|324:239,1,120,4|4,1:3|1:3,0:0:0:0:
290,207,116362,2,0,L|193:188,1,80,4|4,1:3|1:3,0:0:0:0:
175,120,116944,1,0,0:0:0:0:
100,90,117236,1,4,1:3:0:0:
33,134,117527,1,4,1:3:0:0:
20,212,117818,2,0,L|34:255,1,40
51,285,118109,6,0,B|106:306|106:306|188:279,1,120,4|4,1:3|1:3,0:0:0:0:
202,275,118692,2,0,L|211:226,1,40,4|0,1:3|0:0,0:0:0:0:
215,196,118983,1,4,1:3:0:0:
226,116,119274,1,0,0:0:0:0:
282,59,119566,1,4,1:3:0:0:
360,44,119857,2,0,B|369:96|369:96|359:115|359:115|369:167,1,120,4|4,1:3|1:3,0:0:0:0:
397,186,120440,2,0,B|281:217,1,120,4|4,1:3|1:3,0:0:0:0:
241,220,121022,2,0,B|227:171,1,40,4|0,1:3|0:0,0:0:0:0:
193,164,121313,2,0,B|179:115,1,40,4|0,1:3|0:0,0:0:0:0:
158,92,121605,1,2,0:0:0:0:
182,362,122770,101,2,1:2:0:0:
252,326,123061,2,0,B|248:306|248:306|249:287,1,40,0|0,0:0|1:0,0:0:0:0:
282,263,123352,2,0,B|283:244|283:244|279:224,1,40,2|0,0:3|0:0,0:0:0:0:
276,183,123643,1,0,1:0:0:0:
203,147,123935,2,0,L|186:225,1,80,0|0,0:0|1:0,0:0:0:0:
159,300,124517,2,0,L|117:289,1,40,2|0,0:3|0:0,0:0:0:0:
77,282,124808,1,0,0:0:0:0:
2,252,125100,2,0,B|0:208|0:208|38:144,1,80,2|0,1:2|0:0,0:0:0:0:
72,123,125682,2,0,L|136:98,1,40,2|0,0:3|0:0,0:0:0:0:
146,93,125974,2,0,B|163:91|163:91|208:62,1,40,0|0,1:0|0:0,0:0:0:0:
219,63,126265,1,0,0:0:0:0:
297,79,126556,1,0,1:0:0:0:
366,118,126847,2,2,B|357:158|357:158|354:159|354:159|345:196,1,80,0|0,3:0|0:0,0:1:0:0:
332,273,127430,6,0,B|293:292|293:292|245:277,1,80,2|0,1:2|0:0,0:0:0:0:
185,247,128012,2,0,L|163:140,1,80,2|0,0:3|1:0,0:0:0:0:
88,166,128595,2,0,B|81:148|81:148|84:110,1,40
49,104,128886,2,0,L|26:-7,1,80,0|2,1:0|0:3,0:0:0:0:
112,34,129469,1,0,0:0:0:0:
184,66,129760,102,0,L|285:74,1,80,2|0,1:2|0:0,0:0:0:0:
343,65,130342,2,0,L|394:69,1,40,2|0,0:3|0:0,0:0:0:0:
423,64,130634,1,2,0:0:0:0:
472,216,131216,1,2,0:0:0:0:
421,278,131508,2,0,B|395:288|395:288|350:278,1,40,2|0,3:2|3:0,0:0:0:0:
344,276,131799,2,0,B|325:269|325:269|305:267,1,40,0|0,3:0|3:0,0:0:0:0:
266,276,132090,6,0,L|277:388,2,80,6|0|2,1:2|0:0|1:3,0:0:0:0:
280,197,132964,1,2,1:2:0:0:
346,152,133255,2,0,B|348:112|348:112|332:76,1,80,0|2,0:0|1:2,0:0:0:0:
409,55,133838,2,0,L|504:35,1,80,2|2,1:3|0:1,0:0:0:0:
491,118,134420,6,0,L|476:170,1,40,6|0,1:2|0:0,0:0:0:0:
485,196,134711,2,0,L|470:246,1,40,0|2,0:0|1:2,0:0:0:0:
467,274,135003,2,0,B|478:311|478:311|469:376,2,80,2|2|0,1:3|1:2|0:0,0:0:0:0:
395,309,135876,1,2,1:2:0:0:
315,301,136168,2,2,L|256:289,1,40,0|0,3:0|0:0,0:1:0:0:
237,304,136459,2,0,L|178:292,1,40
158,304,136750,2,0,P|143:261|151:204,1,80,6|0,1:2|0:0,0:0:0:0:
144,146,137333,2,0,L|195:155,1,40,2|0,1:3|0:0,0:0:0:0:
228,153,137624,2,0,L|279:162,1,40,2|0,1:2|0:0,0:0:0:0:
307,163,137915,2,0,B|319:124|319:124|303:62,1,80,0|2,0:0|1:2,0:0:0:0:
243,40,138498,2,0,B|193:46|193:46|184:54|184:54|116:62,1,120,2|0,1:3|0:0,0:0:0:0:
87,59,139080,37,2,0:0:0:0:
321,141,150731,70,0,P|346:70|333:20,2,120,2|2|2,0:0|0:0|0:0,0:0:0:0:
394,173,151896,2,0,P|401:218|480:230,1,120,2|2,0:0|0:0,0:0:0:0:
378,321,152770,1,2,0:0:0:0:
298,329,153061,2,0,P|226:337|177:317,2,120,2|2|2,0:0|0:0|0:0,0:0:0:0:
306,249,154226,2,2,B|223:203|281:178|166:131,1,160
83,260,155391,54,0,P|81:306|137:360,2,120,2|2|2,0:0|0:0|0:0,0:0:0:0:
155,225,156556,2,0,P|194:183|174:130,1,120,2|2,0:0|0:0,0:0:0:0:
278,71,157430,1,2,0:0:0:0:
344,115,157721,2,0,P|408:135|463:124,2,120,2|2|2,0:0|0:0|0:0,0:0:0:0:
301,182,158886,2,2,P|354:235|329:307,1,160
211,344,162381,6,0,L|129:335,1,80,6|0,1:2|0:0,0:0:0:0:
83,335,162818,2,0,P|67:315|65:293,1,40,2|2,1:2|1:3,0:0:0:0:
27,212,163255,2,0,B|63:139|17:136|49:56,1,160,2|2,1:2|1:2,0:0:0:0:
138,91,164129,1,2,1:3:0:0:
218,38,164420,2,0,P|230:50|262:53,1,40,2|0,0:1|0:0,0:0:0:0:
298,42,164711,2,0,P|313:86|311:120,1,80,6|0,1:2|0:0,0:0:0:0:
282,157,165148,1,2,1:2:0:0:
253,195,165294,2,0,P|247:214|250:233,1,40,2|0,1:3|0:0,0:0:0:0:
258,280,165585,2,0,L|241:369,1,80,2|0,1:2|0:0,0:0:0:0:
338,367,166168,1,2,1:2:0:0:
396,291,166459,2,2,B|452:244|396:239|473:185,1,120,0|0,3:0|0:0,0:1:0:0:
493,158,167041,22,0,L|511:45,1,80,6|0,1:2|0:0,0:0:0:0:
464,53,167478,2,0,P|441:49|423:34,1,40,2|2,1:2|1:3,0:0:0:0:
354,102,167915,2,0,B|259:83|331:49|205:23,1,160,2|2,1:2|1:2,0:0:0:0:
127,56,168789,2,0,P|116:81|109:105,1,40,2|2,1:3|0:0,0:0:0:0:
138,133,169080,1,2,0:0:0:0:
143,229,169372,2,0,P|110:251|70:253,1,80,6|2,1:2|0:0,0:0:0:0:
61,348,169954,1,2,1:3:0:0:
105,349,170100,1,0,0:0:0:0:
141,373,170245,1,2,1:2:0:0:
221,319,170537,2,0,P|228:284|229:262,2,40,2|0|2,0:0|0:0|1:2,0:0:0:0:
304,271,171119,2,2,P|312:239|312:216,1,40,2|2,3:1|3:1,0:1:0:0:
305,184,171410,1,2,3:1:0:0:
292,88,171702,70,0,L|189:70,1,80,6|0,1:2|0:0,0:0:0:0:
168,57,172139,2,0,P|147:77|127:77,1,40,2|2,1:2|1:3,0:0:0:0:
50,120,172575,2,0,B|65:215|106:170|123:273,1,160,2|2,1:2|1:2,0:0:0:0:
176,338,173449,1,2,1:0:0:0:
254,282,173741,1,0,0:0:0:0:
342,318,174032,2,0,P|390:365|453:355,1,120,6|2,1:2|1:2,0:0:0:0:
465,322,174614,2,0,L|451:248,1,40,2|0,1:3|0:0,0:0:0:0:
449,234,174906,2,0,L|432:147,1,80,2|0,1:2|0:0,0:0:0:0:
377,77,175488,2,0,P|346:69|323:56,1,40,2|0,1:2|0:0,0:0:0:0:
296,42,175779,1,0,3:0:0:0:
205,73,176071,2,0,P|175:63|156:52,1,40
119,64,176362,70,0,L|133:159,1,80,6|0,1:2|0:0,0:0:0:0:
141,189,176799,1,2,1:2:0:0:
45,261,177236,2,0,B|150:281|79:322|172:345,1,160,2|2,1:2|1:2,0:0:0:0:
240,290,178109,1,2,1:3:0:0:
210,198,178401,2,0,P|196:168|177:152,1,40,2|0,0:0|0:0,0:0:0:0:
180,116,178692,2,0,P|216:103|268:110,1,80,6|2,1:2|0:0,0:0:0:0:
349,131,179274,2,0,P|373:101|381:45,1,80,2|2,1:3|1:2,0:0:0:0:
475,84,179857,2,0,P|455:160|474:237,1,160,2|2,0:0|3:1,0:0:0:0:
504,328,180731,1,2,3:1:0:0:
408,333,181022,22,0,L|305:315,1,80,6|0,1:2|0:0,0:0:0:0:
282,306,181459,2,0,L|240:297,1,40,2|2,1:2|1:3,0:0:0:0:
150,326,181896,2,0,B|70:290|134:270|25:225,1,160,2|2,1:2|1:2,0:0:0:0:
84,147,182770,1,2,1:0:0:0:
174,115,183061,1,2,0:1:0:0:
210,90,183207,1,0,0:0:0:0:
223,48,183352,2,0,L|311:33,1,80,6|0,1:2|0:0,0:0:0:0:
394,58,183935,2,0,P|420:52|444:38,1,40,2|0,1:3|0:0,0:0:0:0:
455,93,184226,2,0,L|444:177,1,80,2|0,1:2|0:0,0:0:0:0:
369,231,184808,1,2,1:2:0:0:
323,315,185100,2,2,L|207:336,1,80,0|0,3:0|0:0,0:1:0:0:
152,358,185682,6,0,P|136:321|138:281,1,80,6|0,1:2|0:0,0:0:0:0:
169,245,186119,1,2,1:2:0:0:
297,180,186556,2,0,B|286:109|242:125|234:26,1,160,2|2,1:2|1:2,0:0:0:0:
140,53,187430,1,2,1:3:0:0:
73,122,187721,1,2,0:0:0:0:
19,201,188012,70,0,P|28:246|46:288,1,80,6|2,1:2|0:0,0:0:0:0:
98,354,188595,2,0,P|134:350|167:322,1,80,2|2,1:3|1:2,0:0:0:0:
241,262,189177,2,0,P|200:195|220:120,1,160,2|2,0:0|3:1,0:0:0:0:
248,101,189906,1,2,3:1:0:0:
285,78,190051,1,2,3:1:0:0:
364,131,190342,2,0,P|370:168|367:215,2,80
