osu file format v14

[General]
AudioFilename: audio.mp3
AudioLeadIn: 0
PreviewTime: 161872
Countdown: 0
SampleSet: Soft
StackLeniency: 0.7
Mode: 0
LetterboxInBreaks: 0
WidescreenStoryboard: 1

[Editor]
Bookmarks: 122770,160051
DistanceSpacing: 1
BeatDivisor: 4
GridSize: 4
TimelineZoom: 1.2

[Metadata]
Title:Problem
TitleUnicode:Problem
Artist:Ariana Grande feat. Iggy Azalea
ArtistUnicode:Ariana Grande feat. Iggy Azalea
Creator:rHO
Version:Fsjallink's Insane
Source:
Tags:smh emilia estellia- posydomojka fsjallink vinxis mishima yurara my everything english pop dance r&b rap hiphop hip-hop hip hop
BeatmapID:3644960
BeatmapSetID:1588192

[Difficulty]
HPDrainRate:5
CircleSize:4
OverallDifficulty:7
ApproachRate:9
SliderMultiplier:2.79999990463257
SliderTickRate:1

[Events]
//Background and Video events
0,0,"ari2.jpg",0,0
Video,-840,"problem.mp4"
//Break Periods
2,57727,59765
2,108989,111027
2,141610,150056
//Storyboard Layer 0 (Background)
//Storyboard Layer 1 (Fail)
//Storyboard Layer 2 (Pass)
//Storyboard Layer 3 (Foreground)
//Storyboard Layer 4 (Overlay)
//Storyboard Sound Samples

[TimingPoints]
-725,582.52427184466,4,2,0,100,1,0
1605,-133.333333333333,4,2,0,40,0,0
1896,-133.333333333333,4,0,0,5,0,0
2041,-133.333333333333,4,2,0,40,0,0
2186,-133.333333333333,4,2,0,100,0,0
2551,-133.333333333333,4,2,0,100,0,0
3862,-133.333333333333,4,0,0,5,0,0
3935,-133.333333333333,4,2,0,40,0,0
4226,-133.333333333333,4,0,0,5,0,0
4408,-133.333333333333,4,2,0,100,0,0
4699,-133.333333333333,4,0,0,5,0,0
4845,-133.333333333333,4,2,0,100,0,0
6192,-133.333333333333,4,0,0,5,0,0
6265,-133.333333333333,4,2,0,40,0,0
6556,-133.333333333333,4,0,0,5,0,0
6702,-133.333333333333,4,2,0,40,0,0
6847,-133.333333333333,4,2,0,100,0,0
7175,-133.333333333333,4,2,0,100,0,0
8595,-133.333333333333,4,2,0,40,0,0
8740,-133.333333333333,4,2,0,100,0,0
8886,-133.333333333333,4,2,0,50,0,0
9177,-133.333333333333,4,2,0,60,0,0
9322,-133.333333333333,4,2,0,100,0,0
9469,-133.333333333333,4,2,0,70,0,0
9614,-133.333333333333,4,2,0,100,0,0
9760,-133.333333333333,4,2,0,80,0,0
10196,-133.333333333333,4,2,0,100,0,0
10342,-285.714285714286,4,2,0,100,0,0
10851,-285.714285714286,4,0,0,5,0,0
10925,-83.3333333333333,4,2,0,60,0,0
11216,-83.3333333333333,4,0,0,5,0,0
11508,-83.3333333333333,4,2,0,60,0,0
11944,-100,4,2,0,60,0,0
12162,-100,4,2,0,100,0,0
12236,-100,4,2,0,60,0,0
12308,-100,4,2,0,100,0,0
12381,-100,4,2,0,60,0,0
12599,-100,4,2,0,100,0,0
12672,-100,4,2,0,60,0,0
13546,-100,4,0,0,5,0,0
13838,-100,4,2,0,60,0,0
14492,-100,4,2,0,100,0,0
14565,-100,4,2,0,60,0,0
14638,-100,4,2,0,100,0,0
14711,-100,4,2,0,60,0,0
14929,-100,4,2,0,100,0,0
15003,-117.647058823529,4,2,0,60,0,0
15294,-117.647058823529,4,0,0,5,0,0
15440,-117.647058823529,4,2,0,60,0,0
15512,-117.647058823529,4,2,0,100,0,0
15585,-83.3333333333333,4,2,0,60,0,0
15876,-83.3333333333333,4,0,0,5,0,0
16168,-83.3333333333333,4,2,0,60,0,0
16605,-100,4,2,0,60,0,0
16823,-100,4,2,0,100,0,0
16896,-100,4,2,0,60,0,0
16968,-100,4,2,0,100,0,0
17041,-100,4,2,0,60,0,0
17259,-100,4,2,0,100,0,0
17332,-100,4,2,0,60,0,0
18207,-100,4,2,0,100,0,0
18498,-100,4,2,0,60,0,0
19153,-100,4,2,0,100,0,0
19225,-100,4,2,0,60,0,0
19298,-100,4,2,0,100,0,0
19372,-100,4,2,0,60,0,0
19590,-100,4,2,0,100,0,0
19663,-117.647058823529,4,2,0,60,0,0
19954,-117.647058823529,4,0,0,5,0,0
20100,-117.647058823529,4,2,0,60,0,0
20172,-117.647058823529,4,2,0,100,0,0
20245,-83.3333333333333,4,2,0,60,0,0
20463,-83.3333333333333,4,2,0,100,0,0
20536,-83.3333333333333,4,0,0,5,0,0
20828,-83.3333333333333,4,2,0,60,0,0
21119,-83.3333333333333,4,2,0,100,0,0
21265,-100,4,2,0,60,0,0
21483,-100,4,2,0,100,0,0
21556,-100,4,2,0,60,0,0
21628,-100,4,2,0,100,0,0
21702,-100,4,2,0,60,0,0
21920,-100,4,2,0,100,0,0
21993,-100,4,2,0,60,0,0
22065,-100,4,2,0,100,0,0
22139,-100,4,2,0,60,0,0
22575,-83.3333333333333,4,2,0,60,0,0
22720,-83.3333333333333,4,2,0,100,0,0
22866,-83.3333333333333,4,0,0,5,0,0
23158,-83.3333333333333,4,2,0,60,0,0
23376,-83.3333333333333,4,2,0,100,0,0
23449,-83.3333333333333,4,2,0,100,0,0
23595,-100,4,2,0,60,0,0
23813,-100,4,2,0,100,0,0
23886,-100,4,2,0,60,0,0
23958,-100,4,2,0,100,0,0
24032,-100,4,2,0,60,0,0
24250,-100,4,2,0,100,0,0
24323,-100,4,2,0,60,0,0
24614,-100,4,2,0,100,0,0
24760,-100,4,2,0,60,0,0
24978,-100,4,2,0,100,0,0
25488,-100,4,2,0,60,0,0
25706,-100,4,2,0,100,0,0
25925,-100,4,2,0,60,0,0
26143,-100,4,2,0,100,0,0
26216,-100,4,2,0,60,0,0
26288,-100,4,2,0,100,0,0
26362,-100,4,2,0,60,0,0
26580,-100,4,2,0,100,0,0
26653,-100,4,2,0,60,0,0
26725,-100,4,2,0,100,0,0
26799,-100,4,2,0,60,0,0
27527,-100,4,2,0,100,0,0
27818,-100,4,2,0,60,0,0
28012,-100,4,2,0,100,0,0
28109,-100,4,2,0,60,0,0
28255,-100,4,2,0,60,0,0
28401,-100,4,2,0,100,0,0
28546,-100,4,2,0,60,0,0
28692,-100,4,2,0,60,0,0
28910,-100,4,2,0,100,0,0
28983,-117.647058823529,4,2,0,60,0,0
29274,-117.647058823529,4,0,0,5,0,0
29420,-117.647058823529,4,2,0,60,0,0
29492,-117.647058823529,4,2,0,100,0,0
29566,-133.333333333333,4,2,0,60,0,0
29857,-133.333333333333,4,0,0,5,0,0
29930,-133.333333333333,4,2,0,100,0,0
30003,-133.333333333333,4,2,0,60,0,0
30075,-133.333333333333,4,2,0,100,0,0
30148,-133.333333333333,4,2,0,60,0,0
30366,-133.333333333333,4,2,0,100,0,0
30440,-133.333333333333,4,2,0,60,0,0
30731,-117.647058823529,4,2,0,60,0,0
31022,-117.647058823529,4,2,0,60,0,0
31240,-117.647058823529,4,2,0,100,0,0
31313,-117.647058823529,4,2,0,60,0,0
31605,-117.647058823529,4,2,0,60,0,0
31750,-117.647058823529,4,2,0,60,0,0
31822,-117.647058823529,4,2,0,100,0,0
31896,-100,4,2,0,60,0,0
32187,-100,4,0,0,5,0,0
32260,-100,4,2,0,100,0,0
32333,-100,4,2,0,60,0,0
32405,-100,4,2,0,100,0,0
32478,-83.3333333333333,4,2,0,60,0,0
32696,-83.3333333333333,4,2,0,100,0,0
32770,-83.3333333333333,4,2,0,60,0,0
32988,-83.3333333333333,4,2,0,100,0,0
33061,-71.4285714285714,4,2,0,60,0,0
33097,-71.4285714285714,4,2,1,100,0,0
33497,-71.4285714285714,4,0,0,5,0,0
33643,-200,4,2,1,60,0,0
33680,-200,4,2,0,100,0,0
34079,-200,4,0,1,5,0,0
34226,-133.333333333333,4,2,0,70,0,0
34517,-133.333333333333,4,0,0,5,0,0
34590,-133.333333333333,4,2,0,100,0,0
34663,-133.333333333333,4,2,0,70,0,0
34735,-133.333333333333,4,2,0,100,0,0
34808,-133.333333333333,4,2,0,70,0,0
35026,-133.333333333333,4,2,0,100,0,0
35100,-133.333333333333,4,2,0,70,0,0
35391,-117.647058823529,4,2,0,70,0,0
35682,-117.647058823529,4,2,0,70,0,0
35900,-117.647058823529,4,2,0,100,0,0
35974,-117.647058823529,4,2,0,70,0,0
36265,-117.647058823529,4,2,0,70,0,0
36410,-117.647058823529,4,2,0,70,0,0
36482,-117.647058823529,4,2,0,100,0,0
36556,-100,4,2,0,70,0,0
36847,-100,4,0,0,5,0,0
36993,-100,4,2,0,70,0,0
37065,-100,4,2,0,100,0,0
37139,-83.3333333333333,4,2,0,70,0,0
37357,-83.3333333333333,4,2,0,100,0,0
37430,-83.3333333333333,4,2,0,70,0,0
37648,-83.3333333333333,4,2,0,100,0,0
37721,-71.4285714285714,4,2,0,70,0,0
37758,-71.4285714285714,4,2,1,100,0,0
38012,-71.4285714285714,4,2,1,70,0,0
38158,-71.4285714285714,4,2,1,100,0,0
38304,-62.5,4,2,1,70,0,0
38340,-62.5,4,2,0,100,0,0
38740,-62.5,4,0,1,5,0,0
38813,-62.5,4,2,0,100,0,0
38886,-62.5,4,2,0,80,0,0
39177,-133.333333333333,4,2,0,100,0,0
39322,-133.333333333333,4,2,0,80,0,0
39614,-133.333333333333,4,2,0,100,0,0
39760,-133.333333333333,4,2,0,80,0,0
40051,-133.333333333333,4,2,0,100,0,0
40342,-200,4,2,0,80,0,0
41508,-133.333333333333,4,2,0,100,0,0
41653,-133.333333333333,4,2,0,80,0,0
41944,-133.333333333333,4,2,0,100,0,0
42090,-133.333333333333,4,2,0,80,0,0
42381,-133.333333333333,4,2,0,100,0,0
42673,-200,4,2,0,80,0,0
42964,-83.3333333333333,4,2,0,80,0,0
43400,-83.3333333333333,4,0,0,5,0,0
43546,-83.3333333333333,4,2,0,80,0,0
43838,-133.333333333333,4,2,0,100,0,0
43983,-133.333333333333,4,2,0,80,0,0
44274,-133.333333333333,4,2,0,100,0,0
44420,-133.333333333333,4,2,0,80,0,0
44711,-133.333333333333,4,2,0,100,0,0
45003,-133.333333333333,4,2,0,80,0,0
45803,-133.333333333333,4,2,0,100,0,0
45876,-100,4,2,0,80,0,0
46021,-100,4,2,0,100,0,0
46168,-100,4,2,0,80,0,0
46604,-100,4,2,0,100,0,0
46750,-100,4,2,0,80,0,0
46895,-100,4,2,0,100,0,0
47041,-83.3333333333333,4,2,0,80,0,0
47332,-83.3333333333333,4,2,0,80,0,0
47478,-83.3333333333333,4,2,0,80,0,0
47624,-83.3333333333333,4,2,0,80,0,0
47770,-83.3333333333333,4,2,0,80,0,0
48133,-83.3333333333333,4,2,0,80,0,0
48207,-71.4285714285714,4,2,0,80,0,0
48498,-71.4285714285714,4,0,0,5,0,0
48571,-71.4285714285714,4,2,0,100,0,0
48643,-71.4285714285714,4,2,0,80,0,0
48715,-71.4285714285714,4,2,0,100,0,0
48789,-100,4,2,0,80,0,0
49007,-100,4,2,0,100,0,0
49080,-100,4,2,0,80,0,0
49226,-83.3333333333333,4,2,0,80,0,0
49298,-83.3333333333333,4,2,0,100,0,0
49517,-83.3333333333333,4,0,0,5,0,0
49663,-83.3333333333333,4,2,0,80,0,0
49881,-83.3333333333333,4,2,0,100,0,0
49954,-83.3333333333333,4,2,0,80,0,0
50026,-83.3333333333333,4,2,0,100,0,0
50245,-133.333333333333,4,2,0,100,0,0
50537,-83.3333333333333,4,2,0,80,0,0
50828,-83.3333333333333,4,0,0,5,0,0
50901,-83.3333333333333,4,2,0,100,0,0
50974,-83.3333333333333,4,2,0,80,0,0
51191,-83.3333333333333,4,2,0,100,0,0
51265,-83.3333333333333,4,2,0,100,0,0
51410,-83.3333333333333,4,2,0,80,0,0
51628,-83.3333333333333,4,2,0,100,0,0
51993,-100,4,2,0,80,0,0
52211,-100,4,2,0,100,0,0
52284,-100,4,2,0,80,0,0
52356,-100,4,2,0,100,0,0
52430,-100,4,2,0,100,0,0
52793,-100,4,2,0,80,0,0
52867,-71.4285714285714,4,2,0,80,0,0
53158,-71.4285714285714,4,0,0,5,0,0
53231,-71.4285714285714,4,2,0,100,0,0
53304,-71.4285714285714,4,2,0,80,0,0
53376,-71.4285714285714,4,2,0,100,0,0
53449,-100,4,2,0,80,0,0
53667,-100,4,2,0,100,0,0
53741,-100,4,2,0,80,0,0
53886,-83.3333333333333,4,2,0,80,0,0
53958,-83.3333333333333,4,2,0,100,0,0
54177,-83.3333333333333,4,0,0,5,0,0
54323,-83.3333333333333,4,2,0,80,0,0
54541,-83.3333333333333,4,2,0,100,0,0
54614,-83.3333333333333,4,2,0,80,0,0
54686,-83.3333333333333,4,2,0,100,0,0
54760,-83.3333333333333,4,2,0,80,0,0
54832,-83.3333333333333,4,2,0,100,0,0
54906,-83.3333333333333,4,2,0,80,0,0
55124,-83.3333333333333,4,2,0,100,0,0
55197,-83.3333333333333,4,2,0,80,0,0
55342,-83.3333333333333,4,2,0,100,0,0
55488,-83.3333333333333,4,2,0,80,0,0
55924,-83.3333333333333,4,2,0,100,0,0
56071,-83.3333333333333,4,2,0,80,0,0
56216,-83.3333333333333,4,2,0,100,0,0
56362,-83.3333333333333,4,2,0,80,0,0
56653,-83.3333333333333,4,2,0,80,0,0
56799,-83.3333333333333,4,2,0,80,0,0
56944,-83.3333333333333,4,2,0,80,0,0
57090,-83.3333333333333,4,2,0,80,0,0
57453,-83.3333333333333,4,2,0,80,0,0
57527,-83.3333333333333,4,2,0,40,0,0
57818,-83.3333333333333,4,2,0,100,0,0
57964,-83.3333333333333,4,2,0,40,0,0
58109,-83.3333333333333,4,2,0,100,0,0
59857,-83.3333333333333,4,2,0,40,0,0
60148,-83.3333333333333,4,2,0,100,0,0
60440,-83.3333333333333,4,2,0,40,0,0
61896,-83.3333333333333,4,0,0,5,0,0
62187,-83.3333333333333,4,2,0,60,0,0
62478,-83.3333333333333,4,0,0,5,0,0
62770,-83.3333333333333,4,2,0,60,0,0
63061,-83.3333333333333,4,2,0,100,0,0
63207,-100,4,2,0,60,0,0
63425,-100,4,2,0,100,0,0
63498,-100,4,2,0,60,0,0
63570,-100,4,2,0,100,0,0
63643,-100,4,2,0,60,0,0
63861,-100,4,2,0,100,0,0
63934,-100,4,2,0,60,0,0
64808,-100,4,0,0,5,0,0
65100,-100,4,2,0,60,0,0
65391,-100,4,2,0,60,0,0
65536,-100,4,2,0,60,0,0
65755,-100,4,2,0,100,0,0
65827,-100,4,2,0,60,0,0
65900,-100,4,2,0,100,0,0
65974,-100,4,2,0,60,0,0
66192,-100,4,2,0,100,0,0
66265,-117.647058823529,4,2,0,60,0,0
66556,-117.647058823529,4,0,0,5,0,0
66702,-117.647058823529,4,2,0,60,0,0
66774,-117.647058823529,4,2,0,100,0,0
66847,-83.3333333333333,4,2,0,60,0,0
67138,-83.3333333333333,4,0,0,5,0,0
67430,-83.3333333333333,4,2,0,60,0,0
67721,-83.3333333333333,4,2,0,100,0,0
67867,-100,4,2,0,60,0,0
68085,-100,4,2,0,100,0,0
68158,-100,4,2,0,60,0,0
68230,-100,4,2,0,100,0,0
68304,-100,4,2,0,60,0,0
68522,-100,4,2,0,100,0,0
68595,-100,4,2,0,60,0,0
69469,-100,4,2,0,100,0,0
69760,-100,4,2,0,60,0,0
70051,-100,4,2,0,60,0,0
70196,-100,4,2,0,60,0,0
70415,-100,4,2,0,100,0,0
70487,-100,4,2,0,60,0,0
70560,-100,4,2,0,100,0,0
70634,-100,4,2,0,60,0,0
70852,-100,4,2,0,100,0,0
70925,-117.647058823529,4,2,0,60,0,0
71216,-117.647058823529,4,0,0,5,0,0
71362,-117.647058823529,4,2,0,60,0,0
71434,-117.647058823529,4,2,0,100,0,0
71508,-83.3333333333333,4,2,0,60,0,0
71726,-83.3333333333333,4,2,0,100,0,0
71799,-83.3333333333333,4,0,0,5,0,0
72090,-83.3333333333333,4,2,0,60,0,0
72381,-83.3333333333333,4,2,0,100,0,0
72527,-100,4,2,0,60,0,0
72709,-100,4,2,0,100,0,0
72818,-100,4,2,0,60,0,0
72890,-100,4,2,0,100,0,0
72964,-100,4,2,0,60,0,0
73182,-100,4,2,0,100,0,0
73255,-100,4,2,0,60,0,0
73327,-100,4,2,0,100,0,0
73401,-100,4,2,0,60,0,0
73838,-83.3333333333333,4,2,0,60,0,0
73983,-83.3333333333333,4,2,0,100,0,0
74129,-83.3333333333333,4,0,0,5,0,0
74420,-83.3333333333333,4,2,0,60,0,0
74638,-83.3333333333333,4,2,0,100,0,0
74711,-83.3333333333333,4,2,0,100,0,0
74857,-100,4,2,0,60,0,0
75075,-100,4,2,0,100,0,0
75148,-100,4,2,0,60,0,0
75220,-100,4,2,0,100,0,0
75294,-100,4,2,0,60,0,0
75512,-100,4,2,0,100,0,0
75585,-100,4,2,0,60,0,0
75730,-100,4,2,0,100,0,0
76022,-100,4,2,0,60,0,0
76240,-100,4,2,0,100,0,0
76750,-100,4,2,0,60,0,0
76944,-100,4,2,0,100,0,0
77187,-100,4,2,0,60,0,0
77405,-100,4,2,0,100,0,0
77478,-100,4,2,0,60,0,0
77550,-100,4,2,0,100,0,0
77624,-100,4,2,0,60,0,0
77842,-100,4,2,0,100,0,0
77915,-100,4,2,0,60,0,0
77987,-100,4,2,0,100,0,0
78061,-100,4,2,0,60,0,0
78789,-100,4,2,0,100,0,0
79080,-100,4,2,0,60,0,0
79274,-100,4,2,0,100,0,0
79371,-100,4,2,0,60,0,0
79517,-100,4,2,0,60,0,0
79663,-100,4,2,0,100,0,0
79808,-100,4,2,0,60,0,0
79954,-100,4,2,0,60,0,0
80172,-100,4,2,0,100,0,0
80245,-117.647058823529,4,2,0,60,0,0
80536,-117.647058823529,4,0,0,5,0,0
80682,-117.647058823529,4,2,0,60,0,0
80754,-117.647058823529,4,2,0,100,0,0
80828,-133.333333333333,4,2,0,60,0,0
81119,-133.333333333333,4,0,0,5,0,0
81192,-133.333333333333,4,2,0,100,0,0
81265,-133.333333333333,4,2,0,60,0,0
81337,-133.333333333333,4,2,0,100,0,0
81410,-133.333333333333,4,2,0,60,0,0
81628,-133.333333333333,4,2,0,100,0,0
81702,-133.333333333333,4,2,0,60,0,0
81993,-117.647058823529,4,2,0,60,0,0
82284,-117.647058823529,4,2,0,60,0,0
82502,-117.647058823529,4,2,0,100,0,0
82575,-117.647058823529,4,2,0,60,0,0
82867,-117.647058823529,4,2,0,60,0,0
83012,-117.647058823529,4,2,0,60,0,0
83070,-117.647058823529,4,2,0,100,0,0
83158,-100,4,2,0,60,0,0
83449,-100,4,0,0,5,0,0
83522,-100,4,2,0,100,0,0
83595,-100,4,2,0,60,0,0
83667,-100,4,2,0,100,0,0
83741,-83.3333333333333,4,2,0,60,0,0
83959,-83.3333333333333,4,2,0,100,0,0
84032,-83.3333333333333,4,2,0,60,0,0
84250,-83.3333333333333,4,2,0,100,0,0
84323,-71.4285714285714,4,2,0,60,0,0
84359,-71.4285714285714,4,2,1,100,0,0
84759,-71.4285714285714,4,0,0,5,0,0
84906,-200,4,2,1,60,0,0
84942,-200,4,2,0,100,0,0
85342,-200,4,0,1,5,0,0
85488,-133.333333333333,4,2,0,70,0,0
85779,-133.333333333333,4,0,0,5,0,0
85852,-133.333333333333,4,2,0,100,0,0
85925,-133.333333333333,4,2,0,70,0,0
85997,-133.333333333333,4,2,0,100,0,0
86071,-133.333333333333,4,2,0,70,0,0
86289,-133.333333333333,4,2,0,100,0,0
86362,-133.333333333333,4,2,0,70,0,0
86653,-117.647058823529,4,2,0,70,0,0
86944,-117.647058823529,4,2,0,70,0,0
87162,-117.647058823529,4,2,0,100,0,0
87236,-117.647058823529,4,2,0,70,0,0
87527,-117.647058823529,4,2,0,70,0,0
87672,-117.647058823529,4,2,0,70,0,0
87745,-117.647058823529,4,2,0,100,0,0
87818,-100,4,2,0,70,0,0
88109,-100,4,0,0,5,0,0
88182,-100,4,2,0,100,0,0
88255,-100,4,2,0,70,0,0
88327,-100,4,2,0,100,0,0
88401,-83.3333333333333,4,2,0,70,0,0
88619,-83.3333333333333,4,2,0,100,0,0
88692,-83.3333333333333,4,2,0,70,0,0
88910,-83.3333333333333,4,2,0,100,0,0
88983,-71.4285714285714,4,2,0,70,0,0
89020,-71.4285714285714,4,2,1,100,0,0
89274,-71.4285714285714,4,2,1,70,0,0
89420,-71.4285714285714,4,2,1,100,0,0
89566,-62.5,4,2,1,70,0,0
89602,-62.5,4,2,0,100,0,0
90002,-62.5,4,0,1,5,0,0
90075,-62.5,4,2,0,100,0,0
90148,-62.5,4,2,0,80,0,0
90440,-133.333333333333,4,2,0,100,0,0
90585,-133.333333333333,4,2,0,80,0,0
90876,-133.333333333333,4,2,0,100,0,0
91022,-133.333333333333,4,2,0,80,0,0
91313,-133.333333333333,4,2,0,100,0,0
91605,-200,4,2,0,80,0,0
92770,-133.333333333333,4,2,0,100,0,0
92915,-133.333333333333,4,2,0,80,0,0
93206,-133.333333333333,4,2,0,100,0,0
93352,-133.333333333333,4,2,0,80,0,0
93643,-133.333333333333,4,2,0,100,0,0
93935,-200,4,2,0,80,0,0
94226,-83.3333333333333,4,2,0,80,0,0
94662,-83.3333333333333,4,0,0,5,0,0
94808,-83.3333333333333,4,2,0,80,0,0
95100,-133.333333333333,4,2,0,100,0,0
95245,-133.333333333333,4,2,0,80,0,0
95536,-133.333333333333,4,2,0,100,0,0
95682,-133.333333333333,4,2,0,80,0,0
95973,-133.333333333333,4,2,0,100,0,0
96265,-133.333333333333,4,2,0,80,0,0
97065,-133.333333333333,4,2,0,100,0,0
97139,-100,4,2,0,80,0,0
97284,-100,4,2,0,100,0,0
97430,-100,4,2,0,80,0,0
97866,-100,4,2,0,100,0,0
98012,-100,4,2,0,80,0,0
98157,-100,4,2,0,100,0,0
98304,-100,4,2,0,80,0,0
98595,-100,4,2,0,80,0,0
98741,-100,4,2,0,80,0,0
98886,-100,4,2,0,80,0,0
99032,-100,4,2,0,80,0,0
99395,-100,4,2,0,80,0,0
99469,-71.4285714285714,4,2,0,80,0,0
99760,-71.4285714285714,4,0,0,5,0,0
99833,-71.4285714285714,4,2,0,100,0,0
99906,-71.4285714285714,4,2,0,80,0,0
99978,-71.4285714285714,4,2,0,100,0,0
100051,-100,4,2,0,80,0,0
100269,-100,4,2,0,100,0,0
100342,-100,4,2,0,80,0,0
100488,-83.3333333333333,4,2,0,80,0,0
100560,-83.3333333333333,4,2,0,100,0,0
100779,-83.3333333333333,4,0,0,5,0,0
100925,-83.3333333333333,4,2,0,80,0,0
101143,-83.3333333333333,4,2,0,100,0,0
101216,-83.3333333333333,4,2,0,80,0,0
101288,-83.3333333333333,4,2,0,100,0,0
101508,-133.333333333333,4,2,0,100,0,0
101799,-83.3333333333333,4,2,0,80,0,0
102090,-83.3333333333333,4,0,0,5,0,0
102163,-83.3333333333333,4,2,0,100,0,0
102236,-83.3333333333333,4,2,0,80,0,0
102453,-83.3333333333333,4,2,0,100,0,0
102527,-83.3333333333333,4,2,0,100,0,0
102673,-83.3333333333333,4,2,0,80,0,0
102891,-83.3333333333333,4,2,0,100,0,0
103255,-100,4,2,0,80,0,0
103473,-100,4,2,0,100,0,0
103546,-100,4,2,0,80,0,0
103618,-100,4,2,0,100,0,0
103692,-100,4,2,0,100,0,0
104056,-100,4,2,0,80,0,0
104129,-71.4285714285714,4,2,0,80,0,0
104420,-71.4285714285714,4,0,0,5,0,0
104493,-71.4285714285714,4,2,0,100,0,0
104566,-71.4285714285714,4,2,0,80,0,0
104638,-71.4285714285714,4,2,0,100,0,0
104711,-100,4,2,0,80,0,0
104929,-100,4,2,0,100,0,0
105003,-100,4,2,0,80,0,0
105148,-83.3333333333333,4,2,0,80,0,0
105220,-83.3333333333333,4,2,0,100,0,0
105439,-83.3333333333333,4,0,0,5,0,0
105585,-83.3333333333333,4,2,0,80,0,0
105657,-83.3333333333333,4,2,0,100,0,0
105876,-83.3333333333333,4,2,0,80,0,0
105949,-83.3333333333333,4,2,0,100,0,0
106022,-83.3333333333333,4,2,0,80,0,0
106094,-83.3333333333333,4,2,0,100,0,0
106168,-83.3333333333333,4,2,0,80,0,0
106386,-83.3333333333333,4,2,0,100,0,0
106459,-83.3333333333333,4,2,0,80,0,0
106677,-83.3333333333333,4,2,0,100,0,0
106750,-83.3333333333333,4,2,0,80,0,0
107186,-83.3333333333333,4,2,0,100,0,0
107333,-83.3333333333333,4,2,0,80,0,0
107478,-83.3333333333333,4,2,0,100,0,0
107624,-83.3333333333333,4,2,0,80,0,0
107915,-83.3333333333333,4,2,0,80,0,0
108061,-83.3333333333333,4,2,0,80,0,0
108207,-83.3333333333333,4,2,0,80,0,0
108352,-83.3333333333333,4,2,0,80,0,0
108715,-83.3333333333333,4,2,0,80,0,0
108789,-83.3333333333333,4,2,0,40,0,0
109080,-83.3333333333333,4,2,0,100,0,0
109226,-83.3333333333333,4,2,0,40,0,0
109371,-83.3333333333333,4,2,0,100,0,0
111119,-83.3333333333333,4,2,0,40,0,0
111410,-83.3333333333333,4,2,0,100,0,0
111702,-83.3333333333333,4,2,0,40,0,0
113158,-83.3333333333333,4,0,0,5,0,0
113449,-133.333333333333,4,2,0,60,0,0
113740,-133.333333333333,4,2,0,100,0,0
113885,-133.333333333333,4,2,0,60,0,0
114177,-133.333333333333,4,2,0,100,0,0
114323,-133.333333333333,4,2,0,60,0,0
114759,-133.333333333333,4,2,0,100,0,0
114906,-133.333333333333,4,2,0,60,0,0
115051,-133.333333333333,4,2,0,100,0,0
115197,-133.333333333333,4,2,0,60,0,0
115488,-133.333333333333,4,0,0,5,0,0
115634,-133.333333333333,4,2,0,60,0,0
115779,-117.647058823529,4,2,0,60,0,0
115924,-117.647058823529,4,2,0,100,0,0
116215,-117.647058823529,4,2,0,60,0,0
116580,-117.647058823529,4,2,0,100,0,0
116653,-117.647058823529,4,2,0,60,0,0
116944,-117.647058823529,4,2,0,100,0,0
117236,-117.647058823529,4,2,0,60,0,0
117381,-117.647058823529,4,2,0,100,0,0
117527,-117.647058823529,4,2,0,60,0,0
117818,-117.647058823529,4,0,0,5,0,0
117964,-117.647058823529,4,2,0,100,0,0
118109,-100,4,2,0,60,0,0
118400,-100,4,2,0,100,0,0
118545,-100,4,2,0,60,0,0
118910,-100,4,2,0,100,0,0
118983,-100,4,2,0,60,0,0
119274,-100,4,2,0,100,0,0
119566,-100,4,2,0,60,0,0
119711,-100,4,2,0,100,0,0
119857,-100,4,2,0,60,0,0
120148,-100,4,0,0,5,0,0
120294,-100,4,2,0,60,0,0
120440,-90.9090909090909,4,2,0,60,0,0
120585,-90.9090909090909,4,2,0,100,0,0
120876,-90.9090909090909,4,2,0,60,0,0
122623,-90.9090909090909,4,2,0,100,0,0
122770,-90.9090909090909,4,2,0,80,0,0
122988,-90.9090909090909,4,2,0,100,0,0
123061,-90.9090909090909,4,2,0,100,0,0
123207,-90.9090909090909,4,2,0,80,0,0
123498,-90.9090909090909,4,2,0,100,0,0
123643,-90.9090909090909,4,2,0,80,0,0
123789,-100,4,2,0,100,0,0
124226,-100,4,2,0,80,0,0
124371,-100,4,2,0,100,0,0
124517,-100,4,2,0,80,0,0
124663,-100,4,2,0,100,0,0
125100,-100,4,2,0,80,0,0
125245,-100,4,2,0,100,0,0
125537,-100,4,2,0,80,0,0
125827,-100,4,2,0,100,0,0
125973,-100,4,2,0,80,0,0
126119,-100,4,2,0,100,0,0
126556,-100,4,2,0,80,0,0
126701,-100,4,2,0,100,0,0
126847,-100,4,2,0,80,0,0
126993,-100,4,2,0,100,0,0
127430,-100,4,2,0,80,0,0
127648,-100,4,2,0,100,0,0
128012,-100,4,2,0,80,0,0
128230,-100,4,2,0,100,0,0
128304,-100,4,2,0,80,0,0
128449,-100,4,2,0,100,0,0
128886,-100,4,2,0,80,0,0
129031,-100,4,2,0,100,0,0
129177,-100,4,2,0,80,0,0
129323,-100,4,2,0,100,0,0
129469,-100,4,2,0,100,0,0
129760,-100,4,2,0,80,0,0
129906,-100,4,2,0,100,0,0
130197,-100,4,2,0,80,0,0
130560,-100,4,2,0,100,0,0
130634,-100,4,2,0,80,0,0
130779,-133.333333333333,4,2,0,80,0,0
131580,-133.333333333333,4,2,0,100,0,0
131653,-133.333333333333,4,2,0,80,0,0
131725,-133.333333333333,4,2,0,100,0,0
131799,-133.333333333333,4,2,0,80,0,0
131871,-133.333333333333,4,2,0,100,0,0
131944,-133.333333333333,4,2,0,80,0,0
132016,-133.333333333333,4,2,0,100,0,0
132090,-71.4285714285714,4,2,0,80,0,0
132308,-71.4285714285714,4,2,0,100,0,0
132381,-71.4285714285714,4,0,0,5,0,0
132527,-71.4285714285714,4,2,0,80,0,0
132673,-83.3333333333333,4,2,0,80,0,0
132818,-83.3333333333333,4,2,0,100,0,0
132964,-83.3333333333333,4,2,0,80,0,0
133036,-83.3333333333333,4,2,0,100,0,0
133546,-83.3333333333333,4,2,0,80,0,0
133618,-83.3333333333333,4,2,0,100,0,0
133692,-83.3333333333333,4,2,0,100,0,0
133838,-83.3333333333333,4,2,0,80,0,0
134056,-83.3333333333333,4,2,0,100,0,0
134129,-133.333333333333,4,2,0,80,0,0
134201,-133.333333333333,4,2,0,100,0,0
134420,-71.4285714285714,4,2,0,80,0,0
134492,-71.4285714285714,4,2,0,100,0,0
134711,-71.4285714285714,4,0,0,5,0,0
134857,-71.4285714285714,4,2,0,80,0,0
135148,-71.4285714285714,4,2,0,100,0,0
135294,-83.3333333333333,4,2,0,80,0,0
135366,-83.3333333333333,4,2,0,100,0,0
135876,-83.3333333333333,4,2,0,80,0,0
135948,-83.3333333333333,4,2,0,100,0,0
136022,-83.3333333333333,4,2,0,100,0,0
136168,-71.4285714285714,4,2,0,80,0,0
136459,-71.4285714285714,4,0,0,5,0,0
136605,-71.4285714285714,4,2,0,100,0,0
136750,-83.3333333333333,4,2,0,80,0,0
136822,-83.3333333333333,4,2,0,100,0,0
137186,-83.3333333333333,4,2,0,80,0,0
137478,-83.3333333333333,4,2,0,100,0,0
137624,-83.3333333333333,4,2,0,80,0,0
137769,-83.3333333333333,4,2,0,100,0,0
138206,-83.3333333333333,4,2,0,80,0,0
138279,-83.3333333333333,4,2,0,100,0,0
138352,-83.3333333333333,4,2,0,100,0,0
138498,-83.3333333333333,4,2,0,80,0,0
138716,-83.3333333333333,4,2,0,100,0,0
138789,-83.3333333333333,4,2,0,80,0,0
138861,-83.3333333333333,4,2,0,100,0,0
138935,-83.3333333333333,4,2,0,100,0,0
139080,-83.3333333333333,4,2,0,80,0,0
141410,-83.3333333333333,4,2,0,80,0,0
150731,-133.333333333333,4,2,0,50,0,0
151022,-133.333333333333,4,0,0,5,0,0
151168,-133.333333333333,4,2,0,50,0,0
151459,-133.333333333333,4,0,0,5,0,0
151605,-133.333333333333,4,2,0,50,0,0
151750,-133.333333333333,4,2,0,100,0,0
151896,-117.647058823529,4,2,0,50,0,0
152187,-117.647058823529,4,0,0,5,0,0
152333,-117.647058823529,4,2,0,50,0,0
152624,-117.647058823529,4,0,0,5,0,0
152770,-117.647058823529,4,2,0,50,0,0
152915,-117.647058823529,4,2,0,100,0,0
153061,-100,4,2,0,50,0,0
153352,-100,4,0,0,5,0,0
153498,-100,4,2,0,50,0,0
153789,-100,4,0,0,5,0,0
153935,-83.3333333333333,4,2,0,50,0,0
154080,-83.3333333333333,4,2,0,100,0,0
154226,-71.4285714285714,4,2,0,50,0,0
154808,-200,4,2,0,50,0,0
155391,-133.333333333333,4,2,0,70,0,0
155682,-133.333333333333,4,0,0,5,0,0
155828,-133.333333333333,4,2,0,70,0,0
156119,-133.333333333333,4,0,0,5,0,0
156265,-133.333333333333,4,2,0,70,0,0
156410,-133.333333333333,4,2,0,100,0,0
156556,-117.647058823529,4,2,0,70,0,0
156847,-117.647058823529,4,0,0,5,0,0
156993,-117.647058823529,4,2,0,70,0,0
157284,-117.647058823529,4,0,0,5,0,0
157430,-117.647058823529,4,2,0,70,0,0
157575,-117.647058823529,4,2,0,100,0,0
157721,-100,4,2,0,70,0,0
158012,-100,4,0,0,5,0,0
158158,-100,4,2,0,70,0,0
158449,-100,4,0,0,5,0,0
158595,-83.3333333333333,4,2,0,70,0,0
158740,-83.3333333333333,4,2,0,100,0,0
158886,-71.4285714285714,4,2,0,70,0,0
159177,-71.4285714285714,4,0,0,5,0,0
159469,-62.5,4,2,0,70,0,0
160051,-62.5,4,2,0,50,0,0
161216,-62.5,4,2,0,10,0,0
161944,-62.5,4,2,1,50,0,0
162090,-62.5,4,2,0,70,0,0
162236,-62.5,4,2,1,90,0,0
162381,-71.4285714285714,4,2,0,100,0,0
162672,-71.4285714285714,4,0,0,5,0,0
162818,-71.4285714285714,4,2,0,100,0,0
162964,-100,4,2,0,100,0,0
163401,-83.3333333333333,4,2,0,100,0,0
163692,-83.3333333333333,4,0,0,5,0,0
163838,-83.3333333333333,4,2,0,100,0,0
164420,-133.333333333333,4,2,0,100,0,0
164711,-83.3333333333333,4,2,0,100,0,0
165002,-83.3333333333333,4,0,0,5,0,0
165148,-83.3333333333333,4,2,0,100,0,0
166168,-100,4,2,0,100,0,0
167041,-71.4285714285714,4,2,0,100,0,0
167332,-71.4285714285714,4,0,0,5,0,0
167478,-71.4285714285714,4,2,0,100,0,0
167624,-83.3333333333333,4,2,0,100,0,0
168352,-83.3333333333333,4,0,0,5,0,0
168498,-83.3333333333333,4,2,0,100,0,0
171702,-71.4285714285714,4,2,0,100,0,0
171993,-71.4285714285714,4,0,0,5,0,0
172139,-71.4285714285714,4,2,0,100,0,0
172284,-100,4,2,0,100,0,0
172721,-83.3333333333333,4,2,0,100,0,0
173012,-83.3333333333333,4,0,0,5,0,0
173158,-83.3333333333333,4,2,0,100,0,0
174323,-83.3333333333333,4,0,0,5,0,0
174469,-83.3333333333333,4,2,0,100,0,0
175488,-71.4285714285714,4,2,0,100,0,0
176653,-71.4285714285714,4,0,0,5,0,0
176799,-71.4285714285714,4,2,0,100,0,0
176944,-83.3333333333333,4,2,0,100,0,0
177672,-83.3333333333333,4,0,0,5,0,0
177818,-83.3333333333333,4,2,0,100,0,0
181022,-71.4285714285714,4,2,0,100,0,0
181313,-71.4285714285714,4,0,0,5,0,0
181459,-71.4285714285714,4,2,0,100,0,0
181605,-100,4,2,0,100,0,0
182041,-83.3333333333333,4,2,0,100,0,0
182332,-83.3333333333333,4,0,0,5,0,0
182478,-83.3333333333333,4,2,0,100,0,0
183061,-100,4,2,0,100,0,0
183352,-71.4285714285714,4,2,0,100,0,0
183643,-71.4285714285714,4,0,0,5,0,0
183789,-71.4285714285714,4,2,0,100,0,0
184372,-100,4,2,0,100,0,0
184663,-100,4,0,0,5,0,0
184808,-83.3333333333333,4,2,0,100,0,0

[Colours]
Combo1 : 204,191,168
Combo2 : 222,218,222
Combo3 : 192,180,188
Combo4 : 231,209,218
Combo5 : 215,157,179
Combo6 : 208,216,232
Combo7 : 164,177,208
Combo8 : 228,222,211

[HitObjects]
30,158,1605,6,0,P|25:71|30:46,1,104.999996423722,2|0,0:0|0:0,2:0:0:0:
148,161,2041,1,2,0:0:0:0:
148,161,2551,2,0,P|154:107|152:99,1,52.4999982118608,0|0,2:0|2:0,2:0:0:0:
154,109,3097,6,0,P|192:112|212:109,1,52.4999982118608,0|0,2:0|2:0,2:0:0:0:
126,25,3571,2,0,P|171:13|231:24,1,104.999996423722,0|0,2:0|0:0,2:0:0:0:
305,8,3935,6,0,B|311:82|279:48|286:117,1,104.999996423722,2|0,0:0|0:0,2:0:0:0:
425,225,4408,2,0,B|419:151|451:185|444:116,1,104.999996423722,0|0,2:0|0:0,2:0:0:0:
367,118,4845,1,0,2:0:0:0:
367,118,5427,6,0,P|328:113|299:118,1,65.624997764826,0|0,2:0|0:0,2:0:0:0:
382,214,5901,2,0,P|330:221|275:213,1,104.999996423722,0|0,2:0|0:0,2:0:0:0:
301,251,6265,6,0,P|296:297|266:348,1,104.999996423722,2|0,0:0|0:0,2:0:0:0:
198,213,6702,1,2,0:0:0:0:
198,213,7175,2,0,P|188:247|184:269,1,52.4999982118608,0|0,2:0|2:0,2:0:0:0:
184,263,7794,6,0,P|148:245|125:243,1,52.4999982118608,0|0,2:0|2:0,2:0:0:0:
170,354,8231,2,0,P|122:361|71:346,1,78.7499973177912,0|0,2:0|2:0,2:0:0:0:
110,141,8595,5,2,3:2:0:0:
126,243,8886,1,0,3:0:0:0:
402,141,9177,5,2,3:2:0:0:
386,243,9469,1,2,3:2:0:0:
256,8,9760,5,2,3:2:0:0:
256,380,10051,1,2,0:0:0:0:
264,176,10342,2,0,P|256:208|244:176,1,85.7499970793724,0|0,2:0|0:0,2:0:0:0:
256,160,10925,6,0,P|312:180|424:168,1,167.999994277954,6|0,1:2|0:0,2:0:0:0:
418,170,11508,1,2,0:3:0:0:
485,349,11944,2,0,P|493:313|493:257,1,69.9999976158143,0|0,1:0|0:0,2:0:0:0:
364,364,12236,1,0,1:0:0:0:
364,364,12381,2,0,P|344:296|352:196,1,139.999995231629,0|2,1:0|0:3,2:0:0:0:
285,88,12818,1,0,1:3:0:0:
256,200,12964,1,8,0:3:0:0:
145,165,13109,1,8,0:3:0:0:
256,200,13255,6,0,P|255:253|226:339,1,139.999995231629,6|0,1:2|0:0,2:0:0:0:
176,42,13838,1,2,0:3:0:0:
23,185,14129,2,0,P|36:266|48:299,1,69.9999976158143,2|0,0:0|1:0,0:0:0:0:
151,358,14420,6,0,P|188:308|201:269,1,69.9999976158143,0|0,0:0|1:0,0:0:0:0:
302,334,14711,2,0,P|309:272|300:231,1,69.9999976158143,0|0,1:0|0:0,2:0:0:0:
430,266,15003,2,0,P|405:208|357:147,1,118.999995946885,2|0,0:3|0:0,0:0:0:0:
372,162,15440,1,0,1:0:0:0:
406,6,15585,6,0,P|427:81|491:152,1,167.999994277954,6|0,1:2|0:0,2:0:0:0:
485,147,16168,1,2,0:3:0:0:
215,162,16605,2,0,P|287:143|302:131,1,69.9999976158143,0|0,1:0|0:0,2:0:0:0:
361,195,16896,1,0,1:0:0:0:
227,276,17041,2,0,P|308:273|388:304,1,139.999995231629,0|2,1:0|0:3,2:0:0:0:
469,242,17478,1,0,1:3:0:0:
361,195,17624,1,8,0:3:0:0:
412,93,17770,1,8,0:3:0:0:
499,166,17915,6,0,P|477:247|458:278,1,69.9999976158143,6|0,1:2|0:0,2:0:0:0:
265,161,18207,2,0,P|268:82|304:-1,1,139.999995231629,0|2,2:0|0:3,0:0:0:0:
288,25,18643,1,2,0:0:0:0:
187,216,18789,2,0,P|113:201|81:195,1,69.9999976158143,2|0,0:0|1:0,0:0:0:0:
69,56,19080,6,0,P|62:122|26:179,1,69.9999976158143,0|0,0:0|1:0,0:0:0:0:
210,140,19372,2,0,P|170:193|111:225,1,69.9999976158143,0|0,1:0|0:0,2:0:0:0:
265,309,19663,2,0,P|204:335|114:335,1,118.999995946885,2|0,0:3|0:0,0:0:0:0:
152,340,20100,1,0,1:0:0:0:
332,219,20245,6,0,P|390:225|459:323,1,167.999994277954,6|0,1:2|0:0,2:0:0:0:
456,305,20828,1,2,0:3:0:0:
484,37,21265,2,0,P|471:118|463:135,1,69.9999976158143,0|0,1:0|0:0,2:0:0:0:
409,151,21556,1,0,1:0:0:0:
294,30,21702,2,0,P|307:112|342:185,1,139.999995231629,0|2,1:0|0:3,2:0:0:0:
247,285,22139,1,0,1:3:0:0:
247,285,22430,5,8,0:3:0:0:
47,243,22575,2,0,P|149:226|228:182,1,167.999994277954,6|0,1:2|0:0,2:0:0:0:
27,344,23158,1,2,0:3:0:0:
27,344,23449,1,0,2:0:0:0:
121,272,23595,2,0,P|116:199|99:163,1,69.9999976158143,0|0,1:0|0:0,2:0:0:0:
53,134,23886,1,0,1:0:0:0:
256,164,24032,6,0,P|244:253|253:293,1,104.999996423721,0|0,1:0|2:0,2:0:0:0:
256,297,24323,2,0,L|358:291,1,69.9999976158143,2|0,0:3|0:0,0:0:0:0:
496,360,24614,1,0,2:0:0:0:
335,361,24760,1,0,1:0:0:0:
345,204,24906,1,6,1:2:0:0:
8,212,25488,5,2,0:3:0:0:
345,204,25925,2,0,P|274:219|249:218,1,69.9999976158143,0|0,1:0|0:0,2:0:0:0:
226,135,26216,1,0,1:0:0:0:
285,304,26362,2,0,P|196:303|121:267,1,139.999995231629,0|2,1:0|0:3,2:0:0:0:
90,154,26799,1,0,1:3:0:0:
242,128,26944,1,8,0:3:0:0:
185,218,27090,1,8,0:3:0:0:
155,22,27236,1,6,1:2:0:0:
155,22,27527,6,0,P|151:108|165:150,1,69.9999976158143,0|0,2:0|0:0,0:0:0:0:
303,207,27818,2,0,P|413:182|474:146,1,139.999995231629,2|2,0:3|0:0,0:0:0:0:
436,170,28255,1,0,1:0:0:0:
309,122,28401,6,0,P|275:52|271:14,1,69.9999976158143,0|0,2:0|1:0,2:0:0:0:
224,227,28692,2,0,P|159:183|137:152,1,69.9999976158143,0|0,1:0|0:0,2:0:0:0:
226,355,28983,2,0,P|148:349|94:333,1,118.999995946885,2|0,0:3|0:0,2:3:0:0:
108,338,29420,1,0,0:0:0:0:
316,350,29566,6,0,P|386:339|426:323,1,104.999996423722,10|0,0:0|0:0,2:0:0:0:
417,326,30003,1,10,0:0:0:0:
491,206,30148,2,0,P|486:266|478:303,1,52.4999982118608,8|0,0:0|0:0,2:0:0:0:
392,194,30440,2,0,P|389:220|388:246,1,52.4999982118608,10|2,0:0|0:0,2:0:0:0:
447,124,30731,6,0,P|404:59|315:69,1,118.999995946885,2|8,0:0|0:0,0:0:0:0:
367,49,31168,1,2,0:0:0:0:
255,119,31313,2,0,P|190:131|157:133,1,59.4999979734423,8|0,0:0|0:0,2:0:0:0:
256,19,31605,2,0,P|191:7|158:5,1,59.4999979734423,2|8,0:0|0:0,0:0:0:0:
155,222,31896,6,0,P|229:210|321:179,1,139.999995231629,10|0,0:0|0:0,2:0:0:0:
291,191,32333,1,10,0:0:0:0:
356,306,32478,2,0,P|279:293|228:301,1,83.9999971389771,8|0,0:0|0:0,2:0:0:0:
316,101,32770,2,0,P|393:114|441:107,1,83.9999971389771,10|0,0:0|0:0,2:0:0:0:
291,191,33061,6,2,P|109:162|64:62,1,293.99998998642,2|0,0:0|0:0,0:0:0:0:
63,157,33643,2,2,P|57:232|34:271,1,104.999996423721,8|0,0:0|0:0,0:0:0:0:
151,300,34226,6,0,P|101:355|58:370,1,104.999996423722,10|0,0:0|0:0,2:0:0:0:
73,366,34663,1,10,0:0:0:0:
222,239,34808,2,0,P|229:184|220:144,1,52.4999982118608,8|0,0:0|0:0,2:0:0:0:
123,223,35100,2,0,P|124:196|130:171,1,52.4999982118608,10|2,0:0|0:0,2:0:0:0:
343,167,35391,6,0,P|323:247|335:328,1,118.999995946885,2|8,0:0|0:0,0:0:0:0:
379,349,35828,1,2,0:0:0:0:
457,240,35974,2,0,P|445:308|432:333,1,59.4999979734423,8|0,0:0|0:0,2:0:0:0:
230,297,36265,2,0,P|223:268|221:238,1,59.4999979734423,2|8,0:0|0:0,0:0:0:0:
360,42,36556,6,0,P|382:118|380:217,1,139.999995231629,10|0,0:0|0:0,2:0:0:0:
312,249,36993,1,10,0:0:0:0:
477,256,37139,2,0,P|499:180|499:113,1,83.9999971389771,8|0,0:0|0:0,2:0:0:0:
445,6,37430,2,0,P|453:47|467:86,1,83.9999971389771,10|0,0:0|0:0,2:0:0:0:
367,135,37721,2,2,P|259:150|157:120,1,195.99999332428,2|8,0:0|0:0,0:0:0:0:
175,129,38158,1,0,0:0:0:0:
411,50,38304,2,2,B|198:87|298:10|79:39,1,335.999988555908,8|0,0:0|0:0,0:0:0:0:
498,31,38886,1,6,1:2:0:0:
498,31,39177,6,0,P|494:83|475:122,1,52.4999982118608,0|0,2:0|1:2,0:0:0:0:
407,74,39469,2,0,P|411:22|430:-17,1,52.4999982118608,2|0,1:3|2:0,0:0:0:0:
411,22,39760,1,0,1:2:0:0:
438,154,39906,1,0,0:0:0:0:
438,154,40342,2,0,L|535:161,1,69.9999976158143,0|0,1:2|3:2,2:0:0:0:
70,120,41216,5,6,1:2:0:0:
70,120,41508,2,0,P|31:128|-15:129,1,52.4999982118608,0|0,2:0|1:2,0:0:0:0:
57,33,41799,2,0,P|30:36|5:42,1,52.4999982118608,2|0,1:3|2:0,0:0:0:0:
5,42,42090,1,0,1:2:0:0:
138,64,42236,1,0,0:0:0:0:
138,64,42673,2,0,P|183:62|205:58,1,52.4999982118607,0|0,1:2|0:0,0:0:0:0:
264,0,42964,2,2,B|291:178|216:60|256:260,1,251.999991416931,0|0,3:0|0:0,0:1:0:0:
482,355,43546,5,6,1:2:0:0:
482,355,43838,2,0,P|483:317|475:280,1,52.4999982118608,0|0,2:0|1:2,0:0:0:0:
395,306,44129,2,0,P|394:344|402:381,1,52.4999982118608,2|0,1:3|2:0,0:0:0:0:
396,358,44420,1,0,1:2:0:0:
368,233,44566,1,0,0:0:0:0:
368,233,45003,2,0,P|363:297|349:342,1,104.999996423722,0|0,1:2|3:2,0:0:0:0:
270,370,45440,1,2,0:0:0:0:
133,293,45585,1,2,0:0:0:0:
133,293,45876,6,0,P|68:309|33:311,1,69.9999976158143,6|0,1:2|2:0,2:0:0:0:
116,207,46168,2,0,P|50:221|18:234,1,69.9999976158143,2|0,0:0|1:2,2:0:0:0:
222,324,46459,6,0,P|173:370|144:389,1,69.9999976158143,2|0,1:3|2:0,2:0:0:0:
182,140,46750,2,0,P|118:119|83:115,1,69.9999976158143,2|0,1:2|2:0,2:0:0:0:
279,215,47041,2,0,P|389:184|437:142,1,167.999994277954,2|2,0:0|1:2,2:0:0:0:
474,38,47478,1,0,3:0:0:0:
474,38,47551,1,0,3:0:0:0:
474,38,47624,1,2,3:1:0:0:
421,200,47770,1,2,3:1:0:0:
314,85,47915,1,2,3:1:0:0:
261,229,48061,1,2,3:1:0:0:
404,94,48207,6,0,P|328:108|170:66,1,195.99999332428,6|0,1:2|0:0,2:0:0:0:
90,35,48643,1,2,1:2:0:0:
29,142,48789,2,0,P|30:205|40:238,1,69.9999976158143,2|0,1:3|0:0,2:0:0:0:
88,49,49080,1,2,1:2:0:0:
142,128,49226,2,0,P|152:199|134:299,1,167.999994277954
236,361,49663,2,0,P|243:310|238:261,1,83.9999971389771,2|0,1:2|0:0,2:0:0:0:
33,321,49954,1,2,1:3:0:0:
33,321,50245,6,0,L|121:314,1,78.7499973177912,0|0,0:0|2:0,0:0:0:0:
176,217,50537,2,0,P|169:135|178:37,1,167.999994277954,6|0,1:2|0:0,2:0:0:0:
282,17,50974,1,2,1:2:0:0:
266,147,51119,1,2,1:3:0:0:
410,165,51265,1,0,2:0:0:0:
424,31,51410,1,2,1:2:0:0:
424,31,51993,6,0,P|428:92|410:174,1,139.999995231629,2|0,1:2|3:0,2:0:0:0:
323,187,52430,1,2,2:0:0:0:
508,194,52575,2,0,P|499:251|509:308,1,104.999996423721
492,342,52867,6,2,P|427:319|274:320,1,195.99999332428,6|0,1:2|0:0,1:0:0:0:
137,349,53304,1,2,1:2:0:0:
201,219,53449,2,0,P|267:207|296:190,1,69.9999976158143,2|0,1:3|0:0,2:0:0:0:
155,341,53741,1,2,1:2:0:0:
302,309,53886,2,0,P|364:278|426:196,1,167.999994277954
362,22,54323,2,0,P|328:11|276:11,1,83.9999971389771,2|0,1:2|0:0,2:0:0:0:
193,38,54614,1,2,1:3:0:0:
256,112,54760,1,2,0:0:0:0:
168,216,54906,1,2,0:0:0:0:
168,216,55197,6,0,P|156:172|152:100,1,83.9999971389771,6|0,1:2|2:0,2:0:0:0:
78,268,55488,2,0,P|94:332|96:385,1,83.9999971389771,2|0,0:0|1:2,2:0:0:0:
344,216,55779,6,0,P|356:172|360:100,1,83.9999971389771,2|0,1:3|2:0,2:0:0:0:
434,268,56071,2,0,P|418:332|416:385,1,83.9999971389771,2|0,1:2|2:0,2:0:0:0:
256,264,56362,6,0,L|256:92,1,167.999994277954,2|2,0:0|1:2,2:0:0:0:
256,8,56799,1,0,3:0:0:0:
256,8,56872,1,0,3:0:0:0:
256,8,56944,5,2,3:1:0:0:
173,73,57090,1,2,3:1:0:0:
342,124,57236,1,2,3:1:0:0:
197,188,57381,1,2,3:1:0:0:
256,264,57527,1,2,3:2:0:0:
256,192,60440,12,0,61896,0:0:0:0:
353,284,62187,6,0,P|348:193|372:111,1,167.999994277954,6|0,1:2|0:0,2:0:0:0:
368,119,62770,1,2,0:3:0:0:
186,102,63207,2,0,P|203:45|202:19,1,69.9999976158143,0|0,1:0|0:0,2:0:0:0:
123,3,63498,1,0,1:0:0:0:
92,133,63643,2,0,P|61:87|41:-26,1,139.999995231629,0|2,1:0|0:3,2:0:0:0:
0,146,64080,1,0,1:3:0:0:
172,172,64226,1,8,0:3:0:0:
84,314,64372,1,8,0:3:0:0:
55,227,64517,6,0,B|139:221|111:267|218:253,1,139.999995231629,6|0,1:2|0:0,2:0:0:0:
413,54,65100,1,2,0:3:0:0:
236,259,65391,2,0,P|251:320|270:351,1,69.9999976158143,2|0,0:0|1:0,0:0:0:0:
465,356,65682,6,0,P|409:330|374:326,1,69.9999976158143,0|0,0:0|1:0,0:0:0:0:
475,203,65974,2,0,P|413:208|381:222,1,69.9999976158143,0|0,1:0|0:0,2:0:0:0:
413,54,66265,2,0,P|362:89|323:137,1,118.999995946885,2|0,0:3|0:0,0:0:0:0:
325,132,66702,1,0,1:0:0:0:
184,252,66847,6,0,P|176:189|192:83,1,167.999994277954,6|0,1:2|0:0,2:0:0:0:
190,86,67430,1,2,0:3:0:0:
87,358,67867,2,0,P|89:299|82:270,1,69.9999976158143,0|0,1:0|0:0,2:0:0:0:
68,199,68158,1,0,1:0:0:0:
220,357,68304,2,0,P|211:299|231:202,1,139.999995231629,0|2,1:0|0:3,2:0:0:0:
277,134,68741,1,0,1:3:0:0:
321,242,68886,1,8,0:3:0:0:
150,149,69032,1,8,0:3:0:0:
287,131,69177,6,0,P|341:123|387:109,1,69.9999976158143,6|0,1:2|0:0,2:0:0:0:
149,19,69469,2,0,P|84:28|49:116,1,139.999995231629,0|2,2:0|0:3,0:0:0:0:
46,87,69906,1,2,0:0:0:0:
127,225,70051,2,0,P|148:179|151:147,1,69.9999976158143,2|0,0:0|1:0,0:0:0:0:
41,316,70342,2,0,P|25:286|18:252,1,69.9999976158143,0|0,0:0|1:0,0:0:0:0:
225,258,70634,2,0,P|226:223|236:189,1,69.9999976158143,0|0,1:0|0:0,2:0:0:0:
385,314,70925,2,0,P|403:284|471:227,1,118.999995946885,2|0,0:3|0:0,0:0:0:0:
466,229,71362,1,0,1:0:0:0:
510,47,71508,6,0,P|466:105|383:165,1,167.999994277954,6|0,1:2|0:0,2:0:0:0:
390,161,72090,1,2,0:3:0:0:
112,65,72527,2,0,P|154:27|183:6,1,69.9999976158143,0|0,1:0|0:0,2:0:0:0:
254,10,72818,1,0,1:0:0:0:
129,146,72964,2,0,P|201:166|292:155,1,139.999995231629,0|2,1:0|0:3,2:0:0:0:
386,281,73401,1,0,1:3:0:0:
386,281,73692,5,8,0:3:0:0:
157,334,73838,2,0,P|229:315|305:258,1,167.999994277954,6|0,1:2|0:0,2:0:0:0:
3,204,74420,1,2,0:3:0:0:
3,204,74711,1,0,2:0:0:0:
97,269,74857,2,0,P|84:222|87:173,1,69.9999976158143,0|0,1:0|0:0,2:0:0:0:
75,117,75148,1,0,1:0:0:0:
158,331,75294,6,0,P|239:305|291:310,1,104.999996423721,0|0,1:0|2:0,2:0:0:0:
281,321,75585,2,0,P|328:328|379:323,1,69.9999976158143,2|0,0:3|2:0,0:0:0:0:
510,297,75876,1,0,2:0:0:0:
373,323,76022,1,0,1:0:0:0:
495,141,76168,1,6,1:2:0:0:
159,186,76750,1,2,0:3:0:0:
495,141,77187,6,0,P|502:81|499:51,1,69.9999976158143,0|0,1:0|0:0,2:0:0:0:
439,219,77478,1,0,1:0:0:0:
375,160,77624,2,0,P|358:103|367:16,1,139.999995231629,0|2,1:0|0:3,2:0:0:0:
260,117,78061,1,0,1:3:0:0:
155,55,78207,1,8,0:3:0:0:
253,1,78352,1,8,0:3:0:0:
211,197,78498,1,6,1:2:0:0:
211,197,78789,6,0,P|214:137|208:102,1,69.9999976158143,0|0,2:0|0:0,0:0:0:0:
302,271,79080,2,0,P|270:336|208:358,1,139.999995231629,2|2,0:3|0:0,0:0:0:0:
209,357,79517,1,0,1:0:0:0:
92,167,79663,6,0,P|119:220|142:247,1,69.9999976158143,0|0,2:0|1:0,2:0:0:0:
297,127,79954,2,0,P|294:187|300:222,1,69.9999976158143,0|0,1:0|0:0,2:0:0:0:
490,182,80245,2,0,P|457:232|440:298,1,118.999995946885,2|0,0:3|0:0,2:0:0:0:
441,288,80682,1,0,0:0:0:0:
395,162,80828,6,0,P|427:111|444:47,1,104.999996423722,10|0,0:0|0:0,2:0:0:0:
440,68,81265,1,10,0:0:0:0:
339,77,81410,2,0,P|341:42|336:11,1,52.4999982118608,8|0,0:0|0:0,2:0:0:0:
246,76,81702,2,0,P|244:41|249:10,1,52.4999982118608,10|2,0:0|0:0,2:0:0:0:
128,0,81993,6,0,P|137:56|121:138,1,118.999995946885,2|8,0:0|0:0,0:0:0:0:
128,117,82430,1,2,0:0:0:0:
26,102,82575,2,0,P|19:65|21:37,1,59.4999979734423,8|0,0:0|0:0,2:0:0:0:
67,179,82867,2,0,P|67:208|61:237,1,59.4999979734423,2|8,0:0|0:0,0:0:0:0:
140,353,83158,6,0,P|213:350|294:341,1,139.999995231629,10|0,0:0|0:0,2:0:0:0:
279,343,83595,1,10,0:0:0:0:
482,311,83741,2,0,P|413:311|370:303,1,83.9999971389771,8|0,0:0|0:0,2:0:0:0:
249,256,84032,2,0,P|318:256|361:248,1,83.9999971389771,10|0,0:0|0:0,2:0:0:0:
213,177,84323,6,2,P|127:184|23:9,1,293.99998998642,2|0,0:0|0:0,0:0:0:0:
33,157,84906,2,2,P|31:208|18:267,1,104.999996423721,8|0,0:0|0:0,0:0:0:0:
122,149,85488,6,0,P|120:95|133:26,1,104.999996423722,10|0,0:0|0:0,2:0:0:0:
127,44,85925,1,10,0:0:0:0:
217,128,86071,2,0,P|215:176|209:199,1,52.4999982118608,8|0,0:0|0:0,2:0:0:0:
315,130,86362,2,0,P|317:178|323:201,1,52.4999982118608,10|2,0:0|0:0,2:0:0:0:
276,43,86653,6,0,P|308:17|392:28,1,118.999995946885,2|8,0:0|0:0,0:0:0:0:
382,21,87090,1,2,0:0:0:0:
444,120,87236,2,0,P|498:107|526:94,1,59.4999979734423,8|0,0:0|0:0,2:0:0:0:
512,195,87527,2,0,P|483:204|454:209,1,59.4999979734423,2|8,0:0|0:0,0:0:0:0:
375,314,87818,6,0,P|446:304|528:280,1,139.999995231629,10|0,0:0|0:0,2:0:0:0:
511,285,88255,1,10,0:0:0:0:
356,235,88401,2,0,P|366:194|370:153,1,83.9999971389771,8|0,0:0|0:0,2:0:0:0:
276,290,88692,2,0,P|266:330|262:372,1,83.9999971389771,10|0,0:0|0:0,2:0:0:0:
188,253,88983,2,2,P|188:182|221:54,1,195.99999332428,2|8,0:0|0:0,0:0:0:0:
217,61,89420,1,0,0:0:0:0:
104,338,89566,2,2,B|52:111|145:271|91:-2,1,335.999988555908,8|0,0:0|0:0,0:0:0:0:
18,350,90148,1,6,1:2:0:0:
18,350,90440,6,0,P|12:307|5:275,1,52.4999982118608,0|0,2:0|1:2,0:0:0:0:
96,286,90731,2,0,P|99:312|104:338,1,52.4999982118608,2|0,1:3|2:0,0:0:0:0:
104,338,91022,1,0,1:2:0:0:
78,203,91168,1,0,0:0:0:0:
78,203,91605,2,0,L|8:212,1,69.9999976158143,0|0,1:2|3:2,2:0:0:0:
497,298,92478,5,6,1:2:0:0:
497,298,92770,2,0,P|503:262|506:232,1,52.4999982118608,0|0,2:0|1:2,0:0:0:0:
414,282,93061,2,0,P|417:255|421:230,1,52.4999982118608,2|0,1:3|2:0,0:0:0:0:
421,230,93352,1,0,1:2:0:0:
380,357,93498,1,0,0:0:0:0:
380,357,93935,2,0,L|312:352,1,52.4999982118607,0|0,1:2|0:0,0:0:0:0:
247,380,94226,2,2,B|225:201|295:330|257:117,1,251.999991416931,0|0,3:0|0:0,0:1:0:0:
52,31,94808,5,6,1:2:0:0:
52,31,95100,2,0,P|55:84|60:103,1,52.4999982118608,0|0,2:0|1:2,0:0:0:0:
146,76,95391,2,0,P|143:23|138:4,1,52.4999982118608,2|0,1:3|2:0,0:0:0:0:
143,23,95682,1,0,1:2:0:0:
101,164,95828,1,0,0:0:0:0:
101,164,96265,2,0,P|163:156|226:153,1,104.999996423722,0|0,1:2|3:2,0:0:0:0:
377,150,96702,1,2,0:0:0:0:
319,21,96847,1,2,0:0:0:0:
319,21,97139,6,0,P|322:67|342:120,1,69.9999976158143,6|0,1:2|2:0,2:0:0:0:
437,18,97430,2,0,P|434:64|414:117,1,69.9999976158143,2|0,0:0|1:2,2:0:0:0:
222,108,97721,6,0,P|247:146|291:182,1,69.9999976158143,2|0,1:3|2:0,2:0:0:0:
512,116,98012,2,0,P|486:154|442:190,1,69.9999976158143,2|0,1:2|2:0,2:0:0:0:
383,342,98304,2,0,P|369:265|378:176,1,139.999995231629,2|2,0:0|1:2,2:0:0:0:
387,128,98741,1,0,3:0:0:0:
387,128,98813,1,0,3:0:0:0:
387,128,98886,1,2,3:1:0:0:
278,220,99032,1,2,3:1:0:0:
245,91,99177,1,2,3:1:0:0:
350,2,99323,1,2,3:1:0:0:
303,118,99469,6,0,P|226:138|88:139,1,195.99999332428,6|0,1:2|0:0,2:0:0:0:
178,16,99906,1,2,1:2:0:0:
303,118,100051,2,0,P|353:128|401:114,1,69.9999976158143,2|0,1:3|0:0,2:0:0:0:
472,76,100342,1,2,1:2:0:0:
333,239,100488,2,0,P|406:220|496:171,1,167.999994277954
504,279,100925,2,0,P|460:262|416:235,1,83.9999971389771,2|0,1:2|0:0,2:0:0:0:
332,365,101216,1,2,1:3:0:0:
332,365,101508,6,0,P|308:318|305:271,1,78.7499973177912,0|0,0:0|2:0,0:0:0:0:
210,251,101799,2,0,P|203:318|105:369,1,167.999994277954,6|0,1:2|0:0,2:0:0:0:
26,280,102236,1,2,1:2:0:0:
118,214,102381,1,2,1:3:0:0:
52,129,102527,1,0,2:0:0:0:
210,251,102673,1,2,1:2:0:0:
210,251,103255,6,0,P|221:196|196:103,1,139.999995231629,2|0,1:2|3:0,2:0:0:0:
269,48,103692,1,0,2:0:0:0:
353,181,103838,2,2,P|343:132|361:52,1,104.999996423721,0|0,2:0|0:0,2:1:0:0:
368,52,104129,6,0,P|383:130|351:271,1,195.99999332428,6|0,1:2|0:0,2:0:0:0:
165,253,104566,1,2,1:2:0:0:
261,295,104711,2,0,P|268:237|260:201,1,69.9999976158143,2|0,1:3|0:0,2:0:0:0:
176,356,105003,1,2,1:2:0:0:
76,311,105148,2,0,P|61:271|61:128,1,167.999994277954
223,18,105585,2,0,P|232:76|221:122,1,83.9999971389771,2|0,1:2|2:0,2:0:0:0:
133,73,105876,1,2,1:3:0:0:
212,216,106022,1,2,0:0:0:0:
352,120,106168,1,2,0:0:0:0:
352,120,106459,6,0,P|374:69|385:26,1,83.9999971389771,6|0,1:2|0:0,2:0:0:0:
411,214,106750,2,0,P|433:163|444:120,1,83.9999971389771,2|0,0:0|1:2,2:0:0:0:
160,120,107041,6,0,P|138:69|127:26,1,83.9999971389771,2|0,1:3|2:0,2:0:0:0:
101,214,107333,2,0,P|79:163|68:120,1,83.9999971389771,2|0,1:2|2:0,2:0:0:0:
256,116,107624,6,0,L|256:308,1,167.999994277954,2|2,0:0|1:2,2:0:0:0:
256,368,108061,1,0,3:0:0:0:
256,368,108134,1,0,3:0:0:0:
256,368,108207,5,2,3:1:0:0:
128,240,108352,1,2,3:1:0:0:
256,128,108498,1,2,3:1:0:0:
384,240,108643,1,2,3:1:0:0:
256,244,108789,1,2,3:2:0:0:
256,192,111702,12,0,113158,0:0:0:0:
156,239,113449,6,0,P|175:174|157:86,1,157.499994635582,4|4,1:3|1:3,2:0:0:0:
268,122,114032,1,4,1:3:0:0:
268,122,114323,2,0,P|318:116|379:99,1,104.999996423722,4|0,1:3|0:0,2:0:0:0:
80,146,114906,1,4,1:3:0:0:
80,146,115197,2,0,L|71:40,1,104.999996423722,4|0,1:3|0:0,2:0:0:0:
71,41,115634,1,4,1:3:0:0:
0,181,115779,6,0,P|17:222|8:355,1,178.499993920327,4|4,1:3|1:3,2:0:0:0:
106,368,116362,1,4,1:3:0:0:
106,368,116653,2,0,P|163:361|234:344,1,118.999995946885,4|0,1:3|2:0,2:0:0:0:
499,305,117236,1,4,1:3:0:0:
499,305,117527,2,0,P|442:298|371:281,1,118.999995946885,4|0,1:3|0:0,2:0:0:0:
382,284,117964,1,0,0:0:0:0:
363,112,118109,6,0,P|291:139|241:263,1,209.999992847443,4|4,1:3|1:3,2:0:0:0:
139,303,118692,1,4,1:3:0:0:
139,303,118983,2,0,P|140:235|122:150,1,139.999995231629,4|0,1:3|2:0,2:0:0:0:
343,209,119566,1,4,1:3:0:0:
343,209,119857,2,0,P|342:141|360:56,1,139.999995231629,4|0,1:3|0:0,2:0:0:0:
355,70,120294,1,4,1:3:0:0:
455,216,120440,6,0,P|445:263|283:332,1,230.999992132187,4|4,1:3|1:3,2:0:0:0:
179,213,121022,1,4,1:3:0:0:
179,213,121313,2,0,P|231:235|338:253,1,153.999994754791,4|2,1:3|0:0,0:0:0:0:
256,192,121750,12,2,122770,1:2:0:0:
240,104,123061,5,0,2:0:0:0:
359,122,123207,1,0,1:0:0:0:
268,224,123352,1,2,0:3:0:0:
372,117,123498,1,0,2:0:0:0:
400,252,123643,1,0,1:0:0:0:
452,160,123789,2,0,P|458:117|461:67,2,69.9999976158143,0|0|0,2:0|2:0|2:0,0:0:0:0:
276,228,124226,2,0,P|279:262|284:297,1,69.9999976158143,0|0,1:0|2:0,0:0:0:0:
131,370,124517,5,2,0:3:0:0:
194,303,124663,1,0,2:0:0:0:
106,267,124808,2,0,P|37:284|17:286,1,69.9999976158143,0|0,2:0|2:0,0:0:0:0:
30,134,125100,2,0,P|99:151|119:153,1,69.9999976158143,2|0,1:2|2:0,0:0:0:0:
205,170,125391,1,0,2:0:0:0:
221,50,125537,1,0,1:0:0:0:
319,104,125682,6,0,P|316:155|320:195,2,69.9999976158143,2|0|0,0:3|2:0|1:0,0:0:0:0:
376,238,126119,1,0,2:0:0:0:
376,238,126265,2,0,P|407:254|436:275,1,69.9999976158143,0|0,2:0|2:0,0:0:0:0:
401,148,126556,2,0,P|401:94|404:57,1,69.9999976158143,0|0,1:0|2:0,0:0:0:0:
304,10,126847,5,0,3:0:0:0:
247,130,126993,1,0,2:0:0:0:
121,73,127139,1,0,2:0:0:0:
121,73,127284,1,0,2:0:0:0:
179,187,127430,2,0,P|194:250|195:358,2,139.999995231629,2|0|2,1:2|2:0|0:3,2:0:0:0:
177,186,128304,5,0,1:0:0:0:
279,244,128449,1,0,2:0:0:0:
367,176,128595,2,0,P|357:115|355:84,1,69.9999976158143,0|0,2:0|2:0,0:0:0:0:
467,231,128886,2,0,P|462:265|456:300,1,69.9999976158143,0|0,1:0|2:0,0:0:0:0:
181,348,129177,1,2,0:3:0:0:
181,348,129469,5,0,2:0:0:0:
291,318,129614,1,0,2:0:0:0:
261,206,129760,1,2,1:2:0:0:
261,206,129906,1,0,2:0:0:0:
178,256,130051,5,0,2:0:0:0:
72,217,130197,1,0,1:0:0:0:
120,104,130342,1,2,0:3:0:0:
256,376,130634,5,2,0:0:0:0:
256,376,130779,2,0,L|256:160,1,209.999992847443,2|2,0:0|3:2,0:0:0:0:
256,144,131435,1,0,3:0:0:0:
256,144,131508,1,2,3:2:0:0:
344,256,131653,1,0,3:0:0:0:
252,376,131799,1,0,3:0:0:0:
164,256,131944,1,0,3:0:0:0:
346,353,132090,6,0,P|393:268|390:172,1,195.99999332428,6|0,1:2|0:0,2:0:0:0:
368,32,132527,1,2,1:2:0:0:
468,86,132673,2,0,P|474:146|484:192,1,83.9999971389771,2|0,1:3|2:0,2:0:0:0:
292,204,132964,2,0,P|286:144|276:98,1,83.9999971389771,2|0,1:2|2:0,2:0:0:0:
175,29,133255,2,0,P|106:36|69:39,1,83.9999971389771,0|0,2:0|2:0,0:0:0:0:
201,159,133546,1,2,1:2:0:0:
191,30,133692,1,0,2:0:0:0:
48,39,133838,1,2,1:3:0:0:
48,39,134129,6,0,P|48:88|54:134,1,78.7499973177912,2|0,0:1|0:0,2:0:0:0:
133,206,134420,2,0,P|186:165|326:144,1,195.99999332428,6|0,1:2|0:0,2:0:0:0:
400,350,134857,1,2,1:2:0:0:
260,308,135003,1,2,1:3:0:0:
344,210,135148,1,0,2:0:0:0:
366,366,135294,2,0,P|314:357|256:328,1,83.9999971389771,2|0,1:2|2:0,2:0:0:0:
165,152,135585,2,0,P|217:161|276:195,1,83.9999971389771,0|0,2:0|2:0,0:0:0:0:
344,210,135876,1,2,1:2:0:0:
333,55,136022,1,0,2:0:0:0:
455,171,136168,2,2,B|485:308|427:237|458:377,1,195.99999332428,0|0,3:0|0:0,0:1:0:0:
381,126,136605,1,0,2:0:0:0:
344,210,136750,6,0,P|342:284|355:329,1,83.9999971389771,6|0,1:2|2:0,2:0:0:0:
254,367,137041,2,0,P|241:281|145:246,1,167.999994277954,0|2,2:0|1:3,2:0:0:0:
31,263,137478,1,0,2:0:0:0:
74,357,137624,2,0,P|139:340|174:325,1,83.9999971389771,2|0,1:2|2:0,0:0:0:0:
278,185,137915,6,0,P|265:92|255:-12,1,167.999994277954,0|2,2:0|1:2,2:0:0:0:
257,18,138352,1,0,2:0:0:0:
350,85,138498,2,2,P|260:106|147:119,1,167.999994277954,2|2,1:3|0:0,2:1:0:0:
106,215,138935,1,0,2:0:0:0:
256,192,139080,1,2,0:0:0:0:
256,192,139226,12,0,140828,0:0:0:0:
256,192,141410,5,0,2:0:0:0:
319,133,150731,6,0,P|326:78|313:14,1,104.999996423722,2|0,0:0|0:0,2:0:0:0:
147,28,151168,2,0,P|139:79|146:131,1,104.999996423722,2|0,0:0|0:0,2:0:0:0:
55,183,151605,2,0,L|43:107,1,52.4999982118608,2|0,0:0|2:0,2:0:0:0:
135,233,151896,6,0,P|184:212|273:216,1,118.999995946885,2|0,0:0|0:0,2:0:0:0:
419,107,152333,2,0,P|370:128|281:124,1,118.999995946885,2|0,0:0|0:0,2:3:0:0:
342,221,152770,2,0,P|350:259|354:298,1,59.4999979734423,2|0,0:0|2:0,2:0:0:0:
473,355,153061,6,0,P|459:311|474:187,1,139.999995231629,2|0,0:0|0:0,2:0:0:0:
253,226,153498,2,0,P|267:270|252:394,1,139.999995231629,2|0,0:0|0:0,2:0:0:0:
337,219,153935,2,0,P|336:162|345:122,1,83.9999971389771,2|0,0:0|2:0,2:0:0:0:
231,109,154226,6,2,P|208:222|36:274,1,293.99998998642,2|0,0:0|0:0,0:0:0:0:
184,293,154808,2,2,P|228:299|290:302,1,104.999996423721,2|0,0:0|0:0,0:0:0:0:
450,231,155391,6,0,P|396:230|335:200,1,104.999996423722,2|0,0:0|0:0,2:0:0:0:
373,105,155828,2,0,P|427:106|488:136,1,104.999996423722,2|0,0:0|0:0,2:0:0:0:
450,231,156265,2,0,P|444:272|440:303,1,52.4999982118608,2|0,0:0|2:0,2:0:0:0:
318,367,156556,6,0,P|335:307|327:233,1,118.999995946885,2|0,0:0|0:0,2:0:0:0:
182,350,156993,2,0,P|179:290|195:233,1,118.999995946885,2|0,0:0|0:0,2:3:0:0:
53,293,157430,2,0,P|60:258|54:207,1,59.4999979734423,2|0,0:0|2:0,2:0:0:0:
127,44,157721,6,0,P|115:95|132:186,1,139.999995231629,2|0,0:0|0:0,2:0:0:0:
385,340,158158,2,0,P|397:289|380:198,1,139.999995231629,2|0,0:0|0:0,2:0:0:0:
217,301,158595,2,0,P|278:296|336:276,1,83.9999971389771,2|0,0:0|2:0,2:0:0:0:
349,68,158886,2,2,P|279:56|126:118,1,195.99999332428,2|0,0:0|0:0,0:0:0:0:
474,185,159469,2,2,B|167:253|368:136|27:194,1,447.999984741211
256,192,161216,12,0,162236,0:0:0:0:
105,233,162381,6,0,P|91:168|111:35,1,195.99999332428,6|0,1:2|0:0,2:0:0:0:
200,35,162818,1,2,1:2:0:0:
304,156,162964,2,0,P|317:107|309:60,1,69.9999976158143,2|0,1:3|0:0,2:0:0:0:
400,35,163255,1,2,1:2:0:0:
486,220,163401,2,0,P|470:167|485:54,1,167.999994277954
384,216,163838,2,0,P|401:279|407:309,1,83.9999971389771,2|0,1:2|0:0,2:0:0:0:
291,368,164129,1,2,1:3:0:0:
291,368,164420,6,0,L|204:373,1,78.7499973177912,2|0,0:1|0:0,2:0:0:0:
126,312,164711,2,0,P|143:244|109:127,1,167.999994277954,6|0,1:2|0:0,2:0:0:0:
166,50,165148,1,2,1:2:0:0:
219,164,165294,1,2,1:3:0:0:
336,118,165440,1,0,2:0:0:0:
282,4,165585,1,2,1:2:0:0:
282,4,166168,6,0,P|285:63|294:87,1,69.9999976158143,2|0,1:2|0:0,2:0:0:0:
405,254,166459,2,2,P|402:219|405:182,1,69.9999976158143,0|0,3:0|0:0,0:1:0:0:
511,4,166750,2,2,P|508:41|518:93,1,69.9999976158143,0|0,2:0|2:0,2:1:0:0:
405,254,167041,6,0,B|390:304|372:324|286:304|340:204|250:237,1,195.99999332428,6|0,1:2|0:0,2:0:0:0:
115,258,167478,1,2,1:2:0:0:
115,258,167624,2,0,P|126:329|141:371,1,83.9999971389771,2|0,1:3|0:0,2:0:0:0:
263,232,167915,1,2,1:2:0:0:
43,147,168061,2,0,P|29:199|27:320,1,167.999994277954
156,184,168498,2,0,B|136:87|187:115|165:3,1,167.999994277954,2|2,1:2|1:3,2:0:0:0:
237,140,168935,1,2,0:0:0:0:
84,50,169080,1,2,0:0:0:0:
84,50,169372,6,0,P|74:106|72:151,1,83.9999971389771,6|0,1:2|0:0,2:0:0:0:
161,146,169663,2,0,P|169:104|172:63,1,83.9999971389771,2|0,0:0|1:2,2:0:0:0:
428,50,169954,6,0,P|438:106|440:151,1,83.9999971389771,2|0,1:3|0:0,2:0:0:0:
351,146,170245,2,0,P|342:104|339:63,1,83.9999971389771,2|0,1:2|0:0,2:0:0:0:
256,124,170537,6,0,L|256:296,1,167.999994277954,2|2,0:0|1:2,2:0:0:0:
256,376,170974,1,0,3:0:0:0:
256,376,171046,1,0,3:0:0:0:
256,376,171119,5,2,3:1:0:0:
176,184,171265,1,2,3:1:0:0:
356,304,171410,1,2,3:1:0:0:
152,304,171556,1,2,3:1:0:0:
320,184,171702,6,0,P|248:224|96:252,1,195.99999332428,6|0,1:2|0:0,2:0:0:0:
24,248,172139,1,2,1:2:0:0:
136,108,172284,2,0,P|88:156|64:172,1,69.9999976158143,2|0,1:3|2:0,0:0:0:0:
12,252,172575,1,2,1:2:0:0:
248,364,172721,2,0,P|184:364|80:336,1,167.999994277954
260,276,173158,2,0,P|316:268|360:248,1,83.9999971389771,2|0,1:2|0:0,2:0:0:0:
308,168,173449,1,2,1:0:0:0:
352,344,173595,1,0,0:0:0:0:
512,300,173741,1,0,2:0:0:0:
512,300,174032,6,0,P|496:236|504:96,1,167.999994277954,6|0,1:2|0:0,2:0:0:0:
400,28,174469,1,2,1:2:0:0:
280,112,174614,1,2,1:3:0:0:
400,12,174760,1,0,2:0:0:0:
388,140,174906,2,0,P|400:208|384:336,1,167.999994277954,2|0,1:2|2:0,2:0:0:0:
208,360,175342,1,0,0:0:0:0:
208,360,175488,2,0,B|148:340|184:228|340:256|268:344,1,195.99999332428,2|0,1:2|3:0,2:0:0:0:
160,276,175925,1,0,0:0:0:0:
200,152,176071,1,0,2:0:0:0:
200,152,176362,6,0,P|128:160|48:68,1,195.99999332428,6|0,1:2|0:0,2:0:0:0:
108,8,176799,1,2,1:2:0:0:
40,152,176944,2,0,P|40:204|56:260,1,83.9999971389771,2|0,1:3|2:0,0:0:0:0:
236,356,177236,1,2,1:2:0:0:
152,344,177381,2,0,P|140:292|144:164,1,167.999994277954
344,36,177818,2,0,P|352:88|348:152,1,83.9999971389771,2|0,1:2|0:0,2:0:0:0:
252,152,178109,1,2,1:3:0:0:
264,280,178255,1,2,0:0:0:0:
400,264,178401,1,2,0:0:0:0:
400,264,178692,6,0,P|408:196|408:144,1,83.9999971389771,6|0,1:2|0:0,2:0:0:0:
484,272,178983,2,0,P|476:340|476:392,1,83.9999971389771,2|0,0:0|1:2,2:0:0:0:
112,264,179274,6,0,P|104:196|104:144,1,83.9999971389771,2|0,1:3|0:0,2:0:0:0:
28,272,179566,2,0,P|36:340|36:392,1,83.9999971389771,2|0,1:2|2:0,2:0:0:0:
256,264,179857,6,0,L|256:56,1,167.999994277954,2|2,0:0|1:2,2:0:0:0:
256,8,180294,1,0,3:0:0:0:
256,8,180367,1,0,3:0:0:0:
256,8,180440,5,2,3:1:0:0:
144,108,180585,1,2,3:1:0:0:
256,212,180731,1,2,3:1:0:0:
368,108,180876,1,2,3:1:0:0:
258,116,181022,6,0,B|290:248|218:180|258:324,1,195.99999332428,6|0,1:2|0:0,2:0:0:0:
184,176,181459,1,2,1:2:0:0:
333,249,181605,2,0,P|345:199|337:156,1,69.9999976158143,2|0,1:3|0:0,2:0:0:0:
392,340,181896,1,2,1:2:0:0:
476,272,182041,2,0,P|472:192|496:96,1,167.999994277954
424,10,182478,2,0,P|408:66|376:106,1,83.9999971389771,2|0,1:2|2:0,2:0:0:0:
206,140,182770,2,0,P|160:106|131:55,1,83.9999971389771,2|0,1:0|0:0,2:0:0:0:
318,175,183061,2,0,P|332:231|332:290,1,104.999996423721,2|0,0:1|2:0,2:0:0:0:
313,307,183352,6,0,P|295:235|310:104,1,195.99999332428,6|0,1:2|0:0,2:0:0:0:
398,39,183789,1,2,1:2:0:0:
374,194,183935,1,2,1:3:0:0:
218,176,184080,1,0,2:0:0:0:
237,20,184226,1,2,1:2:0:0:
306,114,184372,2,0,B|221:103|257:149|143:132,1,139.999995231629,0|0,2:0|0:0,2:0:0:0:
252,232,184808,2,0,P|189:236|73:225,1,167.999994277954,2|0,1:2|3:0,2:0:0:0:
151,116,185245,1,0,0:0:0:0:
36,47,185391,1,0,2:0:0:0:
36,47,185682,6,0,P|25:104|32:160,1,83.9999971389771,6|0,1:2|0:0,2:0:0:0:
106,279,185974,2,0,P|117:222|110:166,1,83.9999971389771,0|2,2:0|1:2,2:0:0:0:
248,267,186265,1,2,1:3:0:0:
248,267,186556,5,2,1:2:0:0:
182,380,186702,1,0,2:0:0:0:
343,265,186847,2,0,P|338:197|352:149,1,83.9999971389771,0|0,2:0|0:0,2:0:0:0:
464,333,187139,2,2,P|483:289|501:169,1,167.999994277954,2|2,1:2|1:3,2:0:0:0:
429,120,187575,1,2,0:0:0:0:
386,338,187721,1,2,0:0:0:0:
386,338,188012,6,0,P|351:280|338:249,1,83.9999971389771,6|0,1:2|0:0,2:0:0:0:
459,293,188304,2,0,P|424:235|411:204,1,83.9999971389771,2|0,0:0|1:2,2:0:0:0:
126,338,188595,6,0,P|161:280|174:249,1,83.9999971389771,2|0,1:3|0:0,2:0:0:0:
53,293,188886,2,0,P|88:235|101:204,1,83.9999971389771,2|0,1:2|2:0,2:0:0:0:
256,72,189177,6,0,L|256:276,1,167.999994277954,2|2,0:0|1:2,2:0:0:0:
256,324,189614,1,0,3:0:0:0:
256,324,189687,1,0,3:0:0:0:
256,324,189760,1,2,3:1:0:0:
132,188,189906,1,2,3:1:0:0:
380,188,190051,1,2,3:1:0:0:
256,72,190197,1,2,3:1:0:0:
256,192,190342,5,2,2:0:0:0:
