osu file format v14

[General]
AudioFilename: audio.mp3
AudioLeadIn: 0
PreviewTime: 162236
Countdown: 0
SampleSet: Soft
StackLeniency: 0.3
Mode: 0
LetterboxInBreaks: 0
WidescreenStoryboard: 1

[Editor]
DistanceSpacing: 0.93
BeatDivisor: 4
GridSize: 32
TimelineZoom: 1

[Metadata]
Title:Problem
TitleUnicode:Problem
Artist:Ariana Grande feat. Iggy Azalea
ArtistUnicode:Ariana Grande feat. Iggy Azalea
Creator:Sani_
Version:wafer x Mimari's Problem
Source:
Tags:Hip-hop Hip hop rap dance classic Gouhin Revolver english Vocal vocalist female my everything hannody Wafer Mimari goopert KAMI NO KOTOBA i love ganyu Pop
BeatmapID:3497233
BeatmapSetID:1679370

[Difficulty]
HPDrainRate:6
CircleSize:4
OverallDifficulty:8
ApproachRate:9
SliderMultiplier:3
SliderTickRate:1

[Events]
//Background and Video events
0,0,"My everything.jpg",0,0
Video,-987,"problem.mp4"
//Break Periods
2,57727,61587
2,108989,112849
2,141410,150131
//Storyboard Layer 0 (Background)
//Storyboard Layer 1 (Fail)
//Storyboard Layer 2 (Pass)
//Storyboard Layer 3 (Foreground)
//Storyboard Layer 4 (Overlay)
//Storyboard Sound Samples

[TimingPoints]
-725,582.52427184466,4,2,1,75,1,0
11508,-125,4,2,1,75,0,0
11580,-125,4,2,1,5,0,0
11944,-125,4,2,1,75,0,0
12162,-125,4,2,1,5,0,0
12236,-125,4,2,1,75,0,0
12381,-90.9090909090909,4,2,1,75,0,0
12964,-125,4,2,1,75,0,0
13182,-125,4,2,1,5,0,0
13255,-100,4,2,1,75,0,0
14274,-125,4,2,1,75,0,0
14492,-125,4,2,1,5,0,0
14566,-125,4,2,1,75,0,0
14711,-90.9090909090909,4,2,1,75,0,0
15585,-83.3333333333333,4,2,1,75,0,0
16168,-125,4,2,1,75,0,0
16240,-125,4,2,1,5,0,0
16605,-125,4,2,1,75,0,0
16823,-125,4,2,1,5,0,0
16896,-125,4,2,1,75,0,0
17041,-90.9090909090909,4,2,1,75,0,0
17624,-125,4,2,1,75,0,0
17842,-125,4,2,1,5,0,0
17915,-100,4,2,1,75,0,0
18935,-125,4,2,1,75,0,0
19153,-125,4,2,1,5,0,0
19226,-125,4,2,1,75,0,0
19372,-90.9090909090909,4,2,1,75,0,0
20245,-83.3333333333333,4,2,1,75,0,0
20828,-125,4,2,1,75,0,0
20900,-125,4,2,1,5,0,0
21119,-125,4,2,1,75,0,0
21483,-125,4,2,1,5,0,0
21556,-125,4,2,1,75,0,0
21702,-90.9090909090909,4,2,1,75,0,0
22284,-125,4,2,1,75,0,0
22502,-125,4,2,1,5,0,0
22575,-100,4,2,1,75,0,0
23595,-125,4,2,1,75,0,0
23813,-125,4,2,1,5,0,0
23886,-125,4,2,1,75,0,0
24032,-90.9090909090909,4,2,1,75,0,0
24906,-100,4,2,1,75,0,0
25488,-125,4,2,1,75,0,0
25560,-125,4,2,1,5,0,0
25925,-125,4,2,1,75,0,0
26143,-125,4,2,1,5,0,0
26216,-125,4,2,1,75,0,0
26362,-90.9090909090909,4,2,1,75,0,0
26944,-125,4,2,1,75,0,0
27162,-125,4,2,1,5,0,0
27236,-100,4,2,1,75,0,0
28255,-125,4,2,1,75,0,0
28473,-125,4,2,1,5,0,0
28546,-125,4,2,1,75,0,0
28692,-90.9090909090909,4,2,1,75,0,0
29566,-166.666666666667,4,2,2,65,0,0
31022,-125,4,2,2,65,0,0
31896,-111.111111111111,4,2,2,65,0,0
33061,-100,4,2,2,65,0,0
34226,-125,4,2,2,65,0,0
35682,-100,4,2,2,65,0,0
36556,-83.3333333333333,4,2,2,65,0,0
37430,-71.4285714285714,4,2,2,65,0,0
37648,-71.4285714285714,4,2,2,5,0,0
37721,-62.5,4,2,2,65,0,0
38304,-55.5555555555556,4,2,2,65,0,0
38813,-55.5555555555556,4,2,2,5,0,0
38886,-133.333333333333,4,2,3,35,0,0
42964,-100,4,2,3,35,0,0
43473,-100,4,2,3,5,0,0
43546,-133.333333333333,4,2,3,35,0,0
45876,-111.111111111111,4,2,3,35,0,0
46094,-111.111111111111,4,2,3,5,0,0
46168,-111.111111111111,4,2,3,35,0,0
46677,-111.111111111111,4,2,3,5,0,0
46751,-111.111111111111,4,2,3,35,0,0
47478,-111.111111111111,4,2,1,75,0,0
48207,-83.3333333333333,4,2,1,75,0,0
48425,-83.3333333333333,4,2,1,5,0,0
48498,-100,4,2,1,75,0,0
49007,-100,4,2,1,5,0,0
49081,-100,4,2,1,75,0,0
50245,-166.666666666667,4,2,1,75,0,0
50463,-166.666666666667,4,2,1,5,0,0
50537,-83.3333333333333,4,2,1,75,0,0
50755,-83.3333333333333,4,2,1,5,0,0
50828,-100,4,2,1,75,0,0
51191,-100,4,2,1,5,0,0
51265,-100,4,2,1,75,0,0
51410,-90.9090909090909,4,2,1,75,0,0
51993,-100,4,2,1,75,0,0
52284,-76.9230769230769,4,2,1,75,0,0
52793,-76.9230769230769,4,2,1,5,0,0
52867,-83.3333333333333,4,2,1,75,0,0
53085,-83.3333333333333,4,2,1,5,0,0
53158,-100,4,2,1,75,0,0
53667,-100,4,2,1,5,0,0
53741,-100,4,2,1,75,0,0
55197,-83.3333333333333,4,2,1,75,0,0
55415,-83.3333333333333,4,2,1,5,0,0
55488,-100,4,2,1,75,0,0
55851,-100,4,2,1,5,0,0
55925,-100,4,2,1,75,0,0
56362,-83.3333333333333,4,2,1,75,0,0
62187,-100,4,2,1,75,0,0
62696,-100,4,2,1,5,0,0
62770,-125,4,2,1,75,0,0
62842,-125,4,2,1,5,0,0
63207,-125,4,2,1,75,0,0
63425,-125,4,2,1,5,0,0
63498,-125,4,2,1,75,0,0
63643,-90.9090909090909,4,2,1,75,0,0
64227,-125,4,2,1,75,0,0
64445,-125,4,2,1,5,0,0
64517,-100,4,2,1,75,0,0
65536,-125,4,2,1,75,0,0
65754,-125,4,2,1,5,0,0
65828,-125,4,2,1,75,0,0
65974,-90.9090909090909,4,2,1,75,0,0
66192,-90.9090909090909,4,2,1,5,0,0
66265,-90.9090909090909,4,2,1,75,0,0
66847,-83.3333333333333,4,2,1,75,0,0
67356,-83.3333333333333,4,2,1,5,0,0
67430,-125,4,2,1,75,0,0
67502,-125,4,2,1,5,0,0
67867,-125,4,2,1,75,0,0
68085,-125,4,2,1,5,0,0
68158,-125,4,2,1,75,0,0
68303,-90.9090909090909,4,2,1,75,0,0
68887,-125,4,2,1,75,0,0
69105,-125,4,2,1,5,0,0
69177,-100,4,2,1,75,0,0
70197,-125,4,2,1,75,0,0
70415,-125,4,2,1,5,0,0
70489,-125,4,2,1,75,0,0
70635,-90.9090909090909,4,2,1,75,0,0
70853,-90.9090909090909,4,2,1,5,0,0
70926,-90.9090909090909,4,2,1,75,0,0
71508,-83.3333333333333,4,2,1,75,0,0
72017,-83.3333333333333,4,2,1,5,0,0
72090,-125,4,2,1,75,0,0
72162,-125,4,2,1,5,0,0
72381,-125,4,2,1,75,0,0
72745,-125,4,2,1,5,0,0
72818,-125,4,2,1,75,0,0
72964,-90.9090909090909,4,2,1,75,0,0
73547,-125,4,2,1,75,0,0
73765,-125,4,2,1,5,0,0
73838,-100,4,2,1,75,0,0
74492,-100,4,2,1,5,0,0
74711,-100,4,2,1,75,0,0
74857,-125,4,2,1,75,0,0
75075,-125,4,2,1,5,0,0
75148,-125,4,2,1,75,0,0
75294,-90.9090909090909,4,2,1,75,0,0
76168,-100,4,2,1,75,0,0
76677,-100,4,2,1,5,0,0
76750,-125,4,2,1,75,0,0
76822,-125,4,2,1,5,0,0
77188,-125,4,2,1,75,0,0
77406,-125,4,2,1,5,0,0
77479,-125,4,2,1,75,0,0
77624,-90.9090909090909,4,2,1,75,0,0
78208,-125,4,2,1,75,0,0
78498,-83.3333333333333,4,2,1,75,0,0
78716,-83.3333333333333,4,2,1,5,0,0
78789,-83.3333333333333,4,2,1,75,0,0
79517,-125,4,2,1,75,0,0
79735,-125,4,2,1,5,0,0
79809,-125,4,2,1,75,0,0
79955,-90.9090909090909,4,2,1,75,0,0
80173,-90.9090909090909,4,2,1,5,0,0
80246,-90.9090909090909,4,2,1,75,0,0
80828,-166.666666666667,4,2,2,65,0,0
82284,-125,4,2,2,65,0,0
83158,-111.111111111111,4,2,2,65,0,0
84323,-100,4,2,2,65,0,0
85488,-125,4,2,2,65,0,0
86944,-100,4,2,2,65,0,0
87818,-83.3333333333333,4,2,2,65,0,0
88692,-71.4285714285714,4,2,2,65,0,0
88910,-71.4285714285714,4,2,2,5,0,0
88983,-62.5,4,2,2,65,0,0
89566,-55.5555555555556,4,2,2,65,0,0
90075,-55.5555555555556,4,2,2,5,0,0
90148,-133.333333333333,4,2,3,35,0,0
94226,-90.9090909090909,4,2,3,35,0,0
94735,-90.9090909090909,4,2,3,5,0,0
94808,-133.333333333333,4,2,3,35,0,0
97139,-111.111111111111,4,2,3,35,0,0
97357,-111.111111111111,4,2,3,5,0,0
97430,-111.111111111111,4,2,3,35,0,0
97939,-111.111111111111,4,2,3,5,0,0
98012,-111.111111111111,4,2,3,35,0,0
98740,-111.111111111111,4,2,1,75,0,0
99469,-83.3333333333333,4,2,1,75,0,0
99687,-83.3333333333333,4,2,1,5,0,0
99760,-100,4,2,1,75,0,0
100269,-100,4,2,1,5,0,0
100343,-100,4,2,1,75,0,0
101507,-166.666666666667,4,2,1,75,0,0
101725,-166.666666666667,4,2,1,5,0,0
101799,-83.3333333333333,4,2,1,75,0,0
102017,-83.3333333333333,4,2,1,5,0,0
102090,-83.3333333333333,4,2,1,75,0,0
102381,-100,4,2,1,75,0,0
102453,-100,4,2,1,5,0,0
102527,-100,4,2,1,75,0,0
102673,-90.9090909090909,4,2,1,75,0,0
103255,-100,4,2,1,75,0,0
103546,-76.9230769230769,4,2,1,75,0,0
104055,-76.9230769230769,4,2,1,5,0,0
104129,-83.3333333333333,4,2,1,75,0,0
104347,-83.3333333333333,4,2,1,5,0,0
104420,-100,4,2,1,75,0,0
104929,-100,4,2,1,5,0,0
105003,-100,4,2,1,75,0,0
106459,-83.3333333333333,4,2,1,75,0,0
106677,-83.3333333333333,4,2,1,5,0,0
106750,-100,4,2,1,75,0,0
107113,-100,4,2,1,5,0,0
107187,-100,4,2,1,75,0,0
107624,-83.3333333333333,4,2,1,75,0,0
107988,-83.3333333333333,4,2,1,5,0,0
108061,-83.3333333333333,4,2,1,75,0,0
113449,-111.111111111111,4,2,2,65,0,0
114032,-90.9090909090909,4,2,2,65,0,0
114323,-125,4,2,2,65,0,0
114906,-111.111111111111,4,2,2,65,0,0
115197,-90.9090909090909,4,2,2,65,0,0
115634,-100,4,2,2,65,0,0
115706,-100,4,2,2,5,0,0
115779,-111.111111111111,4,2,2,65,0,0
116362,-90.9090909090909,4,2,2,65,0,0
116653,-125,4,2,2,65,0,0
117236,-90.9090909090909,4,2,2,65,0,0
117745,-90.9090909090909,4,2,2,5,0,0
117818,-111.111111111111,4,2,2,65,0,0
118109,-90.9090909090909,4,2,2,65,0,0
118692,-76.9230769230769,4,2,2,65,0,0
118983,-90.9090909090908,4,2,2,65,0,0
119638,-90.9090909090908,4,2,2,5,0,0
119711,-90.9090909090908,4,2,2,65,0,0
119857,-76.9230769230769,4,2,2,65,0,0
120440,-83.3333333333333,4,2,2,65,0,0
120948,-83.3333333333333,4,2,2,5,0,0
121022,-83.3333333333333,4,2,2,65,0,0
121313,-76.9230769230769,4,2,2,65,0,0
121605,-111.111111111111,4,2,2,65,0,0
122770,-90.9090909090908,4,2,1,75,0,0
123424,-90.9090909090908,4,2,1,5,0,0
123498,-90.9090909090908,4,2,1,75,0,0
123789,-83.3333333333333,4,2,1,75,0,0
125100,-100,4,2,1,75,0,0
125682,-83.3333333333333,4,2,1,75,0,0
125900,-83.3333333333333,4,2,1,5,0,0
125974,-100,4,2,1,75,0,0
126919,-100,4,2,1,5,0,0
126993,-100,4,2,1,75,0,0
127139,-83.3333333333333,4,2,1,75,0,0
127430,-71.4285714285714,4,2,1,75,0,0
128012,-100,4,2,1,75,0,0
128230,-100,4,2,1,5,0,0
128304,-100,4,2,1,75,0,0
128376,-100,4,2,1,5,0,0
128449,-83.3333333333333,4,2,1,75,0,0
129177,-90.9090909090909,4,2,1,75,0,0
129469,-111.111111111111,4,2,1,75,0,0
129687,-111.111111111111,4,2,1,5,0,0
129760,-111.111111111111,4,2,1,75,0,0
130051,-90.9090909090908,4,2,1,75,0,0
130342,-83.3333333333333,4,2,1,75,0,0
132673,-100,4,2,1,75,0,0
132745,-100,4,2,1,5,0,0
132818,-100,4,2,1,75,0,0
134129,-142.857142857143,4,2,1,75,0,0
134347,-142.857142857143,4,2,1,5,0,0
134420,-83.3333333333333,4,2,1,75,0,0
135002,-100,4,2,1,75,0,0
135074,-100,4,2,1,5,0,0
135148,-100,4,2,1,75,0,0
135294,-90.9090909090909,4,2,1,75,0,0
135876,-100,4,2,1,75,0,0
136168,-76.9230769230769,4,2,1,75,0,0
136677,-76.9230769230769,4,2,1,5,0,0
136750,-83.3333333333333,4,2,1,75,0,0
137333,-100,4,2,1,75,0,0
137405,-100,4,2,1,5,0,0
137478,-100,4,2,1,75,0,0
138789,-62.5,4,2,1,75,0,0
139080,-62.5,4,2,1,25,0,0
150731,-250,4,2,1,35,0,0
152187,-333.333333333333,4,2,1,35,0,0
153061,-277.777777777778,4,2,1,35,0,0
155391,-200,4,2,1,35,0,0
156847,-250,4,2,1,35,0,0
157721,-178.571428571429,4,2,1,35,0,0
162308,-178.571428571429,4,2,1,5,0,0
162381,-90.9090909090909,4,2,29,75,0,0
162599,-90.9090909090909,4,2,1,5,0,0
162673,-111.111111111111,4,2,1,75,0,0
162964,-83.3333333333333,4,2,1,75,0,0
163182,-83.3333333333333,4,2,1,5,0,0
163255,-83.3333333333333,4,2,1,75,0,0
163401,-100,4,2,1,75,0,0
164420,-125,4,2,1,75,0,0
164638,-125,4,2,1,5,0,0
164711,-83.3333333333333,4,2,1,75,0,0
164929,-83.3333333333333,4,2,1,5,0,0
165003,-100,4,2,1,75,0,0
165366,-100,4,2,1,5,0,0
165439,-100,4,2,1,75,0,0
165585,-90.9090909090909,4,2,1,75,0,0
166168,-100,4,2,1,75,0,0
166459,-76.9230769230769,4,2,1,75,0,0
166968,-76.9230769230769,4,2,1,5,0,0
167041,-61.7283950617284,4,2,1,75,0,0
167259,-61.7283950617284,4,2,1,5,0,0
167333,-100,4,2,1,75,0,0
167842,-100,4,2,1,5,0,0
167915,-100,4,2,1,75,0,0
168061,-80,4,2,1,75,0,0
169080,-100,4,2,1,75,0,0
169372,-83.3333333333333,4,2,1,75,0,0
169590,-83.3333333333333,4,2,1,5,0,0
169663,-100,4,2,1,75,0,0
170026,-100,4,2,1,5,0,0
170099,-100,4,2,1,75,0,0
170537,-66.6666666666667,4,2,1,75,0,0
171702,-90.9090909090909,4,2,1,75,0,0
171920,-90.9090909090909,4,2,1,5,0,0
171994,-111.111111111111,4,2,1,75,0,0
172284,-83.3333333333333,4,2,1,75,0,0
172502,-83.3333333333333,4,2,1,5,0,0
172575,-83.3333333333333,4,2,1,75,0,0
172721,-100,4,2,1,75,0,0
173741,-125,4,2,1,75,0,0
173959,-125,4,2,1,5,0,0
174032,-83.3333333333333,4,2,1,75,0,0
174250,-83.3333333333333,4,2,1,5,0,0
174323,-100,4,2,1,75,0,0
174686,-100,4,2,1,5,0,0
174760,-100,4,2,1,75,0,0
174906,-90.9090909090909,4,2,1,75,0,0
175488,-100,4,2,1,75,0,0
175706,-100,4,2,1,5,0,0
175779,-76.9230769230769,4,2,1,75,0,0
176288,-76.9230769230769,4,2,1,5,0,0
176362,-83.3333333333333,4,2,1,75,0,0
176580,-83.3333333333333,4,2,1,5,0,0
176653,-100,4,2,1,75,0,0
177162,-100,4,2,1,5,0,0
177235,-100,4,2,1,75,0,0
177381,-80,4,2,1,75,0,0
178400,-100,4,2,1,75,0,0
178692,-83.3333333333333,4,2,1,75,0,0
178910,-83.3333333333333,4,2,1,5,0,0
178983,-100,4,2,1,75,0,0
179274,-83.3333333333333,4,2,1,75,0,0
179492,-83.3333333333333,4,2,1,5,0,0
179565,-100,4,2,1,75,0,0
179857,-66.6666666666667,4,2,1,75,0,0
180221,-66.6666666666667,4,2,1,5,0,0
180293,-66.6666666666667,4,2,1,75,0,0
181022,-90.9090909090909,4,2,1,75,0,0
181240,-90.9090909090909,4,2,1,5,0,0
181313,-111.111111111111,4,2,1,75,0,0
181604,-83.3333333333333,4,2,1,75,0,0
182041,-100,4,2,1,75,0,0
182770,-71.4285714285714,4,2,1,75,0,0
183279,-71.4285714285714,4,2,1,5,0,0
183352,-83.3333333333333,4,2,1,75,0,0
183570,-83.3333333333333,4,2,1,5,0,0
183643,-100,4,2,1,75,0,0
184007,-100,4,2,1,5,0,0
184080,-100,4,2,1,75,0,0
184226,-90.9090909090909,4,2,1,75,0,0
184808,-100,4,2,1,75,0,0
185100,-76.9230769230769,4,2,1,75,0,0
185609,-76.9230769230769,4,2,1,5,0,0
185682,-83.3333333333333,4,2,1,75,0,0
185900,-83.3333333333333,4,2,1,5,0,0
185973,-100,4,2,1,75,0,0
186556,-83.3333333333333,4,2,1,75,0,0
186774,-83.3333333333333,4,2,1,5,0,0
186847,-80,4,2,1,75,0,0
187502,-80,4,2,1,5,0,0
187575,-80,4,2,1,75,0,0
187721,-100,4,2,1,75,0,0
188012,-83.3333333333333,4,2,1,75,0,0
188230,-83.3333333333333,4,2,1,5,0,0
188303,-100,4,2,1,75,0,0
188595,-90.9090909090909,4,2,1,75,0,0
188667,-90.9090909090909,4,2,1,5,0,0
188740,-90.9090909090909,4,2,1,75,0,0
188886,-100,4,2,1,75,0,0
189177,-66.6666666666667,4,2,1,75,0,0
189541,-66.6666666666667,4,2,1,5,0,0
189614,-66.6666666666667,4,2,1,75,0,0
190342,-166.666666666667,4,2,1,55,0,0

[Colours]
Combo1 : 202,159,138
Combo2 : 147,147,202
Combo3 : 182,182,220
Combo4 : 199,199,199
Combo5 : 235,235,235
Combo6 : 166,124,171
Combo7 : 190,158,199
Combo8 : 176,111,111

[HitObjects]
68,80,10925,6,0,B|179:67|179:67|242:61|226:107|310:88,1,225,4|2,3:2|0:0,0:0:0:0:
360,123,11508,2,0,L|371:68,1,30,10|0,0:0|0:0,0:0:0:0:
112,317,11944,6,0,P|101:274|149:235,1,90,0|0,3:0|0:0,0:0:0:0:
138,240,12236,1,0,3:0:0:0:
209,263,12381,102,0,P|219:305|173:342,1,82.5000025177003,2|0,3:2|0:0,0:0:0:0:
109,165,12673,1,8,0:0:0:0:
109,165,12818,1,2,3:2:0:0:
176,123,12964,6,0,P|185:77|201:31,1,90,2|0,0:2|0:0,0:0:0:0:
281,28,13255,102,0,P|266:70|242:188,2,150,2|2|8,3:2|0:0|0:0,0:0:0:0:
414,332,14274,6,0,P|405:286|389:240,1,90,0|0,3:0|0:0,0:0:0:0:
384,240,14566,1,0,3:0:0:0:
316,269,14711,102,0,P|330:311|338:361,1,82.5000025177003,0|0,3:0|0:0,0:0:0:0:
461,207,15003,2,0,P|406:156|318:181,1,165.000005035401,8|0,0:0|3:0,0:0:0:0:
325,175,15440,1,0,3:0:0:0:
155,342,15585,6,0,B|152:318|125:309|125:309|59:293|51:188|169:151|207:245|181:282,1,269.999991760254,0|2,3:0|0:2,0:0:0:0:
246,297,16168,2,0,P|245:316|232:344,1,30,10|0,0:2|0:0,0:0:0:0:
67,275,16605,102,0,P|68:230|95:196,1,90,2|0,3:2|0:0,0:0:0:0:
108,196,16896,1,0,3:0:0:0:
17,92,17041,6,0,P|68:96|92:131,1,82.5000025177003,2|0,3:2|0:0,0:0:0:0:
158,265,17333,1,8,0:0:0:0:
158,265,17478,1,2,3:2:0:0:
221,218,17624,102,0,P|264:195|312:185,1,90,2|0,0:2|0:0,0:0:0:0:
344,254,17915,2,0,P|433:273|494:308,2,150,2|2|8,3:2|0:2|0:0,0:0:0:0:
108,121,18935,6,0,P|81:85|111:31,1,90,0|0,3:0|0:0,0:0:0:0:
102,39,19226,1,0,3:0:0:0:
182,36,19372,102,0,P|204:70|175:120,1,82.5000025177003,0|0,3:0|0:0,0:0:0:0:
0,210,19663,6,0,B|78:198|78:198|126:195|117:226|185:209,1,165.000005035401,8|0,0:0|3:0,0:0:0:0:
161,214,20100,1,0,3:0:0:0:
340,316,20245,102,0,B|339:341|319:362|293:363|293:363|267:364|245:344|243:319|243:319|241:293|259:270|285:267|285:267|297:261|306:251|308:237|308:237|311:224|308:211|301:200,1,269.999991760254,6|0,3:2|0:0,0:0:0:0:
263,167,20828,2,0,L|211:178,1,30,10|0,0:2|0:0,0:0:0:0:
268,160,21119,1,2,0:2:0:0:
381,98,21265,6,0,P|428:104|475:117,1,90,0|0,3:0|0:0,0:0:0:0:
470,115,21556,1,0,3:0:0:0:
479,41,21702,102,0,P|436:29|385:25,1,82.5000025177003,0|0,3:2|0:0,0:0:0:0:
314,230,21993,1,10,0:0:0:0:
314,230,22139,1,0,3:0:0:0:
368,173,22284,6,0,P|415:179|462:192,1,90,0|0,0:0|0:0,0:0:0:0:
512,277,22575,102,0,P|445:276|427:375,2,150,0|2|10,3:0|0:2|0:2,0:0:0:0:
243,364,23595,6,0,P|234:318|218:272,1,90,0|0,3:2|0:0,0:0:0:0:
214,273,23886,1,0,3:0:0:0:
146,302,24032,102,0,P|160:344|168:394,1,82.5000025177003,0|0,3:0|0:0,0:0:0:0:
290,243,24323,2,0,P|223:188|148:219,1,165.000005035401,10|0,0:0|3:0,0:0:0:0:
155,211,24760,1,0,3:0:0:0:
49,56,24906,6,0,B|90:56|108:15|108:15|92:168,1,225,4|2,3:2|0:2,0:0:0:0:
32,214,25488,2,0,L|39:264,1,30,10|0,0:2|0:0,0:0:0:0:
207,60,25925,102,0,P|242:36|302:57,1,90,2|0,3:2|0:0,0:0:0:0:
294,50,26216,1,0,3:0:0:0:
299,124,26362,6,0,P|261:146|208:125,1,82.5000025177003,2|0,3:2|0:0,0:0:0:0:
364,5,26653,1,8,0:0:0:0:
364,5,26799,1,2,3:2:0:0:
432,51,26944,102,0,P|417:93|409:137,1,90,2|0,0:2|0:0,0:0:0:0:
476,187,27236,6,0,P|489:113|513:42,2,150,2|2|8,3:2|0:0|0:0,0:0:0:0:
247,378,28255,102,0,P|232:335|224:291,1,90,0|0,3:0|0:0,0:0:0:0:
227,284,28546,1,0,3:0:0:0:
322,356,28692,6,0,P|309:318|302:277,1,82.5000025177003,0|0,3:0|0:0,0:0:0:0:
337,64,28983,102,0,P|287:133|254:237,1,165.000005035401,8|0,0:0|0:0,0:0:0:0:
259,207,29420,1,0,0:0:0:0:
23,277,29566,54,0,P|87:255|172:242,1,134.999995880127,14|10,0:0|0:0,0:0:0:0:
214,290,30148,1,8,0:0:0:0:
64,183,30440,1,10,0:0:0:0:
64,183,30585,1,2,0:0:0:0:
140,168,30731,1,2,0:0:0:0:
481,343,31022,6,0,P|417:321|332:308,2,120,8|8|2,0:0|0:0|0:0,0:0:0:0:
481,343,31750,1,8,0:0:0:0:
371,233,31896,102,0,P|314:248|290:323,1,134.999995880127,10|0,0:0|0:0,0:0:0:0:
333,380,32333,5,10,0:0:0:0:
333,380,32478,1,8,0:0:0:0:
443,200,32770,101,10,0:0:0:0:
511,0,33061,6,0,P|496:33|466:54,1,75,2|0,0:0|0:0,0:0:0:0:
295,157,33352,1,8,0:0:0:0:
329,20,33643,102,0,B|370:123|370:123|392:183|343:179|383:255,1,225,10|0,0:0|0:0,0:0:0:0:
443,200,34226,6,0,P|396:146|291:162,1,180,10|10,0:0|0:0,0:0:0:0:
245,214,34808,1,8,0:0:0:0:
492,133,35100,1,10,0:0:0:0:
245,31,35391,2,0,L|268:93,1,60,2|0,0:0|0:0,0:0:0:0:
212,145,35682,102,0,P|138:130|64:118,2,150,8|8|2,0:0|0:0|0:0,0:0:0:0:
307,264,36410,1,10,0:0:0:0:
83,291,36556,6,0,P|161:247|245:214,1,179.999994506836,10|0,0:0|0:0,0:0:0:0:
426,84,36993,1,10,0:0:0:0:
426,84,37139,1,8,0:0:0:0:
94,376,37430,102,0,P|72:300|43:226,1,157.499995193482,10|0,0:0|0:0,0:0:0:0:
254,55,37721,6,0,B|266:22|300:2|332:4|368:6|397:30|407:61|419:94|409:129|382:153|356:174|356:174|336:150|289:161,1,360,2|0,0:0|0:0,0:0:0:0:
32,119,38304,102,0,P|260:185|483:272,1,472.499985580445,10|0,0:0|0:0,0:0:0:0:
482,276,38886,102,0,P|421:292|395:313,1,56.2500021457673,6|0,3:2|0:0,0:0:0:0:
325,86,39177,2,0,P|373:106|425:113,1,56.2500021457673,2|0,0:2|3:2,0:0:0:0:
441,65,39469,1,2,0:2:0:0:
199,133,39760,101,2,3:2:0:0:
259,180,39906,2,0,P|284:167|311:159,1,56.2500021457673,2|0,0:2|0:0,0:0:0:0:
86,70,40197,2,0,P|111:82|137:91,1,56.2500021457673,2|0,0:2|3:2,0:0:0:0:
475,352,40634,5,0,0:0:0:0:
475,352,41216,102,0,P|491:291|512:265,1,56.2500021457673,2|0,3:2|0:0,0:0:0:0:
236,249,41507,2,0,P|249:274|258:301,1,56.2500021457673,2|0,0:2|3:2,0:0:0:0:
203,354,41799,1,2,0:2:0:0:
329,178,42090,5,2,3:2:0:0:
268,130,42236,2,0,P|242:142|216:151,1,56.2500021457673,2|0,0:2|0:0,0:0:0:0:
442,241,42527,2,0,P|416:228|390:219,1,56.2500021457673,2|0,0:2|3:2,0:0:0:0:
34,287,42964,102,0,B|16:292|8:319|19:342|19:342|31:364|59:373|81:363|81:363|104:352|115:325|105:302|105:302|104:289|108:276|119:268|128:259|141:255|154:255,1,262.5,0|0,0:2|0:0,0:0:0:0:
140,260,43546,6,0,P|123:199|102:173,1,56.2500021457673,2|0,3:2|0:0,0:0:0:0:
322,102,43837,2,0,P|301:150|294:202,1,56.2500021457673,2|0,0:2|3:2,0:0:0:0:
343,218,44129,1,2,0:2:0:0:
148,91,44420,101,2,3:2:0:0:
208,44,44566,2,0,P|233:56|259:65,1,56.2500021457673,2|0,0:2|0:0,0:0:0:0:
35,154,44857,2,0,P|60:141|86:132,1,56.2500021457673,2|0,0:2|3:2,0:0:0:0:
475,32,45294,5,0,0:0:0:0:
466,104,45440,2,0,P|462:76|456:49,1,56.2500021457673,2|2,0:2|0:2,0:0:0:0:
363,235,45876,102,0,P|341:185|389:137,1,101.249996910095,2|0,3:2|0:0,0:0:0:0:
431,170,46168,2,0,P|443:204|475:220,1,67.4999979400635,2|0,0:2|3:2,0:0:0:0:
267,327,46459,6,0,P|289:277|241:229,1,101.249996910095,2|0,0:2|0:0,0:0:0:0:
199,266,46751,2,0,P|186:300|154:316,1,67.4999979400635,2|0,3:2|0:0,0:0:0:0:
27,238,47041,102,0,P|43:303|52:370,1,134.999995880127,2|0,0:2|3:2,0:0:0:0:
128,247,47478,1,8,0:2:0:0:
128,247,47551,1,10,0:2:0:0:
128,247,47624,1,8,0:2:0:0:
63,142,47770,5,8,0:2:0:0:
142,51,47916,101,8,0:2:0:0:
254,95,48062,5,8,0:2:0:0:
221,348,48207,6,0,P|226:301|252:203,1,134.999995880127,6|0,3:2|0:0,0:0:0:0:
314,256,48498,2,0,P|302:301|298:340,1,75,2|0,0:2|3:2,0:0:0:0:
412,137,48789,6,0,P|359:129|315:180,1,112.5,10|0,0:2|0:0,0:0:0:0:
317,176,49081,1,2,3:2:0:0:
482,286,49226,102,0,B|472:225|472:225|467:174|504:187|489:120,1,150,2|2,0:2|0:2,0:0:0:0:
473,0,49663,6,0,P|461:45|457:84,1,75,0|0,3:2|0:0,0:0:0:0:
435,352,49954,1,8,0:2:0:0:
435,352,50245,102,0,P|409:321|385:300,1,67.4999979400635,2|0,0:2|0:0,0:0:0:0:
362,231,50537,6,0,P|315:236|217:262,1,134.999995880127,2|0,3:2|0:0,0:0:0:0:
242,177,50828,2,0,P|278:167|316:162,1,75,2|0,0:2|3:2,0:0:0:0:
410,118,51119,102,0,P|396:133|391:169,1,37.5,10|0,0:2|0:0,0:0:0:0:
394,156,51265,1,0,0:2:0:0:
221,18,51410,6,0,P|265:4|331:93,1,165.000005035401,2|0,3:2|0:0,0:0:0:0:
46,373,51993,2,0,P|58:328|62:289,1,75,0|0,3:2|0:0,0:0:0:0:
158,181,52284,102,0,B|192:173|192:129|192:129|169:90|66:102|62:204|108:236|108:236|141:254|140:316,1,341.249984378815,10|0,0:2|0:0,0:0:0:0:
145,289,52867,6,0,P|192:294|290:320,1,134.999995880127,2|0,3:2|0:0,0:0:0:0:
236,379,53158,2,0,P|200:369|162:364,1,75,2|0,0:2|3:2,0:0:0:0:
318,251,53449,102,0,P|355:293|346:349,1,112.5,10|0,0:2|0:0,0:0:0:0:
340,351,53741,1,2,3:2:0:0:
244,221,53886,6,0,P|258:154|268:48,1,150,2|2,0:2|0:2,0:0:0:0:
130,12,54323,102,0,P|167:21|199:56,1,75,0|0,3:2|0:0,0:0:0:0:
254,304,54614,1,8,0:2:0:0:
254,304,54906,6,0,P|217:316|189:353,1,75,2|2,0:2|0:2,0:0:0:0:
339,168,55197,102,0,P|397:158|437:230,1,134.999995880127,2|0,3:2|0:0,0:0:0:0:
503,250,55488,2,0,P|463:258|445:299,1,75,2|0,0:2|3:2,0:0:0:0:
318,374,55779,6,0,P|320:356|329:340,1,37.5,10|0,0:2|0:0,0:0:0:0:
339,337,55925,1,0,0:0:0:0:
159,108,56071,102,0,P|186:133|195:200,1,75,2|0,3:2|0:0,0:0:0:0:
20,265,56362,2,0,B|100:252|100:252|158:247|143:290|222:272,1,179.999994506836,2|2,0:2|3:2,0:0:0:0:
301,77,56799,1,8,0:2:0:0:
301,77,56872,1,8,0:2:0:0:
301,77,56945,1,10,0:2:0:0:
191,189,57091,5,8,0:2:0:0:
268,322,57237,101,8,0:2:0:0:
418,296,57381,5,8,0:2:0:0:
445,63,62187,38,0,B|468:74|466:97|466:97|404:55|248:27,1,262.5,4|0,3:2|0:0,0:0:0:0:
182,22,62770,2,0,L|193:77,1,30,10|0,0:0|0:0,0:0:0:0:
398,146,63207,6,0,P|353:147|329:204,1,90,0|0,3:0|0:0,0:0:0:0:
329,193,63498,1,0,3:0:0:0:
115,203,63643,102,0,P|197:206|272:241,1,165.000005035401,2|8,3:2|0:0,0:0:0:0:
399,221,64080,1,2,3:2:0:0:
353,70,64227,6,0,P|310:70|284:105,1,90,2|0,0:2|0:0,0:0:0:0:
206,287,64517,102,0,P|192:213|168:142,2,150,2|2|8,3:2|0:0|0:0,0:0:0:0:
480,352,65536,6,0,P|433:350|401:318,1,90,0|0,3:0|0:0,0:0:0:0:
408,311,65828,1,0,3:0:0:0:
313,248,65974,102,0,P|251:250|209:292,1,123.75000377655,0|0,3:0|0:0,0:0:0:0:
41,165,66265,6,0,P|114:148|177:213,1,165.000005035401,8|0,0:0|3:0,0:0:0:0:
175,205,66702,1,0,3:0:0:0:
338,362,66847,102,0,B|340:340|365:332|365:332|425:317|432:222|325:188|325:188|298:232|328:276,1,314.999990386963,0|0,3:0|0:0,0:0:0:0:
477,326,67430,2,0,P|496:327|524:340,1,30,10|0,0:2|0:0,0:0:0:0:
174,263,67867,6,0,P|186:219|247:211,1,90,2|0,3:2|0:0,0:0:0:0:
237,208,68158,1,0,3:0:0:0:
346,18,68303,102,0,P|306:90|300:171,1,165.000005035401,2|8,3:2|0:0,0:0:0:0:
246,283,68740,1,2,3:2:0:0:
108,200,68887,6,0,P|119:158|159:141,1,90,2|0,0:2|0:0,0:0:0:0:
284,104,69177,102,0,B|227:118|204:73|225:87|181:29|123:76,2,150,2|2|8,3:2|0:2|0:0,0:0:0:0:
512,24,70197,6,0,P|465:26|433:58,1,90,0|0,3:0|0:0,0:0:0:0:
440,65,70489,1,0,3:0:0:0:
378,111,70635,102,0,P|316:108|274:66,1,123.75000377655,0|0,3:0|0:0,0:0:0:0:
88,176,70926,6,0,P|161:192|224:127,1,165.000005035401,8|0,0:0|0:0,0:0:0:0:
222,135,71363,1,0,3:0:0:0:
289,351,71508,102,0,B|292:329|270:315|270:315|216:285|234:191|346:186|346:186|360:235|319:270,1,314.999990386963,6|0,3:2|0:0,0:0:0:0:
387,309,72090,6,0,L|416:315,1,30,10|0,0:2|0:0,0:0:0:0:
376,319,72381,1,2,0:2:0:0:
45,296,72527,102,0,P|90:295|114:238,1,90,0|0,3:0|0:0,0:0:0:0:
123,248,72818,1,0,3:0:0:0:
337,250,72964,6,0,P|255:247|174:171,1,165.000005035401,0|10,3:2|0:0,0:0:0:0:
190,199,73401,1,0,3:0:0:0:
163,375,73547,102,0,P|163:331|203:304,1,90,0|0,0:0|0:0,0:0:0:0:
7,179,73838,6,0,P|70:177|150:52,1,225,0|0,3:0|0:0,0:0:0:0:
70,19,74420,2,0,L|31:12,1,37.5,10|0,0:2|0:0,0:0:0:0:
81,14,74711,1,2,0:2:0:0:
221,112,74857,102,0,P|264:124|272:185,1,90,0|0,3:2|0:0,0:0:0:0:
279,178,75148,1,0,3:0:0:0:
412,337,75294,6,0,P|443:222|482:131,1,165.000005035401,0|10,3:0|0:0,0:0:0:0:
459,179,75877,2,0,P|439:213|395:216,1,82.5000025177003,0|0,3:0|3:0,0:0:0:0:
140,283,76168,102,0,B|117:294|119:317|119:317|226:248|337:247,1,262.5,4|0,3:2|0:0,0:0:0:0:
382,324,76750,2,0,P|385:309|386:294,1,30,10|0,0:2|0:0,0:0:0:0:
278,109,77188,6,0,P|280:153|226:182,1,90,2|0,3:2|0:0,0:0:0:0:
238,178,77479,1,0,3:0:0:0:
201,345,77624,102,0,P|187:263|160:185,1,165.000005035401,2|8,3:2|0:0,0:0:0:0:
183,112,78061,1,2,3:2:0:0:
320,244,78208,6,0,P|293:258|264:252,1,60,0|0,0:0|0:0,0:0:0:0:
38,171,78498,102,0,B|88:181|90:227|78:207|91:272|156:256,1,134.999995880127,2|0,3:2|0:0,0:0:0:0:
160,185,78789,6,0,B|91:171|69:223|92:206|47:274|-20:226,1,179.999994506836,2|8,0:0|0:0,0:0:0:0:
46,23,79517,102,0,P|93:25|125:57,1,90,0|0,3:0|0:0,0:0:0:0:
118,64,79809,1,0,3:0:0:0:
180,110,79955,6,0,P|241:107|283:65,1,123.75000377655,0|0,3:0|0:0,0:0:0:0:
473,171,80246,102,0,P|399:187|336:122,1,165.000005035401,8|0,0:0|0:0,0:0:0:0:
338,130,80683,1,0,0:0:0:0:
298,383,80828,54,0,P|309:308|326:243,1,134.999995880127,14|10,0:0|0:0,0:0:0:0:
387,210,81410,1,8,0:0:0:0:
215,342,81702,5,10,0:0:0:0:
215,342,81847,1,2,0:0:0:0:
139,325,81993,1,2,0:0:0:0:
303,26,82284,102,0,P|319:91|327:150,2,120,8|8|2,0:0|0:0|0:0,0:0:0:0:
229,7,83012,1,8,0:0:0:0:
377,10,83158,6,0,P|393:75|401:144,1,134.999995880127,10|0,0:0|0:0,0:0:0:0:
357,212,83595,101,10,0:0:0:0:
357,212,83740,1,8,0:0:0:0:
176,153,84032,5,10,0:0:0:0:
0,112,84323,102,0,P|33:127|54:157,1,75,2|0,0:0|0:0,0:0:0:0:
123,384,84614,1,8,0:0:0:0:
264,239,84906,6,0,B|153:227|153:227|89:223|106:268|22:251,1,225,10|0,0:0|0:0,0:0:0:0:
165,314,85488,102,0,B|179:201|179:201|184:160|148:138,1,180,10|10,0:0|0:0,0:0:0:0:
82,165,86071,1,8,0:0:0:0:
350,137,86362,1,10,0:0:0:0:
205,0,86653,2,0,P|201:31|195:87,1,60,2|0,0:0|0:0,0:0:0:0:
268,109,86944,6,0,P|331:53|410:79,2,150,8|8|2,0:0|0:0|0:0,0:0:0:0:
255,187,87672,1,10,0:0:0:0:
59,184,87818,102,0,P|131:177|184:273,1,179.999994506836,10|0,0:0|0:0,0:0:0:0:
171,339,88255,1,10,0:0:0:0:
171,339,88401,1,8,0:0:0:0:
512,240,88692,6,0,P|438:211|346:190,1,157.499995193482,10|0,0:0|0:0,0:0:0:0:
225,75,88983,102,0,B|243:98|227:129|227:129|184:201|268:299|403:229|354:114|299:104,1,360,2|0,0:0|0:0,0:0:0:0:
480,119,89566,6,0,P|252:185|29:272,1,472.499985580445,10|0,0:0|0:0,0:0:0:0:
30,278,90148,86,0,P|91:294|117:315,1,56.2500021457673,6|0,3:2|0:0,0:0:0:0:
151,101,90440,2,0,P|119:106|97:132,1,56.2500021457673,2|0,0:2|3:2,0:0:0:0:
31,153,90731,1,2,0:2:0:0:
158,328,91022,101,2,3:2:0:0:
208,267,91168,2,0,P|186:249|159:246,1,56.2500021457673,2|0,0:2|0:0,0:0:0:0:
35,73,91459,2,0,P|44:46|56:21,1,56.2500021457673,2|0,0:2|3:2,0:0:0:0:
368,282,91896,5,0,0:0:0:0:
368,282,92478,102,0,P|380:307|389:333,1,56.2500021457673,2|0,3:2|0:0,0:0:0:0:
294,174,92770,2,0,P|306:148|315:122,1,56.2500021457673,2|0,0:2|3:2,0:0:0:0:
452,273,93061,1,2,0:2:0:0:
398,122,93352,5,2,3:2:0:0:
494,202,93498,2,0,P|467:188|428:198,1,56.2500021457673,2|0,0:2|0:0,0:0:0:0:
242,28,93789,2,0,P|216:41|190:50,1,56.2500021457673,2|0,0:2|3:2,0:0:0:0:
83,323,94226,102,0,B|60:334|52:364|52:364|-10:287|47:214|99:232|99:232|121:238|149:220,1,288.750008811951,0|0,0:2|0:0,0:0:0:0:
149,230,94808,6,0,P|184:246|223:254,1,56.2500021457673,2|0,3:2|0:0,0:0:0:0:
125,42,95100,2,0,P|89:42|64:70,1,56.2500021457673,2|0,0:2|3:2,0:0:0:0:
51,128,95391,1,2,0:2:0:0:
321,116,95682,101,2,3:2:0:0:
265,22,95828,2,0,P|261:49|251:80,1,56.2500021457673,2|0,0:2|0:0,0:0:0:0:
141,218,96119,2,0,P|160:236|180:262,1,56.2500021457673,2|0,0:2|3:2,0:0:0:0:
512,378,96556,5,0,0:0:0:0:
509,307,96702,2,0,P|505:335|499:362,1,56.2500021457673,2|2,0:2|0:2,0:0:0:0:
268,232,97139,102,0,P|276:194|348:186,1,101.249996910095,2|0,3:2|0:0,0:0:0:0:
372,239,97430,2,0,P|353:269|350:301,1,67.4999979400635,2|0,0:2|3:2,0:0:0:0:
493,120,97721,6,0,P|485:82|413:74,1,101.249996910095,2|0,0:2|0:0,0:0:0:0:
355,85,98012,2,0,P|351:51|332:23,1,67.4999979400635,2|0,3:2|0:0,0:0:0:0:
78,114,98304,102,0,P|144:123|210:140,1,134.999995880127,2|0,0:2|3:2,0:0:0:0:
158,82,98740,1,8,0:2:0:0:
158,82,98813,1,10,0:2:0:0:
158,82,98886,1,8,0:2:0:0:
168,210,99032,5,8,0:2:0:0:
182,337,99178,101,8,0:2:0:0:
40,223,99323,5,8,0:2:0:0:
294,190,99469,6,0,P|276:255|268:322,1,134.999995880127,6|0,3:2|0:0,0:0:0:0:
345,303,99760,2,0,P|350:266|360:230,1,75,2|0,0:2|3:2,0:0:0:0:
158,82,100051,6,0,P|211:90|255:39,1,112.5,10|0,0:2|0:0,0:0:0:0:
253,43,100343,1,2,3:2:0:0:
496,99,100488,102,0,P|397:120|377:168,1,150,2|2,0:2|0:2,0:0:0:0:
345,303,100925,6,0,P|307:308|271:318,1,75,0|0,3:2|0:0,0:0:0:0:
461,167,101216,1,8,0:2:0:0:
461,167,101507,102,0,P|488:205|479:229,1,67.4999979400635,2|0,0:2|0:0,0:0:0:0:
360,230,101799,6,0,P|313:225|215:199,1,134.999995880127,2|0,3:2|0:0,0:0:0:0:
196,134,102090,1,2,0:2:0:0:
135,46,102236,101,0,3:2:0:0:
136,238,102381,6,0,P|145:214|148:181,1,37.5,10|0,0:2|0:0,0:0:0:0:
154,195,102527,1,0,0:2:0:0:
28,27,102673,102,0,P|55:100|64:201,1,165.000005035401,2|0,3:2|0:0,0:0:0:0:
24,368,103255,2,0,P|36:323|40:284,1,75,0|0,3:2|0:0,0:0:0:0:
229,53,103546,6,0,B|256:56|266:87|266:87|286:165|408:174|452:36|341:-7|298:22,1,341.249984378815,10|0,0:2|0:0,0:0:0:0:
225,60,104129,102,0,P|220:107|194:205,1,134.999995880127,2|0,3:2|0:0,0:0:0:0:
135,150,104420,2,0,P|145:113|149:76,1,75,2|0,0:2|3:2,0:0:0:0:
339,294,104711,6,0,P|361:242|415:227,1,112.5,10|0,0:2|0:0,0:0:0:0:
420,231,105003,1,2,3:2:0:0:
298,86,105148,102,0,P|290:160|275:234,1,150,2|2,0:2|0:2,0:0:0:0:
284,372,105585,6,0,P|275:335|240:303,1,75,0|0,3:2|0:0,0:0:0:0:
0,252,105876,1,8,0:2:0:0:
0,252,106168,102,0,P|25:279|60:290,1,75,2|2,0:2|0:2,0:0:0:0:
244,122,106459,6,0,P|208:69|144:77,1,134.999995880127,2|0,3:2|0:0,0:0:0:0:
82,116,106750,2,0,P|122:124|140:165,1,75,2|0,0:2|3:2,0:0:0:0:
352,192,107041,102,0,P|361:176|376:165,1,37.5,10|0,0:2|0:0,0:0:0:0:
386,167,107187,1,0,0:0:0:0:
476,275,107333,6,0,P|443:250|444:206,1,75,2|0,3:2|0:0,0:0:0:0:
272,21,107624,102,0,B|120:62|120:62|116:101|65:124,1,224.999993133545,2|0,0:2|0:0,0:0:0:0:
38,180,108061,1,8,0:2:0:0:
38,180,108134,1,8,0:2:0:0:
38,180,108207,1,10,0:2:0:0:
166,190,108353,5,8,0:2:0:0:
293,204,108499,101,8,0:2:0:0:
181,46,108644,5,8,0:2:0:0:
417,54,113449,6,0,P|353:45|310:114,1,134.999995880127,8|0,0:0|0:0,0:0:0:0:
245,135,113886,1,8,0:0:0:0:
343,194,114032,6,0,P|330:237|325:274,1,82.5000025177003,8|0,0:0|0:0,0:0:0:0:
422,195,114323,2,0,P|402:267|395:334,1,120,8|0,0:0|0:0,0:0:0:0:
396,311,114760,101,0,0:0:0:0:
250,228,114906,2,0,P|208:226|185:259,1,67.4999979400635,8|0,0:0|0:0,0:0:0:0:
22,290,115197,6,0,B|100:292|100:292|147:298|132:327|201:323,1,165.000005035401,8|0,0:0|0:0,0:0:0:0:
187,330,115634,2,0,L|191:371,1,37.5,8|0,0:0|0:0,0:0:0:0:
23,139,115779,102,0,P|51:202|122:201,1,134.999995880127,8|0,0:0|0:0,0:0:0:0:
111,208,116216,1,8,0:0:0:0:
188,101,116362,6,0,P|133:109|116:149,1,82.5000025177003,8|0,0:0|0:0,0:0:0:0:
296,292,116653,102,0,P|237:250|171:241,1,120,8|0,0:0|0:0,0:0:0:0:
192,241,117090,1,0,0:0:0:0:
297,131,117236,6,0,P|329:163|320:205,1,82.5000025177003,8|0,0:0|0:0,0:0:0:0:
399,379,117527,102,0,P|407:312|424:255,1,123.75000377655,8|0,0:0|0:0,0:0:0:0:
487,300,117818,2,0,P|480:333|473:386,1,67.4999979400635,0|0,0:0|0:0,0:0:0:0:
321,208,118109,6,0,P|399:218|432:143,1,165.000005035401,8|0,0:0|0:0,0:0:0:0:
478,89,118546,1,8,0:0:0:0:
225,85,118692,102,0,P|277:96|292:142,1,97.4999955368044,8|0,0:0|0:0,0:0:0:0:
437,19,118983,6,0,P|391:38|336:50,1,82.5000025177003,8|0,0:0|0:0,0:0:0:0:
215,179,119274,2,0,P|177:162|137:151,1,82.5000025177003,0|0,0:0|0:0,0:0:0:0:
275,0,119566,102,0,L|288:61,1,41.2500012588501,8|0,0:0|0:0,0:0:0:0:
284,40,119711,1,0,0:0:0:0:
34,119,119857,6,0,P|94:120|119:248,1,194.999991073609,8|0,0:0|0:0,0:0:0:0:
64,271,120294,1,8,0:0:0:0:
201,380,120440,102,0,B|264:387|276:340|291:284|364:312,1,179.999994506836,8|0,0:0|0:0,0:0:0:0:
425,231,120876,6,0,L|418:303,1,44.999998626709,8|0,0:0|0:0,0:0:0:0:
420,275,121022,1,8,0:0:0:0:
352,180,121168,101,0,0:0:0:0:
511,111,121313,2,0,P|454:116|431:171,1,97.4999955368044,8|0,0:0|0:0,0:0:0:0:
345,384,121605,6,0,P|321:306|211:149,1,269.999991760254,0|0,0:0|0:0,0:0:0:0:
38,24,122770,102,0,P|114:29|136:122,1,165.000005035401,8|2,3:2|0:2,0:0:0:0:
214,133,123207,1,10,3:2:0:0:
29,236,123352,6,0,P|26:215|18:167,1,41.2500012588501,2|0,0:2|0:0,0:0:0:0:
23,196,123498,1,2,0:2:0:0:
75,137,123643,101,10,3:2:0:0:
101,327,123789,6,0,P|106:285|115:230,1,89.9999972534181,10|2,0:2|0:2,0:0:0:0:
12,320,124080,101,10,0:2:0:0:
191,274,124226,1,10,3:2:0:0:
292,384,124372,1,2,0:2:0:0:
384,216,124517,6,0,P|302:220|280:313,1,179.999994506836,10|10,0:2|0:2,0:0:0:0:
212,352,124954,1,2,0:2:0:0:
160,164,125100,102,0,P|194:195|234:194,2,75,10|2|2,3:2|0:2|0:2,0:0:0:0:
89,198,125537,1,10,3:2:0:0:
268,39,125682,2,0,P|210:74|135:82,1,134.999995880127,10|0,0:2|0:0,0:0:0:0:
25,75,125974,6,0,P|59:88|78:119,1,75,10|10,3:2|0:2,0:0:0:0:
206,357,126265,101,2,0:2:0:0:
220,282,126410,1,10,0:2:0:0:
145,306,126556,5,10,3:2:0:0:
284,331,126702,1,2,0:2:0:0:
36,259,126847,102,0,L|-27:274,1,37.5,10|0,0:2|0:0,0:0:0:0:
0,268,126993,1,2,0:2:0:0:
93,194,127139,6,0,P|137:213|180:215,1,89.9999972534181,10|2,0:2|0:2,0:0:0:0:
319,25,127430,102,0,B|316:44|294:52|294:52|240:65|233:151|330:182|361:104|340:74,1,209.999993591309,10|2,3:2|0:2,0:0:0:0:
413,88,127867,1,8,3:2:0:0:
417,276,128012,6,0,P|409:216|346:205,1,112.5,10|0,0:2|0:0,0:0:0:0:
302,250,128304,102,0,L|296:298,1,37.5,10|0,3:2|0:0,0:0:0:0:
300,292,128449,2,0,L|286:195,2,89.9999972534181,2|2|10,0:2|0:2|0:2,0:0:0:0:
368,349,128886,5,10,3:2:0:0:
204,284,129032,1,2,0:2:0:0:
91,381,129177,2,0,P|53:366|2:357,1,82.5000025177003,10|10,0:2|0:2,0:0:0:0:
21,282,129469,102,0,P|70:291|117:309,1,101.249996910095,2|0,0:2|0:0,0:0:0:0:
168,370,129760,5,10,3:2:0:0:
157,183,129906,1,2,0:2:0:0:
312,183,130051,102,0,P|271:191|233:206,1,82.5000025177003,2|10,0:2|3:2,0:0:0:0:
1,17,130342,2,0,P|40:110|117:105,1,179.999994506836,10|0,0:2|0:0,0:0:0:0:
128,36,130779,5,0,0:0:0:0:
366,351,131362,101,8,0:2:0:0:
366,351,131435,1,8,0:2:0:0:
366,351,131508,1,8,0:2:0:0:
274,343,131653,5,8,0:2:0:0:
364,263,131799,1,8,0:2:0:0:
446,351,131944,1,8,0:2:0:0:
281,259,132090,102,0,P|272:215|262:172,1,89.9999972534181,10|0,3:2|0:0,0:0:0:0:
308,107,132381,1,2,0:2:0:0:
198,226,132527,1,10,3:2:0:0:
200,122,132673,6,0,L|151:110,1,37.5,10|0,0:2|0:0,0:0:0:0:
203,128,132818,1,2,0:2:0:0:
394,186,132964,102,0,P|448:179|481:87,1,150,10|2,3:2|0:2,0:0:0:0:
438,39,133401,1,2,0:2:0:0:
308,107,133546,6,0,P|345:102|382:91,1,75,10|2,3:2|0:2,0:0:0:0:
504,0,133837,1,10,0:2:0:0:
274,175,134129,102,0,P|237:164|191:157,1,78.7499975967408,2|0,0:2|0:0,0:0:0:0:
177,229,134420,6,0,P|215:235|265:249,1,89.9999972534181,10|2,3:2|0:2,0:0:0:0:
300,315,134711,1,2,0:2:0:0:
197,157,134857,1,10,3:2:0:0:
115,287,135002,102,0,P|101:272|96:236,1,37.5,10|0,0:2|0:0,0:0:0:0:
124,289,135148,1,2,0:2:0:0:
43,384,135294,6,0,P|83:331|183:357,1,165.000005035401,10|2,3:2|0:2,0:0:0:0:
352,250,135731,1,10,0:2:0:0:
429,375,135876,2,0,P|417:330|413:291,1,75,10|2,3:2|0:2,0:0:0:0:
387,150,136168,102,0,B|355:142|335:116|335:116|296:139|308:242|407:259|446:200|446:200|460:167|522:168,1,341.249984378815,10|0,0:2|0:0,0:0:0:0:
493,178,136750,6,0,P|501:129|467:105,1,89.9999972534181,10|0,3:2|0:0,0:0:0:0:
403,76,137041,1,2,0:2:0:0:
276,166,137187,1,8,3:2:0:0:
214,107,137333,102,0,P|190:112|167:125,1,37.5,10|0,0:2|0:0,0:0:0:0:
219,102,137478,1,2,0:2:0:0:
73,158,137624,6,0,P|134:153|172:236,1,150,10|2,3:2|0:2,0:0:0:0:
244,258,138061,101,0,0:0:0:0:
185,307,138207,2,0,P|153:294|93:287,1,75,10|2,3:2|0:2,0:0:0:0:
5,56,138498,2,0,P|37:69|97:76,1,75,8|2,0:2|0:2,0:0:0:0:
36,313,138789,6,0,B|32:292|8:283|8:283|-50:269|-57:175|47:142|81:226|58:259,1,240,2|2,0:2|0:2,0:0:0:0:
391,244,150731,54,0,B|403:239|403:231|403:231|353:203|338:133|338:133|340:204|302:240|302:240|306:251|309:250,1,270,2|0,0:0|0:0,0:0:0:0:
343,318,152187,2,0,B|339:319|340:323|340:323|356:333|361:355|361:355|361:334|373:318|373:318|372:315|369:314,1,89.9999972534181,0|2,0:0|0:0,0:0:0:0:
255,164,153061,102,0,B|202:141|156:192|156:192|86:262|2:188|49:117|104:142,1,324.000007910156,2|2,0:0|0:0,0:0:0:0:
189,317,155391,6,0,B|185:289|154:278|154:278|78:260|69:139|205:96|248:205|218:247,1,337.5,2|0,0:0|0:0,0:0:0:0:
262,300,156847,2,0,P|318:310|384:329,1,120,0|2,0:0|0:0,0:0:0:0:
492,99,157721,102,0,B|480:76|452:65|427:72|427:72|402:79|384:104|387:131|387:131|391:163|363:190|332:193|332:193|300:196|271:174|266:143|266:143|260:124|244:109|223:104|223:104|203:101|182:110|170:126|170:126|157:143|156:165|164:182,1,504.000006152344,2|2,0:0|0:0,0:0:0:0:
256,192,160634,12,0,162308,0:0:0:0:
132,356,162381,22,0,P|98:310|129:247,1,123.75000377655,2|0,0:0|0:0,0:0:0:0:
196,266,162673,2,0,P|211:299|188:347,1,67.4999979400635,0|0,0:2|3:2,0:0:0:0:
34,151,162964,6,0,P|99:168|169:185,1,134.999995880127,8|0,0:2|0:0,0:0:0:0:
170,193,163255,1,0,3:2:0:0:
254,37,163401,102,0,P|183:37|154:115,1,150,0|0,0:2|0:2,0:0:0:0:
6,73,163838,6,0,P|61:60|101:48,1,75,0|0,3:2|0:2,0:0:0:0:
307,99,164128,1,8,0:2:0:0:
307,99,164420,102,0,P|275:131|246:176,1,90,2|0,0:2|0:0,0:0:0:0:
201,225,164711,6,0,P|213:270|226:371,1,134.999995880127,0|0,3:2|0:0,0:0:0:0:
296,316,165003,2,0,P|291:278|282:241,1,75,0|0,0:2|3:2,0:0:0:0:
140,120,165294,102,0,P|158:128|176:160,1,37.5,8|0,0:2|0:0,0:0:0:0:
169,149,165439,1,0,0:2:0:0:
20,354,165585,6,0,P|47:280|125:276,1,165.000005035401,0|0,3:2|0:2,0:0:0:0:
454,365,166168,2,0,P|458:327|467:290,1,75,2|0,3:2|0:0,0:0:0:0:
395,133,166459,102,0,B|394:122|401:109|401:109|315:93|262:188|322:259|396:249|396:249|417:215|468:210,1,341.249984378815,10|0,0:2|0:0,0:0:0:0:
450,220,167041,6,0,B|403:209|392:252|392:252|380:297|380:297|371:330|326:331,1,182.250004449463,6|0,3:2|0:0,0:0:0:0:
266,379,167333,2,0,P|262:341|253:304,1,75,0|2,0:2|3:2,0:0:0:0:
95,209,167624,102,0,P|150:214|172:284,1,112.5,8|0,0:2|0:0,0:0:0:0:
178,271,167915,1,0,3:2:0:0:
310,123,168061,6,0,B|230:136|230:136|172:141|187:98|108:116,1,187.5,0|0,0:0|0:2,0:0:0:0:
58,14,168498,102,0,P|9:34|0:74,1,93.75,2|0,3:2|0:0,0:0:0:0:
44,326,168788,1,8,0:2:0:0:
44,326,169080,6,0,P|81:338|104:398,1,75,0|0,0:2|0:2,0:0:0:0:
306,259,169372,102,0,P|239:267|173:283,1,134.999995880127,0|0,3:2|0:0,0:0:0:0:
214,347,169663,2,0,P|250:338|287:333,1,75,0|0,0:2|3:2,0:0:0:0:
399,206,169954,6,0,P|387:220|380:238,1,37.5,10|0,3:2|0:0,0:0:0:0:
384,246,170099,1,2,0:2:0:0:
475,378,170245,102,0,P|438:369|401:364,1,75,2|2,0:2|3:2,0:0:0:0:
330,153,170537,6,0,B|327:132|303:124|303:124|246:110|239:18|342:-14|375:68|352:100,1,225.000008583069,2|2,3:2|0:2,0:0:0:0:
415,133,170973,101,10,3:2:0:0:
415,133,171046,1,8,0:0:0:0:
415,133,171119,1,10,3:2:0:0:
303,243,171265,5,10,3:2:0:0:
170,166,171411,101,10,3:2:0:0:
196,16,171555,5,10,3:2:0:0:
388,215,171702,102,0,P|434:249|497:218,1,123.75000377655,6|0,3:2|0:0,0:0:0:0:
478,151,171994,2,0,P|445:136|397:159,1,67.4999979400635,0|2,0:0|3:2,0:0:0:0:
336,373,172284,54,0,P|320:308|303:243,1,134.999995880127,8|0,0:0|0:0,0:0:0:0:
339,153,172575,1,0,3:2:0:0:
167,244,172721,6,0,P|238:244|267:166,1,150,0|0,0:2|0:0,0:0:0:0:
115,40,173158,38,0,P|109:90|79:120,1,75,0|0,3:2|0:0,0:0:0:0:
28,150,173449,1,10,0:2:0:0:
28,150,173595,1,2,0:2:0:0:
24,264,173741,6,0,P|56:232|101:203,1,90,2|0,0:2|0:0,0:0:0:0:
150,158,174032,38,0,P|195:170|296:183,1,134.999995880127,0|0,3:2|0:0,0:0:0:0:
246,253,174323,2,0,P|204:247|149:232,1,75,0|0,0:2|3:2,0:0:0:0:
365,100,174614,6,0,P|347:108|329:140,1,37.5,8|0,0:2|0:0,0:0:0:0:
336,129,174760,1,0,0:2:0:0:
463,280,174906,38,0,P|436:206|358:202,1,165.000005035401,0|0,3:2|0:2,0:0:0:0:
298,377,175488,6,0,P|302:339|325:255,1,112.5,2|0,3:2|0:0,0:0:0:0:
444,124,175779,38,0,B|414:141|408:167|408:167|398:228|304:243|261:139|261:139|298:163|349:135,1,341.249984378815,8|0,0:2|0:0,0:0:0:0:
299,75,176362,6,0,P|254:87|153:100,1,134.999995880127,0|0,3:2|0:0,0:0:0:0:
181,23,176653,2,0,P|222:19|280:6,1,75,0|0,0:2|3:2,0:0:0:0:
200,181,176944,38,0,P|145:186|119:260,1,112.5,8|0,0:2|0:0,0:0:0:0:
117,243,177235,1,0,3:2:0:0:
11,340,177381,6,0,B|91:327|91:327|149:322|134:365|213:347,1,187.5,0|0,0:2|0:2,0:0:0:0:
503,288,177818,38,0,P|483:239|443:230,1,93.75,0|0,3:2|0:0,0:0:0:0:
192,274,178108,1,8,0:2:0:0:
192,274,178400,6,0,P|229:262|240:197,1,75,2|2,0:2|0:2,0:0:0:0:
219,163,178692,38,0,P|154:167|129:225,1,134.999995880127,2|0,3:2|0:0,0:0:0:0:
192,274,178983,2,0,P|229:262|240:197,1,75,2|0,0:2|3:2,0:0:0:0:
457,149,179274,6,0,P|392:145|366:87,1,134.999995880127,10|0,3:2|0:0,0:0:0:0:
424,35,179565,2,0,P|461:46|473:111,1,75,2|0,0:2|3:2,0:0:0:0:
264,16,179857,38,0,B|273:12|281:2|281:2|326:65|269:144|189:123|169:59|169:59|188:29|173:-14,1,281.250010728836,2|0,3:2|0:0,0:0:0:0:
178,37,180293,1,8,3:2:0:0:
178,37,180366,1,8,0:2:0:0:
178,37,180439,1,10,3:2:0:0:
288,149,180585,5,8,3:2:0:0:
211,282,180731,37,8,3:2:0:0:
61,256,180875,5,8,3:2:0:0:
283,237,181022,38,0,P|348:219|415:211,1,123.75000377655,6|0,3:2|0:0,0:0:0:0:
396,288,181313,2,0,P|359:293|323:303,1,67.4999979400635,2|2,0:2|3:2,0:0:0:0:
143,110,181604,6,0,P|127:161|63:179,1,89.9999972534181,10|0,0:2|0:0,0:0:0:0:
29,155,181896,1,2,3:2:0:0:
213,22,182041,70,0,P|223:93|289:121,1,150,0|0,0:2|0:0,0:0:0:0:
468,256,182478,2,0,P|473:219|483:183,1,75,0|0,3:2|0:0,0:0:0:0:
307,29,182770,86,0,B|337:33|349:68|349:68|384:155|505:163|553:11|432:-37|389:21,1,367.49998878479,10|0,0:2|0:0,0:0:0:0:
289,121,183352,6,0,P|242:126|144:152,1,134.999995880127,0|0,3:2|0:0,0:0:0:0:
201,211,183643,2,0,P|237:202|274:198,1,75,0|0,0:2|3:2,0:0:0:0:
103,261,183935,38,0,P|112:237|114:207,1,37.5,8|0,0:2|0:0,0:0:0:0:
121,218,184080,1,0,0:2:0:0:
14,17,184226,6,0,P|41:90|50:191,1,165.000005035401,2|0,3:2|0:2,0:0:0:0:
7,237,184663,1,0,0:0:0:0:
176,384,184808,70,0,P|164:339|160:300,1,75,2|0,3:2|0:0,0:0:0:0:
220,88,185100,6,0,B|277:63|326:118|326:118|402:193|492:113|441:37|382:64,1,341.249984378815,8|0,0:2|0:0,0:0:0:0:
337,129,185682,70,0,P|290:134|192:160,1,134.999995880127,2|0,3:2|0:0,0:0:0:0:
322,208,185973,2,0,P|285:212|249:222,1,75,2|0,0:2|3:2,0:0:0:0:
90,358,186265,1,8,0:0:0:0:
90,358,186556,6,0,P|137:363|235:389,1,134.999995880127,2|0,3:2|0:0,0:0:0:0:
280,337,186847,38,0,P|288:280|178:279,1,187.5,2|0,0:2|3:2,0:0:0:0:
463,352,187430,6,0,L|526:367,1,46.875,10|0,0:2|0:0,0:0:0:0:
459,358,187575,1,0,0:0:0:0:
509,236,187721,70,0,P|484:263|449:274,1,75,0|0,0:2|0:2,0:0:0:0:
328,153,188012,6,0,P|364:206|428:198,1,134.999995880127,0|0,3:2|0:0,0:0:0:0:
490,159,188303,2,0,P|450:151|432:110,1,75,0|0,0:2|3:2,0:0:0:0:
218,78,188595,70,0,P|212:99|196:111,1,41.2500012588501,8|0,0:2|0:0,0:0:0:0:
186,108,188740,1,0,0:0:0:0:
96,0,188886,6,0,P|129:25|128:69,1,75,0|0,3:2|0:0,0:0:0:0:
0,191,189177,38,0,B|132:176|132:176|218:169|188:225|289:205,1,281.250010728836,2|0,0:2|0:0,0:0:0:0:
270,202,189614,1,8,3:2:0:0:
270,202,189687,1,8,0:2:0:0:
270,202,189760,1,10,3:2:0:0:
379,309,189906,5,8,3:2:0:0:
512,232,190052,69,8,3:2:0:0:
471,88,190196,5,8,3:2:0:0:
291,293,190342,70,0,P|223:279|102:264,1,179.999994506836,2|2,0:0|0:0,0:0:0:0:
