osu file format v14

[General]
AudioFilename: audio.mp3
AudioLeadIn: 0
PreviewTime: 162236
Countdown: 0
SampleSet: Soft
StackLeniency: 0.4
Mode: 0
LetterboxInBreaks: 0
WidescreenStoryboard: 1

[Editor]
DistanceSpacing: 1.1
BeatDivisor: 4
GridSize: 32
TimelineZoom: 1

[Metadata]
Title:Problem
TitleUnicode:Problem
Artist:Ariana Grande feat. Iggy Azalea
ArtistUnicode:Ariana Grande feat. Iggy Azalea
Creator:Sani_
Version:Revolver's Normal
Source:
Tags:Hip-hop Hip hop rap dance classic Gouhin Revolver english Vocal vocalist female my everything hannody Wafer Mimari goopert KAMI NO KOTOBA i love ganyu Pop
BeatmapID:3431867
BeatmapSetID:1679370

[Difficulty]
HPDrainRate:3
CircleSize:3.5
OverallDifficulty:4
ApproachRate:5
SliderMultiplier:1.6
SliderTickRate:1

[Events]
//Background and Video events
0,0,"My everything.jpg",0,0
Video,-987,"problem.mp4"
//Break Periods
2,57727,60987
2,108989,111993
2,141410,149531
2,159668,161181
//Storyboard Layer 0 (Background)
//Storyboard Layer 1 (Fail)
//Storyboard Layer 2 (Pass)
//Storyboard Layer 3 (Foreground)
//Storyboard Layer 4 (Overlay)
//Storyboard Sound Samples

[TimingPoints]
-725,582.52427184466,4,2,1,75,1,0
29566,-100,4,2,2,65,0,0
38886,-100,4,2,3,35,0,0
47478,-100,4,2,1,75,0,0
80828,-100,4,2,2,65,0,0
90148,-100,4,2,3,35,0,0
98741,-100,4,2,1,75,0,0
99469,-100,4,2,1,75,0,0
113449,-100,4,2,2,65,0,0
122770,-100,4,2,1,75,0,0
139080,-100,4,2,1,25,0,0
140828,-100,4,2,1,25,0,0
141410,-100,4,2,5,75,0,0
141447,-100,4,2,2,35,0,0
150731,-100,4,2,2,35,0,0
159469,-100,4,2,2,35,0,0
159541,-100,4,2,2,75,0,0
160051,-100,4,2,2,25,0,0
160634,-100,4,2,2,35,0,0
161216,-100,4,2,2,55,0,0
161799,-100,4,2,2,75,0,0
161944,-100,4,2,2,75,0,0
162090,-100,4,2,2,75,0,0
162236,-100,4,2,2,75,0,0
162381,-100,4,2,29,75,0,1
162418,-100,4,2,1,75,0,1
166750,-100,4,2,1,75,0,0
167041,-100,4,2,1,75,0,1
171410,-100,4,2,1,75,0,0
171702,-100,4,2,1,75,0,1
180731,-100,4,2,1,75,0,0
181022,-100,4,2,1,75,0,1
190342,-100,4,2,1,55,0,0

[Colours]
Combo1 : 228,208,234
Combo2 : 192,192,192

[HitObjects]
415,79,10925,6,0,P|351:63|315:71,1,80,4|2,3:2|0:0,0:0:0:0:
271,123,11508,2,0,P|247:55|279:-5,2,120,10|0|2,0:0|3:0|3:2,0:0:0:0:
358,159,12673,2,0,L|338:249,1,80,8|2,0:0|0:2,0:0:0:0:
324,323,13255,6,0,B|253:270|232:353|159:279,1,160,2|8,3:2|0:0,0:0:0:0:
120,225,14129,1,0,0:0:0:0:
66,154,14420,2,0,P|37:197|41:261,2,80,0|0|8,0:0|3:0|0:0,0:0:0:0:
205,46,15585,6,0,B|264:23|264:23|372:55,1,160,0|10,3:0|0:2,0:0:0:0:
418,113,16459,2,0,P|444:72|445:11,2,80,2|2|2,0:2|0:2|3:2,0:0:0:0:
291,236,17624,1,2,0:2:0:0:
225,176,17915,6,0,L|267:11,1,160,2|8,3:2|0:0,0:0:0:0:
176,23,18789,1,0,0:0:0:0:
117,88,19080,2,0,L|24:75,2,80,0|0|8,0:0|3:0|0:0,0:0:0:0:
140,262,20245,6,0,B|168:288|205:280|205:280|226:268|226:268|274:265|298:296,1,160,6|10,3:2|0:2,0:0:0:0:
356,339,21119,1,2,0:2:0:0:
382,255,21410,2,0,P|375:208|401:169,1,80,2|0,0:0|3:2,0:0:0:0:
474,159,21993,2,0,P|503:82|479:1,1,160,10|0,0:0|3:0,0:0:0:0:
396,1,22867,5,2,0:2:0:0:
355,79,23158,2,0,P|319:92|247:71,1,80,10|2,0:2|0:2,0:0:0:0:
212,32,23741,2,0,P|178:106|226:199,1,160,2|10,0:0|0:0,0:0:0:0:
95,317,24906,6,0,P|172:281|269:297,1,160,4|10,3:2|0:2,0:0:0:0:
326,321,25779,1,2,0:2:0:0:
407,288,26071,2,0,L|430:125,1,160,2|8,0:2|0:0,0:0:0:0:
261,79,27236,6,0,B|220:97|220:97|158:78,1,80,2|2,3:2|0:0,0:0:0:0:
115,33,27818,1,8,0:0:0:0:
58,100,28109,1,0,0:0:0:0:
5,170,28401,2,0,L|27:260,2,80,0|0|8,0:0|3:0|0:0,0:0:0:0:
170,115,29566,6,0,P|219:97|272:119,1,80,14|0,0:0|0:0,0:0:0:0:
273,136,30003,2,0,P|322:153|375:132,1,80,10|0,0:0|0:0,0:0:0:0:
385,124,30440,1,10,0:0:0:0:
455,284,31022,1,8,0:0:0:0:
382,333,31313,2,0,P|336:334|273:305,1,80,8|2,0:0|0:0,0:0:0:0:
260,247,31896,6,0,P|206:209|136:257,1,160,10|8,0:0|0:0,0:0:0:0:
162,342,32770,1,10,0:0:0:0:
77,316,33061,2,0,B|27:234|91:252|33:152,1,160,2|10,0:0|0:0,0:0:0:0:
174,50,34226,6,0,B|210:29|210:29|311:42,2,120,10|10|10,0:0|0:0|0:0,0:0:0:0:
104,104,35391,2,0,P|98:195|133:280,1,160,2|8,0:0|0:0,0:0:0:0:
206,275,36265,1,2,0:0:0:0:
287,241,36556,6,0,B|341:234|341:234|350:224|350:224|408:217,2,120,10|10|10,0:0|0:0|0:0,0:0:0:0:
220,182,37721,2,0,P|212:141|231:75,1,80,2|8,0:0|0:0,0:0:0:0:
272,34,38304,1,10,0:0:0:0:
448,37,38886,6,0,L|433:134,1,80,6|2,3:2|0:2,0:0:0:0:
362,165,39469,1,2,0:2:0:0:
432,239,39760,2,0,P|394:261|331:248,1,80,2|0,3:2|0:0,0:0:0:0:
285,212,40342,2,0,P|247:190|184:203,1,80,0|0,3:2|0:0,0:0:0:0:
211,190,41216,6,0,L|196:288,1,80,2|2,3:2|0:2,0:0:0:0:
186,356,41799,1,2,0:2:0:0:
106,319,42090,2,0,B|64:325|64:325|7:293,1,80,2|0,3:2|0:0,0:0:0:0:
7,221,42673,2,0,B|49:215|49:215|106:247,1,80,0|0,3:2|0:2,0:0:0:0:
81,233,43546,6,0,L|100:129,1,80,2|2,3:2|0:2,0:0:0:0:
116,69,44129,1,2,0:2:0:0:
190,115,44420,2,0,P|232:126|287:107,1,80,2|0,3:2|0:0,0:0:0:0:
342,73,45003,2,0,P|384:61|439:81,1,80,0|0,3:2|0:0,0:0:0:0:
419,69,45876,6,0,L|403:182,1,80,2|2,3:2|0:2,0:0:0:0:
331,192,46459,2,0,L|349:350,1,160,2|2,0:2|0:2,0:0:0:0:
437,345,47333,1,0,3:2:0:0:
457,259,47624,1,8,0:2:0:0:
314,155,48207,6,0,L|211:137,1,80,6|2,3:2|0:2,0:0:0:0:
192,133,48643,1,0,3:2:0:0:
93,45,49080,2,0,B|103:91|87:124|87:124|76:142|76:142|52:186|73:225,1,160,2|0,3:2|3:2,0:0:0:0:
101,277,49954,1,8,0:2:0:0:
183,247,50245,1,2,0:2:0:0:
253,299,50537,6,0,P|295:308|358:298,1,80,2|2,3:2|0:2,0:0:0:0:
415,280,51119,6,0,L|401:206,1,40,10|0,0:2|0:2,0:0:0:0:
398,197,51410,2,0,L|420:83,1,80,2|0,3:2|0:0,0:0:0:0:
440,34,51993,1,0,3:2:0:0:
352,41,52284,6,2,B|311:51|311:51|252:29,1,80,10|2,0:2|0:2,0:0:0:0:
190,15,52867,2,0,L|199:131,1,80,2|2,3:2|0:2,0:0:0:0:
202,138,53304,1,0,3:2:0:0:
279,245,53741,6,0,B|198:262|213:202|101:238,1,160,2|0,3:2|3:2,0:0:0:0:
66,299,54614,1,8,0:2:0:0:
136,354,54906,1,2,0:2:0:0:
223,341,55197,6,0,L|313:333,1,80,2|2,3:2|0:2,0:0:0:0:
354,262,55779,2,0,L|433:269,1,80,10|2,0:2|3:2,0:0:0:0:
496,331,56362,2,0,P|477:258|500:172,1,160,2|10,0:2|0:2,0:0:0:0:
424,127,57236,2,0,P|386:147|325:130,1,80,8|2,0:2|0:2,0:0:0:0:
89,172,62187,5,4,3:2:0:0:
89,172,62478,2,0,L|-9:187,2,80,2|10|2,0:0|0:0|0:0,0:0:0:0:
176,162,63352,2,0,B|254:142|255:204|357:175,1,160,2|8,0:0|0:0,0:0:0:0:
399,124,64226,1,2,0:2:0:0:
364,42,64517,2,0,P|327:20|269:21,1,80,2|2,3:2|0:0,0:0:0:0:
212,57,65100,6,0,L|223:114,2,40,8|0|0,0:0|0:0|0:0,0:0:0:0:
129,24,65682,2,0,B|88:17|88:17|28:42,1,80,0|0,0:0|3:0,0:0:0:0:
23,114,66265,2,0,B|64:121|64:121|124:96,1,80,8|0,0:0|3:0,0:0:0:0:
127,194,66847,5,0,3:0:0:0:
127,194,67138,2,0,L|106:281,2,80,2|10|2,0:2|0:2|0:2,0:0:0:0:
208,228,68012,2,0,P|252:238|291:223,1,80,2|2,0:2|3:2,0:0:0:0:
247,147,68595,2,0,P|285:136|323:147,1,80,8|2,0:0|0:2,0:0:0:0:
385,209,69177,2,0,B|355:21,1,160,2|8,3:2|0:0,0:0:0:0:
184,31,70342,6,0,P|142:18|82:33,1,80,0|0,0:0|3:0,0:0:0:0:
49,88,70925,1,8,0:0:0:0:
118,143,71216,1,0,3:0:0:0:
63,212,71508,6,0,L|91:392,1,160,6|10,3:2|0:2,0:0:0:0:
168,336,72381,1,2,0:2:0:0:
252,308,72673,2,0,B|326:273|337:348|436:297,1,160,2|10,0:0|0:0,0:0:0:0:
368,137,73838,5,0,3:0:0:0:
368,137,74129,2,0,P|411:155|465:147,2,80,2|10|2,0:2|0:2|0:2,0:0:0:0:
304,75,75003,2,0,P|227:50|124:90,1,160,2|10,0:0|0:0,0:0:0:0:
14,178,76168,6,0,P|41:167|88:169,1,40,4|2,3:2|0:2,0:0:0:0:
88,190,76459,2,0,P|115:200|162:199,1,40,2|2,0:2|0:2,0:0:0:0:
165,181,76750,2,0,L|276:205,1,80,10|2,0:2|0:2,0:0:0:0:
329,217,77333,1,2,0:2:0:0:
414,196,77624,2,0,P|411:241|386:287,2,80,2|8|2,3:2|0:0|0:2,0:0:0:0:
404,108,78498,6,0,L|298:116,1,80,2|2,3:2|0:0,0:0:0:0:
266,47,79080,2,0,P|281:137|242:228,1,160,8|0,0:0|0:0,0:0:0:0:
189,253,79954,1,0,3:0:0:0:
116,202,80245,2,0,P|104:256|115:303,1,80,8|0,0:0|0:0,0:0:0:0:
163,348,80828,6,0,P|202:351|238:334,1,80,14|0,0:0|0:0,0:0:0:0:
275,310,81265,2,0,P|314:306|350:322,1,80,10|0,0:0|0:0,0:0:0:0:
384,350,81702,1,10,0:0:0:0:
479,202,82284,1,8,0:0:0:0:
396,233,82575,2,0,L|279:214,1,80,8|2,0:0|0:0,0:0:0:0:
268,146,83158,6,0,P|256:74|299:14,2,120,10|10|10,0:0|0:0|0:0,0:0:0:0:
342,98,84323,2,0,B|392:180|328:162|379:249,1,160,2|10,0:0|0:0,0:0:0:0:
209,199,85488,6,0,B|177:189|177:189|127:202|127:202|86:187,2,120,10|10|10,0:0|0:0|0:0,0:0:0:0:
280,250,86653,2,0,L|308:82,1,160,2|8,0:0|0:0,0:0:0:0:
325,6,87527,1,2,0:0:0:0:
242,35,87818,6,0,B|188:42|188:42|179:52|179:52|121:59,2,120,10|10|10,0:0|0:0|0:0,0:0:0:0:
325,6,88983,2,0,P|373:-2|433:10,1,80,2|8,0:0|0:0,0:0:0:0:
477,49,89566,5,10,0:0:0:0:
311,98,90148,6,0,L|298:177,1,80,6|2,3:2|0:2,0:0:0:0:
282,263,90731,1,2,0:2:0:0:
210,212,91022,2,0,P|170:213|136:233,1,80,2|0,3:2|0:0,0:0:0:0:
89,307,91605,2,0,P|49:305|15:285,1,80,0|0,3:2|0:0,0:0:0:0:
15,285,92478,6,0,L|30:187,1,80,2|2,3:2|0:2,0:0:0:0:
43,119,93061,1,2,0:2:0:0:
126,90,93352,2,0,B|168:84|168:84|225:116,1,80,2|0,3:2|0:0,0:0:0:0:
225,187,93935,2,0,B|183:193|183:193|150:174,1,80,0|0,3:2|0:2,0:0:0:0:
150,174,94808,6,0,L|131:278,1,80,2|2,3:2|0:2,0:0:0:0:
120,339,95391,1,2,0:2:0:0:
202,307,95682,2,0,P|241:299|279:310,1,80,2|0,3:2|0:0,0:0:0:0:
340,374,96265,2,0,P|378:381|416:369,1,80,0|0,3:2|0:0,0:0:0:0:
416,369,97139,6,0,L|432:256,1,80,2|2,3:2|0:2,0:0:0:0:
357,236,97721,2,0,L|339:78,1,160,2|2,0:2|0:2,0:0:0:0:
409,24,98595,1,0,3:2:0:0:
465,91,98886,1,8,0:2:0:0:
311,177,99469,6,0,L|232:163,1,80,6|2,3:2|0:2,0:0:0:0:
188,157,99906,1,0,3:2:0:0:
131,37,100342,2,0,B|143:135|86:88|109:206,1,160,2|0,3:2|3:2,0:0:0:0:
166,255,101216,1,8,0:2:0:0:
252,241,101508,1,2,0:2:0:0:
328,284,101799,6,0,P|366:292|406:290,1,80,2|2,3:2|0:2,0:0:0:0:
460,220,102381,6,0,L|452:180,1,40,10|0,0:2|0:2,0:0:0:0:
436,140,102673,2,0,L|451:61,1,80,2|0,3:2|0:0,0:0:0:0:
374,17,103255,1,0,3:2:0:0:
340,98,103546,6,2,B|289:81|277:141|189:118,1,120,10|0,0:2|0:0,0:0:0:0:
181,125,104129,2,0,L|187:204,1,80,2|2,3:2|0:2,0:0:0:0:
193,248,104566,1,0,3:2:0:0:
213,378,105003,6,0,B|297:335|244:303|313:258,1,160,2|0,3:2|3:2,0:0:0:0:
400,256,105876,1,8,0:2:0:0:
470,308,106168,1,2,0:2:0:0:
503,226,106459,6,0,L|495:136,1,80,2|2,3:2|0:2,0:0:0:0:
413,115,107041,2,0,L|421:25,1,80,10|2,0:2|3:2,0:0:0:0:
332,27,107624,2,0,P|259:8|173:31,1,160,2|10,0:2|0:2,0:0:0:0:
120,94,108498,2,0,P|158:114|219:97,1,80,8|2,0:2|0:2,0:0:0:0:
497,221,113449,6,0,P|444:194|361:209,1,120,8|8,0:0|0:0,0:0:0:0:
356,231,114032,2,0,P|317:241|261:212,1,80,8|8,0:0|0:0,0:0:0:0:
203,186,114614,1,0,0:0:0:0:
150,114,114906,1,8,0:0:0:0:
181,31,115197,1,8,0:0:0:0:
280,116,115634,5,8,0:0:0:0:
280,116,115779,2,0,P|337:127|422:105,1,120,8|8,0:0|0:0,0:0:0:0:
438,99,116362,2,0,L|416:202,1,80,8|8,0:0|0:0,0:0:0:0:
403,263,116944,1,0,0:0:0:0:
337,321,117236,1,8,0:0:0:0:
253,292,117527,1,8,0:0:0:0:
94,367,118109,6,0,P|85:308|106:252,1,120,8|8,0:0|0:0,0:0:0:0:
145,233,118692,2,0,L|137:141,1,80,8|8,0:0|0:0,0:0:0:0:
133,65,119274,1,0,0:0:0:0:
205,14,119566,1,8,0:0:0:0:
272,71,119857,2,0,B|324:80|324:80|336:75|336:75|399:89,1,120,8|8,0:0|0:0,0:0:0:0:
432,90,120440,6,0,P|440:166|406:237,1,120,8|8,0:0|0:0,0:0:0:0:
388,229,121022,2,0,B|351:207|351:207|295:212,2,80,8|8|0,0:0|0:0|0:0,0:0:0:0:
388,229,122770,5,8,3:2:0:0:
317,282,123061,2,0,P|286:287|246:273,1,40,2|10,0:2|3:2,0:0:0:0:
241,260,123352,2,0,P|210:254|170:269,1,40,2|2,0:2|0:2,0:0:0:0:
163,278,123643,1,10,3:2:0:0:
113,205,123935,2,0,L|132:114,1,80,2|10,0:2|3:2,0:0:0:0:
204,80,124517,6,0,L|245:69,1,40,10|2,0:2|0:2,0:0:0:0:
284,55,124808,2,0,L|326:42,1,40,10|2,0:2|0:2,0:0:0:0:
364,32,125100,6,0,P|385:79|373:143,1,80,10|2,3:2|0:2,0:0:0:0:
316,162,125682,2,0,P|311:195|330:232,1,40,10|2,0:2|0:2,0:0:0:0:
350,222,125974,2,0,P|355:241|353:261,1,40,10|10,3:2|0:2,0:0:0:0:
339,302,126265,1,2,0:2:0:0:
253,280,126556,1,10,3:2:0:0:
181,336,126847,2,0,B|141:345|141:345|104:333,1,80,10|10,0:2|0:2,0:0:0:0:
29,286,127430,6,0,P|14:250|25:199,1,80,10|2,3:2|0:2,0:0:0:0:
108,172,128012,2,0,L|86:65,1,80,10|10,0:2|3:2,0:0:0:0:
53,14,128595,2,0,P|79:6|109:10,1,40,2|10,0:2|0:2,0:0:0:0:
132,23,128886,2,0,L|243:0,1,80,10|10,3:2|0:2,0:0:0:0:
290,42,129469,1,2,0:2:0:0:
372,11,129760,6,0,L|473:19,1,80,10|2,3:2|0:2,0:0:0:0:
479,101,130342,2,0,P|492:146|474:187,1,80,10|0,0:2|0:0,0:0:0:0:
374,315,131216,1,0,0:0:0:0:
296,272,131508,2,0,P|286:246|296:201,1,40,8|8,0:2|0:2,0:0:0:0:
317,202,131799,2,0,P|324:183|326:163,1,40,8|8,0:2|0:2,0:0:0:0:
330,119,132090,6,0,L|216:131,2,80,10|2|10,3:2|0:2|0:2,0:0:0:0:
417,113,132964,1,10,3:2:0:0:
487,59,133255,2,0,P|503:95|501:134,1,80,2|10,0:2|3:2,0:0:0:0:
441,200,133838,2,0,P|425:236|427:275,1,80,10|2,0:2|0:2,0:0:0:0:
465,355,134420,6,0,L|400:362,1,40,10|2,3:2|0:2,0:0:0:0:
381,361,134711,2,0,L|316:354,1,40,2|10,0:2|3:2,0:0:0:0:
297,355,135003,2,0,P|288:307|311:253,2,80,10|10|2,0:2|3:2|0:2,0:0:0:0:
208,356,135876,1,10,3:2:0:0:
121,293,136168,2,2,L|141:236,1,40,10|8,0:2|0:2,0:0:0:0:
170,231,136459,2,0,L|157:193,1,40,0|2,0:2|0:2,0:0:0:0:
134,155,136750,6,0,P|177:140|234:148,1,80,10|2,3:2|0:2,0:0:0:0:
275,202,137333,2,0,L|326:211,1,40,10|2,0:2|0:2,0:0:0:0:
354,190,137624,2,0,L|405:181,1,40,10|2,3:2|0:2,0:0:0:0:
437,179,137915,2,0,P|447:137|433:78,1,80,2|10,0:2|3:2,0:0:0:0:
485,24,138498,2,0,B|418:16|418:16|405:24|405:24|313:10,1,160,8|2,0:2|0:2,0:0:0:0:
408,291,150731,6,0,P|485:307|529:322,2,120,2|2|2,0:0|0:0|0:0,0:0:0:0:
364,217,151896,2,0,P|319:224|307:303,1,120,2|2,0:0|0:0,0:0:0:0:
179,340,152770,1,2,0:0:0:0:
109,288,153061,2,0,P|63:298|-4:339,2,120,2|2|2,0:0|0:0|0:0,0:0:0:0:
157,213,154226,2,2,B|168:166|146:136|143:149|121:104|146:59,1,160
303,16,155391,6,0,P|354:27|423:63,2,120,2|2|2,0:0|0:0|0:0,0:0:0:0:
257,89,156556,2,0,P|259:139|336:157,1,120,2|2,0:0|0:0,0:0:0:0:
411,248,157430,1,2,0:0:0:0:
472,188,157721,2,0,P|484:125|506:70,2,120,2|2|2,0:0|0:0|0:0,0:0:0:0:
510,266,158886,2,2,P|502:320|409:347,1,160
154,353,162381,6,0,L|236:347,1,80,2|0,0:0|0:2,0:0:0:0:
277,339,162817,1,0,3:2:0:0:
406,364,163255,2,0,P|404:268|370:206,1,160,0|0,3:2|3:2,0:0:0:0:
285,208,164128,1,8,0:2:0:0:
208,250,164419,1,2,0:2:0:0:
127,286,164711,6,0,L|109:197,1,80,0|0,3:2|0:2,0:0:0:0:
78,126,165294,6,0,P|76:108|90:75,1,40,8|0,0:2|0:2,0:0:0:0:
124,77,165584,2,0,L|146:-37,1,80,0|0,3:2|0:2,0:0:0:0:
227,5,166167,1,2,3:2:0:0:
313,21,166459,6,2,B|340:23|368:12|368:12|408:17|430:46,1,120,10|0,0:2|0:0,0:0:0:0:
448,76,167041,6,0,L|457:192,1,80,6|0,3:2|0:2,0:0:0:0:
459,199,167478,1,2,3:2:0:0:
338,145,167915,2,0,B|257:162|272:102|160:138,1,160,0|2,3:2|3:2,0:0:0:0:
127,200,168788,1,8,0:2:0:0:
156,283,169080,1,0,0:2:0:0:
236,247,169371,6,0,L|326:239,1,80,0|0,3:2|0:2,0:0:0:0:
394,277,169953,2,0,L|473:284,1,80,10|2,3:2|0:2,0:0:0:0:
471,195,170536,2,0,P|490:122|467:36,1,160,2|10,3:2|3:2,0:0:0:0:
384,62,171410,1,10,3:2:0:0:
326,128,171702,6,0,L|223:110,1,80,6|0,3:2|0:0,0:0:0:0:
204,104,172138,1,2,3:2:0:0:
108,13,172575,2,0,B|133:103|59:86|88:193,1,160,0|0,3:2|3:2,0:0:0:0:
134,237,173449,1,10,0:2:0:0:
219,214,173740,1,2,0:2:0:0:
268,287,174032,6,0,P|310:296|373:286,1,80,0|0,3:2|0:2,0:0:0:0:
431,271,174614,6,0,L|417:197,1,40,8|0,0:2|0:2,0:0:0:0:
406,191,174905,2,0,L|428:77,1,80,0|0,3:2|0:2,0:0:0:0:
353,55,175488,2,0,P|308:70|254:50,1,80,2|8,3:2|0:2,0:0:0:0:
209,8,176071,1,2,0:2:0:0:
130,48,176362,6,0,L|139:164,1,80,0|0,3:2|0:2,0:0:0:0:
143,171,176799,1,0,3:2:0:0:
44,259,177236,2,0,B|133:229|118:289|199:272,1,160,0|0,3:2|3:2,0:0:0:0:
270,223,178109,1,8,0:2:0:0:
226,146,178401,1,2,0:2:0:0:
173,75,178692,6,0,L|263:67,1,80,2|2,3:2|0:2,0:0:0:0:
328,112,179274,2,0,L|407:119,1,80,10|2,3:2|0:2,0:0:0:0:
474,61,179857,2,0,P|454:137|473:214,1,160,2|10,3:2|3:2,0:0:0:0:
507,295,180731,1,8,3:2:0:0:
435,345,181022,6,0,L|332:327,1,80,6|2,3:2|0:2,0:0:0:0:
314,318,181458,1,2,3:2:0:0:
195,375,181895,2,0,B|183:363|207:319|207:319|218:301|218:301|234:268|224:222,1,160,2|0,3:2|3:2,0:0:0:0:
171,153,182769,1,10,0:2:0:0:
117,222,183060,1,2,0:2:0:0:
45,169,183352,2,0,L|71:76,1,80,0|0,3:2|0:2,0:0:0:0:
118,20,183934,6,0,P|148:18|181:27,1,40,8|0,0:2|0:2,0:0:0:0:
187,52,184225,2,0,L|282:44,1,80,2|0,3:2|0:2,0:0:0:0:
353,30,184808,1,2,3:2:0:0:
432,68,185100,6,0,B|398:123|446:144|415:198,1,120,8|2,0:2|0:2,0:0:0:0:
384,209,185682,6,0,L|393:325,1,80,2|2,3:2|0:2,0:0:0:0:
385,332,186119,1,0,3:2:0:0:
264,277,186556,2,0,B|183:294|198:234|86:270,1,160,2|0,3:2|3:2,0:0:0:0:
46,326,187429,1,10,0:2:0:0:
19,241,187721,1,0,0:2:0:0:
58,162,188012,6,0,L|44:60,1,80,0|0,3:2|0:2,0:0:0:0:
123,40,188594,2,0,L|202:47,1,80,8|0,0:2|3:2,0:0:0:0:
287,69,189177,2,0,P|267:145|312:214,1,160,2|10,0:2|3:2,0:0:0:0:
391,183,190051,1,8,3:2:0:0:
397,95,190342,5,2,0:0:0:0:
