osu file format v14

[General]
AudioFilename: audio.mp3
AudioLeadIn: 0
PreviewTime: 162236
Countdown: 0
SampleSet: Soft
StackLeniency: 0.3
Mode: 0
LetterboxInBreaks: 0
WidescreenStoryboard: 1

[Editor]
Bookmarks: 152187,153061,155391,156847,157721,159469,160051,160634,161216,161799,162381
DistanceSpacing: 0.93
BeatDivisor: 8
GridSize: 32
TimelineZoom: 1

[Metadata]
Title:Problem
TitleUnicode:Problem
Artist:Ariana Grande feat. Iggy Azalea
ArtistUnicode:Ariana Grande feat. Iggy Azalea
Creator:Sani_
Version:Hard
Source:
Tags:Hip-hop Hip hop rap dance classic Gouhin Revolver english Vocal vocalist female my everything hannody Wafer Mimari goopert KAMI NO KOTOBA i love ganyu Pop
BeatmapID:3431692
BeatmapSetID:1679370

[Difficulty]
HPDrainRate:4.5
CircleSize:4
OverallDifficulty:6.5
ApproachRate:8
SliderMultiplier:1.9
SliderTickRate:1

[Events]
//Background and Video events
0,0,"My everything.jpg",0,0
Video,-987,"problem.mp4"
//Break Periods
2,57727,61437
2,108989,112699
2,141410,148401
//Storyboard Layer 0 (Background)
//Storyboard Layer 1 (Fail)
//Storyboard Layer 2 (Pass)
//Storyboard Layer 3 (Foreground)
//Storyboard Layer 4 (Overlay)
//Storyboard Sound Samples

[TimingPoints]
-725,582.52427184466,4,2,1,75,1,0
10925,-100,4,2,1,75,0,0
29566,-100,4,2,2,65,0,0
38886,-125,4,2,3,35,0,0
47333,-83.3333333333333,4,2,3,35,0,0
47478,-83.3333333333333,4,2,1,75,0,0
62187,-100,4,2,1,75,0,0
80828,-100,4,2,2,65,0,0
90148,-125,4,2,3,35,0,0
98595,-83.3333333333333,4,2,1,75,0,0
99469,-83.3333333333333,4,2,1,75,0,0
113449,-83.3333333333333,4,2,2,65,0,0
122770,-83.3333333333333,4,2,1,75,0,0
131362,-71.4285714285714,4,2,1,75,0,0
139080,-71.4285714285714,4,2,1,25,0,0
141410,-71.4285714285714,4,2,5,75,0,0
141447,-71.4285714285714,4,2,2,35,0,0
150731,-125,4,2,2,35,0,0
159469,-125,4,2,2,35,0,0
159541,-125,4,2,2,75,0,0
160051,-111.111111111111,4,2,2,25,0,0
160634,-100,4,2,2,35,0,0
161216,-90.9090909090909,4,2,2,55,0,0
161799,-83.3333333333333,4,2,2,75,0,0
162381,-76.9230769230769,4,2,29,75,0,1
162418,-76.9230769230769,4,2,1,75,0,1
166459,-76.9230769230769,4,2,1,75,0,0
167041,-76.9230769230769,4,2,1,75,0,1
171410,-76.9230769230769,4,2,1,75,0,0
171702,-76.9230769230769,4,2,1,75,0,1
180731,-76.9230769230769,4,2,1,75,0,0
181022,-76.9230769230769,4,2,1,75,0,1
190342,-76.9230769230769,4,2,1,55,0,0

[Colours]
Combo1 : 228,208,234
Combo2 : 192,192,192

[HitObjects]
481,326,10925,6,0,B|406:329|433:253|349:264,1,142.5,4|2,3:2|0:0,0:0:0:0:
322,283,11508,2,0,P|311:304|310:328,2,47.5,10|2|2,0:0|0:0|0:0,0:0:0:0:
341,362,11944,1,0,3:0:0:0:
214,252,12236,1,0,3:0:0:0:
209,273,12381,2,0,L|112:302,1,95,2|8,3:2|0:0,0:0:0:0:
55,374,12818,1,2,3:2:0:0:
54,358,12964,2,0,P|31:342|20:322,1,47.5,2|2,0:2|0:2,0:0:0:0:
56,253,13255,6,0,L|70:151,1,95,2|2,3:2|0:0,0:0:0:0:
193,60,13838,1,8,0:0:0:0:
55,13,14129,2,0,L|6:28,1,47.5,0|0,0:0|3:0,0:0:0:0:
13,103,14420,2,0,L|76:80,1,47.5,0|0,0:0|3:0,0:0:0:0:
134,100,14711,6,0,P|161:127|226:122,2,95,0|8|0,3:0|0:0|3:0,0:0:0:0:
202,28,15440,5,0,3:0:0:0:
227,42,15585,2,0,L|338:23,1,95,0|2,3:0|0:2,0:0:0:0:
353,56,16022,1,2,0:2:0:0:
348,100,16168,2,0,L|372:144,1,47.5,10|0,0:2|0:0,0:0:0:0:
348,169,16459,2,0,L|319:124,1,47.5,2|2,0:2|3:2,0:0:0:0:
336,242,16750,2,0,P|374:214|426:225,2,95,2|2|8,0:2|3:2|0:0,0:0:0:0:
281,305,17478,5,2,3:2:0:0:
265,318,17624,2,0,L|248:262,1,47.5,2|2,0:2|0:2,0:0:0:0:
267,189,17915,2,0,P|239:224|175:219,1,95,2|2,3:2|0:2,0:0:0:0:
59,295,18498,6,0,L|109:311,1,47.5,8|0,0:0|0:0,0:0:0:0:
128,346,18789,1,0,0:0:0:0:
206,161,19080,1,0,0:0:0:0:
31,146,19372,6,0,L|46:196,1,47.5,0|0,3:0|0:0,0:0:0:0:
121,184,19663,2,0,L|88:84,1,95,8|0,0:0|3:0,0:0:0:0:
147,9,20100,1,0,3:0:0:0:
182,34,20245,6,0,L|235:24,1,47.5,6|0,3:2|0:0,0:0:0:0:
241,57,20537,2,0,L|193:65,1,47.5,2|0,0:2|0:0,0:0:0:0:
299,103,20828,6,0,L|350:110,1,47.5,10|0,0:2|0:0,0:0:0:0:
361,139,21119,2,0,L|301:127,1,47.5,2|0,0:2|3:0,0:0:0:0:
408,64,21410,6,0,L|377:217,1,142.5,2|0,0:0|0:0,0:0:0:0:
398,244,21993,2,0,P|417:258|445:261,1,47.5,10|0,0:0|3:0,0:0:0:0:
511,218,22284,1,0,0:0:0:0:
360,383,22575,6,0,P|358:343|323:293,2,95,0|2|10,3:0|0:2|0:2,0:0:0:0:
219,324,23449,2,0,L|270:336,1,47.5,2|0,0:2|3:2,0:0:0:0:
266,370,23741,2,0,L|172:346,1,95,2|0,0:0|3:0,0:0:0:0:
70,267,24323,1,8,0:0:0:0:
198,229,24614,2,0,L|245:240,1,47.5,0|0,3:0|3:0,0:0:0:0:
316,196,24906,6,0,P|325:158|304:101,1,95,4|2,3:2|0:2,0:0:0:0:
233,79,25342,1,2,0:2:0:0:
220,92,25488,2,0,L|123:112,1,95,10|2,0:2|0:2,0:0:0:0:
57,73,25925,1,2,3:2:0:0:
45,63,26071,2,0,L|31:16,1,47.5,2|0,0:2|3:0,0:0:0:0:
126,111,26362,6,0,L|102:215,1,95,2|8,3:2|0:0,0:0:0:0:
19,254,26799,1,2,3:2:0:0:
34,266,26944,2,0,L|44:316,1,47.5,2|2,0:2|0:2,0:0:0:0:
90,378,27236,6,0,P|108:347|164:335,1,95,2|2,3:2|0:0,0:0:0:0:
304,265,27818,2,0,P|282:260|261:245,1,47.5,8|0,0:0|0:0,0:0:0:0:
251,202,28109,1,0,0:0:0:0:
338,66,28401,1,0,0:0:0:0:
412,244,28692,1,0,3:0:0:0:
510,97,28983,6,0,P|503:138|488:248,1,142.5,8|0,0:0|0:0,0:0:0:0:
412,244,29566,6,0,P|428:291|469:312,1,95,14|0,0:0|0:0,0:0:0:0:
477,329,30003,2,0,L|366:349,1,95,10|0,0:0|0:0,0:0:0:0:
343,364,30440,1,10,0:0:0:0:
324,376,30585,1,2,0:0:0:0:
252,334,30731,6,0,P|244:304|254:239,1,95,2|8,0:0|0:0,0:0:0:0:
239,223,31168,2,0,P|248:173|235:120,1,95,2|0,0:0|0:0,0:0:0:0:
203,104,31605,1,2,0:0:0:0:
194,83,31750,1,8,0:0:0:0:
239,24,31896,6,0,P|304:5|390:-6,2,142.5,10|10|10,0:0|0:0|0:0,0:0:0:0:
78,191,33061,2,0,B|34:207|-19:176|-18:121|10:94|52:99|59:125,1,190,2|10,0:0|0:0,0:0:0:0:
188,230,33935,2,0,L|161:280,1,47.5,0|0,0:0|0:0,0:0:0:0:
118,328,34226,6,0,P|105:266|74:181,2,142.5,10|10|10,0:0|0:0|0:0,0:0:0:0:
205,363,35245,1,0,0:0:0:0:
223,375,35391,2,0,B|282:359|237:335|307:317,1,95,2|8,0:0|0:0,0:0:0:0:
307,305,35828,2,0,L|401:325,1,95,2|0,0:0|0:0,0:0:0:0:
439,305,36265,1,2,0:0:0:0:
459,297,36410,1,10,0:0:0:0:
445,219,36556,6,0,P|460:159|486:80,2,142.5,10|10|10,0:0|0:0|0:0,0:0:0:0:
385,77,37721,6,0,B|355:51|364:12|364:12|343:46|299:44,1,142.5,2|0,0:0|0:0,0:0:0:0:
235,18,38304,2,0,P|232:64|304:122,1,142.5,10|0,0:0|0:0,0:0:0:0:
305,138,38886,6,0,P|271:156|251:194,1,76,6|2,3:2|0:2,0:0:0:0:
149,280,39469,2,0,P|156:301|206:328,1,76,2|2,0:2|3:2,0:0:0:0:
209,340,39906,2,0,P|242:336|259:327,1,38,2|0,0:2|0:0,0:0:0:0:
282,340,40197,1,2,0:2:0:0:
478,379,40779,6,0,L|495:341,1,38,2|2,0:2|0:2,0:0:0:0:
398,213,41216,2,0,P|402:252|410:296,2,76,2|2|2,3:2|0:2|0:2,0:0:0:0:
492,99,42090,1,2,3:2:0:0:
482,83,42236,2,0,P|456:73|397:54,1,76,2|2,0:2|0:2,0:0:0:0:
393,26,42673,2,0,P|359:31|341:36,1,38,0|0,3:2|0:0,0:0:0:0:
275,9,42964,6,0,P|316:32|310:104,1,114,0|0,0:2|0:0,0:0:0:0:
246,121,43546,6,0,P|251:143|307:177,1,76,2|2,3:2|0:2,0:0:0:0:
362,319,44129,2,0,P|392:303|410:258,1,76,2|2,0:2|3:2,0:0:0:0:
426,259,44566,2,0,P|430:235|424:214,1,38,2|0,0:2|0:0,0:0:0:0:
447,192,44857,1,2,0:2:0:0:
268,319,45440,6,0,L|259:356,2,38,2|2|0,0:2|0:2|0:2,0:0:0:0:
200,275,45876,6,0,L|153:284,1,38,2|0,3:2|0:0,0:0:0:0:
146,211,46168,2,0,L|193:202,1,38,2|0,0:2|3:2,0:0:0:0:
228,141,46459,6,0,L|265:148,1,38,2|0,0:2|0:0,0:0:0:0:
282,77,46751,2,0,L|244:69,1,38,2|0,3:2|0:0,0:0:0:0:
195,14,47041,2,0,P|157:24|114:41,1,76,2|0,0:2|3:2,0:0:0:0:
70,107,47478,6,0,L|35:98,2,28.4999991302491,8|10|8,0:2|0:2|0:2,0:0:0:0:
91,127,47770,2,0,P|138:118|170:115,2,56.9999982604981,8|8|8,0:2|0:2|0:2,0:0:0:0:
28,198,48207,6,0,B|12:255|53:278|66:268|98:300|85:353,1,170.999994781494,6|0,3:2|3:2,0:0:0:0:
68,366,48789,2,0,L|8:378,1,56.9999982604981,10|0,0:2|0:0,0:0:0:0:
141,291,49080,6,0,B|193:273|237:314|210:327|241:364|300:354,1,170.999994781494,2|2,3:2|0:2,0:0:0:0:
351,258,49663,6,0,P|306:235|295:296,1,113.999996520996,0|8,3:2|0:2,0:0:0:0:
286,355,50100,2,0,P|266:258|236:188,1,170.999994781494,2|2,0:2|3:2,0:0:0:0:
6,103,50828,5,2,0:2:0:0:
33,102,50974,1,0,3:2:0:0:
58,92,51119,1,10,0:2:0:0:
77,73,51265,1,0,0:2:0:0:
61,53,51410,6,0,P|153:38|230:30,1,170.999994781494,2|2,3:2|0:2,0:0:0:0:
292,84,51993,2,0,B|275:104|272:136|272:136|253:113|219:109,1,113.999996520996,0|10,3:2|0:2,0:0:0:0:
230,29,52430,2,0,P|242:94|186:195,1,170.999994781494,2|2,0:2|3:2,0:0:0:0:
74,296,53158,5,2,0:2:0:0:
81,321,53304,1,0,3:2:0:0:
86,346,53449,1,10,0:2:0:0:
230,273,53741,6,0,B|211:302|211:302|227:349|283:364|332:345,1,170.999994781494,2|2,3:2|0:2,0:0:0:0:
345,364,54323,2,0,P|385:358|408:287,1,113.999996520996,0|8,3:2|0:2,0:0:0:0:
449,259,54760,5,0,0:2:0:0:
439,234,54906,2,0,P|445:198|453:172,1,56.9999982604981,2|2,0:2|0:2,0:0:0:0:
416,101,55197,6,0,P|383:109|363:120,1,56.9999982604981,2|0,3:2|0:0,0:0:0:0:
325,48,55488,2,0,P|302:68|287:92,1,56.9999982604981,2|0,0:2|3:2,0:0:0:0:
233,160,55779,6,0,P|223:134|200:100,1,56.9999982604981,10|0,0:2|0:0,0:0:0:0:
147,166,56071,2,0,P|124:144|99:133,1,56.9999982604981,2|0,3:2|0:0,0:0:0:0:
73,218,56362,6,0,P|81:255|88:346,1,113.999996520996,2|2,0:2|3:2,0:0:0:0:
194,286,56799,6,0,L|206:250,2,28.4999991302491,8|8|10,0:2|0:2|0:2,0:0:0:0:
229,325,57090,2,0,P|239:362|245:393,2,56.9999982604981,8|8|8,0:2|0:2|0:2,0:0:0:0:
314,269,57527,5,2,0:2:0:0:
78,295,62187,6,0,P|75:331|148:311,1,142.5,4|2,3:2|0:0,0:0:0:0:
135,235,62770,2,0,L|123:182,2,47.5,10|2|2,0:0|0:0|0:0,0:0:0:0:
94,156,63207,1,0,3:0:0:0:
129,86,63352,6,0,P|147:66|214:64,1,95,2|2,0:0|3:2,0:0:0:0:
428,0,64080,1,2,3:2:0:0:
453,35,64226,2,0,L|437:89,1,47.5,2|2,0:2|0:2,0:0:0:0:
497,132,64517,6,0,P|453:122|422:170,1,95,2|2,3:2|0:0,0:0:0:0:
359,293,65100,1,8,0:0:0:0:
363,285,65245,1,0,0:0:0:0:
367,277,65391,6,0,P|418:295|428:297,1,47.5,0|0,0:0|3:0,0:0:0:0:
399,369,65682,2,0,P|348:351|338:349,1,47.5,0|0,0:0|3:0,0:0:0:0:
276,318,65974,6,0,B|227:324|243:351|214:371|176:362,2,95,0|8|0,3:0|0:0|3:0,0:0:0:0:
226,251,66702,1,0,3:0:0:0:
213,233,66847,6,0,L|232:131,1,95,0|2,3:0|0:2,0:0:0:0:
305,99,67284,1,2,0:2:0:0:
317,117,67430,2,0,L|303:179,1,47.5,10|0,0:2|0:0,0:0:0:0:
375,196,67721,2,0,L|391:130,1,47.5,2|2,0:2|3:2,0:0:0:0:
366,270,68012,6,0,P|400:241|449:243,2,95,2|2|8,0:2|3:2|0:0,0:0:0:0:
301,323,68741,1,2,3:2:0:0:
288,335,68886,2,0,L|278:390,1,47.5,2|2,0:2|0:2,0:0:0:0:
386,383,69177,2,0,P|424:349|425:307,1,95,2|2,3:2|0:2,0:0:0:0:
500,78,69760,6,0,L|446:61,1,47.5,8|0,0:0|0:0,0:0:0:0:
417,88,70051,1,0,0:0:0:0:
425,307,70342,1,0,0:0:0:0:
302,241,70634,6,0,L|237:226,1,47.5,0|0,3:0|0:0,0:0:0:0:
213,295,70925,2,0,L|311:318,1,95,8|0,0:0|3:0,0:0:0:0:
394,365,71362,1,0,3:0:0:0:
412,352,71508,6,0,L|426:302,1,47.5,6|0,3:2|0:0,0:0:0:0:
450,275,71799,2,0,L|434:217,1,47.5,2|0,0:2|0:0,0:0:0:0:
363,178,72090,6,0,L|349:128,1,47.5,10|0,0:2|0:0,0:0:0:0:
319,100,72381,2,0,L|335:42,1,47.5,2|0,0:2|3:0,0:0:0:0:
407,12,72673,6,0,B|441:-14|482:19|473:48|454:32,1,95,2|0,0:0|3:2,0:0:0:0:
250,52,73255,2,0,P|204:35|157:41,1,95,10|0,0:0|0:0,0:0:0:0:
77,93,73692,1,0,0:0:0:0:
67,108,73838,2,0,L|79:160,1,47.5,0|0,3:0|0:0,0:0:0:0:
67,174,74129,1,2,0:2:0:0:
236,242,74420,1,10,0:2:0:0:
91,330,74711,2,0,L|148:308,1,47.5,2|0,0:2|3:2,0:0:0:0:
205,258,75003,6,0,B|247:257|281:283|256:302|288:346|328:336,1,142.5,2|0,0:0|0:0,0:0:0:0:
384,300,75585,2,0,P|410:320|435:343,2,47.5,2|2|0,0:0|0:0|3:0,0:0:0:0:
400,211,76022,1,0,3:0:0:0:
410,192,76168,6,0,L|452:228,1,47.5,4|2,3:2|0:2,0:0:0:0:
336,139,76459,1,2,0:2:0:0:
328,118,76605,1,2,0:2:0:0:
317,98,76750,2,0,L|270:129,1,47.5,10|0,0:2|0:0,0:0:0:0:
387,45,77041,1,2,0:2:0:0:
377,31,77187,2,0,P|350:14|286:17,1,95,2|0,3:2|3:0,0:0:0:0:
215,77,77624,6,0,P|173:98|126:92,1,95,2|8,3:2|0:0,0:0:0:0:
119,76,78061,1,2,3:2:0:0:
99,69,78207,6,0,L|38:89,1,47.5,2|2,0:2|0:2,0:0:0:0:
8,185,78498,2,0,L|120:156,1,95,2|2,3:2|0:0,0:0:0:0:
235,223,79080,2,0,L|214:284,1,47.5,8|0,0:0|0:0,0:0:0:0:
245,304,79372,1,0,0:0:0:0:
104,373,79663,1,0,0:0:0:0:
109,210,79954,1,0,3:0:0:0:
10,370,80245,6,0,P|19:309|36:220,1,142.5,8|0,0:0|0:0,0:0:0:0:
17,147,80828,6,0,P|28:123|97:115,1,95,14|0,0:0|0:0,0:0:0:0:
135,40,81265,2,0,P|161:40|189:99,1,95,10|0,0:0|0:0,0:0:0:0:
273,85,81702,2,0,P|276:108|255:131,1,47.5,10|2,0:0|0:0,0:0:0:0:
263,148,81993,6,0,L|375:133,1,95,2|8,0:0|0:0,0:0:0:0:
400,209,82430,2,0,L|288:224,1,95,2|0,0:0|0:0,0:0:0:0:
286,301,82867,2,0,L|343:294,1,47.5,2|8,0:0|0:0,0:0:0:0:
354,310,83158,6,0,P|344:364|302:378,1,95,10|0,0:0|0:0,0:0:0:0:
230,383,83595,2,0,P|203:369|190:303,1,95,10|0,0:0|0:0,0:0:0:0:
133,250,84032,2,0,P|147:228|170:218,1,47.5,10|0,0:0|0:0,0:0:0:0:
172,198,84323,6,0,L|108:342,1,142.5,2|0,0:0|0:0,0:0:0:0:
53,378,84906,2,0,B|69:337|38:309|38:309|14:278|35:245,1,142.5,10|0,0:0|0:0,0:0:0:0:
83,173,85488,6,0,P|63:102|27:25,2,142.5,10|10|10,0:0|0:0|0:0,0:0:0:0:
150,99,86508,1,0,0:0:0:0:
156,89,86653,2,0,B|174:57|214:49|218:71|262:74|282:34,2,142.5,2|2|2,0:0|0:0|0:0,0:0:0:0:
244,115,87673,1,10,0:0:0:0:
253,122,87818,2,0,P|277:152|302:221,1,95,10|0,0:0|0:0,0:0:0:0:
379,182,88255,2,0,P|353:219|344:289,1,95,10|0,0:0|0:0,0:0:0:0:
325,279,88692,1,10,0:0:0:0:
489,309,88983,6,0,B|508:296|508:296|511:256|485:226|433:237|435:238|420:257,1,142.5,2|0,0:0|0:0,0:0:0:0:
412,324,89566,2,0,P|401:243|374:172,1,142.5,10|0,0:0|0:0,0:0:0:0:
388,171,90148,6,0,P|398:144|441:126,1,76,6|2,3:2|0:2,0:0:0:0:
347,2,90731,2,0,P|337:29|294:47,1,76,2|2,0:2|3:2,0:0:0:0:
282,58,91168,2,0,L|231:39,1,38,2|0,0:2|0:0,0:0:0:0:
213,57,91459,1,2,0:2:0:0:
10,0,92041,2,0,L|19:44,1,38,2|2,0:2|0:2,0:0:0:0:
47,173,92478,6,0,P|55:139|66:97,2,76,2|2|2,3:2|0:2|0:2,0:0:0:0:
100,314,93352,1,2,3:2:0:0:
115,305,93498,2,0,P|164:318|193:332,1,76,2|2,0:2|0:2,0:0:0:0:
218,312,93935,2,0,P|235:321|258:327,1,38,0|0,3:2|0:0,0:0:0:0:
318,376,94226,6,0,P|291:343|329:280,1,114,0|0,0:2|0:0,0:0:0:0:
360,219,94808,6,0,P|386:247|393:288,1,76,2|2,3:2|0:2,0:0:0:0:
484,168,95391,2,0,P|458:140|451:99,1,76,2|2,0:2|3:2,0:0:0:0:
459,88,95828,2,0,P|468:58|479:44,1,38,2|0,0:2|0:0,0:0:0:0:
501,33,96119,1,2,0:2:0:0:
288,9,96702,6,0,L|301:51,2,38,2|2|0,0:2|0:2|0:2,0:0:0:0:
223,93,97139,6,0,L|181:78,1,38,2|0,3:2|0:0,0:0:0:0:
165,151,97430,2,0,L|207:166,1,38,2|0,0:2|3:2,0:0:0:0:
255,224,97721,6,0,L|297:209,1,38,2|0,0:2|0:0,0:0:0:0:
313,282,98012,2,0,L|271:297,1,38,2|0,3:2|0:0,0:0:0:0:
365,343,98304,2,0,P|389:315|391:268,1,76,2|0,0:2|3:2,0:0:0:0:
472,199,98741,6,0,L|492:176,2,28.4999991302491,8|10|8,0:2|0:2|0:2,0:0:0:0:
445,199,99032,2,0,P|416:191|384:180,2,56.9999982604981,8|8|8,0:2|0:2|0:2,0:0:0:0:
436,103,99469,6,0,B|393:115|353:78|387:60|335:11|290:30,1,170.999994781494,6|0,3:2|3:2,0:0:0:0:
279,47,100051,2,0,L|294:111,1,56.9999982604981,10|0,0:2|0:0,0:0:0:0:
208,10,100342,6,0,P|188:41|64:50,1,170.999994781494,2|2,3:2|0:2,0:0:0:0:
92,46,100925,2,0,P|132:91|106:149,1,113.999996520996,0|8,3:2|0:2,0:0:0:0:
47,183,101362,6,0,B|97:164|134:207|119:214|135:263|189:255,1,170.999994781494,2|2,0:2|3:2,0:0:0:0:
380,185,102090,5,2,0:2:0:0:
381,211,102236,1,0,3:2:0:0:
374,236,102381,1,10,0:2:0:0:
360,261,102527,1,0,0:2:0:0:
340,282,102673,6,0,P|308:260|296:134,1,170.999994781494,2|2,3:2|0:2,0:0:0:0:
370,108,103255,2,0,P|382:75|312:80,1,113.999996520996,0|10,3:2|0:2,0:0:0:0:
384,122,103692,1,2,0:2:0:0:
408,131,103838,2,0,P|442:132|466:119,1,56.9999982604981,2|0,0:2|0:0,0:0:0:0:
496,38,104129,6,0,L|453:223,1,170.999994781494,2|0,3:2|3:2,0:0:0:0:
502,274,104711,2,0,P|464:286|442:282,1,56.9999982604981,10|0,0:2|0:0,0:0:0:0:
393,373,105003,6,0,B|394:325|350:313|350:313|328:368|272:369,1,170.999994781494,2|2,3:2|0:2,0:0:0:0:
265,349,105585,2,0,L|280:285,1,56.9999982604981,0|0,3:2|0:0,0:0:0:0:
200,221,105876,5,8,0:2:0:0:
174,227,106022,1,0,0:2:0:0:
154,245,106168,1,2,0:2:0:0:
145,270,106313,1,2,0:2:0:0:
147,296,106459,6,0,L|211:281,1,56.9999982604981,2|0,3:2|0:0,0:0:0:0:
278,293,106750,2,0,L|342:278,1,56.9999982604981,2|0,0:2|3:2,0:0:0:0:
385,198,107041,6,0,L|315:178,1,56.9999982604981,10|0,0:2|0:0,0:0:0:0:
268,133,107333,2,0,L|198:113,1,56.9999982604981,2|0,3:2|0:0,0:0:0:0:
167,30,107624,6,0,P|186:74|129:90,1,113.999996520996,2|2,0:2|3:2,0:0:0:0:
46,30,108061,6,0,L|33:-10,2,28.4999991302491,8|8|10,0:2|0:2|0:2,0:0:0:0:
66,46,108352,2,0,P|55:95|51:126,2,56.9999982604981,8|8|8,0:2|0:2|0:2,0:0:0:0:
135,94,108789,5,2,0:2:0:0:
15,23,113449,5,8,0:0:0:0:
108,196,113886,1,8,0:0:0:0:
133,205,114032,1,8,0:0:0:0:
231,82,114323,1,8,0:0:0:0:
231,82,114906,1,8,0:0:0:0:
313,218,115197,1,8,0:0:0:0:
500,95,115634,5,8,0:0:0:0:
471,51,115779,1,8,0:0:0:0:
288,1,116216,1,8,0:0:0:0:
285,28,116362,1,8,0:0:0:0:
384,153,116653,1,8,0:0:0:0:
384,153,117236,5,8,0:0:0:0:
227,180,117527,1,8,0:0:0:0:
227,180,118109,5,8,0:0:0:0:
360,316,118546,1,8,0:0:0:0:
320,351,118692,1,8,0:0:0:0:
163,380,118983,1,8,0:0:0:0:
163,380,119566,5,8,0:0:0:0:
108,230,119857,1,8,0:0:0:0:
214,96,120294,5,8,0:0:0:0:
203,43,120440,1,8,0:0:0:0:
51,143,120876,1,8,0:0:0:0:
47,117,121022,1,8,0:0:0:0:
89,15,121313,5,8,0:0:0:0:
89,15,122770,6,0,P|93:52|97:90,1,56.9999982604981,8|0,3:2|0:0,0:0:0:0:
79,142,123061,6,0,P|102:128|149:126,1,56.9999982604981,2|10,0:2|3:2,0:0:0:0:
152,113,123352,2,0,P|189:123|211:143,1,56.9999982604981,2|2,0:2|0:2,0:0:0:0:
227,220,123643,6,0,P|215:250|210:281,2,56.9999982604981,10|10|2,3:2|0:2|0:2,0:0:0:0:
289,156,124080,2,0,P|277:126|272:95,1,56.9999982604981,10|10,0:2|3:2,0:0:0:0:
384,208,124517,6,0,P|415:203|440:205,1,56.9999982604981,10|2,0:2|0:2,0:0:0:0:
483,267,124808,2,0,P|504:246|510:205,2,56.9999982604981,10|2|10,0:2|0:2|3:2,0:0:0:0:
441,333,125245,2,0,P|466:347|485:375,1,56.9999982604981,2|2,0:2|0:2,0:0:0:0:
330,376,125682,6,0,P|298:370|263:358,1,56.9999982604981,10|2,0:2|0:2,0:0:0:0:
235,286,125974,2,0,P|255:258|276:258,2,56.9999982604981,10|10|2,3:2|0:2|0:2,0:0:0:0:
166,336,126410,2,0,P|139:320|132:289,2,56.9999982604981,10|10|2,0:2|3:2|0:2,0:0:0:0:
103,275,126847,2,0,P|117:228|126:196,1,56.9999982604981,10|2,0:2|0:2,0:0:0:0:
45,200,127139,2,0,P|31:247|22:279,1,56.9999982604981,10|2,0:2|0:2,0:0:0:0:
101,129,127430,6,0,P|88:47|75:-4,2,113.999996520996,10|2|10,3:2|0:2|0:2,0:0:0:0:
220,47,128304,2,0,P|181:31|149:17,2,56.9999982604981,10|2|2,3:2|0:2|0:2,0:0:0:0:
285,102,128741,2,0,P|330:91|363:88,1,56.9999982604981,10|10,0:2|3:2,0:0:0:0:
362,170,129032,2,0,P|317:181|284:184,2,56.9999982604981,2|10|10,0:2|0:2|0:2,0:0:0:0:
419,110,129469,2,0,P|446:107|492:111,1,56.9999982604981,2|2,0:2|0:2,0:0:0:0:
508,177,129760,6,0,P|489:206|485:238,1,56.9999982604981,10|2,3:2|0:2,0:0:0:0:
385,220,130051,2,0,P|378:192|361:169,1,56.9999982604981,2|10,0:2|3:2,0:0:0:0:
434,291,130342,6,0,P|390:275|366:336,1,113.999996520996,10|0,0:2|0:0,0:0:0:0:
165,330,131362,2,0,P|153:340|147:360,2,33.2499989852906,8|8|8,0:2|0:2|0:2,0:0:0:0:
152,301,131653,2,0,L|135:218,2,66.4999979705811,8|8|8,0:2|0:2|0:2,0:0:0:0:
234,286,132090,6,0,L|198:142,1,132.999995941162,10|2,3:2|0:2,0:0:0:0:
219,131,132527,1,10,3:2:0:0:
249,124,132673,2,0,P|276:137|289:175,1,66.4999979705811,10|2,0:2|0:2,0:0:0:0:
356,237,132964,1,10,3:2:0:0:
386,244,133110,2,0,P|413:231|426:193,1,66.4999979705811,2|2,0:2|0:2,0:0:0:0:
470,120,133401,5,2,0:2:0:0:
458,91,133546,2,0,P|470:33|478:2,2,66.4999979705811,10|2|10,3:2|0:2|0:2,0:0:0:0:
356,237,134129,6,0,P|368:295|376:326,1,66.4999979705811,2|2,0:2|0:2,0:0:0:0:
309,374,134420,6,0,P|277:371|256:338,1,66.4999979705811,10|2,3:2|0:2,0:0:0:0:
176,371,134711,2,0,P|150:348|150:311,1,66.4999979705811,2|10,0:2|3:2,0:0:0:0:
75,277,135003,2,0,P|88:242|92:213,1,66.4999979705811,10|2,0:2|0:2,0:0:0:0:
45,129,135294,1,10,3:2:0:0:
18,144,135440,2,0,P|2:166|9:206,1,66.4999979705811,2|2,0:2|0:2,0:0:0:0:
132,137,135731,1,10,0:2:0:0:
138,106,135876,2,0,P|123:69|83:60,1,66.4999979705811,10|2,3:2|0:2,0:0:0:0:
45,129,136168,6,0,P|151:144|256:179,1,199.499993911743,10|2,0:2|0:2,0:0:0:0:
307,229,136750,6,0,B|280:260|295:291|295:291|280:260|238:258,1,132.999995941162,10|2,3:2|0:2,0:0:0:0:
408,126,137333,2,0,P|438:147|441:178,1,66.4999979705811,10|2,0:2|0:2,0:0:0:0:
510,219,137624,2,0,P|507:245|468:268,1,66.4999979705811,10|2,3:2|0:2,0:0:0:0:
408,303,137915,6,0,P|425:234|447:152,1,132.999995941162,2|10,0:2|3:2,0:0:0:0:
408,179,138352,2,0,P|384:266|366:336,1,132.999995941162,2|2,0:2|0:2,0:0:0:0:
474,377,138789,6,0,P|487:376|470:374,1,66.4999979705811,2|0,0:2|0:0,0:0:0:0:
392,105,150731,6,0,B|372:89|372:89|387:24|466:10|508:91|504:151|458:206|401:183|394:231,1,342,2|0,0:0|0:0,0:0:0:0:
373,302,152187,2,0,B|415:305|439:337|439:337|436:297|466:269,1,152,0|2,0:0|0:0,0:0:0:0:
295,331,153061,6,0,B|269:350|269:350|202:340|170:273|178:206|216:171|271:160|307:200|313:224|299:258,1,342,2|0,0:0|0:0,0:0:0:0:
271,260,154517,2,0,P|268:199|237:106,1,152,0|0,0:0|0:0,0:0:0:0:
122,8,155391,6,0,B|70:-17|27:47|50:118|131:133|172:79|172:79|210:28|258:45,1,342,2|0,0:0|0:0,0:0:0:0:
323,21,156847,2,0,P|309:92|239:112,1,152,0|2,0:0|0:0,0:0:0:0:
411,129,157721,6,0,B|395:117|395:117|359:144|363:181|375:201|375:201|496:222,1,228,2|2,0:0|0:0,0:0:0:0:
437,353,158886,2,0,P|439:306|365:335,1,152,2|2,0:0|0:0,0:0:0:0:
364,326,160051,6,0,L|320:352,1,42.7499986953736,2|0,0:0|0:0,0:0:0:0:
315,350,160342,1,0,0:0:0:0:
195,373,160634,6,0,L|148:357,1,47.5,2|0,0:0|0:0,0:0:0:0:
140,337,160925,1,0,0:0:0:0:
52,220,161216,6,0,L|41:164,1,52.2500015945435,2|0,0:0|0:0,0:0:0:0:
54,147,161508,1,0,0:0:0:0:
161,30,161799,6,0,L|246:51,1,85.4999973907472,2|0,0:0|0:0,0:0:0:0:
248,37,162090,2,0,P|282:22|301:27,1,56.9999982604981,0|0,0:0|0:0,0:0:0:0:
377,11,162381,6,0,B|339:27|339:27|314:82|341:135|394:144,1,185.249991519928,2|0,0:0|3:2,0:0:0:0:
412,127,162964,2,0,L|477:118,1,61.7499971733095,8|0,0:2|0:0,0:0:0:0:
499,204,163255,2,0,B|381:221|381:221|362:258|323:264,1,185.249991519928,0|0,3:2|0:2,0:0:0:0:
257,164,163838,6,0,P|288:177|313:194,1,61.7499971733095,0|0,3:2|0:2,0:0:0:0:
252,282,164129,1,8,0:2:0:0:
226,295,164274,1,0,0:2:0:0:
197,299,164420,2,0,P|185:260|174:240,1,61.7499971733095,2|0,0:2|0:0,0:0:0:0:
95,198,164711,6,0,B|99:142|145:161|137:87,1,123.499994346619,0|0,3:2|0:2,0:0:0:0:
66,30,165148,1,0,3:2:0:0:
37,34,165294,1,8,0:2:0:0:
21,58,165440,1,0,0:2:0:0:
17,86,165585,2,0,P|97:68|210:51,1,185.249991519928,0|0,3:2|0:0,0:0:0:0:
273,8,166168,6,0,P|301:24|310:51,1,61.7499971733095,2|0,3:2|0:0,0:0:0:0:
335,64,166459,2,0,P|330:109|312:129,1,61.7499971733095,10|0,0:2|0:0,0:0:0:0:
335,145,166750,2,0,P|306:175|277:182,1,61.7499971733095,0|0,0:2|0:0,0:0:0:0:
201,177,167041,6,0,B|258:160|294:213|261:230|294:286|340:272,1,185.249991519928,6|2,3:2|3:2,0:0:0:0:
427,204,167624,2,0,P|415:237|410:276,1,61.7499971733095,8|0,0:2|0:0,0:0:0:0:
460,291,167915,2,0,P|457:217|417:105,1,185.249991519928,0|0,3:2|0:2,0:0:0:0:
475,54,168498,6,0,P|506:23|447:47,1,185.249991519928,2|0,3:2|0:0,0:0:0:0:
421,112,169080,1,0,0:2:0:0:
512,270,169372,6,0,P|489:289|455:290,1,61.7499971733095,0|0,3:2|0:0,0:0:0:0:
441,313,169663,2,0,P|410:309|384:285,1,61.7499971733095,0|0,0:2|3:2,0:0:0:0:
325,229,169954,5,10,3:2:0:0:
299,215,170100,1,2,0:2:0:0:
270,212,170245,2,0,P|243:213|206:235,1,61.7499971733095,2|2,0:2|3:2,0:0:0:0:
152,290,170537,5,2,3:2:0:0:
126,302,170682,1,2,0:2:0:0:
97,306,170828,2,0,P|68:309|28:293,1,61.7499971733095,2|10,0:2|3:2,0:0:0:0:
12,216,171119,5,10,3:2:0:0:
19,188,171265,1,10,3:2:0:0:
26,160,171410,1,10,3:2:0:0:
33,132,171556,1,10,3:2:0:0:
41,104,171702,6,0,L|158:154,1,123.499994346619,6|0,3:2|0:0,0:0:0:0:
239,162,172139,2,0,B|175:164|201:233|129:229,1,123.499994346619,2|0,3:2|0:0,0:0:0:0:
130,222,172575,6,0,P|225:244|305:294,1,185.249991519928,0|0,3:2|0:0,0:0:0:0:
350,348,173158,2,0,P|330:372|301:365,1,61.7499971733095,0|0,3:2|0:0,0:0:0:0:
379,265,173449,1,10,0:2:0:0:
407,258,173595,1,2,0:2:0:0:
435,261,173741,2,0,P|462:280|474:312,1,61.7499971733095,2|0,0:2|0:2,0:0:0:0:
415,174,174032,6,0,P|412:120|452:38,1,123.499994346619,0|0,3:2|0:2,0:0:0:0:
422,31,174469,1,0,3:2:0:0:
412,28,174614,2,0,L|341:44,1,61.7499971733095,8|0,0:2|0:2,0:0:0:0:
322,91,174906,5,0,3:2:0:0:
164,0,175197,6,0,L|142:62,1,61.7499971733095,0|0,0:2|0:0,0:0:0:0:
214,82,175488,2,0,L|235:22,1,61.7499971733095,2|0,3:2|0:0,0:0:0:0:
131,134,175779,6,0,L|155:209,1,61.7499971733095,8|0,0:2|0:0,0:0:0:0:
89,240,176071,2,0,L|68:171,1,61.7499971733095,2|0,0:2|0:0,0:0:0:0:
217,160,176362,6,0,B|267:149|303:199|284:205|303:259|362:251,1,185.249991519928,0|0,3:2|3:2,0:0:0:0:
376,234,176944,2,0,L|396:170,1,61.7499971733095,8|0,0:2|0:0,0:0:0:0:
285,308,177236,2,0,P|247:362|146:310,1,185.249991519928,0|0,3:2|0:2,0:0:0:0:
107,241,177818,6,0,L|124:177,1,61.7499971733095,0|0,3:2|0:0,0:0:0:0:
51,130,178109,2,0,L|31:200,1,61.7499971733095,8|2,0:2|0:2,0:0:0:0:
26,274,178401,1,2,0:2:0:0:
182,164,178692,6,0,L|117:182,1,61.7499971733095,2|0,3:2|0:0,0:0:0:0:
193,134,178983,2,0,L|133:96,1,61.7499971733095,2|0,0:2|3:2,0:0:0:0:
226,138,179274,2,0,L|203:67,1,61.7499971733095,10|0,3:2|0:0,0:0:0:0:
252,158,179566,2,0,L|288:99,1,61.7499971733095,2|0,0:2|3:2,0:0:0:0:
323,20,179857,6,0,P|330:85|399:92,1,123.499994346619,2|0,3:2|0:0,0:0:0:0:
464,56,180294,6,0,L|473:21,2,30.8749985866547,8|8|10,3:2|0:2|3:2,0:0:0:0:
478,81,180585,2,0,P|491:111|499:144,2,61.7499971733095,8|8|8,3:2|3:2|3:2,0:0:0:0:
435,188,181022,5,6,3:2:0:0:
421,213,181168,1,2,0:2:0:0:
414,241,181313,1,2,0:2:0:0:
409,269,181459,1,2,3:2:0:0:
408,297,181605,2,0,L|480:282,1,61.7499971733095,10|0,0:2|0:0,0:0:0:0:
350,371,181896,6,0,P|272:356|161:342,1,185.249991519928,2|0,3:2|0:0,0:0:0:0:
191,316,182478,2,0,P|234:323|279:332,1,61.7499971733095,0|0,3:2|0:0,0:0:0:0:
129,257,182770,6,0,P|101:284|92:371,1,123.499994346619,10|2,0:2|0:2,0:0:0:0:
212,229,183352,6,0,P|205:189|151:130,1,123.499994346619,0|0,3:2|0:2,0:0:0:0:
65,110,183789,1,0,3:2:0:0:
40,125,183935,2,0,P|14:149|6:179,1,61.7499971733095,8|0,0:2|0:2,0:0:0:0:
119,43,184226,5,2,3:2:0:0:
147,38,184372,2,0,P|205:53|241:124,1,123.499994346619,2|0,0:2|0:0,0:0:0:0:
319,132,184808,6,0,P|276:127|233:193,1,123.499994346619,2|8,3:2|0:2,0:0:0:0:
306,230,185245,5,2,0:2:0:0:
321,254,185391,2,0,P|302:292|295:314,1,61.7499971733095,2|2,0:2|0:2,0:0:0:0:
353,354,185682,5,2,3:2:0:0:
512,303,185974,2,0,B|464:274|419:312|432:327|407:377|350:353,1,185.249991519928,2|0,0:2|0:0,0:0:0:0:
409,288,186556,2,0,P|421:322|458:344,1,61.7499971733095,2|2,3:2|0:2,0:0:0:0:
512,303,186847,6,0,B|464:274|419:312|432:327|407:377|350:353,1,185.249991519928,2|0,0:2|0:0,0:0:0:0:
296,310,187430,2,0,B|248:281|203:319|216:334|191:384|134:360,1,185.249991519928,10|0,0:2|0:2,0:0:0:0:
114,286,188012,6,0,P|126:249|133:217,1,61.7499971733095,0|0,3:2|0:0,0:0:0:0:
55,209,188304,2,0,B|36:232|36:232|40:264,1,61.7499971733095,0|0,0:2|3:2,0:0:0:0:
108,150,188595,6,0,P|96:113|89:81,1,61.7499971733095,8|0,0:2|0:0,0:0:0:0:
167,73,188887,2,0,B|186:96|186:96|182:128,1,61.7499971733095,0|0,3:2|0:0,0:0:0:0:
232,24,189177,5,2,0:2:0:0:
258,34,189323,1,0,0:0:0:0:
285,43,189469,1,0,3:2:0:0:
311,53,189614,6,0,L|319:89,2,30.8749985866547,8|8|10,3:2|0:2|3:2,0:0:0:0:
344,100,189906,2,0,L|325:167,2,61.7499971733095,8|8|8,3:2|3:2|3:2,0:0:0:0:
419,51,190342,5,2,0:0:0:0:
