osu file format v14

[General]
AudioFilename: audio.mp3
AudioLeadIn: 0
PreviewTime: 162236
Countdown: 0
SampleSet: Soft
StackLeniency: 0.3
Mode: 0
LetterboxInBreaks: 0
WidescreenStoryboard: 1

[Editor]
DistanceSpacing: 0.93
BeatDivisor: 6
GridSize: 32
TimelineZoom: 1

[Metadata]
Title:Problem
TitleUnicode:Problem
Artist:Ariana Grande feat. Iggy Azalea
ArtistUnicode:Ariana Grande feat. Iggy Azalea
Creator:Sani_
Version:Deviation
Source:
Tags:Hip-hop Hip hop rap dance classic Gouhin Revolver english Vocal vocalist female my everything hannody Wafer Mimari goopert KAMI NO KOTOBA i love ganyu Pop
BeatmapID:3430952
BeatmapSetID:1679370

[Difficulty]
HPDrainRate:6
CircleSize:4
OverallDifficulty:8
ApproachRate:9
SliderMultiplier:2.3
SliderTickRate:1

[Events]
//Background and Video events
0,0,"My everything.jpg",0,0
Video,-987,"problem.mp4"
//Break Periods
2,57727,61587
2,108989,112849
//Storyboard Layer 0 (Background)
//Storyboard Layer 1 (Fail)
//Storyboard Layer 2 (Pass)
//Storyboard Layer 3 (Foreground)
//Storyboard Layer 4 (Overlay)
//Storyboard Sound Samples

[TimingPoints]
-725,582.52427184466,4,2,1,75,1,0
15003,-66.6666666666667,4,2,1,75,0,0
15585,-100,4,2,1,75,0,0
19663,-66.6666666666667,4,2,1,75,0,0
20245,-100,4,2,1,75,0,0
28983,-66.6666666666667,4,2,1,75,0,0
29566,-100,4,2,2,65,0,0
37721,-66.6666666666667,4,2,2,65,0,0
38304,-52.6315789473684,4,2,2,65,0,0
38886,-133.333333333333,4,2,3,35,0,0
42964,-62.5,4,2,3,35,0,0
43546,-133.333333333333,4,2,3,35,0,0
47406,-66.6666666666667,4,2,3,35,0,0
47478,-66.6666666666667,4,2,1,75,0,0
48207,-66.6666666666667,4,2,1,75,0,0
50100,-500,4,2,1,75,0,0
50537,-66.6666666666667,4,2,1,75,0,0
56799,-66.6666666666667,4,2,1,75,0,0
57527,-133.333333333333,4,2,1,75,0,0
62187,-100,4,2,1,75,0,0
66265,-66.6666666666667,4,2,1,75,0,0
66847,-100,4,2,1,75,0,0
70925,-66.6666666666667,4,2,1,75,0,0
71508,-100,4,2,1,75,0,0
72964,-66.6666666666667,4,2,1,75,0,0
73838,-100,4,2,1,75,0,0
75294,-66.6666666666667,4,2,1,75,0,0
76750,-100,4,2,1,75,0,0
77624,-66.6666666666667,4,2,1,75,0,0
78498,-100,4,2,1,75,0,0
80245,-66.6666666666667,4,2,1,75,0,0
80828,-100,4,2,2,65,0,0
88983,-66.6666666666667,4,2,2,65,0,0
89566,-52.6315789473684,4,2,2,65,0,0
90148,-133.333333333333,4,2,3,35,0,0
94226,-62.5,4,2,3,35,0,0
94808,-133.333333333333,4,2,3,35,0,0
98741,-66.6666666666667,4,2,1,75,0,0
99469,-66.6666666666667,4,2,1,75,0,0
101362,-500,4,2,1,75,0,0
101799,-66.6666666666667,4,2,1,75,0,0
107988,-66.6666666666667,4,2,1,75,0,0
108789,-133.333333333333,4,2,1,75,0,0
113449,-133.333333333333,4,2,2,65,0,0
118983,-95.2380952380951,4,2,2,65,0,0
122770,-66.6666666666667,4,2,1,75,0,0
132090,-58.8235294117647,4,2,1,75,0,0
139080,-100,4,2,1,25,0,0
140245,-100,4,2,1,25,0,0
141410,-500,4,2,5,75,0,0
141447,-500,4,2,2,35,0,0
141629,-500,4,2,2,35,0,0
150731,-166.666666666667,4,2,2,35,0,0
158886,-66.6666666666667,4,2,2,35,0,0
159469,-50,4,2,2,35,0,0
159541,-50,4,2,2,75,0,0
160051,-100,4,2,2,25,0,0
160634,-83.3333333333333,4,2,2,35,0,0
161216,-71.4285714285714,4,2,2,55,0,0
161799,-52.6315789473684,4,2,2,75,0,0
162381,-66.6666666666667,4,2,29,75,0,1
162418,-66.6666666666667,4,2,1,75,0,1
164420,-50,4,2,1,75,0,1
164711,-66.6666666666667,4,2,1,75,0,1
171629,-66.6666666666667,4,2,1,75,0,0
171702,-66.6666666666667,4,2,1,75,0,1
175197,-50,4,2,1,75,0,1
175779,-66.6666666666667,4,2,1,75,0,1
176071,-50,4,2,1,75,0,1
176362,-66.6666666666667,4,2,1,75,0,1
178983,-133.333333333333,4,2,1,75,0,1
179274,-66.6666666666667,4,2,1,75,0,1
179566,-133.333333333333,4,2,1,75,0,1
179857,-66.6666666666667,4,2,1,75,0,1
180440,-66.6666666666667,4,2,1,75,0,0
181022,-66.6666666666667,4,2,1,75,0,1
182770,-52.6315789473684,4,2,1,75,0,1
183352,-66.6666666666667,4,2,1,75,0,1
190342,-1000,4,2,1,55,0,0
190925,-100,4,2,1,55,0,0

[Colours]
Combo1 : 228,208,234
Combo2 : 192,192,192

[HitObjects]
416,37,10925,6,0,B|432:20|468:35|468:35|419:43|362:93,1,172.5,4|2,3:2|0:0,0:0:0:0:
284,186,11508,2,0,P|228:165|231:115,1,115,10|2,0:0|0:0,0:0:0:0:
291,196,11944,2,0,L|276:255,1,57.5,0|2,3:0|0:0,0:0:0:0:
291,275,12236,1,0,3:0:0:0:
411,328,12381,6,0,B|354:318|361:378|297:362,1,115,2|8,3:2|0:0,0:0:0:0:
202,290,12818,1,2,3:2:0:0:
186,312,12964,2,0,P|159:302|145:277,1,57.5,2|2,0:2|0:2,0:0:0:0:
63,363,13255,6,0,P|45:305|92:206,1,172.5,2|0,3:2|0:0,0:0:0:0:
17,301,13838,1,8,0:0:0:0:
18,292,13983,1,0,0:0:0:0:
145,278,14129,2,0,P|121:296|86:300,1,57.5,0|0,0:0|3:0,0:0:0:0:
23,161,14420,1,0,0:0:0:0:
30,156,14566,1,0,3:0:0:0:
89,207,14711,2,0,P|77:183|77:149,1,57.5,0|0,3:0|0:0,0:0:0:0:
185,88,15003,6,0,B|218:63|201:42|202:13|202:13|166:27|160:43|160:43|155:57|167:78,1,172.500006580353,8|0,0:0|3:0,0:0:0:0:
165,103,15440,1,0,3:0:0:0:
271,148,15585,6,0,B|361:143|308:70|417:66,1,172.5,0|2,3:0|0:2,0:0:0:0:
479,113,16168,2,0,B|457:142|469:169|469:169|457:142|423:143,1,115,10|2,0:2|0:2,0:0:0:0:
319,63,16605,2,0,P|310:33|319:6,1,57.5,2|2,3:2|0:2,0:0:0:0:
331,69,16896,1,0,3:0:0:0:
271,148,17041,2,0,P|252:177|284:242,1,115,2|8,3:2|0:0,0:0:0:0:
172,299,17478,1,2,3:2:0:0:
175,310,17624,2,0,P|205:317|241:292,1,57.5,2|2,0:2|0:2,0:0:0:0:
156,203,17915,6,0,P|131:298|134:377,1,172.5,2|0,3:2|0:0,0:0:0:0:
81,256,18498,1,8,0:0:0:0:
86,262,18643,1,0,0:0:0:0:
157,155,18789,2,0,P|139:175|107:186,1,57.5,0|0,0:0|3:0,0:0:0:0:
195,275,19080,1,0,0:0:0:0:
200,268,19226,1,0,3:0:0:0:
133,371,19372,2,0,P|107:353|77:350,1,57.5,0|0,3:0|0:0,0:0:0:0:
15,170,19663,6,0,B|51:193|48:241|48:241|58:194|111:185,1,172.500006580353,8|0,0:0|3:0,0:0:0:0:
58,189,20100,1,0,3:0:0:0:
107,10,20245,6,0,P|84:24|73:54,1,57.5,6|0,3:2|0:0,0:0:0:0:
63,52,20537,2,0,P|64:83|95:108,1,57.5,2|0,0:2|0:0,0:0:0:0:
258,20,20828,2,0,P|235:22|208:51,1,57.5,10|0,0:2|0:0,0:0:0:0:
199,43,21119,2,0,P|188:74|190:104,1,57.5,2|0,0:2|3:0,0:0:0:0:
384,192,21410,6,0,P|386:123|289:128,1,172.5,2|0,0:0|0:0,0:0:0:0:
304,197,21993,1,10,0:0:0:0:
298,203,22139,1,0,3:0:0:0:
424,125,22284,2,0,P|448:134|485:143,1,57.5,0|0,0:0|0:0,0:0:0:0:
298,203,22575,6,0,P|211:222|186:234,1,115,0|2,3:0|0:2,0:0:0:0:
126,339,23012,1,0,0:0:0:0:
127,352,23158,2,0,B|154:365|154:365|136:323,1,57.5,10|0,0:2|0:0,0:0:0:0:
57,226,23449,2,0,B|30:213|30:213|48:255,1,57.5,2|0,0:2|3:2,0:0:0:0:
26,332,23741,6,0,P|48:322|59:289,1,57.5,2|0,0:0|3:0,0:0:0:0:
68,283,24032,2,0,P|59:250|32:236,1,57.5,0|0,3:0|0:0,0:0:0:0:
143,339,24323,2,0,P|220:351|280:381,1,115,10|0,0:0|3:0,0:0:0:0:
258,375,24760,1,0,3:0:0:0:
372,303,24906,6,0,P|345:316|336:353,1,57.5,4|2,3:2|0:2,0:0:0:0:
450,291,25197,1,2,0:2:0:0:
459,301,25342,1,2,0:2:0:0:
358,223,25488,2,0,P|332:210|302:211,1,57.5,10|0,0:2|0:0,0:0:0:0:
459,277,25779,1,2,0:2:0:0:
468,287,25924,1,2,3:2:0:0:
367,209,26070,2,0,P|341:196|311:197,1,57.5,2|0,0:2|3:0,0:0:0:0:
197,269,26362,6,0,P|225:249|235:229,1,57.5,2|0,3:2|0:0,0:0:0:0:
265,178,26653,1,8,0:0:0:0:
268,188,26799,1,2,3:2:0:0:
238,71,26944,2,0,P|236:113|257:137,1,57.5,2|2,0:2|0:2,0:0:0:0:
306,20,27236,6,0,P|248:38|140:75,1,172.5,2|0,3:2|0:0,0:0:0:0:
49,152,27818,2,0,P|26:161|8:120,1,57.5,8|0,0:0|0:0,0:0:0:0:
4,140,28109,1,0,0:0:0:0:
51,72,28255,2,0,B|69:45|69:45|116:38|142:74,1,115,0|0,3:0|3:0,0:0:0:0:
89,226,28692,2,0,L|101:282,1,57.5,0|0,3:0|0:0,0:0:0:0:
5,380,28983,6,0,P|112:299|241:282,1,258.75000987053,8|0,0:0|0:0,0:0:0:0:
367,362,29566,6,0,B|312:384|323:342|323:342|370:345|368:320|399:328|405:277,1,172.5,14|10,0:0|0:0,0:0:0:0:
321,241,30148,2,0,P|317:260|326:240,1,57.5,8|0,0:0|0:0,0:0:0:0:
451,365,30440,2,0,P|437:297|424:177,1,172.5,10|0,0:0|0:0,0:0:0:0:
486,71,31022,2,0,B|498:60|498:60|518:86|502:116|475:116,1,86.25,8|0,0:0|0:0,0:0:0:0:
479,138,31313,2,0,B|517:125|531:84|499:41|499:41|450:83,1,172.5,8|8,0:0|0:0,0:0:0:0:
348,170,31896,6,0,B|307:178|283:148|300:139|256:79|207:96,1,172.5,10|10,0:0|0:0,0:0:0:0:
176,203,32478,2,0,P|201:190|217:164,1,57.5,8|0,0:0|0:0,0:0:0:0:
148,46,32770,2,0,B|140:41|131:53|115:89|122:118|122:118|115:89|70:58|60:58|59:69,1,172.5,10|0,0:0|0:0,0:0:0:0:
1,173,33352,2,0,P|29:166|44:143,1,57.5,8|0,0:0|0:0,0:0:0:0:
59,65,33643,2,0,B|30:106|58:150|77:130|108:169|84:224,1,172.5,10|0,0:0|0:0,0:0:0:0:
25,351,34226,6,0,B|15:337|2:332|2:332|17:300|64:321|51:325|58:363|79:382|125:382,1,172.5,10|10,0:0|0:0,0:0:0:0:
167,285,34808,2,0,P|138:289|123:314,1,57.5,8|0,0:0|0:0,0:0:0:0:
226,345,35100,2,0,P|211:286|279:193,1,172.5,10|0,0:0|0:0,0:0:0:0:
352,319,35682,2,0,B|331:293|297:291|297:291|298:271|331:271,1,86.25,8|0,0:0|0:0,0:0:0:0:
310,255,35974,2,0,B|277:274|287:306|287:306|319:304|358:328|374:373,1,172.5,8|10,0:0|0:0,0:0:0:0:
507,341,36556,6,0,P|518:295|420:287,1,172.5,10|10,0:0|0:0,0:0:0:0:
422,281,37139,2,0,P|451:282|466:258,1,57.5,8|0,0:0|0:0,0:0:0:0:
423,132,37430,2,0,L|408:213,1,57.5,10|0,0:0|0:0,0:0:0:0:
471,69,37721,6,0,B|498:34|498:34|458:-10|402:3|381:38|398:44|365:90|318:85,1,258.75000987053,2|0,0:0|0:0,0:0:0:0:
310,255,38304,6,0,B|329:269|329:269|325:311|286:324|252:309|236:251|236:251|184:91,1,327.749991248131,10|0,0:0|0:0,0:0:0:0:
245,36,38886,6,0,B|266:19|255:-2|255:-2|231:12|241:34,1,86.2500032901765,6|2,3:2|0:2,0:0:0:0:
173,189,39323,6,0,B|194:206|183:227|183:227|159:213|169:191,1,86.2500032901765,0|0,3:2|0:0,0:0:0:0:
187,101,39760,6,0,L|246:277,1,172.500006580353,2|0,3:2|3:2,0:0:0:0:
192,321,41216,6,0,B|200:343|192:362|192:362|200:343|230:337,1,86.2500032901765,2|2,3:2|0:2,0:0:0:0:
296,206,41653,6,0,B|287:183|296:165|296:165|287:183|258:190,1,86.2500032901765,0|0,3:2|0:0,0:0:0:0:
241,264,42090,6,0,B|280:242|332:274|315:283|339:340|395:321,1,172.500006580353,2|0,3:2|3:2,0:0:0:0:
387,323,42964,6,0,B|403:337|405:362|405:362|441:348|463:287|441:230|408:189|355:182,1,276,0|0,0:2|0:0,0:0:0:0:
291,247,43546,6,0,B|283:263|283:263|300:291|331:273|333:253,1,86.2500032901765,2|2,3:2|0:2,0:0:0:0:
395,114,43983,6,0,B|403:98|403:98|386:70|355:88|353:108,1,86.2500032901765,0|0,3:2|0:0,0:0:0:0:
360,182,44420,6,0,L|325:11,1,172.500006580353,2|0,3:2|3:2,0:0:0:0:
261,49,45876,6,0,P|248:75|197:92,1,86.2500032901765,2|2,3:2|0:2,0:0:0:0:
190,83,46313,1,0,3:2:0:0:
166,206,46459,6,0,P|128:206|97:155,1,86.2500032901765,2|2,0:2|3:2,0:0:0:0:
103,163,46896,1,0,0:0:0:0:
20,268,47041,6,0,P|71:289|97:324,1,86.2500032901765,2|0,0:2|3:2,0:0:0:0:
243,279,47478,2,0,L|205:301,1,43.1250016450883,8|10,0:2|0:2,0:0:0:0:
205,313,47624,2,0,L|283:274,1,86.2500032901765,8|8,0:2|0:2,0:0:0:0:
152,373,47915,2,0,P|136:366|125:335,1,43.1250016450883,8|0,0:2|0:0,0:0:0:0:
113,363,48061,2,0,P|105:353|105:317,1,43.1250016450883,8|0,0:2|0:0,0:0:0:0:
90,311,48207,6,0,B|50:323|48:362|84:372|118:353|118:353|244:279,1,258.75000987053,6|0,3:2|3:2,0:0:0:0:
399,335,48789,2,0,P|369:297|321:301,1,86.2500032901765,10|0,0:2|0:0,0:0:0:0:
319,373,49080,2,0,P|330:310|239:281,1,172.500006580353,2|0,3:2|0:0,0:0:0:0:
257,290,49517,1,2,0:2:0:0:
380,219,49663,2,0,B|289:208|336:141|238:136,1,172.500006580353,0|8,3:2|0:2,0:0:0:0:
136,12,50100,6,0,L|127:37,1,23,2|0,0:2|0:0,0:0:0:0:
115,166,50537,6,0,B|131:122|101:83|79:106|40:64|61:12,1,172.500006580353,2|2,3:2|0:2,0:0:0:0:
65,268,50974,2,0,P|71:250|90:237,1,43.1250016450883,0|0,3:2|0:0,0:0:0:0:
99,247,51119,2,0,P|61:234|40:192,1,86.2500032901765,10|0,0:2|0:2,0:0:0:0:
138,336,51410,2,0,P|124:271|114:165,1,172.500006580353,2|0,3:2|0:0,0:0:0:0:
125,344,51847,1,2,0:2:0:0:
257,290,51993,6,0,B|276:297|292:306|292:306|286:328|270:339|251:339|251:339|228:333|235:295|202:280,1,172.500006580353,0|10,3:2|0:2,0:0:0:0:
125,344,52430,2,0,P|179:312|288:158,1,215.625008225441,2|0,0:2|0:0,0:0:0:0:
309,125,52867,6,0,B|333:133|337:146|337:146|334:132|344:95|365:79|415:93|423:130|408:173|408:173|385:246,1,258.75000987053,2|0,3:2|3:2,0:0:0:0:
373,86,53449,2,0,P|409:104|424:145,1,86.2500032901765,10|0,0:2|0:0,0:0:0:0:
274,194,53741,2,0,B|226:202|203:161|219:141|188:102|137:112,1,172.500006580353,2|0,3:2|0:0,0:0:0:0:
132,104,54177,1,2,0:2:0:0:
41,199,54323,2,0,B|36:220|10:245|10:245|60:207|115:200,1,172.500006580353,0|8,3:2|0:2,0:0:0:0:
257,290,54760,2,0,B|262:311|288:336|288:336|238:298|183:291,1,172.500006580353,0|2,0:2|0:2,0:0:0:0:
86,384,55197,6,0,P|55:371|49:318,1,86.2500032901765,2|0,3:2|0:0,0:0:0:0:
40,323,55488,2,0,P|61:285|104:284,1,86.2500032901765,2|0,0:2|3:2,0:0:0:0:
288,336,55779,6,0,P|312:373|358:369,1,86.2500032901765,10|0,0:2|0:0,0:0:0:0:
360,382,56071,2,0,P|401:369|418:331,1,86.2500032901765,2|0,3:2|0:0,0:0:0:0:
481,215,56362,6,0,P|457:260|496:378,1,172.500006580353,2|2,0:2|3:2,0:0:0:0:
411,173,56799,6,0,P|430:156|457:148,1,43.1250016450883,8|8,0:2|0:2,0:0:0:0:
446,149,56944,2,0,P|409:137|396:92,1,86.2500032901765,10|8,0:2|0:2,0:0:0:0:
239,8,57236,2,0,P|247:24|252:63,1,43.1250016450883,8|0,0:2|0:0,0:0:0:0:
265,8,57381,2,0,P|262:32|248:52,1,43.1250016450883,8|0,0:2|0:0,0:0:0:0:
273,78,57527,5,2,0:2:0:0:
63,347,62187,6,0,B|52:362|48:384|48:384|25:345|41:306|103:278,1,172.5,4|2,3:2|0:0,0:0:0:0:
240,325,62770,2,0,P|223:365|156:355,1,115,10|2,0:0|0:0,0:0:0:0:
252,315,63207,2,0,L|310:304,1,57.5,0|2,3:0|0:0,0:0:0:0:
409,266,63498,1,0,3:0:0:0:
465,314,63643,2,0,B|449:349|458:371|458:371|449:349|415:340,1,115,2|8,3:2|0:0,0:0:0:0:
284,206,64080,1,2,3:2:0:0:
294,200,64226,2,0,P|324:205|339:228,1,57.5,2|2,0:2|0:2,0:0:0:0:
308,304,64517,6,0,L|337:126,1,172.5,2|0,3:2|0:0,0:0:0:0:
332,47,65100,1,8,0:0:0:0:
341,55,65245,1,0,0:0:0:0:
390,207,65391,2,0,P|365:223|334:225,1,57.5,0|0,0:0|3:0,0:0:0:0:
451,113,65682,1,0,0:0:0:0:
457,126,65828,1,0,3:0:0:0:
335,133,65974,2,0,P|306:127|286:109,1,57.5,0|0,3:0|0:0,0:0:0:0:
179,14,66265,6,0,B|197:24|201:60|201:60|170:98|119:88|106:44,1,172.500006580353,8|0,0:0|3:0,0:0:0:0:
106,45,66702,2,0,P|119:65|117:89,1,43.1250016450883,0|0,3:0|0:0,0:0:0:0:
45,168,66847,6,0,B|73:204|120:203|120:203|71:211|37:178,1,172.5,0|2,3:0|0:2,0:0:0:0:
140,343,67430,2,0,P|73:341|63:287,1,115,10|2,0:2|0:2,0:0:0:0:
22,343,67867,2,0,P|48:329|60:298,1,57.5,2|2,3:2|0:2,0:0:0:0:
64,356,68158,1,0,3:0:0:0:
280,273,68304,6,0,B|246:269|229:249|229:249|229:284|208:303,1,115,2|8,3:2|0:0,0:0:0:0:
210,301,68741,1,2,3:2:0:0:
314,152,68886,2,0,P|292:174|286:203,1,57.5,2|2,0:2|0:2,0:0:0:0:
210,301,69177,6,0,B|230:284|230:249|230:249|247:269|281:273,1,115,2|2,3:2|0:2,0:0:0:0:
279,272,69906,1,0,0:0:0:0:
211,380,70051,2,0,P|191:381|154:339,1,57.5,0|0,0:0|3:0,0:0:0:0:
157,374,70342,2,0,P|141:346|143:316,1,57.5,0|0,0:0|3:0,0:0:0:0:
279,272,70634,2,0,P|258:316|259:340,1,57.5,0|0,3:0|0:0,0:0:0:0:
432,374,70925,6,0,B|472:378|479:339|438:334|413:331|413:331|334:320,1,172.500006580353,8|0,0:0|3:0,0:0:0:0:
336,329,71362,2,0,L|400:340,1,43.1250016450883,0|0,3:0|0:0,0:0:0:0:
299,189,71508,6,0,P|280:166|290:198,1,86.25,6|0,3:2|0:0,0:0:0:0:
310,196,71799,2,0,P|305:167|278:153,1,57.5,2|0,0:2|0:0,0:0:0:0:
146,315,72090,2,0,P|163:330|154:309,1,57.5,10|0,0:2|0:0,0:0:0:0:
70,328,72381,2,0,P|82:365|99:381,1,57.5,2|0,0:2|3:0,0:0:0:0:
105,242,72673,1,2,0:0:0:0:
100,237,72818,1,0,3:0:0:0:
157,322,72964,6,0,P|172:266|201:193,1,129.375004935265,0|0,3:2|0:0,0:0:0:0:
197,199,73255,2,0,P|214:226|244:232,1,43.1250016450883,10|0,0:0|0:0,0:0:0:0:
126,131,73401,2,0,P|95:160|47:153,2,86.2500032901765,0|0|0,3:0|0:0|0:0,0:0:0:0:
33,32,73838,6,0,B|26:53|26:53|35:75|61:97|75:78,1,86.25,0|0,3:0|0:0,0:0:0:0:
126,131,74129,2,0,P|153:108|186:111,1,57.5,2|0,0:2|0:0,0:0:0:0:
308,5,74420,6,0,P|329:31|361:33,1,57.5,10|0,0:2|0:0,0:0:0:0:
354,111,74711,2,0,P|376:117|394:149,1,57.5,2|0,0:2|3:2,0:0:0:0:
499,85,75003,2,0,P|470:80|449:59,1,57.5,2|0,0:0|3:0,0:0:0:0:
503,11,75294,6,0,P|485:69|463:194,1,172.500006580353,0|10,3:0|0:0,0:0:0:0:
394,231,75731,2,0,P|410:244|435:249,1,43.1250016450883,0|0,0:0|0:0,0:0:0:0:
391,259,75876,2,0,P|422:255|441:235,1,43.1250016450883,0|0,3:0|0:0,0:0:0:0:
401,278,76022,2,0,P|424:261|434:226,1,43.1250016450883,0|0,3:0|0:0,0:0:0:0:
464,178,76168,6,0,B|408:147|351:198|375:217|356:291|303:313|251:287,1,258.75000987053,4|2,3:2|0:2,0:0:0:0:
266,210,76750,6,0,P|288:212|270:204,1,57.5,10|0,0:2|0:0,0:0:0:0:
196,351,77041,1,2,0:2:0:0:
201,346,77187,2,0,P|219:288|174:242,1,115,2|0,3:2|3:0,0:0:0:0:
59,337,77624,6,0,P|115:303|144:301,1,86.2500032901765,2|0,3:2|0:0,0:0:0:0:
11,264,77915,1,8,0:0:0:0:
7,272,78061,1,2,3:2:0:0:
189,247,78207,2,0,P|151:228|126:187,1,86.2500032901765,2|2,0:2|0:2,0:0:0:0:
199,82,78498,6,0,B|221:103|221:103|236:84|231:58|203:66,1,86.25,2|0,3:2|0:0,0:0:0:0:
189,66,78789,2,0,P|177:36|242:34,1,115,2|8,0:0|0:0,0:0:0:0:
67,114,79226,2,0,P|50:103|41:82,1,28.75,0|0,0:0|0:0,0:0:0:0:
45,96,79372,2,0,P|75:100|88:136,1,57.5,0|0,0:0|3:0,0:0:0:0:
36,239,79663,2,0,P|22:211|38:182,1,57.5,0|0,0:0|3:0,0:0:0:0:
165,159,79954,2,0,P|148:189|110:183,1,57.5,0|0,3:0|0:0,0:0:0:0:
88,121,80245,6,0,P|106:165|82:372,1,258.75000987053,8|0,0:0|0:0,0:0:0:0:
158,315,80828,6,0,B|142:299|127:295|127:295|153:268|180:281|193:294|193:294|194:329|225:347,1,172.5,14|10,0:0|0:0,0:0:0:0:
302,276,81410,2,0,B|302:265|302:265|269:261|264:305,1,57.5,8|0,0:0|0:0,0:0:0:0:
306,362,81702,2,0,P|316:308|353:195,1,172.5,10|0,0:0|0:0,0:0:0:0:
469,283,82284,2,0,P|461:310|403:307,1,86.25,8|0,0:0|0:0,0:0:0:0:
392,311,82575,2,0,P|469:335|467:255,1,172.5,8|8,0:0|0:0,0:0:0:0:
352,196,83158,6,0,B|388:212|420:171|415:163|419:125|445:102|483:108,1,172.5,10|10,0:0|0:0,0:0:0:0:
346,188,83741,2,0,P|327:168|334:134,1,57.5,8|0,0:0|0:0,0:0:0:0:
183,52,84032,6,0,B|189:71|183:87|183:87|202:102|210:129|210:129|232:109|260:101|260:101|265:76|290:64,1,172.5,10|0,0:0|0:0,0:0:0:0:
108,64,84614,2,0,L|52:79,1,57.5,8|0,0:0|0:0,0:0:0:0:
210,128,84906,2,0,B|192:155|192:155|216:257|216:257|191:289,1,172.5,10|0,0:0|0:0,0:0:0:0:
109,201,85488,6,0,B|102:172|102:172|117:158|117:158|137:241|137:241|108:270,1,172.5,10|10,0:0|0:0,0:0:0:0:
72,341,86071,2,0,P|47:328|37:297,1,57.5,8|0,0:0|0:0,0:0:0:0:
217,259,86362,2,0,B|242:244|248:215|248:215|285:208|314:230|331:255|309:302,1,172.5,10|0,0:0|0:0,0:0:0:0:
426,337,86944,2,0,B|453:347|453:347|473:314|451:285,1,86.25,8|0,0:0|0:0,0:0:0:0:
459,271,87236,2,0,B|496:300|482:346|455:371|455:371|397:336,1,172.5,8|10,0:0|0:0,0:0:0:0:
253,330,87818,6,0,B|244:301|262:268|268:270|284:250|286:250|318:234|307:177|295:171,1,172.5,10|10,0:0|0:0,0:0:0:0:
158,146,88401,2,0,P|161:177|190:191,1,57.5,8|0,0:0|0:0,0:0:0:0:
179,206,88692,2,0,P|217:209|237:183,1,57.5,10|0,0:0|0:0,0:0:0:0:
305,47,88983,6,0,B|277:44|262:21|262:21|266:94|306:112|346:85|339:83|373:70|390:100|390:100|369:87|358:99,1,258.75000987053,2|0,0:0|0:0,0:0:0:0:
383,250,89566,6,0,B|362:252|345:277|345:277|347:242|396:230|397:250|436:253|480:205|460:136|460:136|445:173|412:179,1,327.749991248131,10|0,0:0|0:0,0:0:0:0:
406,326,90148,6,0,B|386:351|368:353|368:353|390:362|415:345,1,86.2500032901765,6|2,3:2|0:2,0:0:0:0:
229,222,90585,6,0,B|249:197|267:195|267:195|245:186|220:203,1,86.2500032901765,0|0,3:2|0:0,0:0:0:0:
287,275,91022,6,0,L|306:104,1,172.500006580353,2|0,3:2|3:2,0:0:0:0:
315,33,92478,6,0,B|342:22|347:6|347:6|343:22|353:49,1,86.2500032901765,2|2,3:2|0:2,0:0:0:0:
235,152,92915,6,0,B|225:179|229:195|229:195|224:179|197:168,1,86.2500032901765,0|0,3:2|0:0,0:0:0:0:
183,93,93352,6,0,B|150:81|100:107|108:118|114:162|52:166|34:153,1,172.500006580353,2|0,3:2|3:2,0:0:0:0:
36,154,94226,6,0,B|51:106|51:106|114:132|151:187|125:254|125:254|88:239,1,276,0|0,0:2|0:0,0:0:0:0:
225,304,94808,6,0,P|185:313|172:364,1,86.2500032901765,2|2,3:2|0:2,0:0:0:0:
340,290,95245,6,0,P|324:251|284:242,1,86.2500032901765,0|0,3:2|0:0,0:0:0:0:
423,380,95682,6,0,P|475:363|478:258,1,172.500006580353,2|0,3:2|3:2,0:0:0:0:
479,259,97139,6,0,B|460:236|460:236|472:176,1,86.2500032901765,2|2,3:2|0:2,0:0:0:0:
483,178,97575,1,0,3:2:0:0:
386,213,97721,6,0,B|397:157|397:157|378:134,1,86.2500032901765,2|2,0:2|3:2,0:0:0:0:
365,130,98158,1,0,0:0:0:0:
505,67,98304,6,0,B|463:84|463:84|417:51,1,86.2500032901765,2|0,0:2|3:2,0:0:0:0:
300,10,98741,2,0,L|343:2,1,43.1250016450883,8|10,0:2|0:2,0:0:0:0:
354,15,98886,2,0,L|259:33,1,86.2500032901765,8|8,0:2|0:2,0:0:0:0:
172,195,99177,2,0,L|227:210,1,43.1250016450883,8|0,0:2|0:0,0:0:0:0:
172,219,99323,2,0,L|227:234,1,43.1250016450883,8|0,0:2|0:0,0:0:0:0:
127,288,99469,6,0,B|132:313|132:313|147:319|164:309|164:309|126:106,1,258.75000987053,6|0,3:2|3:2,0:0:0:0:
172,219,100051,2,0,P|201:245|245:230,1,86.2500032901765,10|0,0:2|0:0,0:0:0:0:
61,140,100342,2,0,B|74:222|74:222|56:228|42:254|42:254|34:209,1,172.500006580353,2|0,3:2|0:0,0:0:0:0:
21,207,100779,1,2,0:2:0:0:
127,288,100925,6,0,P|82:280|81:378,1,172.500006580353,0|8,3:2|0:2,0:0:0:0:
242,232,101362,6,0,L|232:255,1,23,2|0,0:2|0:0,0:0:0:0:
371,172,101799,2,0,B|367:186|372:200|372:200|305:186|305:186|281:152|238:154,1,172.500006580353,2|2,3:2|0:2,0:0:0:0:
277,340,102236,2,0,P|297:327|303:306,1,43.1250016450883,0|0,3:2|0:0,0:0:0:0:
302,309,102381,2,0,P|272:340|305:380,1,86.2500032901765,10|0,0:2|0:2,0:0:0:0:
504,365,102673,6,0,B|415:363|455:286|370:266,1,172.500006580353,2|0,3:2|0:0,0:0:0:0:
493,348,103109,1,2,0:2:0:0:
359,340,103255,2,0,P|350:271|373:165,1,172.500006580353,0|10,3:2|0:2,0:0:0:0:
486,121,103692,6,0,P|472:129|444:133,1,43.1250016450883,2|0,0:2|0:0,0:0:0:0:
482,147,103838,2,0,P|461:147|443:128,1,43.1250016450883,2|0,0:2|0:0,0:0:0:0:
470,165,103983,2,0,P|450:146|443:123,1,43.1250016450883,0|0,0:0|0:0,0:0:0:0:
332,42,104129,6,0,B|371:31|390:55|381:118|345:121|319:95|284:129|276:180|325:214|363:198|370:170,1,258.75000987053,2|0,3:2|3:2,0:0:0:0:
288,121,104711,2,0,P|246:130|222:164,1,86.2500032901765,10|0,0:2|0:0,0:0:0:0:
332,42,105003,2,0,P|313:103|275:307,1,258.75000987053,2|2,3:2|0:2,0:0:0:0:
363,376,105585,6,0,P|389:363|397:351,1,43.1250016450883,0|0,3:2|0:0,0:0:0:0:
402,364,105731,2,0,P|418:344|415:321,1,43.1250016450883,0|0,0:0|0:0,0:0:0:0:
426,328,105876,2,0,P|420:306|393:291,1,43.1250016450883,8|0,0:2|0:0,0:0:0:0:
405,285,106022,2,0,P|384:288|370:319,1,43.1250016450883,0|0,0:2|0:0,0:0:0:0:
362,341,106168,6,0,P|336:286|264:310,1,129.375004935265,2|0,0:2|0:0,0:0:0:0:
249,372,106459,6,0,P|203:363|200:326,1,86.2500032901765,2|0,3:2|0:0,0:0:0:0:
67,292,106750,2,0,P|21:301|18:338,1,86.2500032901765,2|0,0:2|3:2,0:0:0:0:
166,235,107041,6,0,B|192:244|201:261|201:261|195:242|209:220,1,86.2500032901765,10|0,0:2|0:0,0:0:0:0:
85,76,107333,2,0,B|111:67|120:50|120:50|114:69|128:91,1,86.2500032901765,2|0,3:2|0:0,0:0:0:0:
83,151,107624,6,0,P|153:131|264:106,1,172.500006580353,2|2,0:2|3:2,0:0:0:0:
364,12,108061,6,0,P|376:14|397:40,1,43.1250016450883,8|8,0:2|0:2,0:0:0:0:
395,36,108207,6,0,L|370:135,1,86.2500032901765,10|8,0:2|0:2,0:0:0:0:
405,285,108498,2,0,P|396:261|382:244,1,43.1250016450883,8|0,0:2|0:0,0:0:0:0:
424,261,108643,2,0,P|400:248|380:247,1,43.1250016450883,8|0,0:2|0:0,0:0:0:0:
345,246,108789,5,2,0:2:0:0:
318,200,113449,6,0,P|307:247|294:337,1,129.375004935265,8|8,0:0|0:0,0:0:0:0:
368,369,114032,2,0,P|387:360|415:355,1,43.1250016450883,8|0,0:0|0:0,0:0:0:0:
265,258,114323,6,0,P|245:249|132:238,1,129.375004935265,8|0,0:0|0:0,0:0:0:0:
74,290,114906,2,0,P|74:318|85:310,1,43.1250016450883,8|0,0:0|0:0,0:0:0:0:
206,188,115197,6,0,P|197:147|181:91,1,86.2500032901765,8|0,0:0|0:0,0:0:0:0:
52,15,115634,6,0,L|46:44,1,21.5625008225441,8|0,0:0|0:0,0:0:0:0:
47,36,115779,2,0,P|75:58|135:2,1,129.375004935265,8|8,0:0|0:0,0:0:0:0:
205,56,116362,2,0,P|179:62|172:82,1,43.1250016450883,8|0,0:0|0:0,0:0:0:0:
284,175,116653,2,0,P|298:122|325:31,1,129.375004935265,8|0,0:0|0:0,0:0:0:0:
428,6,117236,2,0,P|417:24|394:31,1,43.1250016450883,8|0,0:0|0:0,0:0:0:0:
273,107,117527,2,0,P|330:124|406:161,1,129.375004935265,8|0,0:0|0:0,0:0:0:0:
483,229,118109,6,0,P|498:213|513:197,2,43.1250016450883,8|0|0,0:0|0:0|0:0,0:0:0:0:
382,288,118546,2,0,P|355:274|326:264,2,43.1250016450883,8|8|0,0:0|0:0|0:0,0:0:0:0:
220,364,118983,6,0,P|254:371|289:378,2,60.3749981575013,8|0|0,0:0|0:0|0:0,0:0:0:0:
103,308,119420,2,0,P|69:315|34:322,2,60.3749981575013,0|8|0,0:0|0:0|0:0,0:0:0:0:
217,354,119857,2,0,B|251:346|261:293|261:293|247:314|220:318,1,120.749996315003,8|0,0:0|0:0,0:0:0:0:
99,230,120294,2,0,P|86:212|82:190,1,30.1874990787506,8|0,0:0|0:0,0:0:0:0:
83,204,120440,6,0,P|110:230|85:321,1,120.749996315003,8|0,0:0|0:0,0:0:0:0:
61,107,120876,2,0,P|67:88|83:77,1,30.1874990787506,8|0,0:0|0:0,0:0:0:0:
74,81,121022,2,0,B|93:104|93:104|39:142|-2:90,1,120.749996315003,8|8,0:0|0:0,0:0:0:0:
482,286,122770,6,0,B|458:312|467:346|467:346|457:313|422:305,1,129.375004935265,8|0,3:2|0:0,0:0:0:0:
348,293,123061,2,0,P|335:261|371:225,1,86.2500032901765,2|10,0:2|3:2,0:0:0:0:
376,373,123352,2,0,L|288:351,1,86.2500032901765,2|2,0:2|0:2,0:0:0:0:
139,282,123643,5,10,3:2:0:0:
214,161,123789,1,10,0:2:0:0:
239,261,123935,1,2,0:2:0:0:
113,184,124080,1,10,0:2:0:0:
228,254,124226,5,10,3:2:0:0:
127,191,124372,1,2,0:2:0:0:
214,161,124517,2,0,P|240:125|226:85,2,86.2500032901765,10|2|10,0:2|0:2|0:2,0:0:0:0:
323,26,124954,2,0,P|316:57|358:94,2,86.2500032901765,2|10|2,0:2|3:2|0:2,0:0:0:0:
501,177,125391,6,0,P|459:158|413:148,1,86.2500032901765,2|10,0:2|3:2,0:0:0:0:
401,36,125682,2,0,P|443:17|489:7,1,86.2500032901765,10|2,0:2|0:2,0:0:0:0:
492,19,125974,1,10,3:2:0:0:
397,221,126119,2,0,P|355:212|347:172,1,86.2500032901765,10|2,0:2|0:2,0:0:0:0:
334,167,126410,1,10,0:2:0:0:
408,302,126556,6,0,P|441:305|469:259,1,86.2500032901765,10|2,3:2|0:2,0:0:0:0:
327,373,126847,5,10,0:2:0:0:
252,246,126993,1,2,0:2:0:0:
223,358,127139,1,10,0:2:0:0:
165,297,127284,1,2,0:2:0:0:
127,373,127430,6,0,B|187:378|165:307|242:315,1,129.375004935265,10|0,3:2|0:0,0:0:0:0:
250,320,127721,2,0,P|232:285|257:242,1,86.2500032901765,2|8,0:2|3:2,0:0:0:0:
141,92,128012,2,0,P|133:153|125:244,1,129.375004935265,10|0,0:2|0:0,0:0:0:0:
114,221,128304,6,0,L|120:157,1,43.1250016450883,10|0,3:2|0:0,0:0:0:0:
216,65,128449,2,0,P|190:27|148:15,1,86.2500032901765,2|2,0:2|0:2,0:0:0:0:
143,18,128741,1,10,0:2:0:0:
190,257,128886,2,0,P|159:291|120:296,1,86.2500032901765,10|2,3:2|0:2,0:0:0:0:
141,92,129177,5,10,0:2:0:0:
263,178,129323,1,10,0:2:0:0:
190,257,129469,1,2,0:2:0:0:
259,306,129614,1,2,0:2:0:0:
215,363,129760,6,0,P|222:317|235:273,2,86.2500032901765,10|2|2,3:2|0:2|0:2,0:0:0:0:
242,273,130197,1,10,3:2:0:0:
404,243,130342,6,0,B|359:225|321:259|337:274|303:321|259:306,1,172.500006580353,10|0,0:2|0:0,0:0:0:0:
41,159,131362,6,0,L|89:147,1,43.1250016450883,8|8,0:2|0:2,0:0:0:0:
82,148,131508,2,0,L|-20:135,1,86.2500032901765,8|8,0:2|0:2,0:0:0:0:
104,268,131799,2,0,L|206:254,1,86.2500032901765,8|8,0:2|0:2,0:0:0:0:
263,178,132090,6,0,B|252:148|185:159|173:215|202:280|270:289,1,195.500003728867,10|2,3:2|0:2,0:0:0:0:
395,323,132527,2,0,P|386:303|359:288,1,48.8750009322167,10|0,3:2|0:0,0:0:0:0:
363,289,132673,2,0,P|397:321|447:308,1,97.7500018644333,10|2,0:2|0:2,0:0:0:0:
463,216,132964,2,0,P|473:194|494:181,1,48.8750009322167,10|0,3:2|0:0,0:0:0:0:
494,182,133110,2,0,P|459:214|413:203,1,97.7500018644333,2|2,0:2|0:2,0:0:0:0:
345,102,133401,5,2,0:2:0:0:
355,96,133546,1,10,3:2:0:0:
360,107,133692,1,2,0:2:0:0:
336,187,133838,6,0,P|355:110|395:2,1,195.500003728867,10|2,0:2|0:2,0:0:0:0:
403,11,134274,1,2,0:2:0:0:
254,82,134420,6,0,B|217:74|216:33|216:33|238:43|230:71,1,97.7500018644333,10|2,3:2|0:2,0:0:0:0:
143,132,134711,2,0,B|128:170|94:159|94:159|109:142|128:151,1,97.7500018644333,2|10,0:2|3:2,0:0:0:0:
233,195,135003,2,0,B|258:227|241:258|241:258|231:245|242:223,1,97.7500018644333,10|2,0:2|0:2,0:0:0:0:
43,288,135294,5,10,3:2:0:0:
60,273,135440,1,2,0:2:0:0:
82,267,135585,1,2,0:2:0:0:
104,268,135731,1,10,0:2:0:0:
216,376,135876,6,0,P|166:372|144:329,1,97.7500018644333,10|2,3:2|0:2,0:0:0:0:
143,132,136168,2,0,B|167:120|174:75|174:75|212:214|98:273,1,293.2500055933,10|2,0:2|0:2,0:0:0:0:
233,195,136750,6,0,B|200:183|193:139|193:139|200:182|169:211,1,146.62500279665,10|0,3:2|0:0,0:0:0:0:
238,270,137041,2,0,B|288:277|321:230|296:203|356:162|401:189,1,195.500003728867,2|10,0:2|0:2,0:0:0:0:
392,362,137478,2,0,P|378:348|331:340,1,48.8750009322167,2|0,0:2|0:0,0:0:0:0:
351,338,137624,2,0,P|382:297|375:254,1,97.7500018644333,10|2,3:2|0:2,0:0:0:0:
233,17,137915,6,0,B|211:56|211:56|213:124|248:164|248:164|235:180|225:217,1,195.500003728867,2|10,0:2|3:2,0:0:0:0:
226,20,138352,2,0,B|204:59|204:59|206:127|241:167|241:167|228:183|218:220,1,195.500003728867,2|2,0:2|0:2,0:0:0:0:
226,94,138789,6,0,P|240:45|311:81,1,146.62500279665,2|0,0:2|0:0,0:0:0:0:
310,73,139080,1,2,0:0:0:0:
352,336,141410,6,0,L|375:329,7,23,4|0|0|0|0|2|0|0,0:0|0:0|0:0|0:0|0:0|0:0|0:0|0:0,0:0:0:0:
494,109,143741,6,0,L|484:134,1,23,2|2,0:0|0:0,0:0:0:0:
399,26,144323,6,0,L|402:48,1,23,2|2,0:0|0:0,0:0:0:0:
280,6,144906,6,0,L|301:50,1,46,2|2,0:0|0:0,0:0:0:0:
68,211,146071,6,0,L|41:206,7,23,2|0|0|0|0|2|0|0,0:0|0:0|0:0|0:0|0:0|0:0|0:0|0:0,0:0:0:0:
157,369,148401,6,0,P|144:360|135:358,1,23,2|2,0:0|0:0,0:0:0:0:
256,298,148983,6,0,P|242:305|232:309,1,23,2|2,0:0|0:0,0:0:0:0:
350,377,149566,6,0,P|339:368|308:360,1,46,2|2,0:0|0:0,0:0:0:0:
486,187,150731,6,0,P|461:213|394:224,1,103.499996841431,2|2,0:0|0:0,0:0:0:0:
24,164,151605,1,2,0:0:0:0:
23,175,151750,1,2,0:0:0:0:
26,187,151896,6,0,P|51:213|118:224,2,103.499996841431,2|2|2,0:0|0:0|0:0,0:0:0:0:
148,303,153061,2,0,P|175:280|241:277,2,103.499996841431,2|2|2,0:0|0:0|0:0,0:0:0:0:
288,211,154226,2,0,L|265:355,1,137.999995788574,2|2,0:0|0:0,0:0:0:0:
142,21,155391,6,0,B|133:48|105:67|73:66|62:49|70:38|77:38,1,103.499996841431,2|2,0:0|0:0,0:0:0:0:
359,115,156265,1,2,0:0:0:0:
361,106,156410,1,2,0:0:0:0:
364,95,156556,6,0,B|373:68|401:49|433:50|444:67|436:78|429:78,2,103.499996841431,2|2|2,0:0|0:0|0:0,0:0:0:0:
229,45,157721,2,0,B|219:46|215:32|223:16|244:11|278:17|298:43,2,103.499996841431,2|2|2,0:0|0:0|0:0,0:0:0:0:
459,177,158886,6,0,B|481:218|460:260|410:281|410:281|367:297|330:343|350:382,1,258.75000987053,2|0,0:0|0:0,0:0:0:0:
321,194,159469,6,0,B|305:187|305:135|305:135|292:190|333:228|374:248|374:248|421:268|445:318|423:361,1,345,2|0,0:0|0:0,0:0:0:0:
321,194,160051,6,0,P|234:173|148:157,1,172.5,2|0,0:0|0:0,0:0:0:0:
313,275,160634,6,0,P|254:192|216:94,1,206.999993682861,2|0,0:0|0:0,0:0:0:0:
240,324,161216,6,0,P|254:260|318:89,1,241.499992630005,2|0,0:0|0:0,0:0:0:0:
121,249,161799,6,0,B|199:210|269:279|254:294|240:373|330:391|388:372,1,327.749991248131,2|0,0:0|0:0,0:0:0:0:
470,251,162381,6,0,B|517:228|522:184|490:146|490:146|459:158|461:189|461:189|487:186,1,172.500006580353,2|0,0:0|0:2,0:0:0:0:
344,303,162818,2,0,P|358:292|368:262,1,43.1250016450883,0|0,3:2|0:0,0:0:0:0:
385,372,162964,2,0,P|370:285|363:218,1,129.375004935265,8|0,0:2|0:0,0:0:0:0:
314,95,163255,6,0,B|337:82|341:45|341:45|352:109|319:117|302:163|275:139|243:162|242:204,1,258.75000987053,0|0,3:2|0:2,0:0:0:0:
314,95,163838,2,0,B|326:128|359:137|359:137|335:118|339:77,1,129.375004935265,0|0,3:2|0:0,0:0:0:0:
423,46,164129,2,0,L|481:64,1,43.1250016450883,8|0,0:2|0:0,0:0:0:0:
464,58,164274,1,0,0:2:0:0:
242,201,164420,6,0,B|192:182|167:237|167:237|145:283|101:272,1,172.5,2|0,0:2|0:0,0:0:0:0:
32,337,164711,6,0,B|22:372|61:385|105:356|107:322|94:275|53:255|44:275|13:236|38:177,1,258.75000987053,0|0,3:2|3:2,0:0:0:0:
98,29,165294,2,0,L|114:99,1,43.1250016450883,8|0,0:2|0:0,0:0:0:0:
88,37,165440,2,0,L|99:79,1,43.1250016450883,0|0,0:2|0:0,0:0:0:0:
36,181,165585,2,0,P|62:125|244:61,1,258.75000987053,0|0,3:2|0:0,0:0:0:0:
235,58,166168,2,0,P|217:104|183:117,1,86.2500032901765,2|0,3:2|0:0,0:0:0:0:
315,0,166459,6,0,B|359:-5|380:35|359:31|378:80|423:75,1,129.375004935265,10|0,0:2|0:0,0:0:0:0:
407,80,166750,2,0,B|376:85|357:36|378:40|349:3|313:5,1,129.375004935265,0|0,0:2|0:0,0:0:0:0:
483,28,167041,6,0,B|429:63|429:150|498:182|498:182|475:157|477:115,1,258.75000987053,6|2,3:2|3:2,0:0:0:0:
267,260,167624,2,0,P|319:253|327:330,1,129.375004935265,8|0,0:2|0:0,0:0:0:0:
338,316,167915,2,0,B|321:267|348:234|366:250|397:212|377:158,1,172.500006580353,0|0,3:2|0:2,0:0:0:0:
471,297,168352,2,0,L|423:307,1,43.1250016450883,0|0,0:2|0:0,0:0:0:0:
428,305,168498,2,0,B|475:327|499:278|499:278|452:249|425:295,1,172.500006580353,2|8,3:2|0:2,0:0:0:0:
285,376,168935,5,0,0:0:0:0:
275,378,169080,2,0,P|224:359|189:351,1,86.2500032901765,0|0,0:2|0:2,0:0:0:0:
12,381,169372,6,0,P|61:362|70:290,1,129.375004935265,0|0,3:2|0:0,0:0:0:0:
71,292,169663,2,0,P|35:304|3:266,1,86.2500032901765,0|0,0:2|3:2,0:0:0:0:
161,155,169954,5,10,3:2:0:0:
154,130,170100,1,2,0:2:0:0:
179,123,170245,1,2,0:2:0:0:
185,148,170391,1,2,3:2:0:0:
142,189,170537,5,2,3:2:0:0:
120,114,170683,1,2,0:2:0:0:
195,92,170828,1,2,0:2:0:0:
221,169,170974,1,8,3:2:0:0:
185,148,171119,5,10,3:2:0:0:
179,123,171265,1,10,3:2:0:0:
154,130,171410,1,10,3:2:0:0:
161,155,171556,1,10,3:2:0:0:
170,140,171702,6,0,B|237:175|288:111|262:78|317:20|392:48,1,258.75000987053,6|2,3:2|3:2,0:0:0:0:
495,209,172284,2,0,P|467:217|458:130,1,129.375004935265,8|0,0:0|0:0,0:0:0:0:
436,142,172575,2,0,L|409:319,1,172.500006580353,0|0,3:2|0:2,0:0:0:0:
418,323,173012,1,0,0:0:0:0:
316,197,173158,6,0,B|323:179|323:179|335:193|351:201|351:201|333:315,1,129.375004935265,0|0,3:2|0:0,0:0:0:0:
302,282,173449,6,0,L|316:192,1,86.2500032901765,10|2,0:2|0:2,0:0:0:0:
146,280,173741,2,0,L|157:332,1,43.1250016450883,2|0,0:2|0:0,0:0:0:0:
166,325,173886,2,0,L|156:277,1,43.1250016450883,0|0,0:2|0:0,0:0:0:0:
77,242,174032,6,0,B|123:256|161:221|137:186|179:153|220:164,1,172.500006580353,0|0,3:2|0:2,0:0:0:0:
69,125,174469,2,0,L|85:182,1,43.1250016450883,0|0,3:2|0:0,0:0:0:0:
80,166,174614,2,0,L|102:78,1,86.2500032901765,8|0,0:2|0:2,0:0:0:0:
217,238,174906,6,0,L|193:41,1,172.500006580353,0|0,3:2|0:2,0:0:0:0:
186,60,175342,1,0,0:0:0:0:
312,166,175488,6,0,P|316:96|377:141,1,172.5,2|0,3:2|0:0,0:0:0:0:
436,181,175779,2,0,B|423:202|423:225|423:225|411:210|386:206,1,86.2500032901765,8|0,0:2|0:0,0:0:0:0:
436,25,176071,6,0,P|493:-18|506:52,1,172.5,2|0,0:2|0:0,0:0:0:0:
448,103,176362,6,0,P|432:177|413:295,1,172.500006580353,0|0,3:2|0:2,0:0:0:0:
486,375,176799,2,0,P|463:349|443:335,1,43.1250016450883,0|0,3:2|0:0,0:0:0:0:
300,381,176944,2,0,P|340:363|376:339,1,86.2500032901765,8|0,0:2|0:0,0:0:0:0:
493,266,177236,6,0,B|446:279|421:232|435:220|406:171|357:184,1,172.500006580353,0|0,3:2|0:0,0:0:0:0:
346,189,177673,1,0,0:2:0:0:
448,103,177818,2,0,B|411:111|396:144|396:144|406:109|387:81,1,129.375004935265,0|0,3:2|0:0,0:0:0:0:
389,85,178109,1,8,0:2:0:0:
236,33,178255,5,2,0:2:0:0:
228,129,178401,2,0,L|316:103,1,86.2500032901765,2|2,0:2|0:2,0:0:0:0:
170,240,178692,6,0,P|144:193|77:205,1,129.375004935265,2|0,3:2|0:0,0:0:0:0:
77,204,178983,2,0,L|86:255,1,43.1250016450883,2|0,0:2|3:2,0:0:0:0:
48,331,179274,6,0,P|74:378|141:366,1,129.375004935265,10|0,3:2|0:0,0:0:0:0:
140,366,179566,2,0,L|131:315,1,43.1250016450883,2|0,0:2|3:2,0:0:0:0:
2,156,179857,6,0,B|53:173|83:107|83:107|107:43|167:48,1,215.625008225441,2|0,3:2|0:0,0:0:0:0:
236,33,180294,2,0,P|222:62|193:79,1,43.1250016450883,8|8,3:2|0:2,0:0:0:0:
212,178,180440,2,0,P|171:158|159:119,1,86.2500032901765,10|8,3:2|3:2,0:0:0:0:
328,65,180731,2,0,P|309:106|261:118,1,86.2500032901765,8|8,3:2|3:2,0:0:0:0:
388,191,181022,6,0,L|439:200,1,43.1250016450883,6|0,3:2|0:0,0:0:0:0:
387,206,181168,2,0,L|438:215,1,43.1250016450883,2|0,0:2|0:0,0:0:0:0:
386,221,181313,2,0,L|437:230,1,43.1250016450883,2|0,0:2|0:0,0:0:0:0:
385,236,181459,2,0,L|436:245,1,43.1250016450883,2|0,3:2|0:0,0:0:0:0:
512,277,181605,6,0,B|474:262|456:295|456:295|439:328|402:317,1,129.375004935265,10|0,0:2|0:0,0:0:0:0:
467,382,181896,2,0,P|409:360|303:329,1,172.500006580353,2|0,3:2|0:0,0:0:0:0:
293,318,182333,1,0,0:0:0:0:
181,377,182478,2,0,P|194:328|210:289,1,86.2500032901765,0|0,3:2|0:0,0:0:0:0:
11,330,182770,6,0,P|82:330|124:244,1,163.874995624065,10|0,0:2|0:0,0:0:0:0:
138,244,183061,2,0,B|97:261|70:218|70:218|44:169|-8:189,1,163.874995624065,2|0,0:2|0:0,0:0:0:0:
14,197,183352,6,0,P|71:182|114:173,1,86.2500032901765,0|0,3:2|0:0,0:0:0:0:
209,73,183643,2,0,P|156:58|123:53,1,86.2500032901765,0|0,0:2|3:2,0:0:0:0:
266,7,183935,2,0,P|228:43|252:164,1,172.500006580353,8|2,0:2|3:2,0:0:0:0:
423,64,184372,2,0,L|289:91,1,129.375004935265,2|0,0:2|0:0,0:0:0:0:
305,97,184663,2,0,L|381:81,1,43.1250016450883,0|0,0:0|0:0,0:0:0:0:
487,17,184808,6,0,B|470:16|457:0|457:0|434:35|434:109|468:129|472:118|511:163|491:217,1,258.75000987053,2|2,3:2|0:2,0:0:0:0:
368,235,185391,2,0,P|376:199|426:190,1,86.2500032901765,2|2,0:2|0:2,0:0:0:0:
251,313,185682,6,0,B|246:279|214:257|207:272|179:244|181:208,1,129.375004935265,2|0,3:2|0:0,0:0:0:0:
240,153,185974,2,0,P|216:260|187:381,1,215.625008225441,2|0,0:2|0:0,0:0:0:0:
181,371,186410,1,0,0:0:0:0:
65,327,186556,2,0,P|90:259|131:253,1,86.2500032901765,2|2,3:2|0:2,0:0:0:0:
251,313,186847,6,0,B|204:333|145:281|206:237|159:195|133:166|82:176|60:191,1,258.75000987053,2|0,0:2|0:0,0:0:0:0:
4,240,187430,2,0,B|51:260|110:208|49:164|96:122|122:93|173:103|195:118,1,258.75000987053,10|0,0:2|0:2,0:0:0:0:
299,5,188012,6,0,P|279:49|272:92,1,86.2500032901765,0|0,3:2|0:0,0:0:0:0:
385,212,188304,2,0,P|415:183|395:143,1,86.2500032901765,0|0,0:2|3:2,0:0:0:0:
272,15,188595,2,0,P|254:66|291:91,1,86.2500032901765,8|0,0:2|0:0,0:0:0:0:
360,221,188886,6,0,P|391:177|400:142,1,86.2500032901765,0|0,3:2|0:0,0:0:0:0:
289,270,189177,6,0,B|285:251|268:234|268:234|324:218|371:228|395:268|388:325,1,215.625008225441,2|0,0:2|0:0,0:0:0:0:
389,310,189614,2,0,L|360:363,1,43.1250016450883,8|8,3:2|0:2,0:0:0:0:
434,382,189760,2,0,L|477:295,1,86.2500032901765,10|8,3:2|3:2,0:0:0:0:
198,264,190051,2,0,L|241:351,1,86.2500032901765,8|8,3:2|3:2,0:0:0:0:
102,370,190342,6,0,L|92:348,1,23,2|2,0:0|0:0,0:0:0:0:
