osu file format v14

[General]
AudioFilename: audio.mp3
AudioLeadIn: 0
PreviewTime: 97733
Countdown: 0
SampleSet: Soft
StackLeniency: 0.7
Mode: 0
LetterboxInBreaks: 0
WidescreenStoryboard: 0

[Editor]
Bookmarks: 179672
DistanceSpacing: 0.8
BeatDivisor: 3
GridSize: 16
TimelineZoom: 1

[Metadata]
Title:thank u, next
TitleUnicode:thank u, next
Artist:Ariana Grande
ArtistUnicode:Ariana Grande
Creator:Battle
Version:thank uwu, next
Source:
Tags:
BeatmapID:1883023
BeatmapSetID:901875

[Difficulty]
HPDrainRate:6
CircleSize:3
OverallDifficulty:8.7
ApproachRate:9
SliderMultiplier:1.4
SliderTickRate:1

[Events]
//Background and Video events
0,0,"maxresdefault.jpg",0,0
//Break Periods
//Storyboard Layer 0 (Background)
//Storyboard Layer 1 (Fail)
//Storyboard Layer 2 (Pass)
//Storyboard Layer 3 (Foreground)
//Storyboard Sound Samples

[TimingPoints]
233,560.747663551402,4,2,1,70,1,0
9204,-66.6666666666667,4,2,1,70,0,0
42849,-500,4,2,1,70,0,0
43971,-100,4,2,1,70,0,0
45092,-71.4285714285714,4,2,1,70,0,1
45653,-250,4,2,1,70,0,1
46775,-71.4285714285714,4,2,1,70,0,1
47335,-55.5555555555556,4,2,1,70,0,1
47896,-250,4,2,1,70,0,1
49018,-71.4285714285714,4,2,1,70,0,1
49578,-55.5555555555556,4,2,1,70,0,1
50139,-250,4,2,1,70,0,1
51120,-71.4285714285714,4,2,1,70,0,1
54625,-250,4,2,1,70,0,1
55747,-71.4285714285714,4,2,1,70,0,1
56308,-55.5555555555556,4,2,1,70,0,1
56868,-250,4,2,1,70,0,1
57990,-71.4285714285714,4,2,1,70,0,1
58550,-55.5555555555556,4,2,1,70,0,1
59111,-250,4,2,1,70,0,1
60233,-71.4285714285714,4,2,1,70,0,1
61915,-71.4285714285714,4,2,1,70,0,0
63036,-66.6666666666667,4,2,1,70,0,0
96681,-500,4,2,1,70,0,0
97803,-100,4,2,1,70,0,0
98924,-71.4285714285714,4,2,1,70,0,1
99485,-250,4,2,1,70,0,1
100466,-71.4285714285714,4,2,1,70,0,1
101167,-55.5555555555556,4,2,1,70,0,1
101728,-250,4,2,1,70,0,1
102849,-71.4285714285714,4,2,1,70,0,1
103410,-55.5555555555556,4,2,1,70,0,1
103971,-250,4,2,1,70,0,1
105092,-71.4285714285714,4,2,1,70,0,1
108457,-250,4,2,1,70,0,1
109578,-71.4285714285714,4,2,1,70,0,1
110139,-55.5555555555556,4,2,1,70,0,1
110700,-250,4,2,1,70,0,1
111821,-71.4285714285714,4,2,1,70,0,1
112382,-55.5555555555556,4,2,1,70,0,1
114625,-71.4285714285714,4,2,1,70,0,1
116868,-83.3333333333333,4,2,1,70,0,0
125840,-71.4285714285714,4,2,1,70,0,0
130326,-76.9230769230769,4,2,1,70,0,0
132569,-71.4285714285714,4,2,1,70,0,0
142662,-66.6666666666667,4,2,1,70,0,0
159485,-500,4,2,1,70,0,0
160606,-100,4,2,1,70,0,0
161728,-71.4285714285714,4,2,1,70,0,1
162289,-250,4,2,1,70,0,1
163410,-71.4285714285714,4,2,1,70,0,1
163971,-55.5555555555556,4,2,1,70,0,1
164532,-250,4,2,1,70,0,1
165653,-71.4285714285714,4,2,1,70,0,1
166214,-55.5555555555556,4,2,1,70,0,1
166775,-250,4,2,1,70,0,1
167896,-71.4285714285714,4,2,1,70,0,1
171261,-250,4,2,1,70,0,1
172382,-71.4285714285714,4,2,1,70,0,1
172943,-55.5555555555556,4,2,1,70,0,1
173504,-250,4,2,1,70,0,1
174625,-71.4285714285714,4,2,1,70,0,1
179672,-100,4,2,1,70,0,0

[Colours]
Combo1 : 248,171,219
Combo2 : 84,180,237

[HitObjects]
95,142,233,5,0,0:0:0:0:
161,66,513,2,0,B|198:131|198:131|175:216,1,140
278,66,1354,1,0,0:0:0:0:
160,261,1634,2,0,L|189:164,1,70
48,327,2055,2,0,L|77:230,1,70
94,164,2475,5,0,0:0:0:0:
199,350,2756,2,0,P|240:317|244:225,1,140
155,262,3597,1,0,0:0:0:0:
335,208,3877,2,0,P|306:165|280:151,1,70
435,241,4298,2,0,P|436:189|424:162,1,70
218,317,4718,6,0,B|264:334|264:334|368:312,1,140
197,252,6120,2,0,P|217:291|211:338,1,70
152,113,6541,2,0,P|132:152|138:199,1,70
349,24,6961,2,0,B|298:59|298:59|209:48,1,140
101,87,8270,5,0,0:0:0:0:
220,49,8457,1,0,0:0:0:0:
57,191,8644,2,0,L|115:179,2,46.6666666666667
222,158,9204,6,0,B|204:210|204:210|232:292,1,105.000004005432
310,205,9765,1,0,0:0:0:0:
324,325,10046,1,0,0:0:0:0:
340,325,10186,2,0,L|492:323,1,140.000005340576
407,219,10700,1,0,0:0:0:0:
512,178,10887,2,0,P|486:113|467:99,2,70.0000026702882
393,28,11447,6,0,L|386:158,1,105.000004005432
298,67,12008,1,0,0:0:0:0:
211,222,12289,1,0,0:0:0:0:
226,217,12429,2,0,B|281:195|281:195|395:235,1,140.000005340576
446,254,12943,1,0,0:0:0:0:
477,76,13130,2,0,L|464:171,2,70.0000026702882
229,93,13690,6,0,B|281:108|281:108|372:78,1,105.000004005432
263,17,14251,1,0,0:0:0:0:
140,207,14532,1,0,0:0:0:0:
168,205,14672,2,0,L|290:197,1,122.500004673004
233,297,15186,1,0,0:0:0:0:
114,117,15373,2,0,P|75:166|75:196,2,70.0000026702882
255,228,15933,6,0,L|125:236,1,105.000004005432
195,137,16494,1,0,0:0:0:0:
142,343,16775,1,0,0:0:0:0:
157,338,16915,2,0,B|209:320|209:320|286:347,1,122.500004673004
392,295,17429,1,0,0:0:0:0:
302,173,17616,2,0,P|296:241|309:262,2,70.0000026702882
402,17,18176,5,0,0:0:0:0:
441,119,18457,2,0,B|376:120|376:120|340:99,1,105.000004005432
81,86,19018,1,0,0:0:0:0:
122,6,19158,2,0,P|168:52|163:117,1,122.500004673004
103,220,19672,1,0,0:0:0:0:
224,262,19859,2,0,L|209:348,2,70.0000026702882
173,14,20419,6,0,P|211:86|194:150,1,105.000004005432
113,92,20840,1,0,0:0:0:0:
284,11,20980,1,0,0:0:0:0:
284,11,21261,2,0,L|366:11,1,52.5000020027161
445,142,21541,2,0,P|438:99|456:54,2,70.0000026702882
341,204,22102,2,0,P|347:238|340:272,2,70.0000026702882
101,108,22662,6,0,B|204:91|156:154|284:133,1,157.500006008148
331,45,23223,2,0,P|248:25|216:68,1,105.000004005432
235,239,23644,1,0,0:0:0:0:
235,239,23784,2,0,L|399:237,1,140.000005340576
340,123,24345,1,0,0:0:0:0:
442,61,24532,1,0,0:0:0:0:
503,163,24718,1,0,0:0:0:0:
253,102,24905,6,0,P|263:71|338:37,1,105.000004005432
215,201,25326,2,0,P|161:162|152:97,1,105.000004005432
336,204,25747,2,0,L|325:274,1,52.5000020027161
212,384,26027,6,0,L|190:252,1,105.000004005432
68,298,26447,2,0,L|127:178,1,105.000004005432
37,124,26868,2,0,L|117:82,1,52.5000020027161
293,96,27148,6,0,B|251:120|251:120|168:107,1,105.000004005432
241,19,27709,1,0,0:0:0:0:
208,204,27990,1,0,0:0:0:0:
444,88,28270,6,0,P|405:43|349:38,1,105.000004005432
387,221,28690,2,0,P|385:170|351:131,1,105.000004005432
258,249,29111,2,0,P|286:206|287:174,1,52.5000020027161
203,57,29391,6,0,L|187:186,1,105.000004005432
82,223,29812,2,0,L|94:327,1,105.000004005432
291,171,30233,2,0,L|275:241,1,52.5000020027161
107,354,30513,6,0,B|154:334|154:334|227:354,1,105.000004005432
6,204,30933,2,0,B|55:215|55:215|103:274,1,105.000004005432
73,62,31354,2,0,B|74:89|74:89|44:130,1,52.5000020027161
246,237,31634,6,0,B|196:225|196:225|148:166,1,105.000004005432
257,132,32195,1,0,0:0:0:0:
164,318,32475,2,0,L|237:332,1,52.5000020027161
433,239,32756,6,0,P|379:217|327:233,1,105.000004005432
224,124,33176,2,0,P|274:134|321:112,1,105.000004005432
432,50,33597,2,0,L|418:120,1,52.5000020027161
349,323,33877,6,0,B|321:274|321:274|336:223,1,105.000004005432
233,57,34298,2,0,B|261:106|261:106|247:152,1,105.000004005432
145,322,34718,1,0,0:0:0:0:
229,248,34859,1,0,0:0:0:0:
36,252,34999,6,0,P|115:216|166:234,1,105.000004005432
26,44,35419,2,0,P|88:105|94:153,1,105.000004005432
204,4,35840,2,0,P|152:37|136:39,1,52.5000020027161
243,238,36120,6,0,P|229:142|238:100,1,105.000004005432
331,173,36541,1,0,0:0:0:0:
141,282,36681,1,0,0:0:0:0:
141,282,36961,2,0,P|151:324|150:351,1,52.5000020027161
15,229,37242,6,0,P|80:210|122:151,1,105.000004005432
30,24,37662,2,0,P|13:89|44:155,1,105.000004005432
185,124,38083,2,0,P|154:94|109:90,1,52.5000020027161
196,242,38363,5,0,0:0:0:0:
196,242,38433,1,0,0:0:0:0:
196,242,38504,2,0,L|266:235,1,52.5000020027161
360,222,38784,1,0,0:0:0:0:
262,36,38924,2,0,P|300:74|300:147,1,105.000004005432
213,116,39345,1,0,0:0:0:0:
450,136,39485,6,0,P|415:200|422:244,1,105.000004005432
298,208,39905,2,0,P|307:280|338:311,1,105.000004005432
218,131,40326,2,0,P|263:103|288:106,1,52.5000020027161
179,254,40606,6,0,B|85:236|124:297|16:272,1,157.500006008148
72,132,41167,1,0,0:0:0:0:
72,132,41447,2,0,P|57:154|52:182,1,52.5000020027161
252,86,41728,6,0,B|199:96|199:96|149:72,1,105.000004005432
331,172,42148,2,0,B|384:162|384:162|434:186,1,105.000004005432
191,268,42569,1,0,0:0:0:0:
229,164,42709,1,0,0:0:0:0:
466,282,42849,6,0,L|459:334,1,49
451,271,43971,6,0,L|443:324,1,35
349,148,44251,2,0,L|357:201,1,35
477,34,44532,1,0,0:0:0:0:
452,147,44672,1,0,0:0:0:0:
289,63,44812,1,0,0:0:0:0:
264,176,44952,1,0,0:0:0:0:
134,23,45092,6,0,L|159:134,1,97.9999970092774
155,118,45513,1,0,0:0:0:0:
62,234,45653,2,0,L|35:230,1,28
237,349,46074,2,0,L|286:344,1,42
93,194,46634,1,0,0:0:0:0:
93,194,46775,2,0,L|10:180,1,48.9999985046387
228,49,47055,2,0,L|145:63,1,48.9999985046387
244,303,47335,6,0,L|216:151,1,125.999996154785
143,279,47756,1,0,0:0:0:0:
318,61,47896,2,0,L|314:97,1,28
473,293,48317,2,0,L|472:246,1,42
276,37,48878,1,0,0:0:0:0:
276,37,49018,2,0,L|264:124,1,48.9999985046387
104,181,49298,2,0,L|116:268,1,48.9999985046387
287,246,49578,6,0,L|267:386,1,125.999996154785
371,314,49999,1,0,0:0:0:0:
253,144,50139,2,0,P|268:141|283:140,1,28
122,306,50560,2,0,P|100:304|79:299,1,42
231,103,51120,1,0,0:0:0:0:
231,103,51261,2,0,P|277:91|304:91,1,48.9999985046387
376,208,51541,2,0,P|399:215|423:219,1,48.9999985046387
152,300,51821,5,0,0:0:0:0:
232,223,51961,2,0,P|262:315|250:343,1,97.9999970092774
357,228,52382,5,0,0:0:0:0:
277,151,52522,2,0,P|247:243|259:271,1,97.9999970092774
148,161,52943,5,0,0:0:0:0:
228,84,53083,2,0,P|258:176|246:204,1,97.9999970092774
352,86,53504,5,0,0:0:0:0:
272,9,53644,2,0,P|242:101|254:129,1,97.9999970092774
427,182,54064,6,0,L|349:179,1,48.9999985046387
304,285,54345,2,0,L|256:287,1,48.9999985046387
118,112,54625,2,0,P|123:128|125:152,1,28
294,377,55046,2,0,P|296:356|302:336,1,42
88,95,55606,1,0,0:0:0:0:
88,95,55747,2,0,P|96:121|99:149,1,48.9999985046387
222,7,56027,2,0,P|204:55|192:73,1,48.9999985046387
366,199,56307,6,0,P|333:131|329:76,1,97.9999970092774
445,112,56728,1,0,0:0:0:0:
272,287,56868,2,0,P|262:312|260:325,1,28
116,93,57289,2,0,P|127:120|129:135,1,42
308,306,57849,1,0,0:0:0:0:
308,306,57990,2,0,P|295:338|292:355,1,48.9999985046387
118,265,58270,2,0,L|172:258,1,48.9999985046387
358,136,58550,6,0,P|280:125|234:58,1,125.999996154785
332,38,58971,1,0,0:0:0:0:
419,236,59111,2,0,L|448:233,1,28
264,356,59532,2,0,L|221:351,1,42
395,201,60092,1,0,0:0:0:0:
395,201,60233,2,0,L|451:195,1,48.9999985046387
260,78,60513,2,0,L|316:83,1,48.9999985046387
160,210,60793,5,0,0:0:0:0:
101,119,60933,2,0,P|55:177|61:227,1,97.9999970092774
262,249,61354,5,0,0:0:0:0:
160,210,61494,2,0,P|156:283|191:320,1,97.9999970092774
344,156,61915,5,0,0:0:0:0:
262,249,62102,1,0,0:0:0:0:
454,196,62289,1,0,0:0:0:0:
330,50,62475,2,0,B|341:136,2,65.3333313395183
351,227,63036,6,0,L|286:232,1,52.5000020027161
202,28,63317,2,0,P|174:89|198:150,1,105.000004005432
351,227,63877,1,0,0:0:0:0:
180,124,64018,1,0,0:0:0:0:
381,142,64158,2,0,L|276:143,2,70.0000026702882
315,40,64718,1,0,0:0:0:0:
254,236,64905,1,0,0:0:0:0:
461,180,65092,1,0,0:0:0:0:
212,135,65279,6,0,B|232:181|232:181|218:241,1,105.000004005432
171,40,65700,1,0,0:0:0:0:
171,40,65840,2,0,P|258:41|279:77,1,105.000004005432
212,135,66261,1,0,0:0:0:0:
80,86,66401,2,0,L|69:1,2,70.0000026702882
157,177,66961,1,0,0:0:0:0:
23,264,67148,1,0,0:0:0:0:
117,350,67335,1,0,0:0:0:0:
258,149,67522,6,0,B|202:133|202:133|149:154,1,105.000004005432
206,227,68083,1,0,0:0:0:0:
243,56,68363,2,0,L|316:81,1,52.5000020027161
309,259,68644,2,0,L|343:173,2,70.0000026702882
219,202,69204,1,0,0:0:0:0:
370,105,69391,1,0,0:0:0:0:
400,285,69578,1,0,0:0:0:0:
140,152,69765,6,0,P|191:110|227:107,1,105.000004005432
65,217,70186,2,0,P|40:144|58:101,1,105.000004005432
219,222,70606,2,0,L|200:289,1,52.5000020027161
60,367,70887,5,0,0:0:0:0:
176,348,71074,1,0,0:0:0:0:
288,321,71261,1,0,0:0:0:0:
289,331,71447,5,0,0:0:0:0:
173,312,71634,1,0,0:0:0:0:
61,285,71821,1,0,0:0:0:0:
189,114,72008,6,0,B|215:167|215:167|193:230,1,105.000004005432
103,170,72429,1,0,0:0:0:0:
324,95,72569,2,0,L|306:175,1,52.5000020027161
193,311,72849,1,0,0:0:0:0:
303,248,72990,1,0,0:0:0:0:
139,232,73130,6,0,P|96:301|108:353,1,105.000004005432
193,311,73550,1,0,0:0:0:0:
23,130,73690,2,0,L|37:221,2,70.0000026702882
152,26,74251,6,0,L|170:157,1,105.000004005432
257,56,74672,1,0,0:0:0:0:
78,173,74812,2,0,P|149:128|203:149,1,105.000004005432
160,245,75233,1,0,0:0:0:0:
336,152,75373,6,0,L|258:144,1,52.5000020027161
163,270,75653,2,0,L|230:266,1,52.5000020027161
393,85,75933,2,0,P|420:118|418:173,2,70.0000026702882
246,230,76494,6,0,L|396:246,1,105.000004005432
233,45,76915,2,0,L|320:152,1,105.000004005432
139,181,77335,2,0,L|208:126,1,52.5000020027161
276,328,77616,6,0,L|190:319,1,70.0000026702882
53,314,77990,1,0,0:0:0:0:
259,156,78176,1,0,0:0:0:0:
122,85,78363,1,0,0:0:0:0:
154,246,78550,1,0,0:0:0:0:
343,200,78737,6,0,P|345:117|319:87,1,105.000004005432
246,256,79158,1,0,0:0:0:0:
246,256,79298,2,0,L|314:301,1,52.5000020027161
132,194,79578,2,0,L|146:272,1,52.5000020027161
64,48,79859,6,0,L|23:191,1,105.000004005432
243,38,80279,2,0,L|125:129,1,105.000004005432
355,127,80700,2,0,L|275:130,1,52.5000020027161
110,253,80980,6,0,B|166:259|138:220|212:229,1,105.000004005432
289,352,81541,1,0,0:0:0:0:
419,263,81821,1,0,0:0:0:0:
244,140,82102,6,0,P|289:178|304:250,1,105.000004005432
355,14,82522,2,0,P|369:71|338:138,1,105.000004005432
504,23,82943,2,0,P|473:58|445:68,1,52.5000020027161
298,201,83223,6,0,B|426:194,1,105.000004005432
510,316,83644,2,0,B|382:309,1,105.000004005432
339,103,84064,2,0,L|417:95,1,52.5000020027161
307,360,84345,6,0,P|276:302|282:257,1,105.000004005432
175,280,84765,2,0,P|184:214|215:181,1,105.000004005432
167,82,85186,2,0,P|218:72|251:88,1,52.5000020027161
128,220,85466,6,0,L|9:210,1,105.000004005432
103,124,86027,1,0,0:0:0:0:
109,323,86307,2,0,L|168:329,1,52.5000020027161
271,156,86588,6,0,B|268:177|244:210|244:210|262:268,1,105.000004005432
386,378,87008,2,0,B|388:356|413:324|413:324|395:266,1,105.000004005432
200,103,87429,2,0,P|249:73|270:74,1,52.5000020027161
481,189,87709,6,0,L|370:187,1,105.000004005432
277,63,88130,2,0,L|381:61,1,105.000004005432
329,281,88550,1,0,0:0:0:0:
275,167,88690,1,0,0:0:0:0:
435,283,88831,6,0,B|404:333|404:333|417:388,1,105.000004005432
335,53,89251,2,0,B|366:103|366:103|353:158,1,105.000004005432
277,345,89672,2,0,B|271:323|271:323|287:297,1,52.5000020027161
258,126,89952,6,0,L|205:258,1,105.000004005432
10,195,90373,1,0,0:0:0:0:
163,111,90513,2,0,L|131:195,1,52.5000020027161
67,287,90793,2,0,L|99:371,1,52.5000020027161
63,101,91074,6,0,B|108:121|108:121|172:109,1,105.000004005432
350,20,91494,2,0,B|305:0|305:0|241:12,1,105.000004005432
158,208,91915,1,0,0:0:0:0:
274,170,92055,1,0,0:0:0:0:
413,57,92195,6,0,P|379:114|389:175,1,105.000004005432
498,135,92616,1,0,0:0:0:0:
336,282,92756,2,0,L|425:263,1,52.5000020027161
200,141,93036,2,0,L|289:160,1,52.5000020027161
212,371,93317,6,0,P|211:305|169:251,1,105.000004005432
160,164,93737,2,0,P|103:197|77:261,1,105.000004005432
9,307,94158,2,0,P|50:330|99:323,1,52.5000020027161
296,284,94438,6,0,L|171:269,1,105.000004005432
286,174,94859,1,0,0:0:0:0:
152,40,94999,2,0,L|144:108,1,52.5000020027161
286,174,95279,2,0,L|215:166,1,52.5000020027161
0,286,95560,6,0,P|97:289|120:373,1,157.500006008148
96,171,96120,1,0,0:0:0:0:
96,171,96401,2,0,P|77:219|78:239,1,52.5000020027161
249,89,96681,6,0,B|200:86,1,49
261,107,97803,6,0,B|212:104,1,35
390,217,98083,2,0,B|341:219,1,35
111,370,98363,1,0,0:0:0:0:
278,321,98504,1,0,0:0:0:0:
67,204,98644,1,0,0:0:0:0:
177,292,98784,1,0,0:0:0:0:
190,81,98924,6,0,P|168:140|169:176,1,97.9999970092774
168,174,99345,1,0,0:0:0:0:
398,47,99485,2,0,L|364:41,1,28
188,312,99905,2,0,L|231:304,1,42
433,82,100466,1,0,0:0:0:0:
433,82,100606,2,0,L|381:72,1,48.9999985046387
427,295,100887,1,0,0:0:0:0:
351,182,101027,1,0,0:0:0:0:
254,368,101167,6,0,P|276:307|258:225,1,125.999996154785
175,297,101588,1,0,0:0:0:0:
38,50,101728,2,0,P|42:64|44:90,1,28
149,366,102148,2,0,P|152:343|158:321,1,42
61,36,102709,1,0,0:0:0:0:
61,36,102849,2,0,P|67:59|70:83,1,48.9999985046387
271,221,103130,1,0,0:0:0:0:
169,155,103270,1,0,0:0:0:0:
25,322,103410,6,0,P|115:296|186:295,1,125.999996154785
296,224,103831,1,0,0:0:0:0:
173,41,103971,2,0,P|175:56|176:80,1,28
328,354,104391,2,0,P|329:332|332:310,1,42
139,26,104952,1,0,0:0:0:0:
139,26,105092,2,0,P|142:50|143:75,1,48.9999985046387
35,193,105373,2,0,P|31:217|30:242,1,48.9999985046387
20,374,105653,5,0,0:0:0:0:
219,301,105793,2,0,B|174:285|174:285|104:306,1,97.9999970092774
173,183,106214,5,0,0:0:0:0:
301,296,106354,2,0,B|256:312|256:312|186:291,1,97.9999970092774
174,380,106775,5,0,0:0:0:0:
369,305,106915,2,0,B|324:289|324:289|254:310,1,97.9999970092774
257,183,107335,5,0,0:0:0:0:
454,301,107475,2,0,B|409:317|409:317|339:296,1,97.9999970092774
167,107,107896,6,0,P|225:68|234:66,1,48.9999985046387
387,191,108176,2,0,L|310:187,1,48.9999985046387
36,358,108457,2,0,L|74:355,1,28
249,183,108877,2,0,L|200:179,1,42
25,378,109438,1,0,0:0:0:0:
25,378,109578,2,0,L|73:374,1,48.9999985046387
250,311,109859,1,0,0:0:0:0:
101,211,109999,1,0,0:0:0:0:
240,63,110139,6,0,B|264:126|264:126|244:201,1,125.999996154785
141,134,110560,1,0,0:0:0:0:
438,47,110700,2,0,P|418:42|410:35,1,28
242,283,111120,2,0,P|260:271|282:268,1,42
470,33,111681,1,0,0:0:0:0:
470,33,111821,2,0,P|420:24|377:-2,1,97.9999970092774
488,159,112242,1,0,0:0:0:0:
333,104,112382,6,0,P|357:171|366:196,1,62.9999980773926
264,276,112662,2,0,P|240:343|231:368,1,62.9999980773926
92,93,112943,2,0,P|110:157|123:247,1,125.999996154785
16,174,113363,1,0,0:0:0:0:
304,52,113504,2,0,P|228:48|180:-14,1,125.999996154785
31,349,114064,2,0,P|80:311|142:313,1,125.999996154785
251,363,114485,1,0,0:0:0:0:
149,177,114625,5,0,0:0:0:0:
302,67,114765,2,0,P|263:118|206:125,1,97.9999970092774
214,29,115186,5,0,0:0:0:0:
227,224,115326,2,0,P|166:202|142:150,1,97.9999970092774
232,127,115747,5,0,0:0:0:0:
50,199,115887,2,0,P|51:134|93:95,1,97.9999970092774
148,176,116307,5,0,0:0:0:0:
23,25,116447,2,0,P|84:6|134:34,1,97.9999970092774
106,288,116868,6,0,L|-17:281,1,83.9999974365235
61,380,117289,1,0,0:0:0:0:
225,258,117429,2,0,B|202:307|202:307|230:388,1,125.999996154785
307,194,117990,2,0,P|246:155|212:163,1,83.9999974365235
311,339,118550,1,0,0:0:0:0:
456,266,118831,2,0,L|385:262,1,41.9999987182618
318,116,119111,6,0,L|302:237,1,83.9999974365235
429,164,119532,1,0,0:0:0:0:
192,16,119672,2,0,B|225:58|225:58|208:165,1,125.999996154785
124,216,120233,2,0,P|94:172|92:139,1,83.9999974365235
230,255,120793,1,0,0:0:0:0:
105,342,121074,2,0,L|109:403,1,41.9999987182618
246,140,121354,6,0,L|233:263,1,83.9999974365235
151,168,121775,1,0,0:0:0:0:
362,95,121915,2,0,P|300:61|286:10,1,125.999996154785
396,199,122475,2,0,P|440:157|473:157,1,83.9999974365235
411,306,123036,1,0,0:0:0:0:
252,193,123317,2,0,L|316:188,1,41.9999987182618
279,312,123597,5,0,0:0:0:0:
163,150,123737,2,0,B|151:191|151:191|174:243,1,83.9999974365235
177,27,124158,5,0,0:0:0:0:
293,189,124298,2,0,B|305:148|305:148|282:96,1,83.9999974365235
85,343,124718,5,0,0:0:0:0:
163,150,124905,1,0,0:0:0:0:
272,331,125092,1,0,0:0:0:0:
75,218,125279,5,0,0:0:0:0:
174,339,125466,1,0,0:0:0:0:
242,204,125653,1,0,0:0:0:0:
14,256,125840,6,0,B|73:111|87:79|87:79|119:152|152:249|152:249|98:209|60:222,1,457.333319376628
231,181,127335,1,0,0:0:0:0:
148,351,127522,2,0,P|199:341|220:321,2,65.3333313395183
231,181,128083,6,0,B|249:95|227:18|227:18|319:-18|367:38|299:109|299:109|355:128|371:206,1,457.333319376628
290,272,129578,1,0,0:0:0:0:
461,140,129765,2,0,P|406:86|360:88,2,65.3333313395183
301,356,130326,6,0,B|360:330|368:168|368:168|360:330|455:381,1,424.66664722697
370,82,131821,1,0,0:0:0:0:
470,193,132008,1,0,0:0:0:0:
273,194,132195,1,0,0:0:0:0:
369,54,132382,1,0,0:0:0:0:
224,57,132569,6,0,B|127:61|121:195|207:211|207:211|285:211|281:144|281:144|221:144,1,391.99998803711
262,302,133877,1,0,0:0:0:0:
387,220,134064,1,0,0:0:0:0:
199,224,134251,5,0,0:0:0:0:
323,156,134438,1,0,0:0:0:0:
345,313,134625,1,0,0:0:0:0:
95,270,134812,6,0,P|89:213|102:175,1,97.9999970092774
288,235,135233,2,0,B|236:247|236:247|171:206,1,97.9999970092774
265,41,135653,2,0,L|255:147,2,97.9999970092774
172,88,136354,1,0,0:0:0:0:
399,67,136494,2,0,P|377:50|361:13,2,65.3333313395183
308,230,137055,6,0,P|363:190|433:191,1,97.9999970092774
408,306,137616,1,0,0:0:0:0:
302,66,137896,2,0,L|309:258,1,163.333328348796
211,137,138550,1,0,0:0:0:0:
390,218,138737,1,0,0:0:0:0:
215,314,138924,1,0,0:0:0:0:
361,364,139111,1,0,0:0:0:0:
123,148,139298,6,0,L|134:286,1,97.9999970092774
259,32,139718,2,0,L|248:170,1,97.9999970092774
337,266,140139,1,0,0:0:0:0:
337,266,140606,2,0,P|384:247|438:248,2,65.3333313395183
254,340,141167,1,0,0:0:0:0:
154,290,141354,1,0,0:0:0:0:
44,337,141541,6,0,P|50:248|29:179,1,130.666662679037
119,50,142102,1,0,0:0:0:0:
219,209,142289,1,0,0:0:0:0:
334,29,142475,1,0,0:0:0:0:
469,148,142662,6,0,P|414:134|356:130,1,105.000004005432
235,298,143083,2,0,P|287:293|337:279,1,105.000004005432
116,160,143504,1,0,0:0:0:0:
238,118,143644,1,0,0:0:0:0:
20,233,143784,6,0,P|4:141|32:80,1,157.500006008148
110,163,144345,1,0,0:0:0:0:
4,327,144625,1,0,0:0:0:0:
221,271,144905,6,0,P|154:249|112:262,1,105.000004005432
310,347,145326,2,0,P|361:353|408:332,1,105.000004005432
357,191,145747,2,0,L|346:283,1,52.5000020027161
264,37,146027,6,0,B|227:101|227:101|247:189,1,157.500006008148
368,110,146588,1,0,0:0:0:0:
126,273,146868,2,0,L|108:205,1,52.5000020027161
345,266,147148,6,0,P|290:314|284:368,1,105.000004005432
135,137,147569,2,0,P|190:185|196:239,1,105.000004005432
305,37,147990,2,0,P|272:69|262:108,1,52.5000020027161
479,223,148270,6,0,B|398:235|398:235|321:186,1,157.500006008148
421,121,148831,1,0,0:0:0:0:
315,366,149111,2,0,P|318:315|332:295,1,52.5000020027161
200,88,149391,6,0,P|224:144|220:234,1,105.000004005432
105,368,149812,2,0,P|111:316|133:268,1,105.000004005432
19,126,150233,2,0,P|33:155|40:207,1,52.5000020027161
235,49,150513,6,0,P|171:102|119:116,1,105.000004005432
396,185,150933,2,0,P|318:169|281:140,1,105.000004005432
152,285,151354,2,0,P|203:265|221:264,1,52.5000020027161
344,384,151634,6,0,P|335:318|315:261,1,105.000004005432
471,128,152055,2,0,P|456:178|450:230,1,105.000004005432
304,24,152475,2,0,P|315:77|317:100,1,52.5000020027161
147,224,152756,6,0,P|225:191|281:188,1,105.000004005432
230,300,153176,1,0,0:0:0:0:
171,41,153317,2,0,P|162:99|161:116,1,52.5000020027161
31,206,153597,2,0,P|40:264|41:281,1,52.5000020027161
208,284,153877,6,0,P|186:348|173:413,1,105.000004005432
303,176,154298,2,0,P|325:240|338:305,1,105.000004005432
450,115,154718,2,0,P|430:177|427:193,1,52.5000020027161
314,50,154999,5,0,0:0:0:0:
314,50,155069,1,0,0:0:0:0:
314,50,155139,2,0,P|378:19|392:1,1,52.5000020027161
303,176,155419,1,0,0:0:0:0:
198,56,155560,2,0,P|161:145|164:192,1,105.000004005432
248,259,155980,1,0,0:0:0:0:
35,256,156120,6,0,P|72:345|69:392,1,105.000004005432
180,147,156541,2,0,P|157:240|127:277,1,105.000004005432
341,172,156961,2,0,P|290:204|265:212,1,52.5000020027161
391,378,157242,6,0,P|376:291|362:247,1,105.000004005432
276,353,157662,1,0,0:0:0:0:
507,174,157803,2,0,P|494:224|487:276,1,105.000004005432
393,143,158223,1,0,0:0:0:0:
242,282,158363,6,0,P|304:277|353:265,1,105.000004005432
112,133,158784,2,0,P|174:138|223:150,1,105.000004005432
29,369,159204,1,0,0:0:0:0:
166,351,159345,1,0,0:0:0:0:
13,195,159485,6,0,P|20:221|24:246,1,49
104,77,160606,2,0,P|93:122|90:144,1,35
181,302,160887,2,0,P|177:284|172:268,1,35
295,33,161167,1,0,0:0:0:0:
254,148,161307,1,0,0:0:0:0:
431,308,161447,1,0,0:0:0:0:
381,196,161588,1,0,0:0:0:0:
512,81,161728,6,0,P|490:147|477:204,1,97.9999970092774
483,174,162148,1,0,0:0:0:0:
283,60,162289,2,0,P|312:54|319:53,1,28
105,277,162709,2,0,P|84:273|63:268,1,42
279,35,163270,1,0,0:0:0:0:
279,35,163410,2,0,P|302:30|326:25,1,48.9999985046387
188,233,163690,1,0,0:0:0:0:
147,85,163831,1,0,0:0:0:0:
351,198,163971,6,0,P|326:286|329:352,1,125.999996154785
414,270,164391,1,0,0:0:0:0:
259,42,164532,2,0,P|258:58|260:74,1,28
139,370,164952,2,0,P|140:347|137:324,1,42
295,43,165513,1,0,0:0:0:0:
295,43,165653,2,0,P|293:71|296:100,1,48.9999985046387
431,230,165933,2,0,P|432:205|431:181,1,48.9999985046387
236,236,166214,6,0,P|293:278|332:361,1,125.999996154785
217,341,166634,1,0,0:0:0:0:
400,194,166775,2,0,L|366:192,1,28
149,36,167195,2,0,L|193:33,1,42
425,227,167756,1,0,0:0:0:0:
425,227,167896,2,0,L|375:224,1,48.9999985046387
151,127,168176,1,0,0:0:0:0:
284,107,168317,1,0,0:0:0:0:
113,344,168457,5,0,0:0:0:0:
255,276,168597,2,0,P|232:322|255:382,1,97.9999970092774
375,263,169018,5,0,0:0:0:0:
233,195,169158,2,0,P|256:241|233:301,1,97.9999970092774
112,181,169578,5,0,0:0:0:0:
254,113,169718,2,0,P|231:159|254:219,1,97.9999970092774
368,111,170139,5,0,0:0:0:0:
226,43,170279,2,0,P|249:89|226:149,1,97.9999970092774
13,228,170700,6,0,L|127:219,1,97.9999970092774
54,121,171120,1,0,0:0:0:0:
344,373,171261,2,0,L|348:336,1,28
197,49,171681,2,0,L|203:99,1,42
368,378,172242,1,0,0:0:0:0:
368,378,172382,2,0,L|380:283,1,48.9999985046387
114,115,172662,1,0,0:0:0:0:
139,272,172803,1,0,0:0:0:0:
437,198,172943,6,0,P|374:194|297:138,1,125.999996154785
407,81,173363,1,0,0:0:0:0:
283,285,173504,2,0,P|260:282|248:287,1,28
56,48,173924,2,0,P|76:53|96:48,1,42
287,304,174485,1,0,0:0:0:0:
287,304,174625,2,0,P|260:298|234:304,1,48.9999985046387
58,202,174905,2,0,L|141:196,1,48.9999985046387
268,18,175186,6,0,P|237:78|254:155,1,146.999995513916
460,79,175747,2,0,P|384:59|328:105,1,146.999995513916
469,250,176307,2,0,L|481:185,1,48.9999985046387
355,304,176588,2,0,L|367:369,1,48.9999985046387
253,120,176868,6,0,L|237:259,1,97.9999970092774
361,176,177289,1,0,0:0:0:0:
111,29,177429,5,0,0:0:0:0:
158,127,177569,2,0,B|104:141|104:141|32:118,1,97.9999970092774
198,336,177990,5,0,0:0:0:0:
151,238,178130,2,0,B|205:224|205:224|277:247,1,97.9999970092774
314,39,178550,5,0,0:0:0:0:
361,137,178690,2,0,B|307:151|307:151|235:128,1,97.9999970092774
419,353,179111,5,0,0:0:0:0:
372,255,179251,2,0,B|426:241|426:241|498:264,1,97.9999970092774
145,268,179672,5,0,0:0:0:0:
