osu file format v14

[General]
AudioFilename: audio.mp3
AudioLeadIn: 0
PreviewTime: 71807
Countdown: 0
SampleSet: Soft
StackLeniency: 0.7
Mode: 0
LetterboxInBreaks: 0
WidescreenStoryboard: 1

[Editor]
Bookmarks: 6859,20193,31859,33526,46859,60193,71859,73526,86859,100193,113526,125193,126859,140193,153526,166859
DistanceSpacing: 1
BeatDivisor: 4
GridSize: 4
TimelineZoom: 2

[Metadata]
Title:positions
TitleUnicode:positions
Artist:Ariana Grande
ArtistUnicode:Ariana Grande
Creator:Mao
Version:normal
Source:
Tags:pop english rnb r&b rhythm and blues butera asphyxia acyl acylica
BeatmapID:2752558
BeatmapSetID:1303609

[Difficulty]
HPDrainRate:4
CircleSize:3.6
OverallDifficulty:4.2
ApproachRate:5.3
SliderMultiplier:1.2
SliderTickRate:1

[Events]
//Background and Video events
0,0,"positions.jpg",0,0
//Break Periods
2,101018,111849
//Storyboard Layer 0 (Background)
//Storyboard Layer 1 (Fail)
//Storyboard Layer 2 (Pass)
//Storyboard Layer 3 (Foreground)
//Storyboard Layer 4 (Overlay)
//Storyboard Sound Samples

[TimingPoints]
193,416.666666666667,4,2,0,60,1,0
6859,-111.111111111111,4,2,0,50,0,0
20193,-100,4,2,0,60,0,0
33526,-90.9090909090909,4,2,0,70,0,1
34359,-90.9090909090909,4,2,0,70,0,0
36859,-90.9090909090909,4,2,0,70,0,1
37484,-90.9090909090909,4,2,0,70,0,0
40193,-90.9090909090909,4,2,0,70,0,1
40818,-90.9090909090909,4,2,0,70,0,0
43526,-90.9090909090909,4,2,0,70,0,1
44151,-90.9090909090909,4,2,0,70,0,0
46859,-105.263157894737,4,2,0,60,0,0
60193,-95.2380952380952,4,2,0,70,0,0
72693,-111.111111111111,4,2,0,60,0,0
73526,-83.3333333333333,4,2,0,80,0,1
74359,-90.9090909090909,4,2,0,80,0,0
76859,-90.9090909090909,4,2,0,80,0,1
77484,-90.9090909090909,4,2,0,80,0,0
80193,-90.9090909090909,4,2,0,80,0,1
80818,-90.9090909090909,4,2,0,80,0,0
83526,-90.9090909090909,4,2,0,80,0,1
84151,-90.9090909090909,4,2,0,80,0,0
86859,-83.3333333333333,4,2,0,80,0,1
87693,-90.9090909090909,4,2,0,80,0,0
90193,-90.9090909090909,4,2,0,80,0,1
90818,-90.9090909090909,4,2,0,80,0,0
93526,-90.9090909090909,4,2,0,80,0,1
94151,-90.9090909090909,4,2,0,80,0,0
96859,-90.9090909090909,4,2,0,80,0,1
97484,-90.9090909090909,4,2,0,80,0,0
100193,-111.111111111111,4,2,0,80,0,0
100609,-111.111111111111,4,2,0,80,0,0
100818,-111.111111111111,4,2,0,50,0,0
113526,-100,4,2,0,60,0,0
123526,-100,4,2,0,40,0,0
126026,-100,4,2,0,60,0,0
126859,-76.9230769230769,4,2,0,80,0,1
127693,-83.3333333333333,4,2,0,80,0,0
130193,-83.3333333333333,4,2,0,80,0,1
130818,-83.3333333333333,4,2,0,80,0,0
133526,-83.3333333333333,4,2,0,80,0,1
134151,-83.3333333333333,4,2,0,80,0,0
136859,-83.3333333333333,4,2,0,80,0,1
137484,-83.3333333333333,4,2,0,80,0,0
140193,-76.9230769230769,4,2,0,80,0,1
141026,-83.3333333333333,4,2,0,80,0,0
143526,-83.3333333333333,4,2,0,80,0,1
144151,-83.3333333333333,4,2,0,80,0,0
146859,-83.3333333333333,4,2,0,80,0,1
147484,-83.3333333333333,4,2,0,80,0,0
150193,-83.3333333333333,4,2,0,80,0,1
150818,-83.3333333333333,4,2,0,80,0,0
152693,-83.3333333333333,4,2,0,80,0,1
153109,-83.3333333333333,4,2,0,80,0,0
153526,-76.9230769230769,4,2,0,80,0,0
154359,-83.3333333333333,4,2,0,70,0,0
154984,-111.111111111111,4,2,0,70,0,0
156443,-111.111111111111,4,2,0,60,0,0
160818,-111.111111111111,4,2,0,50,0,0
163526,-111.111111111111,4,2,0,40,0,0
164984,-111.111111111111,4,2,0,30,0,0
166026,-111.111111111111,4,2,0,25,0,0
166443,-111.111111111111,4,2,0,20,0,0

[Colours]
Combo1 : 21,251,199
Combo2 : 220,233,222

[HitObjects]
43,45,6859,5,4,1:0:0:0:
132,105,7276,1,2,0:0:0:0:
132,105,7484,2,0,P|182:94|253:87,1,107.999996704102,2|4,0:0|0:3,0:0:0:0:
334,37,8318,2,0,P|420:32|466:96,1,161.999995056152,2|2,0:0|0:0,0:0:0:0:
427,126,9151,1,0,0:0:0:0:
490,213,9568,1,2,0:0:0:0:
490,213,9776,1,2,0:0:0:0:
446,311,10193,6,0,B|397:290|366:326|377:346|348:372|304:359,1,161.999995056152,4|2,1:0|0:0,0:0:0:0:
232,280,11234,1,4,0:3:0:0:
284,185,11651,1,2,0:0:0:0:
284,185,11859,2,0,B|303:142|303:142|301:89,1,80.9999975280763,4|2,0:0|0:0,0:0:0:0:
175,59,12693,2,0,B|134:58|134:58|87:36,2,80.9999975280763,8|2|2,0:0|0:0|0:0,0:0:0:0:
189,113,13526,5,4,1:0:0:0:
93,162,13943,1,2,0:0:0:0:
93,162,14151,2,0,P|86:221|82:280,1,107.999996704102,2|4,0:2|0:3,0:0:0:0:
135,363,14984,2,0,P|175:372|260:283,1,161.999995056153,2|2,0:0|0:0,0:0:0:0:
234,250,15818,1,2,0:0:0:0:
250,146,16234,1,2,0:0:0:0:
250,146,16443,1,2,0:0:0:0:
259,38,16859,6,0,B|308:17|339:53|328:73|357:99|401:86,1,161.999995056152,4|2,1:0|0:0,0:0:0:0:
505,64,17901,1,4,0:3:0:0:
506,172,18318,2,0,P|496:218|486:291,1,107.999996704102,2|2,0:0|0:0,0:0:0:0:
497,331,18943,1,2,0:3:0:0:
497,331,19151,1,2,0:0:0:0:
198,366,20193,6,0,B|155:350|155:350|90:350,1,90,4|2,1:0|0:0,0:0:0:0:
35,300,20818,2,0,P|35:264|93:206,1,120,2|6,0:0|0:3,0:0:0:0:
147,184,21443,1,4,0:0:0:0:
147,184,21651,2,0,P|90:170|38:135,1,120,0|2,0:0|0:0,0:0:0:0:
27,77,22276,1,6,0:3:0:0:
134,23,22693,1,10,0:2:0:0:
355,114,23526,6,0,B|396:96|396:96|443:101,1,90,4|2,1:0|0:0,0:0:0:0:
498,169,24151,2,0,P|464:210|443:280,1,120,2|6,0:0|0:3,0:0:0:0:
433,335,24776,1,6,0:0:0:0:
433,335,24984,2,0,L|311:345,1,120,0|2,0:0|0:0,0:0:0:0:
221,267,25818,1,2,0:0:0:0:
221,267,26026,2,0,P|227:229|239:208,1,60,10|6,0:2|3:0,0:0:0:0:
292,185,26443,2,0,P|292:149|274:126,1,60,2|2,3:0|3:0,3:0:0:0:
242,82,26859,6,0,B|197:86|197:86|156:68,1,90,4|2,1:0|0:0,0:0:0:0:
76,25,27484,2,0,P|29:60|21:136,1,120,2|6,0:0|0:3,0:0:0:0:
40,177,28109,1,4,0:0:0:0:
40,177,28317,2,0,L|159:167,1,120,10|2,0:3|0:0,0:0:0:0:
191,218,28943,1,6,0:3:0:0:
387,355,29776,6,0,B|453:362|431:300|494:307,2,120,0|4|0,3:0|1:0|0:0,3:0:0:0:
345,311,30818,2,0,B|279:304|301:366|238:359,2,120,2|8|8,0:0|0:3|0:3,0:0:0:0:
23,289,33526,6,2,B|31:265|33:236|33:236|132:256|97:329|196:357,1,264.000008056641,4|14,1:0|1:2,0:3:0:0:
391,326,34984,1,6,1:2:0:0:
391,326,35193,2,0,P|403:292|427:262,1,66.0000020141602,2|2,0:0|0:0,0:0:0:0:
479,261,35609,2,0,P|499:229|487:192,1,66.0000020141602,6|0,1:3|0:0,0:0:0:0:
508,144,36026,2,0,P|465:131|394:41,1,132.00000402832,10|2,1:2|3:0,0:0:0:0:
280,25,36859,6,2,B|305:28|332:36|332:36|323:93|271:89|277:168,1,198.000006042481,4|6,1:0|3:0,0:3:0:0:
330,199,37693,1,14,1:2:0:0:
330,199,37901,2,0,P|318:265|312:349,1,132.00000402832,0|6,1:0|3:0,0:0:0:0:
265,365,38526,1,4,0:0:0:0:
146,368,38943,1,4,3:0:0:0:
55,290,39359,1,14,1:2:0:0:
77,235,39568,1,6,3:0:0:0:
100,180,39776,1,14,1:3:0:0:
40,62,40193,6,2,B|54:35|58:17|58:17|124:8|111:72|196:63,1,198.000006042481,4|6,1:0|3:0,0:3:0:0:
245,30,41026,1,12,1:2:0:0:
245,30,41234,1,6,3:0:0:0:
363,24,41651,2,0,P|384:65|334:139,1,132.00000402832,12|2,3:0|0:0,0:0:0:0:
336,193,42276,2,2,P|293:191|263:201,1,66.0000020141602,14|2,3:0|3:0,0:3:0:0:
231,241,42693,1,10,1:2:0:0:
288,345,43109,2,0,P|331:347|361:337,1,66.0000020141602,4|2,0:0|0:0,0:0:0:0:
407,365,43526,6,2,B|434:351|452:347|452:347|461:281|397:294|406:209,1,198.000006042481,4|6,1:0|3:0,0:3:0:0:
445,167,44359,1,14,1:2:0:0:
445,167,44568,2,0,P|457:131|481:98,1,66.0000020141602,6|6,1:3|0:0,0:0:0:0:
509,61,44984,1,6,3:0:0:0:
399,14,45401,1,4,0:3:0:0:
399,14,45609,1,4,3:0:0:0:
324,106,46026,1,10,1:2:0:0:
122,29,46859,5,4,1:0:0:0:
41,109,47276,1,2,0:0:0:0:
41,109,47484,2,0,P|52:159|58:241,1,113.999996955872,2|4,0:0|0:3,0:0:0:0:
35,273,48109,2,0,P|44:308|46:346,1,56.9999984779358,2|10,0:0|0:3,0:0:0:0:
208,274,48943,2,0,P|214:236|219:206,1,56.9999984779358,6|2,1:2|0:0,0:0:0:0:
196,164,49359,2,0,P|202:126|207:96,1,56.9999984779358,8|2,1:2|0:0,0:0:0:0:
183,54,49776,1,0,3:0:0:0:
296,68,50193,6,0,B|341:81|372:53|361:32|394:-6|446:16,1,170.999995433807,4|2,1:0|0:0,0:0:0:0:
504,112,51234,1,6,3:0:0:0:
445,209,51651,2,0,P|448:253|454:346,1,113.999996955872,8|2,0:3|0:0,0:0:0:0:
425,373,52276,1,6,3:0:0:0:
333,304,52693,2,0,P|339:269|352:247,2,56.9999984779358,8|4|0,1:2|0:3|3:0,0:0:0:0:
241,371,53526,5,4,1:0:0:0:
178,275,53943,1,2,0:0:0:0:
178,275,54151,2,0,P|182:221|191:155,1,113.999996955872,2|4,0:0|0:3,0:0:0:0:
235,126,54776,2,0,P|239:89|238:60,1,56.9999984779358,2|10,0:2|0:3,0:0:0:0:
76,13,55609,2,0,P|44:40|38:80,1,56.9999984779358,6|2,1:2|0:0,0:0:0:0:
66,103,56026,2,0,P|43:133|33:151,1,56.9999984779358,8|2,1:2|0:0,0:0:0:0:
52,203,56443,1,0,3:0:0:0:
34,315,56859,6,0,B|86:337|119:299|107:277|138:249|185:263,1,170.999995433807,4|2,1:0|0:0,0:0:0:0:
248,355,57901,1,6,3:0:0:0:
295,323,58109,1,2,0:0:0:0:
295,323,58318,2,0,P|341:333|477:356,1,170.999995433807,6|10,1:2|0:3,0:0:0:0:
506,317,59151,1,2,0:0:0:0:
456,116,60193,6,0,B|472:73|472:73|445:23,1,94.499997116089,4|2,1:0|0:0,0:0:0:0:
372,77,60818,2,0,P|331:87|263:26,1,125.999996154785,2|6,0:0|0:3,0:0:0:0:
209,25,61443,1,4,0:0:0:0:
209,25,61651,2,0,P|144:37|80:46,1,125.999996154785,10|2,0:3|0:0,0:0:0:0:
24,49,62276,1,6,0:3:0:0:
65,161,62693,1,10,1:2:0:0:
274,277,63526,6,0,B|294:323|294:323|288:375,1,94.499997116089,4|2,1:0|0:0,0:0:0:0:
198,330,64151,2,0,P|164:289|143:219,1,125.999996154785,2|6,0:0|0:3,0:0:0:0:
185,177,64776,1,4,0:0:0:0:
185,177,64984,2,0,L|311:147,1,125.999996154785,10|2,0:3|0:0,0:0:0:0:
426,118,65818,1,2,0:0:0:0:
426,118,66026,2,0,P|432:80|444:59,1,62.9999980773926,10|6,1:2|3:0,0:0:0:0:
495,94,66443,2,0,P|489:132|477:153,1,62.9999980773926,2|2,3:0|3:0,3:0:0:0:
493,211,66859,6,0,B|444:211|444:211|411:249,1,94.499997116089,4|2,1:0|0:0,0:0:0:0:
424,342,67484,2,0,P|367:330|289:331,1,125.999996154785,2|6,0:0|0:3,0:0:0:0:
247,359,68109,1,4,0:0:0:0:
247,359,68317,2,0,P|280:302|267:234,1,125.999996154785,10|2,0:3|0:0,0:0:0:0:
220,208,68943,1,6,0:3:0:0:
497,30,69776,6,2,B|466:1|434:60|447:69|381:131|329:77,1,188.999994232178,2|0,3:0|0:0,0:3:0:0:
311,39,70610,1,2,0:0:0:0:
311,39,70818,2,0,P|309:92|292:179,2,125.999996154785,2|6|8,0:0|3:0|0:3,0:0:0:0:
54,44,72693,6,2,P|24:69|100:115,1,161.999995056153,2|2,0:0|0:0,0:3:0:0:
126,76,73526,6,2,B|152:84|184:86|184:86|162:195|81:157|51:266,1,287.999991210938,4|14,1:0|1:2,0:3:0:0:
68,317,74568,1,2,0:0:0:0:
182,359,74984,1,14,1:3:0:0:
182,359,75193,2,0,P|218:331|218:295,1,66.0000020141602,2|2,0:0|0:0,0:0:0:0:
280,313,75609,2,0,P|275:274|265:240,1,66.0000020141602,6|0,1:3|0:0,0:0:0:0:
323,227,76026,2,0,P|296:180|209:124,1,132.00000402832,10|2,1:2|3:0,0:0:0:0:
321,33,76859,6,2,B|317:53|329:73|329:73|402:83|406:16|477:14,1,198.000006042481,4|6,1:0|3:0,0:3:0:0:
498,71,77693,1,14,1:2:0:0:
498,71,77901,2,0,P|486:137|480:221,1,132.00000402832,0|6,1:0|3:0,0:0:0:0:
497,258,78526,1,4,0:0:0:0:
435,359,78943,1,4,3:0:0:0:
324,316,79359,1,14,1:2:0:0:
266,332,79568,1,6,3:0:0:0:
209,350,79776,1,14,1:3:0:0:
178,221,80193,6,2,B|164:194|160:176|160:176|94:167|107:231|22:222,1,198.000006042481,4|6,1:0|3:0,0:3:0:0:
11,169,81026,1,12,1:2:0:0:
11,169,81234,1,6,3:0:0:0:
83,74,81651,2,0,P|136:69|213:31,1,132.00000402832,12|2,3:0|0:0,0:0:0:0:
222,93,82276,2,2,P|265:91|295:101,1,66.0000020141602,14|2,3:0|3:0,0:3:0:0:
322,144,82693,1,10,1:2:0:0:
404,59,83109,2,0,P|447:61|477:51,1,66.0000020141602,4|2,0:0|0:0,0:0:0:0:
489,110,83526,6,2,B|462:124|444:128|444:128|435:194|499:181|490:266,1,198.000006042481,4|6,1:0|3:0,0:3:0:0:
501,321,84359,1,14,1:2:0:0:
505,325,84568,2,0,P|469:337|434:352,1,66.0000020141602,6|6,1:3|0:0,0:0:0:0:
392,379,84984,1,6,3:0:0:0:
296,318,85401,1,4,0:3:0:0:
296,318,85609,1,4,3:0:0:0:
319,187,86026,2,0,P|301:150|293:119,1,66.0000020141602,10|8,1:2|0:3,0:0:0:0:
290,77,86443,1,8,0:3:0:0:
146,15,86859,6,2,B|170:34|204:39|204:39|206:91|131:112|132:85|65:91|27:152,1,287.999991210938,4|14,1:0|1:2,0:3:0:0:
14,208,87901,1,2,0:0:0:0:
17,330,88317,1,6,1:2:0:0:
16,331,88526,2,0,P|45:344|76:335,1,66.0000020141602,2|2,0:0|0:0,0:0:0:0:
133,353,88942,2,0,P|138:314|148:280,1,66.0000020141602,6|0,1:3|0:0,0:0:0:0:
141,228,89359,2,0,P|194:189|228:134,1,132.00000402832,10|0,1:2|0:0,0:0:0:0:
308,45,90192,6,2,B|302:68|316:85|316:85|368:93|400:22|463:28,1,198.000006042481,4|6,1:0|3:0,0:3:0:0:
503,72,91026,1,14,1:2:0:0:
503,72,91234,2,0,P|515:138|464:185,1,132.00000402832,0|6,1:0|3:0,0:0:0:0:
414,189,91859,1,4,0:0:0:0:
300,225,92276,1,4,3:0:0:0:
322,341,92692,1,14,1:2:0:0:
381,345,92901,1,6,3:0:0:0:
428,381,93109,1,14,1:3:0:0:
494,266,93526,6,2,B|505:240|495:217|495:217|437:183|424:247|350:205,1,198.000006042481,4|6,1:0|3:0,0:3:0:0:
306,180,94359,1,12,1:2:0:0:
306,180,94567,1,6,3:0:0:0:
258,288,94984,2,0,P|205:293|128:331,1,132.00000402832,12|2,3:0|0:0,0:0:0:0:
84,358,95609,2,2,P|71:316|51:292,1,66.0000020141602,14|2,3:0|3:0,0:3:0:0:
7,267,96026,1,10,1:2:0:0:
80,173,96443,2,0,P|67:131|47:107,1,66.0000020141602,4|2,0:0|0:0,0:0:0:0:
61,54,96859,6,2,B|80:77|88:93|88:93|154:87|127:28|212:17,1,198.000006042481,4|6,1:0|3:0,0:3:0:0:
249,70,97692,1,14,1:2:0:0:
249,70,97901,2,0,P|232:103|225:144,1,66.0000020141602,6|6,1:3|0:0,0:0:0:0:
250,185,98317,1,6,3:0:0:0:
353,253,98734,1,4,0:3:0:0:
353,253,98942,1,4,3:0:0:0:
439,171,99359,2,0,P|441:123|427:36,1,132.00000402832,10|12,1:2|3:0,0:0:0:0:
321,67,100193,6,0,B|278:79|249:53|260:33|229:-2|180:18,1,161.999995056152,4|2,1:0|0:0,0:0:0:0:
195,50,113526,6,0,P|245:54|323:50,1,120,4|2,1:0|0:3,0:0:0:0:
367,21,114151,1,2,0:0:0:0:
367,21,114359,2,0,P|418:31|428:114,1,120,8|2,0:0|0:0,0:0:0:0:
416,145,114984,2,0,P|379:145|343:147,1,60,4|2,0:0|0:0,0:0:0:0:
253,84,115609,1,6,0:3:0:0:
174,174,116026,1,8,0:0:0:0:
278,233,116443,1,2,0:3:0:0:
208,330,116859,6,0,P|163:343|94:377,1,120,4|2,1:0|0:0,0:0:0:0:
42,350,117484,2,0,P|10:321|43:248,2,120,2|8|4,0:0|0:3|1:0,0:0:0:0:
218,313,118943,2,0,P|265:314|295:316,1,60,8|0,0:3|0:0,0:0:0:0:
323,353,119359,1,8,0:0:0:0:
441,370,119776,1,2,0:3:0:0:
480,256,120193,6,0,B|464:192|432:205|424:146,1,120,4|2,1:0|0:3,0:0:0:0:
472,114,120818,1,2,0:0:0:0:
472,114,121026,2,0,P|475:56|429:23,1,120,8|2,0:0|0:0,0:0:0:0:
377,54,121651,2,0,P|340:54|304:56,1,60,4|2,0:0|0:0,0:0:0:0:
266,163,122276,1,6,0:3:0:0:
155,138,122693,1,8,0:0:0:0:
80,207,123110,1,2,0:3:0:0:
256,192,123526,12,2,125609,0:3:0:0:
253,167,126443,6,0,L|264:246,1,60,2|2,0:1|0:0,0:0:0:0:
310,257,126859,6,2,B|341:206|267:149|191:220|196:279|219:262|219:330|137:374|89:349,1,311.999985717774,4|14,1:0|1:2,0:3:0:0:
58,350,127901,1,2,0:0:0:0:
9,237,128317,1,14,1:3:0:0:
9,237,128526,2,0,P|45:209|45:169,1,71.9999978027344,2|2,0:0|0:0,0:0:0:0:
36,125,128942,2,0,P|72:130|109:110,1,71.9999978027344,6|0,1:3|0:0,0:0:0:0:
115,55,129359,2,0,P|156:87|251:98,1,143.999995605469,10|2,1:2|3:0,0:0:0:0:
371,36,130192,6,2,B|351:32|331:44|331:44|321:117|413:135|429:186,1,215.999993408203,4|6,1:0|3:0,0:3:0:0:
492,187,131026,1,14,1:2:0:0:
492,187,131234,2,0,P|480:253|474:346,1,143.999995605469,0|6,1:0|3:0,0:0:0:0:
420,359,131859,1,4,0:0:0:0:
338,267,132276,1,4,3:0:0:0:
241,341,132692,1,14,1:2:0:0:
180,351,132901,1,6,3:0:0:0:
122,370,133109,1,14,1:3:0:0:
7,284,133526,6,2,B|26:307|47:284|47:284|72:232|44:184|37:191|2:166|17:124,1,215.999993408203,4|6,1:0|3:0,0:3:0:0:
44,75,134359,1,12,1:2:0:0:
44,75,134567,1,6,3:0:0:0:
160,111,134984,2,0,P|213:106|294:57,1,143.999995605469,12|2,3:0|0:0,0:0:0:0:
351,69,135609,2,2,P|353:112|339:142,1,71.9999978027344,14|2,3:0|3:0,0:3:0:0:
294,177,136026,1,10,1:2:0:0:
232,283,136443,2,0,P|230:326|244:356,1,71.9999978027344,4|2,0:0|0:0,0:0:0:0:
297,375,136859,6,2,B|311:348|315:330|315:330|376:313|394:390|477:373,1,215.999993408203,4|6,1:0|3:0,0:3:0:0:
509,327,137692,1,14,1:2:0:0:
509,327,137901,2,0,P|511:284|497:254,1,71.9999978027344,6|6,1:3|0:0,0:0:0:0:
448,225,138317,1,6,3:0:0:0:
331,249,138734,1,4,0:3:0:0:
331,249,138942,1,4,3:0:0:0:
264,146,139359,2,0,P|258:103|238:70,1,71.9999978027344,10|8,1:2|0:3,0:0:0:0:
199,37,139776,1,8,0:3:0:0:
65,111,140193,6,2,B|14:80|-43:154|28:230|87:225|70:202|138:202|182:284|157:332,1,311.999985717774,4|14,1:0|1:2,0:3:0:0:
138,358,141234,1,0,0:0:0:0:
19,352,141650,1,6,1:2:0:0:
18,353,141859,2,0,P|5:324|20:286,1,71.9999978027344,2|2,0:0|0:0,0:0:0:0:
74,265,142275,2,0,P|76:231|47:206,1,71.9999978027344,6|0,1:3|0:0,0:0:0:0:
2,167,142692,2,0,P|55:128|91:58,1,143.999995605469,10|2,1:2|0:0,0:0:0:0:
230,19,143525,6,2,B|239:32|238:59|238:59|292:65|353:-10|402:5,1,215.999993408203,4|6,1:0|3:0,0:3:0:0:
428,58,144359,1,14,1:2:0:0:
428,58,144568,2,0,P|374:63|315:147,1,143.999995605469,0|6,1:0|3:0,0:0:0:0:
330,187,145192,1,4,0:0:0:0:
443,232,145609,1,4,3:0:0:0:
395,344,146025,1,14,1:2:0:0:
333,341,146234,1,6,3:0:0:0:
284,303,146442,1,14,1:3:0:0:
150,363,146859,6,2,B|145:339|151:314|151:314|110:286|35:337|-11:303,1,215.999993408203,4|6,1:0|3:0,0:3:0:0:
4,246,147692,1,12,1:2:0:0:
4,246,147900,1,6,3:0:0:0:
115,196,148317,2,0,P|106:130|65:60,1,143.999995605469,12|2,3:0|0:0,0:0:0:0:
103,13,148942,2,2,P|145:26|172:51,1,71.9999978027344,14|2,3:0|3:0,0:3:0:0:
199,94,149359,1,10,1:2:0:0:
320,82,149776,2,2,P|340:43|343:10,1,71.9999978027344,4|0,0:0|0:0,0:3:0:0:
395,46,150193,6,2,B|424:43|443:34|443:34|477:65|437:168|473:198,1,215.999993408203,4|6,1:0|3:0,0:3:0:0:
507,248,151025,1,14,1:2:0:0:
507,248,151234,2,0,P|490:281|483:322,1,71.9999978027344,6|6,1:3|0:0,0:0:0:0:
499,373,151650,1,6,3:0:0:0:
385,343,152067,1,4,0:3:0:0:
385,343,152275,1,4,3:0:0:0:
268,303,152693,1,6,1:0:0:0:
206,281,152901,1,14,1:3:0:0:
144,261,153109,1,14,3:0:0:0:
8,225,153526,6,2,B|120:142|217:234|205:309|294:381|425:338,1,467.999978576661,4|0,1:0|0:0,0:0:0:0:
466,317,154984,1,4,1:0:0:0:
494,212,155401,2,0,P|500:172|504:150,2,53.9999983520508,0|6|0,0:0|0:3|0:0,0:0:0:0:
445,236,156026,1,8,0:0:0:0:
398,138,156443,1,4,0:0:0:0:
340,47,156859,6,0,B|303:22|259:37|265:60|223:75|186:47,1,161.999995056153,4|2,1:0|0:0,0:0:0:0:
88,4,157901,1,6,3:0:0:0:
22,89,158318,2,0,P|23:140|72:167,1,107.999996704102,4|2,0:0|0:0,0:0:0:0:
120,153,158943,1,4,0:3:0:0:
120,260,159359,6,0,P|147:271|181:278,1,53.9999983520508,14|6,0:0|0:3,0:0:0:0:
173,329,159776,2,0,P|202:330|233:328,1,53.9999983520508,2|2,0:0|0:3,0:0:0:0:
254,374,160193,2,2,P|371:360|470:340,1,215.999993408203,4|8,1:0|0:0,0:3:0:0:
416,245,161443,2,0,P|377:255|362:256,1,53.9999983520508,2|4,0:0|0:0,0:0:0:0:
312,239,161859,1,2,0:0:0:0:
312,239,162068,2,0,P|290:198|285:129,1,107.999996704102,2|0,0:0|0:0,0:0:0:0:
299,85,162693,2,0,P|322:44|384:9,1,107.999996704102,8|2,0:0|0:0,0:0:0:0:
432,102,163526,6,0,P|321:129|165:53,1,269.999991760254,4|4,0:1|0:3,0:0:0:0:
84,23,164984,2,0,P|58:55|67:141,1,107.999996704102,4|0,0:0|0:0,0:0:0:0:
85,164,165609,2,0,P|116:168|147:176,2,53.9999983520508,8|2|8,0:3|0:0|0:0,0:0:0:0:
79,272,166443,2,0,P|119:313|162:363,1,107.999996704102,2|4,0:0|0:0,0:0:0:0:
