osu file format v14

[General]
AudioFilename: audio.mp3
AudioLeadIn: 0
PreviewTime: 110110
Countdown: 0
SampleSet: Soft
StackLeniency: 0.4
Mode: 0
LetterboxInBreaks: 0
WidescreenStoryboard: 1

[Editor]
DistanceSpacing: 1.2
BeatDivisor: 4
GridSize: 16
TimelineZoom: 1

[Metadata]
Title:Santa Tell Me (Cut Ver.)
TitleUnicode:Santa Tell Me (Cut Ver.)
Artist:Ariana Grande
ArtistUnicode:Ariana Grande
Creator:Log Off Now
Version:Normal
Source:
Tags:english pop christmas kisses sekai sekaii sekai-nyan -_nilou_-
BeatmapID:4408853
BeatmapSetID:2101575

[Difficulty]
HPDrainRate:4
CircleSize:3
OverallDifficulty:4
ApproachRate:4.5
SliderMultiplier:1.5
SliderTickRate:1

[Events]
//Background and Video events
0,0,"66409664_p0.jpg",0,0
//Break Periods
2,80467,96507
//Storyboard Layer 0 (Background)
//Storyboard Layer 1 (Fail)
//Storyboard Layer 2 (Pass)
//Storyboard Layer 3 (Foreground)
//Storyboard Layer 4 (Overlay)
//Storyboard Sound Samples

[TimingPoints]
10267,625,4,2,2,60,1,0
10267,-100,4,2,2,60,0,0
12142,-100,4,2,4,60,0,0
13392,-100,4,2,2,60,0,0
14642,-100,4,2,4,60,0,0
15892,-100,4,2,2,60,0,0
17142,-100,4,2,4,60,0,0
18392,-100,4,2,2,60,0,0
19642,-100,4,2,4,60,0,0
20892,-100,4,2,2,60,0,0
22142,-100,4,2,4,60,0,0
23392,-100,4,2,2,60,0,0
24642,-100,4,2,4,60,0,0
25892,-100,4,2,2,60,0,0
27142,-100,4,2,4,60,0,0
28392,-100,4,2,2,60,0,0
29642,-100,4,2,4,60,0,0
30267,-100,4,2,5,75,0,0
30892,-100,4,2,1,75,0,0
40267,-100,4,2,5,75,0,0
40892,-100,4,2,1,75,0,0
50267,-100,4,2,5,75,0,0
50892,-100,4,2,1,75,0,0
60267,-100,4,2,5,60,0,0
60892,-100,4,2,2,60,0,0
62142,-100,4,2,4,60,0,0
63392,-100,4,2,2,60,0,0
64173,-100,4,2,2,30,0,0
64329,-100,4,2,2,60,0,0
64642,-100,4,2,4,60,0,0
65892,-100,4,2,2,60,0,0
67142,-100,4,2,4,60,0,0
68392,-100,4,2,2,60,0,0
69642,-100,4,2,4,60,0,0
70892,-100,4,2,2,60,0,0
72142,-100,4,2,4,60,0,0
73392,-100,4,2,2,60,0,0
74173,-100,4,2,2,30,0,0
74329,-100,4,2,2,60,0,0
74642,-100,4,2,4,60,0,0
75892,-100,4,2,2,60,0,0
77142,-100,4,2,4,60,0,0
78392,-100,4,2,2,60,0,0
79642,-100,4,2,4,60,0,0
80267,-100,4,2,5,60,0,0
100267,-90.9090909090909,4,2,5,90,0,1
100423,-90.9090909090909,4,2,1,90,0,0
110267,-90.9090909090909,4,2,5,90,0,1
110892,-90.9090909090909,4,2,1,90,0,1
120267,-90.9090909090909,4,2,5,90,0,1
120892,-90.9090909090909,4,2,1,90,0,1
130267,-100,4,2,5,75,0,0
130892,-100,4,2,3,75,0,0
147767,-100,4,2,3,60,0,0
148079,-100,4,2,3,35,0,0
150267,-100,4,2,3,35,0,0

[Colours]
Combo1 : 207,207,207
Combo2 : 255,91,91

[HitObjects]
54,212,10892,6,0,L|141:238,1,75,10|0,0:0|0:0,0:0:0:0:
169,318,11517,1,2,0:0:0:0:
169,318,11829,1,0,0:0:0:0:
272,230,12454,1,0,0:0:0:0:
272,230,12767,2,0,L|297:143,2,75,2|0|10,0:0|0:0|0:0,0:0:0:0:
328,300,13704,2,0,L|480:256,1,150
498,83,14954,5,0,0:0:0:0:
498,83,15267,2,0,L|415:107,1,75,2|0,0:0|0:0,0:0:0:0:
366,171,15892,2,0,L|283:147,1,75,10|0,0:0|0:0,0:0:0:0:
209,118,16517,2,0,L|185:35,2,75,2|0|10,0:0|0:0|0:0,0:0:0:0:
139,247,17767,6,0,L|115:330,2,75,2|0|10,0:0|0:0|0:0,0:0:0:0:
87,173,18704,1,0,0:0:0:0:
220,51,19329,1,0,0:0:0:0:
312,205,19954,1,0,0:0:0:0:
234,159,20267,1,2,0:0:0:0:
84,259,20892,6,0,L|104:331,1,75,10|0,0:0|0:0,0:0:0:0:
186,381,21517,1,2,0:0:0:0:
186,381,21829,1,0,0:0:0:0:
338,283,22454,1,0,0:0:0:0:
338,283,22767,2,0,L|421:307,2,75,2|0|10,0:0|0:0|0:0,0:0:0:0:
285,209,23704,2,0,L|140:250,1,150
75,88,24954,5,0,0:0:0:0:
75,88,25267,2,0,L|158:112,1,75,2|0,0:0|0:0,0:0:0:0:
213,169,25892,2,0,L|296:145,1,75,10|0,0:0|0:0,0:0:0:0:
371,122,26517,2,0,L|395:39,2,75,2|0|10,0:0|0:0|0:0,0:0:0:0:
439,288,27767,6,0,L|522:312,2,75,2|0|10,0:0|0:0|0:0,0:0:0:0:
351,265,28704,1,0,0:0:0:0:
206,372,29329,1,0,0:0:0:0:
103,224,29954,1,0,0:0:0:0:
172,166,30267,6,0,L|316:207,1,150,6|8,3:2|0:2,0:2:0:0:
392,160,31204,2,0,L|409:104,1,37.5,2|2,3:2|3:2,0:0:0:0:
416,80,31517,2,0,P|380:40|310:40,1,112.5,2|0,0:0|0:2,0:0:0:0:
289,63,32142,2,0,P|246:96|177:83,1,112.5,10|2,0:2|3:2,0:2:0:0:
157,61,32767,1,2,3:2:0:0:
89,227,33392,1,8,0:2:0:0:
158,283,33704,6,0,L|214:266,1,37.5,2|2,3:2|3:2,0:0:0:0:
230,245,34017,2,0,L|348:280,1,112.5,2|0,0:2|0:2,0:0:0:0:
387,291,34642,2,0,P|361:243|385:177,1,112.5,10|2,0:2|3:2,0:0:0:0:
412,162,35267,2,0,L|507:190,2,75,6|0|8,3:2|0:2|0:2,0:2:0:0:
361,87,36204,6,0,L|325:97,1,37.5,2|2,3:2|3:2,0:0:0:0:
290,127,36517,2,0,L|182:94,1,112.5,2|0,0:2|0:2,0:0:0:0:
138,81,37142,2,0,P|91:111|77:144,1,75,10|0,0:2|0:2,0:2:0:0:
110,212,37767,6,0,L|137:300,1,75,2|2,3:2|0:2,0:2:0:0:
146,326,38235,2,0,L|234:298,1,75,2|2,0:2|0:2,0:2:0:0:
272,232,38860,1,2,3:2:0:0:
228,152,39173,1,2,3:2:0:0:
297,94,39485,1,2,0:2:0:0:
372,142,39798,2,0,L|463:162,1,75,2|2,3:2|3:2,0:2:0:0:
489,167,40267,6,0,P|514:238|478:321,1,150,6|8,3:2|0:2,0:2:0:0:
414,353,41204,2,0,L|350:340,1,37.5,2|2,3:2|3:2,0:0:0:0:
340,318,41517,2,0,L|222:341,1,112.5,2|0,0:0|0:2,0:0:0:0:
186,354,42142,2,0,P|153:311|166:242,1,112.5,10|2,0:2|3:2,0:2:0:0:
191,225,42767,1,2,3:2:0:0:
89,76,43392,1,8,0:2:0:0:
160,21,43704,6,0,L|216:38,1,37.5,2|2,3:2|3:2,0:0:0:0:
214,73,44017,2,0,P|270:87|332:38,1,112.5,2|0,0:2|0:2,0:0:0:0:
349,31,44642,2,0,P|389:67|389:137,1,112.5,10|2,0:2|3:2,0:0:0:0:
408,165,45267,2,0,L|503:193,2,75,6|0|8,3:2|0:2|0:2,0:2:0:0:
340,224,46204,6,0,L|304:234,1,37.5,2|2,3:2|3:2,0:0:0:0:
262,251,46517,2,0,L|229:143,1,112.5,2|0,0:2|0:2,0:0:0:0:
213,100,47142,2,0,P|173:71|130:74,1,75,10|0,0:2|0:2,0:2:0:0:
88,136,47767,6,0,L|115:224,1,75,2|2,3:2|0:2,0:2:0:0:
150,226,48235,2,0,L|127:297,1,75,2|2,0:2|0:2,0:2:0:0:
182,368,48860,1,2,3:2:0:0:
257,317,49173,1,2,3:2:0:0:
329,369,49485,1,2,0:2:0:0:
405,320,49798,2,0,L|385:229,1,75,2|2,3:2|3:2,0:2:0:0:
377,203,50267,6,0,P|327:173|282:178,1,75,6|0,3:2|0:0,0:2:0:0:
242,229,50892,2,0,P|194:243|111:163,1,150,10|0,0:2|0:2,0:2:0:0:
176,122,51829,2,0,B|211:80|211:80|190:-2,2,112.5,2|2|2,3:2|0:2|3:2,0:2:0:0:
89,97,53079,1,0,0:0:0:0:
24,159,53392,6,0,B|-7:227|-7:227|27:324,1,150,10|0,0:2|0:2,0:2:0:0:
107,308,54329,2,0,P|145:258|129:180,2,112.5,2|2|6,3:2|3:2|3:2,0:2:0:0:
164,377,55579,1,0,0:0:0:0:
236,323,55892,6,0,B|306:294|306:360|403:314,1,150,10|0,0:2|0:2,0:2:0:0:
441,255,56829,2,0,B|467:191|420:155|420:155|352:175,1,150,2|0,3:2|0:0,0:2:0:0:
315,226,57767,2,0,L|230:205,1,75,2|0,3:2|0:2,0:2:0:0:
183,139,58392,2,0,B|123:153|123:153|98:176|98:176|68:183,2,112.5,8|0|0,0:2|3:2|3:2,0:0:0:0:
249,78,59642,2,0,L|300:90,1,37.5,8|8,0:3|0:3,0:0:0:0:
315,120,59954,2,0,L|366:107,1,37.5,8|8,0:3|0:3,0:0:0:0:
393,94,60267,1,6,3:2:0:0:
305,251,60892,6,0,L|233:229,1,75,10|0,0:0|0:0,0:0:0:0:
190,156,61517,1,2,0:0:0:0:
190,156,61829,1,0,3:2:0:0:
90,246,62298,1,0,3:0:0:0:
20,130,62767,6,0,L|0:57,2,75,2|0|10,3:2|0:0|0:0,0:0:0:0:
108,148,63704,2,0,P|149:93|251:100,1,150,0|0,0:0|3:2,0:0:0:0:
289,204,64798,1,0,3:0:0:0:
420,173,65267,6,0,L|441:89,1,75,2|0,3:2|0:0,0:0:0:0:
384,28,65892,2,0,L|311:48,1,75,10|0,0:0|0:0,0:0:0:0:
225,75,66517,2,0,L|201:-8,2,75,2|0|10,0:0|3:2|0:0,0:0:0:0:
287,139,67454,1,0,0:0:0:0:
228,207,67767,6,0,L|145:231,2,75,2|0|10,3:2|0:0|0:0,0:0:0:0:
294,267,68704,1,0,0:0:0:0:
424,143,69329,5,0,3:2:0:0:
496,256,69798,1,0,3:2:0:0:
425,371,70267,1,2,3:2:0:0:
249,330,70892,6,0,L|229:258,1,75,10|0,0:0|0:0,0:0:0:0:
159,210,71517,1,2,0:0:0:0:
159,210,71829,1,0,3:2:0:0:
242,103,72298,1,0,3:2:0:0:
112,64,72767,6,0,L|29:40,2,75,2|0|10,3:2|0:0|0:0,0:0:0:0:
154,143,73704,2,0,P|160:222|96:273,1,150,0|0,0:0|3:2,0:0:0:0:
202,369,74798,1,0,3:2:0:0:
327,318,75267,6,0,L|306:245,1,75,2|0,3:2|0:0,0:0:0:0:
234,190,75892,2,0,L|254:117,1,75,10|0,0:0|0:0,0:0:0:0:
333,74,76517,2,0,L|312:1,2,75,2|0|10,0:0|3:2|0:0,0:0:0:0:
382,148,77454,1,0,0:0:0:0:
429,224,77767,6,0,L|501:244,2,75,2|0|10,3:2|0:0|0:0,0:0:0:0:
354,274,78704,1,0,0:0:0:0:
223,150,79329,5,0,3:2:0:0:
121,239,79798,1,0,3:2:0:0:
52,122,80267,1,6,3:2:0:0:
256,192,97767,12,0,99642,0:0:0:0:
274,91,100267,5,6,3:2:0:0:
347,156,100579,2,0,L|487:127,2,123.75000377655,2|2|2,0:2|0:2|0:2,0:2:0:0:
282,230,101829,1,2,3:2:0:0:
210,160,102142,2,0,P|158:179|130:212,1,82.5000025177003,10|0,0:2|0:2,0:2:0:0:
137,248,102610,1,0,3:2:0:0:
137,248,102767,5,2,3:2:0:0:
138,346,103079,2,0,L|-2:317,2,123.75000377655,2|2|2,0:2|0:2|0:2,0:2:0:0:
217,287,104329,6,0,L|208:235,2,41.2500012588501,2|2|10,3:2|0:0|0:2,0:0:0:0:
301,339,104954,2,0,P|340:348|377:330,1,82.5000025177003,2|4,0:0|3:2,0:0:0:0:
442,256,105579,2,0,L|481:267,2,41.2500012588501,2|2|10,0:0|0:2|0:2,0:0:0:0:
377,188,106204,1,2,3:2:0:0:
377,188,106360,2,0,L|338:52,1,123.75000377655,2|0,3:2|3:0,0:0:0:0:
243,69,107142,2,0,L|272:172,1,82.5000025177003,10|0,0:2|0:0,0:0:0:0:
287,244,107767,5,2,3:2:0:0:
216,312,108079,2,0,L|94:286,2,123.75000377655,2|2|2,0:2|0:2|0:2,0:2:0:0:
290,377,109329,1,2,3:2:0:0:
369,317,109642,2,0,L|350:252,1,41.2500012588501,10|8,0:0|0:0,0:0:0:0:
316,249,109954,2,0,L|335:184,1,41.2500012588501,10|8,0:0|0:0,0:0:0:0:
363,174,110267,2,0,L|335:78,1,82.5000025177003,6|0,3:2|0:0,0:2:0:0:
405,20,110892,5,10,0:0:0:0:
486,77,111204,1,2,3:2:0:0:
454,170,111517,1,2,0:0:0:0:
507,253,111829,2,0,L|411:280,1,82.5000025177003,2|10,3:2|0:2,0:0:0:0:
367,354,112454,5,2,0:0:0:0:
287,294,112767,1,2,3:2:0:0:
323,202,113079,1,2,0:2:0:0:
257,127,113392,1,10,0:2:0:0:
183,193,113704,6,0,P|127:210|67:110,1,165.000005035401,2|2,3:2|3:2,0:0:0:0:
105,51,114642,1,10,0:2:0:0:
105,51,114798,2,0,L|197:76,1,82.5000025177003,0|0,3:2|3:2,0:2:0:0:
221,106,115267,6,0,L|313:81,1,82.5000025177003,2|2,3:2|0:0,0:0:0:0:
370,14,115892,2,0,L|462:39,1,82.5000025177003,10|2,0:2|3:2,0:0:0:0:
500,120,116517,1,2,0:0:0:0:
434,193,116829,1,2,3:2:0:0:
351,138,117142,2,0,P|298:115|247:124,1,82.5000025177003,10|2,0:2|0:0,0:0:0:0:
202,183,117767,6,0,L|122:161,2,82.5000025177003,2|2|10,3:2|0:2|0:2,0:2:0:0:
282,240,118704,2,0,P|311:286|288:353,1,123.75000377655,2|0,3:2|3:2,0:0:0:0:
254,381,119329,1,2,3:2:0:0:
179,315,119642,1,10,0:0:0:0:
179,315,119798,2,0,L|99:336,1,82.5000025177003,0|0,3:2|3:2,0:0:0:0:
51,349,120267,2,0,P|14:302|24:264,1,82.5000025177003,6|0,3:2|0:0,0:2:0:0:
63,196,120892,5,10,0:0:0:0:
153,234,121204,1,2,3:2:0:0:
233,176,121517,1,2,0:0:0:0:
285,259,121829,2,0,L|364:280,1,82.5000025177003,2|10,3:2|0:2,0:0:0:0:
443,220,122454,5,2,0:0:0:0:
387,138,122767,1,2,3:2:0:0:
448,60,123079,1,2,0:2:0:0:
367,2,123392,1,10,0:2:0:0:
289,63,123704,6,0,B|209:30|209:104|99:52,1,165.000005035401,2|2,3:2|3:2,0:0:0:0:
34,53,124642,1,10,0:2:0:0:
34,53,124798,2,0,L|59:145,1,82.5000025177003,0|0,3:2|3:2,0:2:0:0:
70,179,125267,6,0,P|124:185|159:216,1,82.5000025177003,2|2,3:2|0:0,0:0:0:0:
205,280,125892,2,0,P|257:264|286:228,1,82.5000025177003,10|2,0:2|3:2,0:0:0:0:
345,174,126517,1,2,0:0:0:0:
426,229,126829,1,2,3:2:0:0:
394,323,127142,2,0,L|302:348,1,82.5000025177003,10|2,0:2|0:0,0:0:0:0:
242,276,127767,6,0,L|162:254,2,82.5000025177003,2|2|10,3:2|0:2|0:2,0:2:0:0:
318,213,128704,2,0,P|337:156|307:104,1,123.75000377655,2|0,3:2|3:2,0:0:0:0:
268,73,129329,1,2,3:2:0:0:
193,138,129642,2,0,L|153:127,1,41.2500012588501,10|8,0:0|0:0,0:0:0:0:
120,89,129954,2,0,L|80:100,1,41.2500012588501,10|8,0:0|0:0,0:0:0:0:
38,117,130267,1,6,0:0:0:0:
100,285,130892,6,0,B|164:258|164:318|253:276,1,150,10|2,0:0|0:0,0:0:0:0:
356,138,132142,2,0,B|291:111|291:171|202:129,1,150,10|2,0:0|0:0,0:0:0:0:
53,56,133392,1,10,0:0:0:0:
53,56,133704,2,0,P|73:110|97:208,1,150,2|2,0:0|0:0,0:0:0:0:
51,278,134642,1,10,0:0:0:0:
229,297,135267,6,0,L|253:380,2,75,2|2|10,0:0|0:0|0:0,0:0:0:0:
185,122,136517,2,0,L|102:98,2,75,2|2|10,0:0|0:0|0:0,0:0:0:0:
359,166,137767,6,0,L|338:238,2,75,2|2|10,0:0|0:0|0:0,0:0:0:0:
385,80,138704,2,0,P|432:56|501:126,1,150,2|2,0:0|0:0,0:0:0:0:
471,196,139642,2,0,L|450:268,1,75,10|2,0:0|0:0,0:0:0:0:
422,353,140267,1,2,0:0:0:0:
262,273,140892,6,0,B|198:246|198:306|109:264,1,150,10|2,0:0|0:0,0:0:0:0:
6,126,142142,2,0,B|71:99|71:159|160:117,1,150,10|2,0:0|0:0,0:0:0:0:
309,44,143392,1,10,0:0:0:0:
309,44,143704,2,0,P|289:98|265:196,1,150,2|2,0:0|0:0,0:0:0:0:
311,266,144642,1,10,0:0:0:0:
430,131,145267,6,0,L|513:107,2,75,2|2|10,0:0|0:0|0:0,0:0:0:0:
254,172,146517,2,0,L|230:89,2,75,2|2|10,0:0|0:0|0:0,0:0:0:0:
279,258,147454,1,2,0:0:0:0:
303,344,147767,1,0,0:0:0:0:
256,192,148079,12,0,150267,0:0:0:0:
