osu file format v14

[General]
AudioFilename: audio.mp3
AudioLeadIn: 0
PreviewTime: 110110
Countdown: 0
SampleSet: Soft
StackLeniency: 0.6
Mode: 0
LetterboxInBreaks: 0
WidescreenStoryboard: 1

[Editor]
DistanceSpacing: 1
BeatDivisor: 4
GridSize: 4
TimelineZoom: 1

[Metadata]
Title:Santa Tell Me (Cut Ver.)
TitleUnicode:Santa Tell Me (Cut Ver.)
Artist:Ariana Grande
ArtistUnicode:Ariana Grande
Creator:Log Off Now
Version:Log Off Sekai's Hard
Source:
Tags:english pop christmas kisses sekai sekaii sekai-nyan -_nilou_-
BeatmapID:4408852
BeatmapSetID:2101575

[Difficulty]
HPDrainRate:4.5
CircleSize:3.6
OverallDifficulty:6
ApproachRate:7
SliderMultiplier:2
SliderTickRate:1

[Events]
//Background and Video events
0,0,"66409664_p0.jpg",0,0
//Break Periods
2,80467,98742
//Storyboard Layer 0 (Background)
//Storyboard Layer 1 (Fail)
//Storyboard Layer 2 (Pass)
//Storyboard Layer 3 (Foreground)
//Storyboard Layer 4 (Overlay)
//Storyboard Sound Samples

[TimingPoints]
10267,625,4,2,2,60,1,0
10267,-111.111111111111,4,2,2,60,0,0
12142,-111.111111111111,4,2,4,60,0,0
13392,-111.111111111111,4,2,2,60,0,0
14642,-111.111111111111,4,2,4,60,0,0
15892,-111.111111111111,4,2,2,60,0,0
17142,-111.111111111111,4,2,4,60,0,0
18392,-111.111111111111,4,2,2,60,0,0
19642,-111.111111111111,4,2,4,60,0,0
20892,-111.111111111111,4,2,2,60,0,0
22142,-111.111111111111,4,2,4,60,0,0
23392,-111.111111111111,4,2,2,60,0,0
24642,-111.111111111111,4,2,4,60,0,0
25892,-111.111111111111,4,2,2,60,0,0
27142,-111.111111111111,4,2,4,60,0,0
28392,-111.111111111111,4,2,2,60,0,0
29642,-111.111111111111,4,2,4,60,0,0
30267,-100,4,2,5,75,0,0
30892,-100,4,2,1,75,0,0
40267,-100,4,2,5,75,0,0
40892,-100,4,2,1,75,0,0
50267,-100,4,2,5,75,0,0
50892,-100,4,2,1,75,0,0
60267,-111.111111111111,4,2,5,60,0,0
60892,-111.111111111111,4,2,2,60,0,0
62142,-111.111111111111,4,2,4,60,0,0
63392,-111.111111111111,4,2,2,60,0,0
64173,-111.111111111111,4,2,2,30,0,0
64329,-111.111111111111,4,2,2,60,0,0
64642,-111.111111111111,4,2,4,60,0,0
65892,-111.111111111111,4,2,2,60,0,0
67142,-111.111111111111,4,2,4,60,0,0
68392,-111.111111111111,4,2,2,60,0,0
69642,-111.111111111111,4,2,4,60,0,0
70892,-111.111111111111,4,2,2,60,0,0
72142,-111.111111111111,4,2,4,60,0,0
73392,-111.111111111111,4,2,2,60,0,0
74173,-111.111111111111,4,2,2,30,0,0
74329,-111.111111111111,4,2,2,60,0,0
74642,-111.111111111111,4,2,4,60,0,0
75892,-111.111111111111,4,2,2,60,0,0
77142,-111.111111111111,4,2,4,60,0,0
78392,-111.111111111111,4,2,2,60,0,0
79642,-111.111111111111,4,2,4,60,0,0
80267,-125,4,2,5,60,0,0
100267,-90.9090909090909,4,2,5,90,0,1
100423,-90.9090909090909,4,2,1,90,0,0
110267,-90.9090909090909,4,2,5,90,0,1
110892,-90.9090909090909,4,2,1,90,0,1
120267,-90.9090909090909,4,2,5,90,0,1
120892,-90.9090909090909,4,2,1,90,0,1
130267,-111.111111111111,4,2,5,75,0,0
130892,-111.111111111111,4,2,3,75,0,0
147767,-125,4,2,3,60,0,0
148704,-125,4,2,3,60,0,0
149017,-125,4,2,3,35,0,0
149329,-125,4,2,3,60,0,0
149642,-125,4,2,3,35,0,0
149954,-125,4,2,3,60,0,0

[Colours]
Combo1 : 207,207,207
Combo2 : 255,91,91

[HitObjects]
240,109,10267,6,0,P|178:87|137:98,1,89.9999972534181,2|0,0:0|0:0,0:0:0:0:
80,144,10892,1,10,0:0:0:0:
80,144,11204,1,0,0:0:0:0:
120,224,11517,1,2,0:0:0:0:
208,208,11829,2,0,L|307:234,1,89.9999972534181,0|10,0:0|0:0,0:0:0:0:
368,288,12454,5,0,0:0:0:0:
428,224,12766,1,2,0:0:0:0:
376,148,13079,1,0,0:0:0:0:
440,84,13392,1,10,0:0:0:0:
372,24,13704,2,0,B|297:34|253:68|253:68|208:51|188:25,1,179.999994506836
128,88,14642,1,10,0:0:0:0:
128,88,14798,2,0,P|166:134|162:185,1,89.9999972534181
136,192,15267,6,0,L|41:164,2,89.9999972534181,2|0|10,0:0|0:0|0:0,0:0:0:0:
160,280,16204,1,0,0:0:0:0:
232,224,16517,2,0,L|323:251,1,89.9999972534181,2|0,0:0|0:0,0:0:0:0:
372,320,17142,2,0,L|467:292,1,89.9999972534181,10|0,0:0|0:0,0:0:0:0:
500,216,17767,5,2,0:0:0:0:
500,216,18079,1,0,0:0:0:0:
432,156,18392,1,10,0:0:0:0:
376,224,18704,2,0,L|280:250,1,89.9999972534181,0|2,0:0|0:0,0:0:0:0:
204,220,19329,2,0,P|164:160|178:117,1,89.9999972534181,0|10,0:0|0:0,0:0:0:0:
180,104,19798,2,0,L|240:121,1,44.999998626709
300,164,20267,1,2,0:0:0:0:
448,60,20892,5,10,0:0:0:0:
448,60,21204,1,0,0:0:0:0:
484,144,21517,1,2,0:0:0:0:
420,208,21829,2,0,L|324:182,1,89.9999972534181,0|10,0:0|0:0,0:0:0:0:
264,128,22454,5,0,0:0:0:0:
200,188,22766,1,2,0:0:0:0:
248,264,23079,1,0,0:0:0:0:
184,328,23392,1,10,0:0:0:0:
96,304,23704,2,0,P|49:234|90:132,1,179.999994506836
156,112,24642,1,10,0:0:0:0:
156,112,24798,2,0,P|171:163|187:212,1,89.9999972534181
220,224,25267,6,0,L|191:321,2,89.9999972534181,2|0|10,0:0|0:0|0:0,0:0:0:0:
288,168,26204,1,0,0:0:0:0:
248,88,26517,2,0,L|157:116,1,89.9999972534181,2|0,0:0|0:0,0:0:0:0:
96,52,27142,2,0,L|190:23,1,89.9999972534181,10|0,0:0|0:0,0:0:0:0:
256,76,27767,5,2,0:0:0:0:
256,76,28079,1,0,0:0:0:0:
332,28,28392,1,10,0:0:0:0:
400,84,28704,2,0,L|373:177,1,89.9999972534181,0|2,0:0|0:0,0:0:0:0:
344,256,29329,2,0,P|279:224|274:182,1,89.9999972534181,0|10,0:0|0:0,0:0:0:0:
264,168,29798,2,0,L|221:180,1,44.999998626709
140,120,30267,6,0,B|118:195|118:195|160:288,1,150,6|0,3:2|0:2,0:2:0:0:
172,303,30892,1,8,0:2:0:0:
257,354,31204,1,2,3:2:0:0:
257,354,31360,1,2,3:2:0:0:
257,354,31517,2,0,L|351:305,1,100,2|0,0:0|3:2,0:0:0:0:
437,267,32142,1,10,0:2:0:0:
368,194,32454,5,0,0:2:0:0:
368,194,32610,1,2,3:2:0:0:
368,194,32767,2,0,B|318:177|318:177|273:194,1,100,2|0,3:2|0:2,0:2:0:0:
196,129,33392,1,8,0:2:0:0:
256,50,33704,1,2,3:2:0:0:
256,50,33860,1,2,3:2:0:0:
256,50,34017,2,0,P|304:35|357:54,1,100,2|2,0:2|3:2,0:0:0:0:
447,25,34642,2,0,L|429:131,1,100,8|0,0:2|0:2,0:0:0:0:
458,219,35267,6,0,P|403:200|320:244,1,150,6|0,3:2|0:0,0:2:0:0:
316,287,35892,1,8,0:2:0:0:
218,266,36204,1,2,3:2:0:0:
218,266,36360,1,2,3:2:0:0:
218,266,36517,2,0,P|196:218|208:171,1,100,2|0,0:2|3:2,0:0:0:0:
112,137,37142,2,0,B|133:92|133:92|117:39,1,100,10|0,0:2|0:2,0:2:0:0:
199,0,37767,5,2,3:2:0:0:
256,81,38079,1,2,0:2:0:0:
256,81,38235,2,0,L|351:34,2,100,2|2|2,0:2|0:2|3:2,0:2:0:0:
332,145,39173,1,2,3:2:0:0:
332,145,39329,2,0,L|427:98,1,100,0|8,3:2|0:2,0:0:0:0:
503,157,39954,1,0,0:2:0:0:
476,253,40267,6,0,P|436:295|334:272,1,150,6|0,3:2|0:0,0:2:0:0:
319,248,40892,1,8,0:2:0:0:
244,314,41204,1,2,3:2:0:0:
244,314,41360,1,2,3:2:0:0:
244,314,41517,2,0,P|196:304|143:323,1,100,2|0,0:0|3:2,0:0:0:0:
53,288,42142,2,0,B|34:240|34:240|62:194,1,100,10|0,0:2|0:2,0:2:0:0:
59,98,42767,6,0,B|112:111|112:111|135:148|135:148|196:170,1,150,2|0,3:2|0:0,0:2:0:0:
233,178,43392,1,8,0:2:0:0:
285,93,43704,1,2,3:2:0:0:
285,93,43860,1,2,3:2:0:0:
285,93,44017,2,0,B|237:73|237:73|183:93,2,100,2|0|8,0:2|3:2|0:2,0:0:0:0:
375,135,44954,5,0,0:2:0:0:
375,135,45110,1,2,3:2:0:0:
375,135,45267,2,0,P|385:75|332:6,1,150,6|0,3:2|0:0,0:2:0:0:
284,0,45892,1,8,0:2:0:0:
285,93,46204,1,2,3:2:0:0:
285,93,46360,1,2,3:2:0:0:
285,93,46517,2,0,B|237:73|237:73|183:93,2,100,2|0|10,0:2|3:2|0:2,0:0:0:0:
375,136,47454,1,0,0:2:0:0:
302,205,47767,5,2,3:2:0:0:
382,263,48079,1,2,0:2:0:0:
382,263,48235,2,0,P|431:269|471:242,2,100,2|2|2,0:2|0:2|3:2,0:2:0:0:
320,341,49173,1,2,3:2:0:0:
320,341,49329,2,0,P|277:316|229:325,1,100,0|8,3:2|0:2,0:0:0:0:
137,366,49954,1,0,0:2:0:0:
72,289,50267,6,0,P|46:240|84:144,1,150,6|0,3:2|0:2,0:2:0:0:
104,115,50892,1,10,0:2:0:0:
202,101,51204,1,0,3:2:0:0:
202,101,51360,1,0,3:2:0:0:
202,101,51517,2,0,L|160:195,1,100,0|2,0:2|3:2,0:0:0:0:
218,262,52142,2,0,L|259:171,1,100,8|0,0:2|0:0,0:0:0:0:
357,150,52767,6,0,L|295:286,1,150,2|0,3:2|0:2,0:2:0:0:
276,333,53392,1,10,0:2:0:0:
373,312,53704,1,0,3:2:0:0:
373,312,53860,1,0,3:2:0:0:
373,312,54017,2,0,L|415:218,1,100,0|2,0:2|3:2,0:0:0:0:
357,150,54642,2,0,L|316:241,1,100,8|0,0:2|0:0,0:0:0:0:
226,195,55267,6,0,P|209:110|244:61,1,150,6|0,3:2|0:2,0:2:0:0:
277,35,55892,1,10,0:2:0:0:
179,14,56204,1,0,3:2:0:0:
179,14,56360,1,0,3:2:0:0:
179,14,56517,2,0,P|118:1|80:21,1,100,0|2,0:2|3:2,0:0:0:0:
28,98,57142,2,0,P|89:111|127:91,1,100,8|0,0:2|0:0,0:0:0:0:
179,14,57767,5,2,3:2:0:0:
277,35,58079,1,0,0:2:0:0:
277,35,58235,1,0,0:0:0:0:
277,35,58392,2,0,P|293:81|278:128,1,100,8|0,0:2|3:2,0:0:0:0:
200,190,59017,1,0,0:2:0:0:
279,249,59329,1,0,3:2:0:0:
279,249,59485,1,4,0:3:0:0:
279,249,59642,2,0,L|326:231,3,50,8|8|8|8,0:3|0:3|0:3|0:3,0:0:0:0:
368,217,60267,6,0,P|445:195|521:255,1,179.999994506836,6|10,3:2|0:0,0:0:0:0:
496,338,61204,1,0,0:0:0:0:
496,338,61517,1,2,0:0:0:0:
434,272,61829,1,0,3:2:0:0:
366,331,62142,2,0,L|299:262,1,89.9999972534181,10|0,0:0|0:0,0:0:0:0:
209,266,62767,6,0,L|146:331,1,89.9999972534181,2|0,3:2|0:0,0:0:0:0:
61,298,63392,1,10,0:0:0:0:
113,224,63704,2,0,L|215:119,1,134.999995880127
241,97,64329,1,0,3:2:0:0:
319,51,64642,1,10,0:0:0:0:
319,51,64798,2,0,P|365:40|418:67,1,89.9999972534181,0|0,3:0|0:0,0:0:0:0:
430,91,65267,6,0,P|421:140|439:183,1,89.9999972534181,2|0,3:2|0:0,0:0:0:0:
499,238,65892,2,0,L|415:280,1,89.9999972534181,10|0,0:0|0:0,0:0:0:0:
406,367,66517,2,0,L|325:326,1,89.9999972534181,2|0,0:0|3:2,0:0:0:0:
250,276,67142,2,0,L|330:235,1,89.9999972534181,10|0,0:0|0:0,0:0:0:0:
361,151,67767,5,2,3:2:0:0:
361,151,68079,1,0,0:0:0:0:
304,80,68392,1,10,0:0:0:0:
250,152,68704,2,0,P|162:175|94:126,1,179.999994506836,0|0,0:0|3:2,0:0:0:0:
17,174,69642,1,10,0:0:0:0:
17,174,69798,2,0,P|34:209|65:265,1,89.9999972534181,0|0,3:2|0:0,0:0:0:0:
78,294,70267,6,0,P|166:271|234:320,1,179.999994506836,2|10,3:2|0:0,0:0:0:0:
309,270,71204,1,0,0:0:0:0:
309,270,71517,1,2,0:0:0:0:
373,332,71829,1,0,3:2:0:0:
448,276,72142,2,0,P|463:227|442:186,1,89.9999972534181,10|0,0:0|0:0,0:0:0:0:
399,117,72767,6,0,L|423:23,1,89.9999972534181,2|0,3:2|0:0,0:0:0:0:
331,22,73392,2,0,L|308:109,1,89.9999972534181,10|0,0:0|0:0,0:0:0:0:
227,149,74017,2,0,L|204:61,1,89.9999972534181,0|0,0:0|3:2,0:0:0:0:
115,52,74642,1,10,0:0:0:0:
115,52,74798,2,0,P|61:47|17:74,1,89.9999972534181,0|0,3:2|0:0,0:0:0:0:
17,105,75267,6,0,L|39:192,1,89.9999972534181,2|0,3:2|0:0,0:0:0:0:
92,265,75892,1,10,0:0:0:0:
160,207,76204,1,0,0:0:0:0:
217,276,76517,1,2,0:0:0:0:
145,330,76829,1,0,3:2:0:0:
217,276,77142,2,0,P|259:267|309:295,1,89.9999972534181,10|0,0:0|0:0,0:0:0:0:
371,341,77767,6,0,P|389:300|380:257,1,89.9999972534181,2|0,3:2|0:0,0:0:0:0:
440,189,78392,1,10,0:0:0:0:
344,170,78704,2,0,P|322:129|361:46,1,134.999995880127
398,29,79329,1,0,3:2:0:0:
473,64,79642,1,10,0:0:0:0:
473,64,79798,2,0,L|449:157,1,89.9999972534181,0|0,3:2|0:0,0:0:0:0:
440,189,80267,1,6,3:2:0:0:
72,316,99642,5,2,0:0:0:0:
52,96,100267,1,6,3:2:0:0:
149,146,100579,2,0,B|173:95|173:95|152:39,1,110.000003356934,2|8,0:2|0:2,0:0:0:0:
192,8,101048,2,0,B|243:-16|243:-16|299:5,1,110.000003356934,2|0,0:0|0:0,0:0:0:0:
344,28,101517,1,2,0:2:0:0:
336,136,101829,1,2,3:2:0:0:
336,136,101985,1,0,0:2:0:0:
336,136,102142,2,0,P|389:154|443:131,1,110.000003356934,10|0,0:2|0:2,0:2:0:0:
488,116,102610,1,0,0:0:0:0:
488,116,102767,5,2,3:2:0:0:
464,224,103079,2,0,P|448:276|452:340,1,110.000003356934,2|8,0:2|0:2,0:0:0:0:
427,381,103548,2,0,L|317:350,1,110.000003356934,2|0,0:0|0:0,0:0:0:0:
296,304,104017,2,0,L|186:273,1,110.000003356934,2|2,0:2|3:2,0:0:0:0:
138,263,104485,1,2,0:0:0:0:
138,263,104642,2,0,B|115:210|115:210|138:158,1,110.000003356934,10|2,0:2|0:0,0:2:0:0:
51,91,105267,6,0,L|156:61,1,110.000003356934,4|2,3:2|0:0,0:2:0:0:
210,49,105735,1,2,0:2:0:0:
210,49,105892,1,10,0:2:0:0:
309,2,106204,1,2,3:2:0:0:
376,88,106517,1,0,0:0:0:0:
280,142,106829,1,0,3:0:0:0:
280,142,106985,1,0,0:0:0:0:
280,142,107142,2,0,B|261:195|261:195|286:246,1,110.000003356934,10|0,0:2|0:2,0:2:0:0:
392,219,107767,5,2,3:2:0:0:
364,325,108079,1,0,0:2:0:0:
364,325,108235,1,0,0:2:0:0:
364,325,108392,2,0,L|236:354,1,110.000003356934,10|2,0:2|3:2,0:2:0:0:
147,363,109017,1,0,0:2:0:0:
149,253,109329,1,2,3:2:0:0:
149,253,109485,1,8,0:0:0:0:
149,253,109642,2,0,P|180:240|207:240,3,55.0000016784668,10|8|10|8,0:0|0:0|0:0|0:0,0:0:0:0:
251,261,110267,6,0,P|309:251|366:236,1,110.000003356934,6|0,3:2|0:0,0:2:0:0:
458,192,110892,1,10,0:0:0:0:
358,145,111204,1,2,3:2:0:0:
323,128,111360,1,0,3:2:0:0:
287,112,111517,1,2,0:0:0:0:
196,174,111829,1,2,3:2:0:0:
156,71,112142,2,0,P|87:61|40:95,1,110.000003356934,10|2,0:2|0:0,0:0:0:0:
25,127,112610,5,0,3:2:0:0:
25,127,112767,2,0,P|40:184|50:243,1,110.000003356934,2|2,3:2|0:2,0:2:0:0:
152,271,113392,1,10,0:2:0:0:
259,295,113704,1,2,3:2:0:0:
286,189,114017,1,2,0:2:0:0:
181,156,114329,1,2,3:2:0:0:
286,189,114642,1,10,0:2:0:0:
268,303,114954,5,2,0:2:0:0:
268,303,115110,1,0,3:2:0:0:
268,303,115267,2,0,B|324:291|324:291|379:316,1,110.000003356934,2|2,3:2|0:0,0:0:0:0:
475,275,115892,2,0,B|496:221|496:221|481:163,1,110.000003356934,10|2,0:2|3:2,0:0:0:0:
473,121,116360,1,0,3:2:0:0:
473,121,116517,1,2,0:0:0:0:
373,167,116829,1,2,3:2:0:0:
312,75,117142,2,0,B|256:63|256:63|208:84,1,110.000003356934,10|2,0:2|0:0,0:0:0:0:
148,176,117767,5,2,3:2:0:0:
231,246,118079,1,2,0:2:0:0:
214,281,118235,1,0,0:2:0:0:
198,317,118392,1,10,0:0:0:0:
98,362,118704,1,2,3:2:0:0:
13,291,119017,2,0,L|57:179,1,110.000003356934,2|2,0:2|3:2,0:0:0:0:
77,141,119485,1,0,0:2:0:0:
77,141,119642,2,0,B|55:92|55:92|75:35,1,110.000003356934,10|2,0:0|0:0,0:0:0:0:
180,11,120267,5,6,3:2:0:0:
234,106,120579,1,2,0:0:0:0:
326,46,120892,2,0,P|378:58|429:38,1,110.000003356934,10|2,0:0|3:2,0:0:0:0:
481,21,121360,1,0,3:0:0:0:
481,21,121517,1,2,0:0:0:0:
488,130,121829,2,0,L|474:195,1,55.0000016784668,2|0,3:2|0:0,0:0:0:0:
460,236,122142,2,0,L|350:208,1,110.000003356934,10|2,0:2|0:0,0:0:0:0:
253,161,122767,5,2,3:2:0:0:
217,264,123079,1,2,0:2:0:0:
217,264,123235,1,0,0:2:0:0:
217,264,123392,2,0,L|244:370,1,110.000003356934,10|2,0:2|3:2,0:2:0:0:
139,337,124017,2,0,L|111:230,1,110.000003356934,2|2,0:2|3:2,0:0:0:0:
11,191,124642,2,0,L|38:297,1,110.000003356934,10|2,0:2|0:2,0:0:0:0:
53,355,125110,5,0,3:2:0:0:
53,355,125267,1,2,3:2:0:0:
161,374,125579,1,2,0:0:0:0:
210,275,125892,1,10,0:2:0:0:
312,314,126204,1,2,3:2:0:0:
342,325,126360,1,0,3:2:0:0:
374,331,126517,2,0,P|399:283|390:226,2,110.000003356934,2|2|10,0:0|3:2|0:2,0:0:0:0:
305,265,127454,5,2,0:0:0:0:
305,265,127610,1,0,3:2:0:0:
305,265,127767,2,0,P|242:250|183:236,1,110.000003356934,2|2,3:2|0:2,0:2:0:0:
155,137,128392,2,0,P|218:152|277:166,1,110.000003356934,10|2,0:2|3:2,0:2:0:0:
358,108,129017,1,2,0:2:0:0:
459,172,129329,1,2,3:2:0:0:
459,172,129485,1,8,0:0:0:0:
459,172,129642,2,0,L|434:224,3,55.0000016784668,10|8|10|8,0:0|0:0|0:0|0:0,0:0:0:0:
474,243,130267,6,0,P|495:291|463:371,1,134.999995880127,6|0,0:0|0:0,0:0:0:0:
424,356,130892,1,10,0:0:0:0:
337,331,131204,1,2,0:0:0:0:
251,301,131517,2,0,P|223:343|241:393,2,89.9999972534181,2|2|10,0:0|0:0|0:0,0:0:0:0:
168,266,132454,1,2,0:0:0:0:
144,178,132767,6,0,P|180:175|233:168,1,89.9999972534181,2|2,0:0|0:0,0:0:0:0:
303,111,133392,1,10,0:0:0:0:
247,40,133704,2,0,P|188:31|118:84,1,134.999995880127,2|0,0:0|0:0,0:0:0:0:
100,106,134329,1,2,0:0:0:0:
141,186,134642,6,0,P|177:183|230:176,1,89.9999972534181,10|2,0:0|0:0,0:0:0:0:
295,113,135267,1,2,0:0:0:0:
324,208,135579,1,2,0:0:0:0:
419,180,135892,1,10,0:0:0:0:
390,85,136204,1,2,0:0:0:0:
419,180,136517,2,0,P|430:230|418:269,1,89.9999972534181,2|2,0:0|0:0,0:0:0:0:
370,342,137142,2,0,P|322:326|274:310,1,89.9999972534181,10|2,0:0|0:0,0:0:0:0:
203,352,137767,5,2,0:0:0:0:
118,320,138079,1,2,0:0:0:0:
34,285,138392,1,10,0:0:0:0:
99,223,138704,2,0,P|113:177|66:104,1,134.999995880127,2|0,0:0|0:0,0:0:0:0:
28,89,139329,1,2,0:0:0:0:
89,22,139642,2,0,P|126:16|178:30,1,89.9999972534181,10|2,0:0|0:0,0:0:0:0:
234,97,140267,6,0,P|295:110|357:78,1,134.999995880127,2|0,0:0|0:0,0:0:0:0:
382,40,140892,1,10,0:0:0:0:
453,94,141204,1,2,0:0:0:0:
407,171,141517,2,0,B|391:220|391:220|407:254,1,89.9999972534181,2|2,0:0|0:0,0:0:0:0:
317,258,142142,2,0,B|334:305|334:305|317:341,1,89.9999972534181,10|2,0:0|0:0,0:0:0:0:
233,306,142767,5,2,0:0:0:0:
168,242,143079,1,2,0:0:0:0:
249,202,143392,1,10,0:0:0:0:
171,157,143704,2,0,P|146:110|179:38,1,134.999995880127,2|0,0:0|0:0,0:0:0:0:
214,14,144329,1,2,0:0:0:0:
300,40,144642,2,0,L|230:102,1,89.9999972534181,10|2,0:0|0:0,0:0:0:0:
269,181,145267,5,2,0:0:0:0:
342,128,145579,1,2,0:0:0:0:
404,62,145892,2,0,P|428:105|428:153,1,89.9999972534181,10|2,0:0|0:0,0:0:0:0:
367,210,146517,2,0,P|343:167|343:119,1,89.9999972534181,2|2,0:0|0:0,0:0:0:0:
269,181,147142,2,0,B|224:198|224:198|176:180,1,89.9999972534181,10|2,0:0|0:0,0:0:0:0:
111,150,147767,5,0,0:0:0:0:
111,150,148079,1,0,0:0:0:0:
111,150,148392,1,0,0:0:0:0:
50,202,148704,6,0,P|55:258|62:326,1,120
64,361,149329,2,0,P|119:386|182:359,1,120
197,335,149954,1,0,0:0:0:0:
251,275,150267,1,0,0:0:0:0:
