osu file format v14

[General]
AudioFilename: One Last Time.mp3
AudioLeadIn: 0
PreviewTime: 154084
Countdown: 0
SampleSet: Soft
StackLeniency: 0.7
Mode: 0
LetterboxInBreaks: 0
WidescreenStoryboard: 1

[Editor]
DistanceSpacing: 1.2
BeatDivisor: 4
GridSize: 4
TimelineZoom: 1

[Metadata]
Title:One Last Time
TitleUnicode:One Last Time
Artist:Ariana Grande
ArtistUnicode:Ariana Grande
Creator:Tari
Version:Hard
Source:
Tags:my everything
BeatmapID:1037696
BeatmapSetID:486675

[Difficulty]
HPDrainRate:6
CircleSize:3.5
OverallDifficulty:6
ApproachRate:7
SliderMultiplier:1.4
SliderTickRate:2

[Events]
//Background and Video events
0,0,"bgsa.jpg",0,0
//Break Periods
2,70284,72304
2,131964,138004
//Storyboard Layer 0 (Background)
//Storyboard Layer 1 (Fail)
//Storyboard Layer 2 (Pass)
//Storyboard Layer 3 (Foreground)
//Storyboard Sound Samples

[TimingPoints]
8884,480,4,2,3,50,1,0
12124,-100,4,2,4,50,0,0
12364,-100,4,2,3,50,0,0
24244,-100,4,2,3,60,0,0
39604,-100,4,2,3,70,0,0
73204,-100,4,2,3,50,0,0
85684,-100,4,2,3,60,0,0
101044,-100,4,2,3,70,0,0
147124,-133.333333333333,4,2,0,60,0,0
154804,-83.3333333333333,4,2,3,75,0,1
185524,-100,4,2,0,50,0,0

[Colours]
Combo1 : 255,0,0
Combo2 : 0,202,0
Combo3 : 18,124,255
Combo4 : 244,74,100
Combo5 : 255,128,0

[HitObjects]
112,112,8884,6,0,L|108:188,1,70,6|0,0:0|0:0,0:0:0:0:
188,208,9364,2,0,L|191:138,1,70,4|0,0:0|0:0,0:0:0:0:
188,56,9844,2,0,B|224:40|272:52|272:52|328:72,1,140,6|4,0:0|0:0,0:0:0:0:
356,148,10564,1,2,0:0:0:0:
323,222,10804,6,0,B|287:238|239:226|239:226|183:206,1,140,4|4,0:0|0:0,0:0:0:0:
140,136,11524,1,0,0:0:0:0:
76,192,11764,2,0,P|56:240|76:308,2,105,6|2|2,0:0|0:0|0:0,0:0:0:0:
140,140,12724,6,0,P|112:112|72:104,1,70,4|0,0:0|0:0,0:0:0:0:
216,164,13204,2,0,P|219:124|199:88,1,70,4|0,0:0|0:0,0:0:0:0:
284,240,13684,2,0,P|304:200|304:128,1,105,6|0,0:0|0:0,0:0:0:0:
292,100,14164,2,0,L|388:96,1,70,4|0,0:0|0:0,0:0:0:0:
428,232,14644,6,0,L|348:232,2,70,6|2|4,0:0|0:0|0:0,0:0:0:0:
492,176,15364,1,0,0:0:0:0:
492,176,15604,2,0,L|480:324,1,140,4|4,0:0|0:0,0:0:0:0:
320,360,16564,5,6,0:0:0:0:
236,356,16804,1,0,0:0:0:0:
244,272,17044,1,6,0:0:0:0:
328,276,17284,1,0,0:0:0:0:
400,328,17524,2,0,L|384:216,1,105,6|0,0:0|0:0,0:0:0:0:
384,184,18004,2,0,P|416:172|468:176,1,70,4|0,0:0|0:0,0:0:0:0:
300,216,18484,6,0,P|292:182|303:131,1,70,6|0,0:0|0:0,0:0:0:0:
381,115,18964,2,0,P|388:148|377:199,1,70,4|0,0:0|0:0,0:0:0:0:
304,52,19444,2,0,L|432:44,2,105,6|2|0,0:0|0:0|0:0,0:0:0:0:
236,100,20404,5,6,0:0:0:0:
156,76,20644,1,0,0:0:0:0:
76,48,20884,2,0,L|64:128,1,70,4|0,0:0|0:0,0:0:0:0:
123,175,21364,2,0,L|138:315,1,140,6|4,0:0|0:0,0:0:0:0:
208,360,22084,1,0,0:0:0:0:
280,312,22324,6,0,B|364:311|364:311|374:341,2,105,6|2|0,0:0|0:0|0:0,0:0:0:0:
208,360,23284,2,0,P|164:360|116:292,1,105,6|0,0:0|1:0,0:0:0:0:
156,200,24004,1,0,1:0:0:0:
256,148,24244,6,0,L|240:68,1,70,4|0,0:3|0:0,0:0:0:0:
342,115,24724,2,0,L|356:184,1,70,0|0,1:0|0:0,0:0:0:0:
426,51,25204,2,0,L|440:120,2,70,6|0|0,2:0|0:0|1:0,0:0:0:0:
344,40,25924,1,0,0:0:0:0:
276,88,26164,6,0,L|128:96,1,140,6|0,0:0|1:0,0:0:0:0:
52,80,26884,1,0,0:0:0:0:
24,160,27124,2,0,P|16:212|36:284,1,105,2|8,0:0|0:3,0:0:0:0:
32,304,27604,2,0,P|64:300|120:304,1,70,0|2,1:0|0:0,0:0:0:0:
164,356,28084,6,0,P|216:356|248:352,1,70,6|0,0:0|0:0,0:0:0:0:
224,272,28564,1,0,1:0:0:0:
304,308,28804,1,0,0:0:0:0:
304,308,29044,2,0,P|368:296|436:316,1,105,2|8,0:0|0:3,0:0:0:0:
448,312,29524,2,0,P|452:272|440:228,1,70,0|2,1:0|0:0,0:0:0:0:
388,184,30004,6,0,P|380:112|392:56,2,105,6|8|2,0:0|3:0|0:0,0:0:0:0:
446,243,30964,2,0,P|452:277|447:312,1,70,4|0,0:3|0:0,0:0:0:0:
416,340,31324,2,0,L|280:336,1,105,0|0,1:0|1:0,0:0:0:0:
240,292,31924,6,0,L|232:376,1,70,4|0,1:3|0:0,0:0:0:0:
148,240,32404,2,0,L|140:336,1,70,0|0,1:0|0:0,0:0:0:0:
56,200,32884,2,0,L|48:284,2,70,6|0|0,0:0|0:0|1:0,0:0:0:0:
128,156,33604,1,0,0:0:0:0:
208,112,33844,6,0,B|256:64|256:64|312:112,1,140,6|0,0:0|1:0,0:0:0:0:
380,156,34564,1,0,0:0:0:0:
408,236,34804,2,0,L|404:324,1,70,6|0,0:0|0:0,0:0:0:0:
300,336,35284,2,0,L|303:266,1,70,0|2,1:0|0:0,0:0:0:0:
376,156,35764,6,0,L|244:152,1,105,6|8,0:0|0:3,0:0:0:0:
228,152,36244,2,0,B|224:112|224:112|232:76,1,70,0|2,1:0|0:0,0:0:0:0:
256,248,36724,2,0,P|208:252|168:240,1,70,6|0,0:0|0:0,0:0:0:0:
186,247,37084,1,8,0:3:0:0:
186,247,37204,1,0,1:0:0:0:
116,204,37444,1,0,0:0:0:0:
56,144,37684,6,0,P|44:104|56:44,2,105,6|8|0,0:0|0:3|0:0,0:0:0:0:
116,204,38644,2,0,P|120:268|116:284,1,70,4|0,0:0|0:0,0:0:0:0:
84,312,39004,2,0,P|136:296|204:320,1,105,0|0,1:0|1:0,0:0:0:0:
312,376,39604,6,0,B|320:316|320:316|320:256,1,105,4|0,0:0|3:0,0:0:0:0:
316,232,40084,2,0,P|280:240|244:240,1,70,0|0,1:0|0:0,0:0:0:0:
208,160,40564,2,0,P|245:154|277:152,2,70,4|0|0,0:0|0:0|1:0,0:0:0:0:
152,224,41284,1,0,0:0:0:0:
56,204,41524,6,0,L|72:320,1,105,6|8,0:0|0:3,0:0:0:0:
76,348,42004,2,0,P|116:352|156:336,1,70,0|0,1:0|0:0,0:0:0:0:
208,288,42484,2,0,P|252:268|328:280,2,105,6|8|6,0:0|3:0|0:0,0:0:0:0:
144,344,43444,6,0,P|128:308|136:240,1,105,6|8,0:0|3:0,0:0:0:0:
152,204,43924,2,0,L|221:193,1,70,0|0,1:0|0:0,0:0:0:0:
232,100,44404,2,0,L|312:104,1,70,6|0,0:0|0:0,0:0:0:0:
301,103,44764,1,8,3:0:0:0:
301,103,44884,1,0,1:0:0:0:
352,180,45124,1,0,0:0:0:0:
424,136,45364,6,0,P|432:92|420:28,2,105,6|0|2,0:0|0:0|0:0,0:0:0:0:
352,180,46324,2,0,P|380:212|416:220,1,70,4|0,0:0|0:0,0:0:0:0:
444,240,46684,1,8,3:0:0:0:
480,268,46804,2,0,P|458:295|426:307,1,70,0|4,1:0|0:0,0:0:0:0:
352,284,47284,6,0,P|300:272|232:304,1,105,6|8,0:0|0:3,0:0:0:0:
196,320,47764,2,0,L|184:232,1,70,0|0,1:0|0:0,0:0:0:0:
156,172,48244,1,4,0:0:0:0:
88,228,48484,1,0,0:0:0:0:
88,228,48604,1,8,3:0:0:0:
88,228,48724,2,0,L|100:300,1,70,0|0,1:0|0:0,0:0:0:0:
168,356,49204,6,0,P|220:344|288:368,1,105,6|8,0:0|0:3,0:0:0:0:
316,368,49684,2,0,P|320:324|312:288,1,70,0|0,1:0|0:0,0:0:0:0:
224,176,50164,2,0,P|219:210|223:245,1,70,4|0,0:0|0:0,0:0:0:0:
223,245,50524,1,8,0:3:0:0:
223,245,50644,1,0,1:0:0:0:
324,212,50884,1,2,0:0:0:0:
288,136,51124,6,0,B|236:136|196:108|196:108|144:128,1,140,6|0,0:0|1:0,0:0:0:0:
80,156,51844,1,0,0:0:0:0:
108,236,52084,2,0,B|124:280|124:280|108:364,1,105,6|8,0:0|0:3,0:0:0:0:
92,364,52564,1,0,1:0:0:0:
374,297,53044,6,0,L|480:280,2,105,6|8|0,0:0|0:3|0:0,0:0:0:0:
308,352,54004,1,4,3:0:0:0:
256,284,54244,1,0,0:0:0:0:
256,284,54364,1,8,0:2:0:0:
256,284,54484,1,0,1:0:0:0:
208,352,54724,1,0,1:0:0:0:
220,200,54964,6,0,P|256:192|304:204,1,70,4|2,0:0|0:0,0:0:0:0:
288,197,55324,1,0,0:3:0:0:
288,197,55444,1,0,1:0:0:0:
308,112,55684,1,0,0:0:0:0:
308,112,55924,2,0,P|232:104|200:116,1,105,6|8,0:0|0:3,0:0:0:0:
164,124,56404,2,0,P|160:80|164:48,1,70,0|4,1:0|0:0,0:0:0:0:
172,240,56884,6,0,P|180:276|172:348,1,105,6|8,0:0|3:0,0:0:0:0:
152,372,57364,1,0,1:0:0:0:
256,308,57604,1,0,0:0:0:0:
338,343,57844,2,0,P|331:291|340:240,2,105,2|8|2,0:0|0:2|0:0,0:0:0:0:
424,296,58804,5,4,0:0:0:0:
340,239,59044,1,0,0:0:0:0:
340,239,59164,1,8,0:3:0:0:
340,239,59284,2,0,L|260:236,1,70,0|0,1:0|0:0,0:0:0:0:
120,136,59764,2,0,L|236:128,1,105,2|8,0:0|0:3,0:0:0:0:
296,92,60244,2,0,P|302:126|297:160,1,70,0|2,1:0|0:0,0:0:0:0:
172,228,60724,6,0,P|160:276|184:344,1,105,6|8,0:0|0:3,0:0:0:0:
240,360,61204,2,0,L|320:356,1,70,0|0,1:0|0:0,0:0:0:0:
404,300,61684,2,0,L|408:376,1,70,4|0,0:0|0:0,0:0:0:0:
407,369,62044,1,8,0:3:0:0:
407,369,62164,1,0,1:0:0:0:
500,320,62404,1,0,1:0:0:0:
448,224,62644,6,0,P|404:216|332:248,2,105,6|8|0,0:0|3:0|0:0,0:0:0:0:
500,320,63604,1,4,0:0:0:0:
407,369,63844,1,0,0:0:0:0:
407,369,63964,1,8,0:3:0:0:
407,369,64084,2,0,L|404:300,1,70,0|0,1:0|0:0,0:0:0:0:
312,244,64564,6,0,L|316:360,1,105,6|8,0:0|0:3,0:0:0:0:
254,372,65044,2,0,P|219:376|185:371,1,70,0|0,1:0|0:0,0:0:0:0:
116,296,65524,2,0,P|164:276|228:288,1,105,6|8,0:0|0:3,0:0:0:0:
248,296,66004,1,0,1:0:0:0:
185,371,66244,1,0,0:0:0:0:
52,344,66484,6,0,P|36:292|56:240,1,105,6|8,0:0|0:3,0:0:0:0:
84,240,66964,1,0,1:0:0:0:
184,268,67204,1,0,0:0:0:0:
168,160,67444,2,0,P|220:144|280:164,1,105,6|8,0:0|0:3,0:0:0:0:
288,208,67924,2,0,L|288:278,1,70,0|0,1:0|0:0,0:0:0:0:
288,278,68284,5,0,0:0:0:0:
288,278,68404,1,4,0:0:0:0:
136,232,68764,2,0,B|128:280|128:280|136:336,1,105,8|0,0:3|0:0,0:0:0:0:
376,336,69364,2,0,B|384:280|384:280|376:232,1,105,4|8,0:0|0:3,0:0:0:0:
356,192,69844,2,0,L|444:184,1,70,0|4,1:0|0:0,0:0:0:0:
256,228,73204,6,0,P|240:280|256:348,1,105,2|0,0:0|0:0,0:0:0:0:
276,356,73684,2,0,L|312:360,3,35,0|0|0|0,0:0|0:0|0:0|0:0,0:0:0:0:
247,329,74164,6,0,L|163:333,1,70,4|0,3:0|0:0,0:0:0:0:
112,232,74644,2,0,L|181:228,1,70,4|2,0:0|0:0,0:0:0:0:
284,216,75124,2,0,P|280:152|276:96,2,105,6|0|2,0:0|0:0|0:0,0:0:0:0:
240,288,76084,6,0,P|296:300|352:268,1,105,6|0,0:0|0:0,0:0:0:0:
408,248,76564,2,0,P|412:280|412:332,1,70,4|0,0:0|0:0,0:0:0:0:
356,168,77044,2,0,P|408:156|484:180,2,105,4|0|0,0:0|0:0|0:0,0:0:0:0:
280,204,78004,6,0,P|272:168|284:124,1,70,6|0,0:0|0:0,0:0:0:0:
348,84,78484,1,4,0:0:0:0:
276,40,78724,1,0,0:0:0:0:
276,40,78964,2,0,L|168:36,1,105,6|0,0:0|0:0,0:0:0:0:
96,40,79444,2,0,P|108:80|136:104,1,70,4|2,0:0|0:0,0:0:0:0:
236,168,79924,6,0,P|224:127|196:103,2,70,4|0|4,0:0|0:0|0:0,0:0:0:0:
152,180,80644,1,0,0:0:0:0:
200,248,80884,2,0,B|256:256|256:256|304:248,1,105,6|2,0:0|0:0,0:0:0:0:
303,248,81364,1,4,0:3:0:0:
348,176,81604,1,2,0:0:0:0:
400,244,81844,6,0,P|408:296|408:328,1,70,4|0,0:0|0:0,0:0:0:0:
232,368,82324,2,0,P|234:333|240:298,1,70,4|2,0:0|0:0,0:0:0:0:
316,212,82804,2,0,B|219:202|219:202|176:168,1,140,6|4,0:0|0:0,0:0:0:0:
280,120,83524,1,2,0:0:0:0:
316,212,83764,6,0,L|308:328,1,105,6|0,0:0|0:0,0:0:0:0:
384,356,84244,2,0,L|388:280,1,70,4|0,0:0|0:0,0:0:0:0:
232,176,84724,2,0,L|224:292,2,105,4|0|0,0:0|1:0|1:0,0:0:0:0:
212,88,85684,6,0,P|256:88|284:100,1,70,4|0,0:0|0:0,0:0:0:0:
360,76,86164,2,0,P|360:120|348:148,1,70,0|0,1:0|0:0,0:0:0:0:
372,224,86644,2,0,P|328:224|300:212,1,70,6|0,0:0|0:0,0:0:0:0:
224,232,87124,2,0,P|222:197|233:164,1,70,0|0,1:0|0:0,0:0:0:0:
279,97,87604,5,6,0:0:0:0:
350,143,87844,1,0,0:0:0:0:
279,97,88084,2,0,L|136:120,1,140,0|4,1:0|0:0,0:0:0:0:
56,132,88804,1,0,0:0:0:0:
56,132,89044,2,0,P|60:196|64:212,1,70,0|0,1:0|0:0,0:0:0:0:
148,232,89524,6,0,L|276:212,2,105,4|8|0,0:0|0:3|0:0,0:0:0:0:
61,201,90484,2,0,P|55:166|56:132,1,70,6|0,0:0|0:0,0:0:0:0:
132,80,90964,2,0,P|140:108|140:152,1,70,0|0,1:0|0:0,0:0:0:0:
148,232,91444,6,0,L|276:212,1,105,6|8,0:0|0:3,0:0:0:0:
328,208,91924,2,0,P|340:252|336:280,1,70,0|0,1:0|0:0,0:0:0:0:
456,348,92404,2,0,P|444:292|452:232,1,105,4|8,0:0|0:3,0:0:0:0:
448,244,92884,1,0,1:0:0:0:
492,172,93124,1,0,1:0:0:0:
492,172,93244,1,0,0:0:0:0:
492,172,93364,6,0,L|488:88,1,70,6|0,0:0|0:0,0:0:0:0:
372,76,93844,2,0,L|375:145,1,70,0|0,1:0|0:0,0:0:0:0:
416,236,94324,2,0,L|346:239,1,70,6|0,0:0|0:0,0:0:0:0:
296,336,94804,2,0,L|365:332,1,70,0|0,1:0|0:0,0:0:0:0:
460,332,95284,5,6,0:0:0:0:
416,236,95524,1,0,0:0:0:0:
365,332,95764,2,0,L|296:336,1,70,0|0,1:0|0:0,0:0:0:0:
192,244,96244,2,0,L|261:240,1,70,6|0,0:0|0:0,0:0:0:0:
261,240,96604,1,8,0:3:0:0:
261,240,96724,2,0,L|264:164,1,70,0|2,1:0|0:0,0:0:0:0:
140,72,97204,6,0,P|136:124|144:175,1,105,6|8,0:0|0:3,0:0:0:0:
160,252,97684,2,0,P|164:308|160:352,1,70,0|2,1:0|0:0,0:0:0:0:
16,296,98164,2,0,L|88:288,1,70,2|0,0:0|0:0,0:0:0:0:
85,288,98524,1,8,0:3:0:0:
85,288,98644,1,0,1:0:0:0:
160,252,98884,1,2,0:0:0:0:
228,320,99124,6,0,P|248:280|256:212,2,105,4|2|2,0:2|0:0|0:0,0:0:0:0:
212,88,100444,2,0,P|284:76|340:100,1,105,0|0,1:0|1:0,0:0:0:0:
308,240,101044,6,0,P|236:252|180:228,1,105,4|8,3:0|3:0,0:0:0:0:
136,216,101524,2,0,L|132:296,1,70,0|0,1:0|0:0,0:0:0:0:
44,156,102004,2,0,L|40:236,2,70,4|0|0,3:0|0:0|1:0,0:0:0:0:
104,96,102724,1,0,0:0:0:0:
172,148,102964,6,0,L|304:140,1,105,4|8,0:0|0:3,0:0:0:0:
348,140,103444,2,0,B|355:169|355:209,1,70,0|0,1:0|0:0,0:0:0:0:
268,256,103924,2,0,P|260:304|276:364,2,105,4|8|0,3:0|3:0|0:0,0:0:0:0:
344,304,104884,6,0,P|384:288|448:304,1,105,4|8,0:0|0:3,0:0:0:0:
484,264,105364,2,0,P|484:225|484:194,1,70,0|0,1:0|0:0,0:0:0:0:
344,128,105844,2,0,P|344:159|344:198,1,70,4|0,0:0|0:0,0:0:0:0:
344,198,106204,1,8,0:3:0:0:
344,198,106324,1,0,1:0:0:0:
420,160,106564,1,0,0:0:0:0:
392,56,106804,6,0,P|344:40|276:76,2,105,4|8|0,0:0|0:3|0:0,0:0:0:0:
468,84,107764,2,0,P|471:49|465:15,1,70,4|0,0:0|0:0,0:0:0:0:
432,160,108244,2,0,P|472:164|504:160,1,70,0|4,1:0|3:0,0:0:0:0:
348,120,108724,6,0,P|332:168|368:236,1,105,6|8,0:3|0:3,0:0:0:0:
400,240,109204,2,0,L|472:244,1,70,0|0,1:0|0:0,0:0:0:0:
444,324,109684,1,4,0:0:0:0:
364,312,109924,1,0,0:0:0:0:
364,312,110044,1,0,0:3:0:0:
364,312,110164,2,0,L|284:320,1,70,0|0,1:0|0:0,0:0:0:0:
244,211,110644,6,0,L|368:219,1,105,4|8,0:0|0:3,0:0:0:0:
348,217,111124,1,0,1:0:0:0:
432,188,111364,1,0,0:0:0:0:
492,244,111604,2,0,P|512:292|488:348,2,105,4|8|0,0:0|0:3|0:0,0:0:0:0:
432,188,112564,6,0,P|428:148|432:112,1,70,4|0,0:0|0:0,0:0:0:0:
430,118,112924,1,8,0:2:0:0:
430,118,113044,1,0,1:0:0:0:
488,56,113284,1,0,0:0:0:0:
488,56,113524,2,0,L|340:48,1,140,4|0,0:0|1:0,0:0:0:0:
268,72,114244,1,0,0:0:0:0:
188,92,114484,6,0,B|200:144|200:144|180:204,1,105,4|8,0:0|3:0,0:0:0:0:
328,192,115204,1,0,0:0:0:0:
328,192,115444,2,0,B|312:144|312:144|324:92,1,105,4|8,0:0|0:3,0:0:0:0:
324,91,115924,1,0,1:0:0:0:
256,40,116164,1,4,0:0:0:0:
188,92,116404,5,4,0:0:0:0:
256,140,116644,1,0,0:0:0:0:
256,140,116764,1,8,3:0:0:0:
256,140,116884,2,0,L|256:212,1,70,0|0,1:0|0:0,0:0:0:0:
303,278,117364,2,0,P|256:292|204:276,1,105,4|8,0:0|3:0,0:0:0:0:
136,240,117844,2,0,L|136:316,1,70,0|0,1:0|0:0,0:0:0:0:
132,144,118324,6,0,P|124:96|136:40,1,105,4|8,0:0|0:3,0:0:0:0:
208,64,118804,2,0,L|292:56,1,70,0|0,1:0|0:0,0:0:0:0:
364,132,119284,2,0,L|468:124,2,105,4|8|0,0:0|0:3|0:0,0:0:0:0:
284,184,120244,5,4,3:0:0:0:
360,220,120484,1,0,0:0:0:0:
360,220,120604,1,8,0:3:0:0:
360,220,120724,2,0,L|364:296,1,70,0|0,1:0|0:0,0:0:0:0:
304,348,121204,2,0,P|243:355|184:340,1,105,4|8,0:0|0:3,0:0:0:0:
200,346,121684,1,0,1:0:0:0:
144,288,121924,1,0,0:0:0:0:
188,216,122164,6,0,P|256:200|336:220,2,140,4|0|4,0:0|1:0|0:0,0:0:0:0:
24,256,123484,1,8,0:3:0:0:
24,256,123604,2,0,P|20:216|28:176,1,70,0|0,1:0|0:0,0:0:0:0:
108,168,124084,6,0,P|112:228|108:300,1,105,4|8,0:0|0:3,0:0:0:0:
80,328,124564,2,0,L|160:336,1,70,0|0,1:0|0:0,0:0:0:0:
208,276,125044,2,0,L|288:288,2,70,4|0|0,0:0|0:0|1:0,0:0:0:0:
360,356,126004,6,0,B|344:312|344:312|372:264|372:264|356:208,1,140,4|0,0:0|1:0,0:0:0:0:
336,148,126724,1,0,0:0:0:0:
304,72,126964,2,0,P|256:60|184:92,2,105,4|8|0,0:0|0:2|0:0,0:0:0:0:
256,144,127924,6,0,L|256:300,1,140,4|0,0:0|1:0,0:0:0:0:
192,336,128644,1,4,0:0:0:0:
192,336,128884,2,0,P|256:368|320:336,1,140,4|0,0:0|1:0,0:0:0:0:
340,260,129604,1,0,0:0:0:0:
312,180,129844,6,0,P|248:172|189:186,2,105,4|8|0,0:0|3:0|0:0,0:0:0:0:
332,100,130804,2,0,P|256:84|168:112,1,140,4|0,0:0|1:0,0:0:0:0:
124,140,131524,1,0,1:0:0:0:
60,192,131764,5,4,1:0:0:0:
56,128,139444,6,0,L|180:128,1,105,4|4,0:0|0:0,0:0:0:0:
52,308,140404,2,0,L|176:308,1,105,4|4,0:0|0:0,0:0:0:0:
256,124,141364,6,0,L|256:12,2,105,4|4|4,0:0|0:0|0:0,0:0:0:0:
300,192,142324,2,0,L|412:192,2,105,4|4|4,0:0|0:0|0:0,0:0:0:0:
256,260,143284,2,0,L|256:372,2,105,4|4|4,0:0|0:0|0:0,0:0:0:0:
212,192,144244,2,0,L|100:192,2,105,4|4|4,0:0|0:0|0:0,0:0:0:0:
256,120,145204,5,4,0:0:0:0:
360,192,145564,1,4,0:0:0:0:
256,264,145924,1,4,0:0:0:0:
212,192,146164,5,4,0:0:0:0:
88,192,146524,1,4,0:0:0:0:
144,80,146884,1,4,0:0:0:0:
232,80,147124,6,0,P|308:120|228:152,1,210.000008010865,2|2,0:0|0:0,0:0:0:0:
232,155,148804,1,2,0:0:0:0:
232,155,150004,6,0,L|232:256,2,78.7500030040742,2|2|2,0:0|0:0|0:0,0:0:0:0:
232,260,151684,5,0,0:0:0:0:
232,260,151924,1,2,0:0:0:0:
232,260,152644,1,2,0:0:0:0:
232,260,152884,6,0,L|332:260,2,78.7500030040742,2|2|2,0:0|0:0|0:0,0:0:0:0:
32,264,154324,5,4,0:0:0:0:
32,264,154804,6,0,P|84:248|172:268,1,125.999996154785,4|8,0:0|0:3,0:0:0:0:
184,300,155284,2,0,P|224:308|284:296,1,83.9999974365235,0|0,1:0|0:0,0:0:0:0:
359,259,155764,2,0,P|367:300|362:342,2,83.9999974365235,4|0|0,0:3|0:0|1:0,0:0:0:0:
284,196,156484,1,0,0:0:0:0:
284,196,156724,6,0,P|280:136|284:96,1,83.9999974365235,4|0,0:3|0:0,0:0:0:0:
281,112,157084,1,8,0:3:0:0:
281,112,157204,1,0,1:0:0:0:
356,44,157444,1,0,0:0:0:0:
432,112,157684,2,0,P|440:164|432:236,2,125.999996154785,4|8|0,0:3|0:3|0:0,0:0:0:0:
356,44,158644,6,0,L|260:40,1,83.9999974365235,6|0,0:0|0:0,0:0:0:0:
212,120,159124,2,0,L|120:116,1,83.9999974365235,0|0,1:0|0:0,0:0:0:0:
28,116,159604,2,0,P|4:172|16:248,1,125.999996154785,6|8,0:0|0:3,0:0:0:0:
10,235,160084,1,0,1:0:0:0:
64,320,160324,1,4,0:0:0:0:
132,244,160564,6,0,P|200:236|264:276,1,125.999996154785,6|8,0:0|0:3,0:0:0:0:
376,344,161284,2,0,L|388:248,1,83.9999974365235,0|8,0:0|0:3,0:0:0:0:
480,220,161764,1,0,0:0:0:0:
480,220,161884,1,8,0:3:0:0:
480,220,162004,2,0,L|468:116,1,83.9999974365235,0|8,1:0|0:0,0:0:0:0:
428,44,162484,6,0,P|360:52|296:48,1,125.999996154785,6|8,0:0|0:3,0:0:0:0:
252,40,162964,2,0,P|188:36|164:40,1,83.9999974365235,0|0,1:0|0:0,0:0:0:0:
72,144,163444,2,0,P|136:140|160:144,2,83.9999974365235,4|0|0,3:0|0:0|1:0,0:0:0:0:
116,224,164164,1,0,0:0:0:0:
244,216,164404,6,0,P|248:172|240:88,2,125.999996154785,6|8|0,0:3|0:3|0:0,0:0:0:0:
200,308,165364,2,0,P|240:312|288:304,1,83.9999974365235,4|0,0:3|0:0,0:0:0:0:
328,280,165724,1,8,0:3:0:0:
368,252,165844,2,0,P|424:244|464:256,1,83.9999974365235,0|4,1:0|0:3,0:0:0:0:
404,340,166324,6,0,P|400:216|412:164,1,167.999994873047,6|0,0:0|0:0,0:0:0:0:
480,100,167044,1,0,0:0:0:0:
396,48,167284,2,0,L|260:72,1,125.999996154785,4|8,0:3|0:3,0:0:0:0:
224,84,167764,2,0,P|212:28|216:0,1,83.9999974365235,0|2,1:0|0:0,0:0:0:0:
224,84,168244,6,0,P|236:148|220:212,1,125.999996154785,4|8,0:3|0:3,0:0:0:0:
48,308,168964,2,0,P|44:260|52:212,1,83.9999974365235,0|4,0:0|3:0,0:0:0:0:
80,140,169444,1,0,0:0:0:0:
80,140,169564,1,8,3:0:0:0:
80,140,169684,2,0,L|184:148,1,83.9999974365235,0|8,1:0|0:0,0:0:0:0:
256,104,170164,5,4,1:0:0:0:
352,140,170404,1,2,0:0:0:0:
352,140,170524,1,8,3:0:0:0:
352,140,170644,1,0,1:0:0:0:
304,228,170884,1,0,0:0:0:0:
204,228,171124,2,0,P|196:288|204:356,1,125.999996154785,4|8,0:3|0:3,0:0:0:0:
203,352,171604,1,0,1:0:0:0:
304,312,171844,1,0,0:0:0:0:
204,228,172084,6,0,L|112:224,1,83.9999974365235,6|0,0:3|0:0,0:0:0:0:
120,224,172444,1,8,0:3:0:0:
120,224,172564,2,0,P|120:176|124:136,1,83.9999974365235,0|0,1:0|0:0,0:0:0:0:
280,44,173044,2,0,P|288:92|288:136,1,83.9999974365235,6|0,3:0|0:0,0:0:0:0:
288,127,173404,1,8,0:3:0:0:
288,127,173524,1,0,1:0:0:0:
196,84,173764,1,0,0:0:0:0:
123,140,174004,6,0,B|-8:156|-8:156,2,125.999996154785,6|8|0,0:0|0:3|0:0,0:0:0:0:
212,184,174964,1,6,0:0:0:0:
300,236,175204,1,0,0:0:0:0:
300,236,175324,1,8,0:3:0:0:
300,236,175444,2,0,P|304:288|296:328,1,83.9999974365235,0|4,1:0|3:0,0:0:0:0:
152,348,175924,6,0,P|148:284|152:216,1,125.999996154785,6|8,0:0|3:0,0:0:0:0:
164,172,176404,2,0,L|256:164,1,83.9999974365235,0|0,1:0|0:0,0:0:0:0:
360,36,176884,2,0,L|248:44,2,83.9999974365235,4|0|0,0:3|0:0|1:0,0:0:0:0:
472,60,177604,1,4,3:0:0:0:
396,132,177844,6,0,P|388:192|408:284,1,125.999996154785,6|8,0:0|0:3,0:0:0:0:
397,256,178324,1,0,1:0:0:0:
492,296,178564,1,0,0:0:0:0:
408,356,178804,2,0,L|316:348,1,83.9999974365235,4|0,0:0|0:0,0:0:0:0:
324,348,179164,1,8,0:3:0:0:
324,348,179284,1,0,1:0:0:0:
256,276,179524,1,4,0:3:0:0:
187,348,179764,6,0,L|104:356,1,83.9999974365235,6|0,0:0|0:0,0:0:0:0:
103,356,180124,1,8,0:3:0:0:
103,356,180244,1,0,1:0:0:0:
60,264,180484,1,0,0:0:0:0:
60,264,180724,2,0,L|196:248,2,125.999996154785,4|8|0,0:3|0:3|0:0,0:0:0:0:
16,172,181684,6,0,P|0:104|16:52,1,125.999996154785,4|8,0:3|0:3,0:0:0:0:
68,44,182164,2,0,L|164:56,1,83.9999974365235,0|4,1:0|0:3,0:0:0:0:
240,100,182644,2,0,P|256:168|240:220,1,125.999996154785,6|8,0:0|0:3,0:0:0:0:
188,228,183124,2,0,L|92:216,1,83.9999974365235,0|4,1:0|0:3,0:0:0:0:
8,196,183604,6,0,P|0:248|8:336,2,125.999996154785,6|8|0,0:3|3:0|0:0,0:0:0:0:
64,112,184564,1,4,0:0:0:0:
164,96,184804,1,0,0:0:0:0:
164,96,184924,1,8,0:0:0:0:
164,96,185044,1,8,0:0:0:0:
252,148,185284,1,4,0:3:0:0:
280,244,185524,5,0,0:0:0:0:
280,244,186484,1,0,0:0:0:0:
280,244,187204,1,0,0:0:0:0:
156,136,189124,6,0,L|156:60,1,70
280,244,190084,2,0,L|280:328,1,70,0|0,0:0|0:0,0:0:0:0:
280,314,191284,2,0,P|340:322|404:312,2,105,0|0|0,0:0|0:0|0:0,0:0:0:0:
