osu file format v14

[General]
AudioFilename: audio.mp3
AudioLeadIn: 0
PreviewTime: 137561
Countdown: 0
SampleSet: Normal
StackLeniency: 0.7
Mode: 1
LetterboxInBreaks: 0
WidescreenStoryboard: 1

[Editor]
Bookmarks: 1837,29974,69699,97837,124319,137561,177332
DistanceSpacing: 0.2
BeatDivisor: 4
GridSize: 16
TimelineZoom: 1.3

[Metadata]
Title:God is a woman
TitleUnicode:God is a woman
Artist:Ariana Grande
ArtistUnicode:Ariana Grande
Creator:tadahitotsu
Version:Futsuu
Source:
Tags:pop english hip hop hip-hop sweetener republic honey h_o_n_e_y
BeatmapID:2760092
BeatmapSetID:1331932

[Difficulty]
HPDrainRate:7
CircleSize:2
OverallDifficulty:3
ApproachRate:8
SliderMultiplier:1.4
SliderTickRate:1

[Events]
//Background and Video events
0,0,"bg.jpg",0,0
//Break Periods
2,124509,134318
//Storyboard Layer 0 (Background)
//Storyboard Layer 1 (Fail)
//Storyboard Layer 2 (Pass)
//Storyboard Layer 3 (Foreground)
//Storyboard Layer 4 (Overlay)
//Storyboard Sound Samples

[TimingPoints]
1827,413.793103448276,4,1,0,45,1,0
1827,-100,4,1,0,55,0,0
29964,-100,4,1,0,65,0,0
69689,-100,4,1,0,55,0,0
97827,-100,4,1,0,65,0,0
137551,-100,4,1,0,75,0,1
176861,461.538461538462,4,1,0,75,1,0
176861,-89.2857142857143,4,1,0,75,0,1
177322,413.793103448276,4,1,0,75,1,8
177322,-95.2380952380952,4,1,0,55,0,0
178149,413.793103448276,4,1,0,55,1,0

[Colours]
Combo1 : 249,79,215
Combo2 : 128,0,255
Combo3 : 37,185,239
Combo4 : 255,189,157

[HitObjects]
172,204,1827,5,8,0:0:0:0:
269,190,2240,1,0,0:0:0:0:
156,273,2447,1,0,0:0:0:0:
307,235,2654,1,8,0:0:0:0:
104,149,3068,1,0,0:0:0:0:
172,204,5137,1,8,0:0:0:0:
269,190,5551,1,0,0:0:0:0:
269,190,5758,1,0,0:0:0:0:
307,235,5964,1,8,0:0:0:0:
269,190,6378,1,0,0:0:0:0:
172,204,8447,1,8,0:0:0:0:
269,190,8861,1,0,0:0:0:0:
269,190,9068,1,0,0:0:0:0:
269,190,9275,1,8,0:0:0:0:
307,235,9689,1,8,0:0:0:0:
181,167,11758,1,8,0:0:0:0:
334,111,12309,1,0,0:0:0:0:
313,208,12585,1,8,0:0:0:0:
181,167,13413,1,8,0:0:0:0:
334,111,13964,1,0,0:0:0:0:
313,208,14240,1,8,0:0:0:0:
173,239,15068,1,8,0:0:0:0:
241,119,15482,1,0,0:0:0:0:
241,119,15689,1,0,0:0:0:0:
241,119,15895,1,8,0:0:0:0:
241,119,16309,1,0,0:0:0:0:
173,238,18378,1,8,0:0:0:0:
241,118,18792,1,0,0:0:0:0:
241,118,18999,1,0,0:0:0:0:
241,118,19206,1,8,0:0:0:0:
241,118,19620,1,0,0:0:0:0:
173,238,21689,1,8,0:0:0:0:
241,118,22102,1,0,0:0:0:0:
241,118,22309,1,0,0:0:0:0:
241,118,22516,1,8,0:0:0:0:
241,118,22930,1,8,0:0:0:0:
181,167,24999,1,8,0:0:0:0:
334,111,25551,1,0,0:0:0:0:
313,208,25827,1,8,0:0:0:0:
181,167,26654,1,8,0:0:0:0:
334,111,27206,1,0,0:0:0:0:
313,208,27482,1,8,0:0:0:0:
233,144,29964,1,4,0:0:0:0:
212,236,30792,1,8,0:0:0:0:
224,158,30999,1,0,0:0:0:0:
212,236,31206,1,0,0:0:0:0:
220,228,31827,1,8,0:0:0:0:
220,228,32033,1,0,0:0:0:0:
277,223,32447,1,8,0:0:0:0:
110,193,32861,1,8,0:0:0:0:
278,134,33275,1,4,0:0:0:0:
243,156,34102,1,8,0:0:0:0:
205,225,34309,1,0,0:0:0:0:
243,156,34516,1,0,0:0:0:0:
243,156,35137,1,8,0:0:0:0:
243,156,35344,1,0,0:0:0:0:
213,155,35758,1,8,0:0:0:0:
213,155,36171,1,8,0:0:0:0:
213,155,36585,1,4,0:0:0:0:
251,151,37413,1,8,0:0:0:0:
92,176,37620,1,8,0:0:0:0:
251,151,37827,1,0,0:0:0:0:
251,151,38447,1,0,0:0:0:0:
149,143,38654,1,0,0:0:0:0:
149,143,39068,1,8,0:0:0:0:
149,143,39275,1,0,0:0:0:0:
258,183,39482,1,8,0:0:0:0:
258,183,39895,1,4,0:0:0:0:
262,176,40723,1,8,0:0:0:0:
262,176,41137,1,0,0:0:0:0:
262,176,41344,1,0,0:0:0:0:
262,176,41758,1,8,0:0:0:0:
262,176,41964,1,0,0:0:0:0:
262,176,42378,1,8,0:0:0:0:
262,176,42792,1,8,0:0:0:0:
262,176,43206,1,4,0:0:0:0:
246,207,44033,1,8,0:0:0:0:
129,134,44240,1,8,0:0:0:0:
246,207,44447,1,0,0:0:0:0:
246,207,45068,1,8,0:0:0:0:
246,207,45275,1,0,0:0:0:0:
191,176,45689,1,8,0:0:0:0:
190,69,46102,1,8,0:0:0:0:
264,171,46516,1,4,0:0:0:0:
280,192,47344,1,8,0:0:0:0:
145,231,47551,1,0,0:0:0:0:
280,192,47758,1,0,0:0:0:0:
286,174,48378,1,8,0:0:0:0:
286,174,48585,1,0,0:0:0:0:
286,174,48999,1,8,0:0:0:0:
200,156,49413,1,8,0:0:0:0:
286,174,49827,1,4,0:0:0:0:
294,187,50654,1,8,0:0:0:0:
125,174,50861,1,8,0:0:0:0:
294,187,51068,1,0,0:0:0:0:
294,187,51689,1,8,0:0:0:0:
294,187,51895,1,0,0:0:0:0:
247,172,52309,1,8,0:0:0:0:
247,172,52516,1,8,0:0:0:0:
187,175,52723,1,0,0:0:0:0:
247,172,53137,1,4,0:0:0:0:
240,176,53964,1,8,0:0:0:0:
240,176,54378,1,0,0:0:0:0:
240,176,54585,1,0,0:0:0:0:
251,150,54999,1,8,0:0:0:0:
251,150,55206,1,0,0:0:0:0:
251,150,55620,1,8,0:0:0:0:
251,150,56033,1,8,0:0:0:0:
251,150,56447,1,4,0:0:0:0:
247,151,57275,1,0,0:0:0:0:
247,151,57689,1,0,0:0:0:0:
127,185,58102,1,8,0:0:0:0:
127,185,58309,1,0,0:0:0:0:
127,185,58516,1,8,0:0:0:0:
319,139,58930,1,0,0:0:0:0:
319,139,59758,1,0,0:0:0:0:
233,172,60585,1,12,0:0:0:0:
233,172,60999,1,0,0:0:0:0:
127,185,61413,1,8,0:0:0:0:
127,185,61620,1,0,0:0:0:0:
127,185,61827,1,0,0:0:0:0:
319,139,62240,1,8,0:0:0:0:
319,139,62654,1,8,0:0:0:0:
319,139,63068,1,0,0:0:0:0:
359,162,63895,1,12,0:0:0:0:
359,162,64309,1,0,0:0:0:0:
127,185,64723,1,8,0:0:0:0:
127,185,64930,1,0,0:0:0:0:
127,185,65137,1,8,0:0:0:0:
319,139,65551,1,8,0:0:0:0:
311,186,65758,1,0,0:0:0:0:
319,139,66378,1,8,0:0:0:0:
182,138,67206,1,8,0:0:0:0:
182,138,67620,1,0,0:0:0:0:
182,138,67827,1,0,0:0:0:0:
251,137,68240,1,8,0:0:0:0:
251,137,68447,1,0,0:0:0:0:
177,178,68861,1,8,0:0:0:0:
177,178,69275,1,0,0:0:0:0:
172,204,69689,1,8,0:0:0:0:
269,190,70102,1,0,0:0:0:0:
269,190,70309,1,0,0:0:0:0:
307,235,70516,1,8,0:0:0:0:
269,190,70930,1,0,0:0:0:0:
172,204,72999,1,8,0:0:0:0:
269,190,73413,1,0,0:0:0:0:
269,190,73620,1,0,0:0:0:0:
307,235,73827,1,8,0:0:0:0:
269,190,74240,1,0,0:0:0:0:
172,204,76309,1,8,0:0:0:0:
269,190,76723,1,0,0:0:0:0:
269,190,76930,1,0,0:0:0:0:
269,190,77137,1,8,0:0:0:0:
307,235,77551,1,8,0:0:0:0:
181,167,79620,1,8,0:0:0:0:
334,111,80171,1,0,0:0:0:0:
313,208,80447,1,8,0:0:0:0:
181,167,81275,1,8,0:0:0:0:
334,111,81827,1,0,0:0:0:0:
313,208,82102,1,8,0:0:0:0:
348,200,82516,1,0,0:0:0:0:
173,239,82930,1,8,0:0:0:0:
241,119,83344,1,0,0:0:0:0:
241,119,83551,1,0,0:0:0:0:
241,119,83758,1,8,0:0:0:0:
241,119,84171,1,0,0:0:0:0:
207,240,85413,1,8,0:0:0:0:
173,238,86240,1,8,0:0:0:0:
241,118,86654,1,0,0:0:0:0:
241,118,86861,1,0,0:0:0:0:
241,118,87068,1,8,0:0:0:0:
241,118,87482,1,0,0:0:0:0:
202,154,88723,1,8,0:0:0:0:
173,238,89551,1,8,0:0:0:0:
241,118,89964,1,0,0:0:0:0:
241,118,90171,1,0,0:0:0:0:
241,118,90378,1,8,0:0:0:0:
241,118,90792,1,0,0:0:0:0:
251,170,92033,1,8,0:0:0:0:
181,167,92861,1,8,0:0:0:0:
334,111,93413,1,0,0:0:0:0:
313,208,93689,1,8,0:0:0:0:
181,167,94516,1,8,0:0:0:0:
334,111,95068,1,0,0:0:0:0:
313,208,95344,1,8,0:0:0:0:
244,198,96999,2,0,L|402:196,1,140
230,176,97827,1,4,0:0:0:0:
310,192,98654,1,8,0:0:0:0:
224,229,98861,1,0,0:0:0:0:
322,199,99068,1,0,0:0:0:0:
322,199,99689,1,8,0:0:0:0:
322,199,99895,1,0,0:0:0:0:
309,169,100309,1,8,0:0:0:0:
231,181,100723,1,0,0:0:0:0:
309,169,101137,1,4,0:0:0:0:
309,169,101964,1,8,0:0:0:0:
179,58,102171,1,8,0:0:0:0:
309,169,102378,1,0,0:0:0:0:
309,169,102999,1,8,0:0:0:0:
309,169,103206,1,0,0:0:0:0:
309,169,103620,1,8,0:0:0:0:
309,169,104033,1,8,0:0:0:0:
309,169,104447,1,4,0:0:0:0:
304,148,105275,1,8,0:0:0:0:
191,247,105482,1,0,0:0:0:0:
246,152,105689,1,8,0:0:0:0:
246,152,106309,1,8,0:0:0:0:
246,152,106516,1,0,0:0:0:0:
212,161,106930,1,8,0:0:0:0:
212,159,107137,1,0,0:0:0:0:
247,163,107344,1,8,0:0:0:0:
127,196,107758,1,4,0:0:0:0:
227,122,108378,1,0,0:0:0:0:
227,122,108585,1,8,0:0:0:0:
234,131,108999,1,0,0:0:0:0:
234,131,109206,1,0,0:0:0:0:
240,141,109620,1,8,0:0:0:0:
240,141,109827,1,0,0:0:0:0:
241,141,110033,1,0,0:0:0:0:
246,137,110240,1,12,0:0:0:0:
246,137,110654,1,12,0:0:0:0:
277,159,111068,1,4,0:0:0:0:
277,159,111689,1,0,0:0:0:0:
277,159,111895,1,8,0:0:0:0:
277,159,112206,1,0,0:0:0:0:
229,162,112516,1,0,0:0:0:0:
229,162,112723,1,8,0:0:0:0:
229,162,113137,1,0,0:0:0:0:
229,162,113551,1,8,0:0:0:0:
256,151,114378,1,4,0:0:0:0:
256,151,114689,1,8,0:0:0:0:
256,151,114999,1,0,0:0:0:0:
256,151,115206,1,8,0:0:0:0:
256,151,115516,1,0,0:0:0:0:
256,151,115827,1,8,0:0:0:0:
256,151,116033,1,0,0:0:0:0:
260,157,117689,1,4,0:0:0:0:
258,146,118516,1,8,0:0:0:0:
196,225,118723,1,8,0:0:0:0:
258,146,118930,1,0,0:0:0:0:
258,146,119551,1,8,0:0:0:0:
258,146,119758,1,0,0:0:0:0:
190,85,120171,1,8,0:0:0:0:
258,146,120585,1,0,0:0:0:0:
287,110,120999,1,4,0:0:0:0:
336,98,121620,1,0,0:0:0:0:
336,98,121827,1,8,0:0:0:0:
336,98,122240,1,0,0:0:0:0:
336,98,122447,1,0,0:0:0:0:
336,98,122861,1,8,0:0:0:0:
336,98,123068,1,0,0:0:0:0:
336,98,123275,1,0,0:0:0:0:
336,98,123482,1,8,0:0:0:0:
336,98,123895,1,8,0:0:0:0:
144,147,124309,1,0,0:0:0:0:
256,192,135068,12,0,137344,0:0:0:0:
240,169,137551,5,12,0:0:0:0:
240,169,137964,1,0,0:0:0:0:
240,169,138171,1,0,0:0:0:0:
240,169,138378,1,8,0:0:0:0:
309,119,138792,1,0,0:0:0:0:
320,114,139413,1,8,0:0:0:0:
320,114,139620,1,0,0:0:0:0:
320,114,140033,1,8,0:0:0:0:
320,114,140861,1,12,0:0:0:0:
320,114,141275,1,0,0:0:0:0:
320,114,141482,1,0,0:0:0:0:
320,114,141689,1,8,0:0:0:0:
320,114,142102,1,0,0:0:0:0:
320,114,142723,1,8,0:0:0:0:
320,114,142930,1,0,0:0:0:0:
320,114,143344,1,8,0:0:0:0:
320,114,143758,1,8,0:0:0:0:
320,114,144171,1,4,0:0:0:0:
327,106,144585,1,0,0:0:0:0:
327,106,144792,1,0,0:0:0:0:
327,106,144999,1,8,0:0:0:0:
327,106,145413,1,8,0:0:0:0:
354,84,146033,1,8,0:0:0:0:
354,85,146240,1,0,0:0:0:0:
242,101,146654,1,8,0:0:0:0:
258,249,147482,1,12,0:0:0:0:
176,190,147895,1,0,0:0:0:0:
176,190,148102,1,0,0:0:0:0:
176,190,148309,1,8,0:0:0:0:
176,190,148723,1,8,0:0:0:0:
227,128,149344,1,8,0:0:0:0:
227,128,149551,1,0,0:0:0:0:
264,153,149964,1,8,0:0:0:0:
264,153,150378,1,8,0:0:0:0:
264,153,150792,1,4,0:0:0:0:
264,153,151206,1,0,0:0:0:0:
264,153,151413,1,0,0:0:0:0:
264,153,151620,1,8,0:0:0:0:
256,144,152033,1,0,0:0:0:0:
256,144,152654,1,8,0:0:0:0:
256,144,152861,1,0,0:0:0:0:
267,148,153275,1,8,0:0:0:0:
267,148,154102,1,4,0:0:0:0:
267,148,154516,1,0,0:0:0:0:
267,148,154723,1,0,0:0:0:0:
267,148,154930,1,8,0:0:0:0:
275,145,155344,1,8,0:0:0:0:
275,145,155964,1,8,0:0:0:0:
275,145,156171,1,0,0:0:0:0:
275,145,156585,1,8,0:0:0:0:
275,145,156999,1,8,0:0:0:0:
275,145,157413,1,12,0:0:0:0:
289,136,157827,1,0,0:0:0:0:
289,136,158033,1,0,0:0:0:0:
289,136,158240,1,8,0:0:0:0:
289,136,158654,1,0,0:0:0:0:
289,136,159275,1,8,0:0:0:0:
289,136,159482,1,0,0:0:0:0:
296,130,159895,1,8,0:0:0:0:
298,130,160102,1,0,0:0:0:0:
296,130,160723,1,12,0:0:0:0:
296,130,161344,1,0,0:0:0:0:
296,130,161551,1,8,0:0:0:0:
298,130,161964,1,0,0:0:0:0:
242,128,162585,1,8,0:0:0:0:
242,128,162792,1,0,0:0:0:0:
242,128,163206,1,4,0:0:0:0:
242,128,163620,1,4,0:0:0:0:
242,128,164033,1,12,0:0:0:0:
242,128,164861,1,8,0:0:0:0:
256,133,165275,1,0,0:0:0:0:
206,172,165482,1,8,0:0:0:0:
212,104,165895,1,8,0:0:0:0:
212,104,166102,1,0,0:0:0:0:
236,99,166516,1,8,0:0:0:0:
211,142,166930,1,0,0:0:0:0:
222,139,167137,1,0,0:0:0:0:
211,142,167344,1,12,0:0:0:0:
222,139,168171,1,8,0:0:0:0:
222,139,168585,1,0,0:0:0:0:
222,139,168792,1,8,0:0:0:0:
222,139,169206,1,8,0:0:0:0:
222,139,169413,1,0,0:0:0:0:
229,130,169827,1,8,0:0:0:0:
230,130,170240,1,0,0:0:0:0:
229,130,170654,1,12,0:0:0:0:
229,130,171482,1,8,0:0:0:0:
229,130,171895,1,0,0:0:0:0:
229,130,172516,1,8,0:0:0:0:
229,130,172723,1,0,0:0:0:0:
229,130,173137,1,8,0:0:0:0:
229,130,173344,1,0,0:0:0:0:
229,130,173964,1,12,0:0:0:0:
229,130,174585,1,0,0:0:0:0:
229,130,174792,1,8,0:0:0:0:
229,130,175206,1,0,0:0:0:0:
229,130,175827,1,8,0:0:0:0:
235,126,176033,1,0,0:0:0:0:
235,126,176447,1,8,0:0:0:0:
235,126,176861,1,8,0:0:0:0:
235,126,177322,1,4,0:0:0:0:
236,161,178149,1,0,0:0:0:0:
149,139,178976,1,0,0:0:0:0:
100,147,179804,1,8,0:0:0:0:
211,132,180631,1,8,0:0:0:0:
267,47,181459,1,0,0:0:0:0:
178,161,182286,1,0,0:0:0:0:
234,203,182700,1,8,0:0:0:0:
234,203,183114,1,8,0:0:0:0:
234,203,183528,1,8,0:0:0:0:
59,163,184769,1,0,0:0:0:0:
170,146,185597,1,0,0:0:0:0:
255,204,185804,1,0,0:0:0:0:
170,146,186011,1,8,0:0:0:0:
269,169,186424,1,8,0:0:0:0:
247,136,187252,1,8,0:0:0:0:
266,227,188080,1,8,0:0:0:0:
105,176,188907,1,0,0:0:0:0:
194,176,189735,1,8,0:0:0:0:
