osu file format v14

[General]
AudioFilename: audio.mp3
AudioLeadIn: 0
PreviewTime: 137560
Countdown: 0
SampleSet: Soft
StackLeniency: 0.7
Mode: 0
LetterboxInBreaks: 0
WidescreenStoryboard: 0

[Editor]
Bookmarks: 1835,15077,29973,43215,56456,69698,82939,96180,97836,111077,124318,137560,150801,164042,177284,190939
DistanceSpacing: 0.2
BeatDivisor: 4
GridSize: 4
TimelineZoom: 1.9

[Metadata]
Title:God is a woman
TitleUnicode:God is a woman
Artist:Ariana Grande
ArtistUnicode:Ariana Grande
Creator:Mao
Version:Seraphic
Source:
Tags:pop english hip hop sweetener republic jasontime12345
BeatmapID:2406539
BeatmapSetID:1153008

[Difficulty]
HPDrainRate:7
CircleSize:4
OverallDifficulty:7
ApproachRate:8.5
SliderMultiplier:1.8
SliderTickRate:1

[Events]
//Background and Video events
0,0,"bg.jpg",0,0
//Break Periods
//Storyboard Layer 0 (Background)
//Storyboard Layer 1 (Fail)
//Storyboard Layer 2 (Pass)
//Storyboard Layer 3 (Foreground)
//Storyboard Layer 4 (Overlay)
//Storyboard Sound Samples

[TimingPoints]
1837,413.793103448276,4,2,1,30,1,0
1838,-250,4,2,1,30,0,0
4837,-250,4,2,1,10,0,0
4940,-250,4,2,1,30,0,0
9285,-166.666666666667,4,2,1,30,0,0
15078,-250,4,2,1,30,0,0
18388,-125,4,2,1,30,0,0
19630,-250,4,2,1,30,0,0
22526,-133.333333333333,4,2,1,30,0,0
22940,-166.666666666667,4,2,1,30,0,0
27931,-166.666666666667,4,2,0,5,0,0
29974,-80,4,2,1,60,0,0
31630,-133.333333333333,4,2,1,60,0,0
33285,-80,4,2,1,60,0,0
34940,-133.333333333333,4,2,1,60,0,0
35768,-80,4,2,1,60,0,0
36181,-133.333333333333,4,2,1,60,0,0
36595,-80,4,2,1,60,0,0
38250,-133.333333333333,4,2,1,60,0,0
40112,-80,4,2,1,60,0,0
44871,-133.333333333333,4,2,1,60,0,0
46526,-80,4,2,1,60,0,0
48181,-133.333333333333,4,2,1,60,0,0
49009,-80,4,2,1,60,0,0
49423,-133.333333333333,4,2,1,60,0,0
49837,-80,4,2,1,60,0,0
51492,-133.333333333333,4,2,1,60,0,0
53147,-80,4,2,1,60,0,0
56871,-100,4,2,1,60,0,0
59768,-133.333333333333,4,2,1,60,0,0
60181,-100,4,2,1,60,0,0
60802,-80,4,2,1,60,0,0
63078,-133.333333333333,4,2,1,60,0,0
63492,-100,4,2,1,60,0,0
66388,-133.333333333333,4,2,1,60,0,0
66802,-100,4,2,1,60,0,0
69699,-250,4,2,1,30,0,0
72802,-125,4,2,1,30,0,0
74250,-250,4,2,1,30,0,0
77147,-133.333333333333,4,2,1,30,0,0
77561,-166.666666666667,4,2,0,30,0,0
82940,-166.666666666667,4,2,0,40,0,0
86250,-125,4,2,0,40,0,0
87078,-166.666666666667,4,2,0,40,0,0
89561,-125,4,2,0,40,0,0
90388,-166.666666666667,4,2,0,40,0,0
90802,-125,4,2,0,40,0,0
91630,-166.666666666667,4,2,0,40,0,0
97009,-66.6666666666667,4,2,0,40,0,0
97423,-28.5714285714286,4,2,0,40,0,0
97837,-80,4,2,1,70,0,0
98664,-133.333333333333,4,2,1,70,0,0
101147,-80,4,2,1,70,0,0
101768,-133.333333333333,4,2,1,70,0,0
103630,-80,4,2,1,70,0,0
104043,-133.333333333333,4,2,1,70,0,0
104457,-80,4,2,1,70,0,0
106940,-66.6666666666667,4,2,1,70,0,0
109423,-133.333333333333,4,2,1,70,0,0
111078,-66.6666666666667,4,2,1,70,0,0
111699,-100,4,2,1,70,0,0
114388,-66.6666666666667,4,2,1,70,0,0
115216,-100,4,2,1,70,0,0
117699,-66.6666666666667,4,2,1,70,0,0
119354,-100,4,2,1,70,0,0
119768,-80,4,2,1,70,0,0
120595,-100,4,2,1,70,0,0
121009,-66.6666666666667,4,2,1,70,0,0
124319,-200,4,2,1,50,0,0
127630,-133.333333333333,4,2,1,50,0,0
130940,-100,4,2,1,50,0,0
137561,-57.1428571428571,4,2,1,80,0,1
137974,-100,4,2,1,80,0,0
140871,-66.6666666666667,4,2,1,80,0,0
141492,-100,4,2,1,80,0,0
143354,-66.6666666666667,4,2,1,80,0,0
144181,-57.1428571428571,4,2,1,80,0,1
144595,-100,4,2,1,80,0,0
146871,-80,4,2,1,80,0,0
147492,-66.6666666666667,4,2,1,80,0,1
147595,-66.6666666666667,4,2,1,80,0,0
148112,-57.1428571428571,4,2,1,80,0,0
148319,-100,4,2,1,80,0,0
149147,-133.333333333333,4,2,1,80,0,0
149974,-66.6666666666667,4,2,1,80,0,1
150078,-66.6666666666667,4,2,1,80,0,0
150802,-57.1428571428571,4,2,1,80,0,1
151216,-100,4,2,1,80,0,0
154112,-66.6666666666667,4,2,1,80,0,0
154940,-66.6666666666667,4,2,1,80,0,1
155561,-66.6666666666667,4,2,1,80,0,0
156181,-100,4,2,1,80,0,0
156595,-66.6666666666667,4,2,1,80,0,0
157423,-57.1428571428571,4,2,1,80,0,1
157837,-100,4,2,1,80,0,0
160112,-80,4,2,1,80,0,0
160733,-66.6666666666667,4,2,1,80,0,1
160837,-66.6666666666667,4,2,1,80,0,0
161354,-57.1428571428571,4,2,1,80,0,0
161561,-100,4,2,1,80,0,0
162388,-133.333333333333,4,2,1,80,0,0
163216,-66.6666666666667,4,2,1,80,0,0
164043,-57.1428571428571,4,2,1,80,0,0
164871,-66.6666666666667,4,2,1,80,0,1
165699,-100,4,2,1,80,0,1
166526,-66.6666666666667,4,2,1,80,0,1
166940,-66.6666666666667,4,2,1,80,0,0
167354,-57.1428571428571,4,2,1,80,0,0
167768,-100,4,2,1,80,0,0
168181,-66.6666666666667,4,2,1,80,0,1
169009,-100,4,2,1,80,0,1
169733,-100,4,2,1,80,0,0
169837,-100,4,2,1,80,0,1
170561,-100,4,2,1,80,0,0
170664,-66.6666666666667,4,2,1,80,0,1
170768,-66.6666666666667,4,2,1,80,0,0
170974,-100,4,2,1,80,0,0
171492,-66.6666666666667,4,2,1,80,0,0
173354,-80,4,2,1,80,0,0
173974,-66.6666666666667,4,2,1,80,0,1
174078,-66.6666666666667,4,2,1,80,0,0
174595,-50,4,2,1,80,0,0
174802,-100,4,2,1,80,0,0
175630,-133.333333333333,4,2,1,80,0,0
176457,-133.333333333333,4,2,1,80,0,1
176871,461.538461538462,4,2,1,50,1,0
176871,-133.333333333333,4,2,1,50,0,0
177332,405.405405405405,4,2,1,40,1,0
177332,-100,4,2,1,40,0,0
178142,394.736842105263,4,2,1,40,1,0
178142,-200,4,2,1,40,0,0
178734,428.571428571429,4,2,1,40,1,0
178948,422.535211267606,4,2,1,40,1,0
178948,-200,4,2,1,40,0,0
180004,437.956204379562,4,2,1,40,1,0
180004,-80,4,2,1,40,0,1
180660,480,4,2,1,40,1,0
180660,-76.9230769230769,4,2,1,40,0,1
181140,555.555555555556,4,2,1,10,1,0
181417,413.793103448276,4,2,1,40,1,0
181417,-200,4,2,1,40,0,0
182037,454.545454545455,4,2,1,40,1,0
182264,413.793103448276,4,2,1,40,1,0
182264,-200,4,2,1,40,0,0
182677,-100,4,2,1,40,0,1
183505,-80,4,2,1,40,0,1
184332,-80,4,2,1,40,0,0
184746,-200,4,2,1,40,0,0
185574,419.58041958042,4,2,1,40,1,0
185574,-200,4,2,1,40,0,0
187252,372.670807453416,4,2,1,40,1,0
187252,-100,4,2,1,40,0,0
187811,491.803278688525,4,2,1,40,1,0
187933,833.333333333333,4,2,1,40,1,0
188141,394.736842105263,4,2,1,40,1,0
188733,845.070422535211,4,2,1,40,1,0
188944,425.531914893617,4,2,1,40,1,0
189795,-166.666666666667,4,2,1,40,0,0
189821,-166.666666666667,4,2,0,5,0,0

[Colours]
Combo1 : 203,107,136
Combo2 : 33,222,193
Combo3 : 106,129,166
Combo4 : 213,189,155

[HitObjects]
100,6,1837,5,4,0:0:0:0:
8,164,2250,1,2,0:0:0:0:
23,241,2457,1,0,0:0:0:0:
100,229,2664,1,2,0:0:0:0:
104,239,3078,2,0,P|244:247|377:316,1,288,2|0,0:0|0:0,0:0:0:0:
417,377,4940,1,0,3:0:0:0:
495,218,5147,5,2,0:0:0:0:
347,70,5561,1,2,0:0:0:0:
404,11,5768,1,0,0:0:0:0:
478,41,5975,1,2,0:0:0:0:
473,57,6388,2,0,P|367:79|273:131,1,216,2|2,0:0|0:0,0:0:0:0:
43,366,8457,5,2,0:0:0:0:
90,207,8871,1,2,0:0:0:0:
35,144,9078,1,0,0:0:0:0:
79,73,9285,2,0,L|143:86,1,53.9999983520508,6|0,0:0|0:0,0:0:0:0:
191,198,9699,2,0,P|271:104|463:45,1,323.999990112305,4|0,0:0|0:0,0:0:0:0:
468,53,11354,1,2,0:0:0:0:
448,136,11561,1,2,0:0:0:0:
495,211,11768,5,4,0:0:0:0:
420,260,12078,1,2,0:0:0:0:
376,252,12319,1,2,0:0:0:0:
321,365,12595,2,2,P|325:311|339:259,1,107.999996704102,6|0,0:0|0:0,0:3:0:0:
406,25,13423,69,4,0:0:0:0:
306,76,13733,1,2,0:0:0:0:
261,47,13974,1,2,0:0:0:0:
127,63,14250,2,2,P|166:70|239:88,1,107.999996704102,4|2,0:0|0:0,0:3:0:0:
232,86,15078,5,4,0:0:0:0:
115,355,15491,1,2,0:0:0:0:
77,280,15698,1,0,0:0:0:0:
5,240,15905,1,2,0:0:0:0:
0,257,16319,2,0,P|58:258|269:369,1,288,2|0,0:0|0:0,0:0:0:0:
289,240,18181,5,2,0:0:0:0:
236,178,18388,2,0,P|222:144|285:62,1,144,2|2,0:0|0:0,0:0:0:0:
366,78,19009,1,0,0:0:0:0:
429,22,19216,1,2,0:0:0:0:
415,11,19630,2,0,P|399:51|369:222,1,216,2|2,0:0|0:0,0:0:0:0:
66,38,21698,5,2,0:0:0:0:
187,123,22112,1,2,0:0:0:0:
117,165,22319,1,0,0:0:0:0:
99,248,22526,2,0,P|67:237|24:229,1,67.5000025749208,6|0,0:0|0:0,0:0:0:0:
128,370,22940,2,0,P|206:362|256:150,1,323.999990112305,4|0,0:0|0:0,0:0:0:0:
271,144,24595,1,2,0:0:0:0:
356,93,24802,1,2,0:0:0:0:
439,39,25009,69,4,0:0:0:0:
420,143,25319,1,2,0:0:0:0:
475,207,25560,1,2,0:0:0:0:
441,327,25836,2,2,P|436:282|443:207,1,107.999996704102,6|0,0:0|0:0,0:3:0:0:
237,374,26664,5,4,0:0:0:0:
288,274,26974,1,2,0:0:0:0:
249,229,27216,1,2,0:0:0:0:
304,87,27491,2,2,P|290:139|280:192,2,107.999996704102,4|2|2,0:0|0:0|0:3,0:3:0:0:
39,270,29974,6,2,B|16:233|21:199|21:199|66:135|66:55,1,225,4|2,1:0|0:0,0:0:0:0:
84,47,30802,5,8,1:2:0:0:
170,72,31009,1,2,0:0:0:0:
148,159,31216,1,6,3:0:0:0:
120,79,31423,1,2,0:0:0:0:
247,28,31630,70,0,P|294:34|337:41,1,67.5000025749208,2|2,0:0|3:0,0:3:0:0:
451,180,32043,2,0,P|404:174|364:167,1,67.5000025749208,4|0,3:0|0:0,0:0:0:0:
421,11,32457,2,0,P|415:58|407:99,1,67.5000025749208,10|4,1:2|0:3,0:0:0:0:
280,207,32871,2,0,P|286:160|294:119,1,67.5000025749208,2|0,0:0|0:0,0:3:0:0:
308,141,33285,6,2,B|328:158|338:186|338:186|303:255|303:355,1,225,4|2,1:0|3:2,0:0:0:0:
308,365,34112,5,8,0:0:0:0:
394,327,34319,1,2,0:0:0:0:
342,130,34526,1,6,3:0:0:0:
250,158,34733,1,2,0:0:0:0:
321,240,34940,6,0,P|351:231|386:215,1,67.5000025749208,2|2,0:0|0:3,0:0:0:0:
266,335,35354,2,0,P|236:344|201:360,1,67.5000025749208,4|0,0:3|0:0,0:0:0:0:
31,167,35768,2,2,P|37:233|47:285,1,112.5,14|4,1:3|0:3,0:3:0:0:
148,119,36181,2,2,P|142:53|138:26,1,67.5000025749208,2|0,0:0|0:0,0:0:0:0:
128,42,36595,70,2,B|99:60|86:78|86:78|126:137|137:243,1,225,0|2,1:0|0:0,0:0:0:0:
150,242,37423,5,8,1:2:0:0:
231,207,37630,1,2,0:0:0:0:
381,353,37837,1,6,3:0:0:0:
469,322,38043,1,2,0:0:0:0:
336,267,38250,6,0,P|302:283|279:312,1,67.5000025749208,2|2,0:0|3:0,0:0:0:0:
390,202,38664,2,2,P|424:186|447:157,1,67.5000025749208,4|2,3:0|0:0,0:0:0:0:
416,32,39078,2,0,P|382:48|359:77,1,67.5000025749208,12|4,1:2|0:3,0:0:0:0:
162,244,39492,2,0,P|196:228|219:199,1,67.5000025749208,2|0,0:0|0:0,0:0:0:0:
213,192,39905,5,4,1:0:0:0:
160,324,40112,2,2,B|140:293|144:258|144:258|103:226|51:233,1,168.75,4|0,0:0|0:0,0:0:0:0:
36,246,40526,69,6,3:0:0:0:
64,337,40733,1,8,1:2:0:0:
64,337,40940,1,2,0:0:0:0:
188,131,41147,1,6,3:0:0:0:
167,50,41354,1,2,0:0:0:0:
166,240,41561,5,2,0:0:0:0:
188,321,41768,1,2,3:0:0:0:
320,160,41974,1,4,3:0:0:0:
293,69,42181,1,2,0:0:0:0:
395,235,42388,5,14,1:2:0:0:
427,332,42595,1,2,0:0:0:0:
512,117,42802,1,2,3:0:0:0:
478,4,43009,1,2,0:0:0:0:
209,372,43216,6,2,B|207:336|191:301|191:301|196:227|238:151,1,225,4|2,1:0|0:0,0:0:0:0:
250,137,44044,69,8,1:2:0:0:
164,112,44251,1,2,0:0:0:0:
186,25,44458,1,6,3:0:0:0:
214,105,44665,1,2,0:0:0:0:
76,174,44872,6,0,P|43:169|10:165,1,67.5000025749208,2|2,0:0|3:0,0:3:0:0:
90,282,45285,2,0,P|123:287|157:292,1,67.5000025749208,4|0,3:0|0:0,0:0:0:0:
252,171,45699,2,0,P|246:218|238:259,1,67.5000025749208,10|4,1:2|0:3,0:0:0:0:
300,376,46113,2,0,P|306:329|314:288,1,67.5000025749208,2|0,0:0|0:0,0:3:0:0:
301,300,46527,6,2,B|325:273|354:270|354:270|408:345|494:364,1,225,4|2,1:0|3:2,0:0:0:0:
500,352,47354,5,8,0:0:0:0:
485,264,47561,1,2,0:0:0:0:
345,86,47768,1,6,3:0:0:0:
363,177,47975,1,2,0:0:0:0:
457,116,48182,70,0,P|466:86|482:51,1,67.5000025749208,2|2,0:0|0:3,0:0:0:0:
364,197,48596,2,0,P|334:206|299:222,1,67.5000025749208,4|0,0:3|0:0,0:0:0:0:
172,11,49010,2,2,P|178:77|188:129,1,112.5,14|4,1:3|0:3,0:3:0:0:
71,302,49423,2,2,P|65:236|61:209,1,67.5000025749208,2|0,0:0|0:0,0:0:0:0:
51,243,49837,6,2,B|69:274|101:287|101:287|147:211|236:214,1,225,0|2,1:0|0:0,0:0:0:0:
231,233,50665,5,8,1:2:0:0:
266,314,50872,1,2,0:0:0:0:
429,194,51079,1,6,3:0:0:0:
398,106,51285,1,2,0:0:0:0:
365,297,51492,6,0,P|366:340|373:376,1,67.5000025749208,2|2,0:0|3:0,0:0:0:0:
502,233,51906,2,2,P|469:224|436:223,1,67.5000025749208,4|2,3:0|0:0,0:0:0:0:
253,181,52320,2,0,P|286:197|323:198,1,67.5000025749208,12|4,1:2|0:3,0:0:0:0:
145,25,52734,2,0,P|107:28|76:47,1,67.5000025749208,2|0,0:0|0:0,0:0:0:0:
65,33,53147,69,4,1:0:0:0:
192,98,53354,2,2,B|179:126|145:147|145:147|87:116|49:124,1,168.75,4|0,0:0|0:0,0:0:0:0:
35,136,53768,5,6,3:0:0:0:
12,229,53975,1,8,1:2:0:0:
12,229,54182,1,2,0:0:0:0:
164,371,54389,1,6,3:0:0:0:
144,334,54492,1,0,3:0:0:0:
144,293,54596,1,2,0:0:0:0:
159,308,54699,1,0,3:0:0:0:
134,354,54803,5,2,0:0:0:0:
42,330,55010,1,2,3:0:0:0:
135,195,55216,1,4,3:0:0:0:
236,224,55423,1,2,0:0:0:0:
382,360,55630,5,14,1:2:0:0:
342,334,55733,1,0,3:0:0:0:
295,335,55837,1,2,0:0:0:0:
503,199,56044,1,2,3:0:0:0:
476,238,56147,1,0,3:0:0:0:
485,286,56251,1,2,0:0:0:0:
295,87,56457,69,4,1:0:0:0:
290,109,56871,2,0,P|342:93|381:82,1,90,2|2,0:0|0:0,0:0:0:0:
349,181,57285,1,14,1:2:0:0:
226,269,57492,1,2,0:0:0:0:
200,351,57699,2,0,P|148:367|76:387,1,120,6|0,3:0|0:0,0:0:0:0:
83,262,58112,5,2,0:0:0:0:
82,215,58250,1,0,3:0:0:0:
113,180,58388,1,2,0:0:0:0:
85,287,58526,5,14,3:0:0:0:
48,279,58664,1,2,0:0:0:0:
12,296,58802,1,4,0:0:0:0:
41,199,58940,5,8,1:2:0:0:
12,143,59078,1,2,0:0:0:0:
18,79,59216,1,0,3:0:0:0:
125,30,59354,5,4,0:0:0:0:
168,104,59492,1,2,0:0:0:0:
157,190,59630,1,0,3:0:0:0:
152,175,59768,6,0,L|224:187,1,67.5000025749208,4|2,1:0|0:0,0:0:0:0:
416,313,60181,2,2,L|284:288,1,135,6|0,0:0|0:0,0:0:0:0:
245,359,60595,1,8,1:2:0:0:
376,216,60802,2,2,P|427:184|480:175,1,112.5,2|4,0:0|3:0,0:3:0:0:
368,75,61216,2,0,P|340:58|312:37,1,56.25,2|0,0:0|0:0,0:0:0:0:
436,72,61423,5,2,0:0:0:0:
402,101,61561,1,0,3:0:0:0:
355,102,61699,1,2,0:0:0:0:
239,54,61837,5,14,3:0:0:0:
285,22,61975,1,2,0:0:0:0:
346,30,62113,1,4,0:0:0:0:
276,140,62251,5,8,1:2:0:0:
236,182,62389,1,2,0:0:0:0:
180,171,62527,1,0,3:0:0:0:
59,77,62665,5,4,0:0:0:0:
114,10,62803,1,2,0:0:0:0:
200,19,62941,1,0,3:0:0:0:
186,10,63078,6,0,L|172:82,1,67.5000025749208,4|0,1:0|0:0,0:0:0:0:
3,210,63492,2,0,P|55:194|94:183,1,90,2|2,0:0|0:0,0:0:0:0:
66,279,63906,1,14,1:2:0:0:
272,229,64113,1,2,0:0:0:0:
246,323,64320,2,0,P|298:336|370:358,1,120,6|0,3:0|0:0,0:0:0:0:
468,323,64733,5,2,0:0:0:0:
497,289,64871,1,0,3:0:0:0:
498,242,65009,1,2,0:0:0:0:
374,195,65147,5,14,3:0:0:0:
351,248,65285,1,2,0:0:0:0:
364,306,65423,1,4,0:0:0:0:
475,253,65561,5,8,1:2:0:0:
502,183,65699,1,2,0:0:0:0:
504,108,65837,1,0,3:0:0:0:
341,64,65975,5,4,0:0:0:0:
312,157,66113,1,2,0:0:0:0:
336,255,66251,1,0,3:0:0:0:
354,237,66389,6,0,L|284:252,1,67.5000025749208,4|2,1:0|0:0,0:0:0:0:
382,362,66802,1,2,0:0:0:0:
382,362,67009,1,6,3:0:0:0:
172,275,67216,6,2,P|122:252|66:246,1,90,10|2,1:2|0:0,0:3:0:0:
202,369,67630,1,6,3:0:0:0:
217,376,68043,5,2,0:0:0:0:
279,226,68250,2,2,P|302:166|319:123,1,90,2|4,3:0|3:0,0:0:0:0:
232,10,68664,2,2,P|209:70|192:113,1,90,2|14,0:0|1:2,0:3:0:0:
209,113,68974,1,2,0:0:0:0:
234,123,69078,1,2,0:0:0:0:
265,122,69181,1,0,3:0:0:0:
289,110,69285,1,2,0:0:0:0:
312,81,69388,1,2,0:0:0:0:
332,51,69492,1,0,3:0:0:0:
363,32,69595,1,0,3:0:0:0:
399,29,69699,5,4,0:0:0:0:
469,364,70112,1,2,0:0:0:0:
451,284,70319,1,0,0:0:0:0:
377,249,70526,1,2,0:0:0:0:
388,236,70940,2,0,B|301:230|214:352|127:348,1,288,2|0,0:0|0:0,0:0:0:0:
1,184,72802,5,2,0:0:0:0:
70,234,73009,2,0,P|105:224|131:123,1,144,2|2,0:0|0:0,0:0:0:0:
70,72,73630,1,0,0:0:0:0:
135,19,73837,1,2,0:0:0:0:
123,10,74250,2,0,B|227:4|218:80|324:72,1,216,2|2,0:0|0:0,0:0:0:0:
457,362,76319,5,2,0:0:0:0:
487,100,76733,1,2,0:0:0:0:
414,154,76940,1,0,0:0:0:0:
442,241,77147,2,0,P|477:247|519:256,1,67.5000025749208,6|0,0:0|0:0,0:0:0:0:
368,312,77561,2,0,B|304:264|216:296|224:380|144:408|76:344,1,323.999990112305,4|0,0:0|0:0,0:0:0:0:
66,350,79216,1,2,0:0:0:0:
20,269,79423,1,2,0:0:0:0:
51,178,79630,5,4,0:0:0:0:
154,156,79940,1,2,0:0:0:0:
193,81,80181,1,2,0:0:0:0:
317,68,80457,2,2,P|277:89|204:111,1,107.999996704102,6|0,0:0|0:0,0:3:0:0:
498,216,81285,5,4,0:0:0:0:
398,267,81595,1,2,0:0:0:0:
324,224,81837,1,2,0:0:0:0:
182,279,82112,2,2,P|234:265|288:256,1,107.999996704102,4|2,0:0|0:0,0:3:0:0:
278,274,82940,5,4,0:0:0:0:
13,125,83354,1,0,3:0:0:0:
16,42,83561,1,2,0:0:0:0:
94,16,83768,2,0,L|150:29,1,53.9999983520508,8|0,0:0|0:0,0:0:0:0:
88,249,84181,2,0,L|29:266,1,53.9999983520508,4|0,3:2|0:0,0:0:0:0:
113,147,84595,2,0,P|169:163|211:212,1,107.999996704102,0|2,3:0|0:0,0:0:0:0:
223,284,85216,1,0,0:0:0:0:
303,263,85423,2,0,P|353:279|411:307,1,107.999996704102,8|0,0:0|0:0,0:0:0:0:
447,373,86043,1,2,0:0:0:0:
394,191,86250,6,0,P|452:155|497:71,1,144,4|2,0:0|0:0,0:0:0:0:
441,21,86871,1,0,0:0:0:0:
356,13,87078,2,0,L|342:79,1,53.9999983520508,10|0,0:0|0:0,0:0:0:0:
139,147,87492,2,0,L|134:85,1,53.9999983520508,4|0,0:0|0:0,0:0:0:0:
230,60,87905,2,0,P|241:110|243:184,1,107.999996704102,0|0,3:0|3:0,0:0:0:0:
263,254,88526,1,2,0:0:0:0:
191,302,88733,2,2,P|140:286|77:276,1,107.999996704102,8|0,0:0|0:0,0:3:0:0:
22,326,89354,1,0,0:0:0:0:
240,369,89561,6,0,P|247:312|223:223,1,144,4|2,0:0|0:0,0:0:0:0:
291,163,90181,1,0,0:0:0:0:
378,188,90388,2,0,L|415:144,1,53.9999983520508,10|0,0:0|0:0,0:0:0:0:
476,352,90802,6,0,P|436:351|433:257,1,144,6|2,0:0|0:0,0:0:0:0:
502,250,91423,1,0,3:0:0:0:
403,255,91630,2,0,P|381:222|336:167,1,107.999996704102,2|8,0:0|0:0,0:0:0:0:
324,173,92457,1,2,0:0:0:0:
378,100,92664,1,2,0:0:0:0:
416,16,92871,5,4,0:0:0:0:
485,106,93181,1,2,0:0:0:0:
443,173,93422,1,2,0:0:0:0:
489,301,93698,2,2,P|484:256|491:181,1,107.999996704102,14|0,0:0|0:0,0:3:0:0:
237,374,94526,5,4,0:0:0:0:
338,327,94837,1,2,0:0:0:0:
264,272,95078,1,2,0:0:0:0:
318,142,95354,2,2,P|304:194|295:248,1,107.999996704102,12|2,0:0|0:0,0:3:0:0:
243,264,97009,6,2,B|272:249|272:249|248:236|248:236|269:220|269:220|251:199|251:199|265:171|265:171|255:146|255:146|260:114,1,202.500007724762,2|0,0:0|0:0,0:3:0:0:
186,171,97423,6,0,L|345:206,1,157.500001502037,4|0,0:0|0:0,0:0:0:0:
342,218,97837,6,2,B|301:204|261:225|261:225|254:302|211:355,1,225,4|2,1:0|0:0,0:0:0:0:
37,226,98457,5,2,0:0:0:0:
20,311,98664,2,0,P|31:348|35:377,1,67.5000025749208,10|0,1:2|0:0,0:0:0:0:
55,142,99078,2,0,P|44:105|40:76,1,67.5000025749208,6|0,3:0|0:0,0:0:0:0:
160,198,99492,5,2,0:0:0:0:
210,28,99699,1,2,3:0:0:0:
341,163,99905,2,0,P|352:200|356:229,1,67.5000025749208,4|0,3:0|0:0,0:0:0:0:
240,128,100319,1,10,0:0:0:0:
229,371,100526,1,2,0:0:0:0:
207,341,100630,1,0,3:0:0:0:
214,303,100733,2,2,P|236:282|280:270,1,67.5000025749208,2|0,0:0|0:0,0:3:0:0:
489,357,101147,6,2,B|460:365|438:384|438:384|372:301|283:298,1,225,4|2,1:0|3:2,0:0:0:0:
472,159,101768,1,2,3:2:0:0:
499,84,101974,2,0,P|497:34|484:-2,1,67.5000025749208,10|0,1:2|0:0,0:0:0:0:
390,161,102388,2,0,P|392:211|405:247,1,67.5000025749208,6|0,3:0|0:0,0:0:0:0:
210,365,102802,5,4,0:0:0:0:
255,238,103009,1,2,3:0:0:0:
124,351,103216,2,0,P|122:301|109:265,1,67.5000025749208,4|0,3:0|0:0,0:0:0:0:
300,115,103630,2,2,P|243:101|188:67,1,112.5,14|0,1:2|0:0,0:3:0:0:
30,219,104043,2,0,P|22:179|23:150,1,67.5000025749208,0|4,3:0|0:3,0:0:0:0:
306,225,104457,6,2,B|269:249|231:246|231:246|203:177|125:148,1,225,4|2,1:0|0:0,0:0:0:0:
127,149,105078,1,0,0:0:0:0:
52,371,105285,1,10,1:2:0:0:
8,300,105492,1,2,0:0:0:0:
80,258,105699,1,4,3:0:0:0:
125,330,105905,1,2,0:0:0:0:
48,142,106112,6,2,P|28:76|17:13,1,112.5,4|2,0:0|3:0,0:3:0:0:
235,16,106526,2,2,P|263:109|280:232,1,168.75,6|0,3:0|0:0,0:0:0:0:
226,375,106940,2,2,P|213:301|239:241,1,135.000005149842,12|4,1:2|3:0,0:3:0:0:
234,247,107250,1,0,3:0:0:0:
234,247,107354,1,2,3:0:0:0:
437,363,107561,1,2,0:0:0:0:
430,101,107768,5,6,1:0:0:0:
503,21,107974,2,2,B|454:30|434:63|434:63|473:136|487:246,1,270.000010299683,4|6,0:0|3:0,0:0:0:0:
230,192,108595,5,14,1:2:0:0:
325,244,108802,1,2,0:0:0:0:
274,349,109009,1,6,3:0:0:0:
170,292,109216,1,2,0:0:0:0:
332,211,109423,6,0,L|420:218,1,67.5000025749208,2|2,0:0|0:3,0:0:0:0:
180,173,109837,2,2,L|92:166,1,67.5000025749208,4|2,3:0|0:0,0:0:0:0:
345,93,110250,5,14,1:3:0:0:
437,46,110457,1,2,0:0:0:0:
167,291,110664,1,2,0:1:0:0:
75,338,110871,1,2,0:0:0:0:
222,69,111078,6,2,B|192:77|181:115|181:115|278:178|320:272,1,270.000010299683,6|2,1:0|0:0,0:0:0:0:
477,341,111699,5,2,0:0:0:0:
393,371,111905,2,0,P|398:295|411:245,1,90,10|0,1:2|0:0,0:0:0:0:
498,215,112216,2,0,L|480:264,1,45,2|6,0:0|3:0,0:0:0:0:
461,111,112526,1,2,0:0:0:0:
318,240,112733,2,2,P|271:228|225:233,1,90,2|2,0:0|3:0,0:3:0:0:
32,25,113147,2,0,P|79:37|125:32,1,90,4|0,3:0|0:0,0:0:0:0:
200,312,114388,6,2,B|177:302|174:279|174:279|215:275|274:246,1,135.000005149842,6|0,1:0|0:0,0:0:0:0:
333,193,114699,2,0,P|300:200|258:216,1,67.5000025749208,2|0,0:0|0:0,0:0:0:0:
134,86,115009,5,2,0:0:0:0:
170,109,115112,1,0,3:0:0:0:
213,116,115216,2,0,P|208:40|195:-10,1,90,10|0,1:2|0:0,0:0:0:0:
131,131,115526,2,0,L|113:180,1,45,2|6,0:0|3:0,0:0:0:0:
113,0,115836,1,2,0:0:0:0:
33,236,116043,2,2,P|49:286|54:332,1,90,2|6,0:0|3:0,0:3:0:0:
476,53,117492,5,2,1:3:0:0:
402,67,117595,1,2,1:3:0:0:
368,132,117699,2,0,B|389:108|420:97|420:97|352:11|231:34,1,270.000010299683,4|2,1:0|0:0,0:0:0:0:
236,33,118319,1,2,0:0:0:0:
108,137,118526,5,14,1:2:0:0:
89,54,118733,1,2,0:0:0:0:
198,171,118940,1,6,3:0:0:0:
211,260,119147,1,2,0:0:0:0:
87,374,119354,6,0,P|72:339|86:258,1,90,4|2,0:0|3:0,0:0:0:0:
283,206,119768,2,2,P|342:218|477:234,1,168.75,4|0,3:0|0:0,0:3:0:0:
450,232,120181,1,8,0:0:0:0:
342,343,120388,1,4,0:3:0:0:
362,135,120595,2,0,P|372:86|379:33,1,90,2|0,0:0|0:0,0:0:0:0:
368,27,121009,5,4,1:0:0:0:
251,102,121216,2,2,B|285:133|328:142|328:142|401:107|474:13,1,270.000010299683,4|4,0:0|3:0,0:0:0:0:
403,265,121837,5,10,1:2:0:0:
423,178,122043,1,2,0:0:0:0:
482,291,122250,1,6,3:0:0:0:
488,302,122354,1,0,3:0:0:0:
494,314,122457,1,2,0:0:0:0:
496,327,122561,1,0,3:0:0:0:
496,340,122664,5,4,0:0:0:0:
408,377,122871,1,2,3:0:0:0:
225,270,123078,1,6,3:0:0:0:
127,304,123285,1,2,0:0:0:0:
320,313,123492,5,4,1:0:0:0:
337,282,123595,1,0,3:0:0:0:
335,253,123699,1,2,0:0:0:0:
328,231,123802,1,0,3:0:0:0:
320,219,123905,1,2,0:0:0:0:
312,212,124009,1,2,0:3:0:0:
310,206,124112,1,2,0:3:0:0:
311,201,124216,1,2,0:3:0:0:
314,197,124319,1,4,1:0:0:0:
56,34,124733,5,2,0:0:0:0:
19,114,124940,2,0,L|26:168,1,45,2|0,0:0|1:0,0:0:0:0:
143,67,125354,1,2,0:0:0:0:
119,220,125561,1,4,0:3:0:0:
262,348,125837,5,2,0:0:0:0:
252,336,125974,2,0,L|213:348,2,30,4|0|0,0:0|0:0|0:0,0:0:0:0:
289,273,126388,2,0,L|264:294,2,30,2|0|0,3:0|0:0|0:0,0:0:0:0:
298,188,126802,2,0,L|281:231,2,30,0|0|0,1:0|0:0|0:0,0:0:0:0:
372,151,127216,2,0,L|339:170,2,30,2|0|0,0:0|0:0|0:0,0:0:0:0:
477,51,127630,6,0,P|442:92|404:188,1,135.000005149842,4|2,0:0|0:0,0:0:0:0:
368,382,128457,1,2,1:2:0:0:
445,328,128664,2,0,P|451:294|468:246,1,67.5000025749208,2|4,0:0|0:3,0:0:0:0:
261,348,129147,5,2,0:0:0:0:
244,357,129285,2,0,L|200:345,1,45.0000017166138,4|0,0:0|0:0,0:0:0:0:
166,374,129561,1,2,0:0:0:0:
121,301,129699,2,0,L|73:319,1,45.0000017166138,2|0,3:0|0:0,0:0:0:0:
60,358,129974,1,2,0:0:0:0:
49,235,130112,2,0,L|8:195,1,45.0000017166138,2|0,1:2|0:0,0:0:0:0:
8,145,130388,1,2,0:0:0:0:
108,162,130526,2,0,L|162:145,1,45.0000017166138,2|0,0:0|0:0,0:0:0:0:
173,105,130802,1,2,0:0:0:0:
80,73,130940,6,0,P|163:50|253:-5,1,180,4|2,0:0|0:0,0:0:0:0:
423,95,131768,1,2,1:2:0:0:
504,131,131974,1,2,0:0:0:0:
423,95,132181,2,0,P|352:112|290:146,1,120,4|0,3:0|0:0,0:0:0:0:
387,198,132595,6,0,P|393:227|396:257,2,60,4|0|0,0:0|0:0|0:0,0:0:0:0:
428,350,133009,2,0,P|434:324|442:289,2,60,2|0|0,3:0|0:0|0:0,0:0:0:0:
298,325,133423,1,2,1:2:0:0:
293,283,133561,1,0,3:0:0:0:
311,245,133699,1,2,0:0:0:0:
289,343,133837,1,2,3:0:0:0:
238,325,133974,1,2,0:0:0:0:
183,356,134112,1,2,0:0:0:0:
120,287,134250,6,0,P|89:224|9:139,1,180,4|2,0:0|0:0,0:0:0:0:
96,371,134871,1,2,1:2:0:0:
206,276,135078,2,0,P|218:221|229:179,1,90,4|0,0:0|0:0,0:0:0:0:
332,65,135492,2,0,P|320:108|309:151,1,90,2|0,1:2|0:0,0:0:0:0:
320,380,135905,5,2,0:0:0:0:
320,380,136112,1,2,3:0:0:0:
374,315,136319,2,0,P|406:308|463:306,1,90,2|0,1:2|0:0,0:0:0:0:
293,36,136733,5,4,0:0:0:0:
100,154,136940,1,2,0:0:0:0:
218,347,137147,1,2,0:1:0:0:
411,229,137354,1,6,0:0:0:0:
30,36,137561,6,2,B|74:17|108:42|108:42|101:132|150:191,1,236.250002253056,4|0,1:0|0:0,0:3:0:0:
138,201,137974,1,2,0:0:0:0:
239,181,138181,1,2,0:0:0:0:
336,161,138388,2,0,P|400:161|455:169,2,90,10|2|4,1:2|0:0|3:0,0:0:0:0:
148,352,139009,5,2,0:0:0:0:
75,301,139216,2,2,P|64:260|64:203,1,90,4|2,0:0|3:0,0:3:0:0:
303,268,139630,1,12,3:0:0:0:
280,358,139837,1,2,0:0:0:0:
146,180,140043,2,0,P|132:92|139:-5,1,180,12|2,1:2|0:0,0:0:0:0:
228,10,140664,1,0,0:0:0:0:
433,240,140871,6,2,B|457:218|452:178|452:178|350:166|270:81,1,270.000010299683,4|2,1:0|0:0,0:3:0:0:
444,23,141492,1,0,3:0:0:0:
498,93,141699,2,2,P|498:145|478:198,1,90,8|0,1:2|0:0,0:3:0:0:
260,141,142112,1,6,3:0:0:0:
293,34,142319,1,2,0:0:0:0:
427,285,142526,5,4,0:0:0:0:
360,368,142733,1,2,3:0:0:0:
278,292,142940,2,2,P|234:269|119:236,1,135,12|0,3:0|0:0,0:3:0:0:
45,367,143354,2,2,P|124:364|170:323,1,135.000005149842,14|0,1:2|0:0,0:0:0:0:
153,77,143768,2,2,P|87:56|-13:15,1,135.000005149842,2|0,3:0|0:0,0:0:0:0:
375,343,144181,6,2,B|406:372|447:365|447:365|478:282|508:218,1,236.250002253056,4|0,1:0|0:0,0:3:0:0:
504,197,144595,1,2,0:0:0:0:
449,112,144802,1,2,0:0:0:0:
364,162,145009,2,0,P|320:145|263:133,2,90,10|2|6,1:2|0:0|3:0,0:0:0:0:
222,369,145630,5,2,0:0:0:0:
216,339,145733,1,0,3:0:0:0:
229,312,145837,1,4,0:0:0:0:
307,351,146043,1,2,3:0:0:0:
178,215,146250,1,12,3:0:0:0:
205,112,146457,1,2,0:0:0:0:
90,329,146664,1,4,0:0:0:0:
90,329,146871,2,2,P|38:311|8:156,1,225,14|0,3:0|0:0,0:0:0:0:
494,30,147492,6,2,B|478:64|442:85|442:85|349:67|249:20,1,270.000010299683,4|0,1:0|0:0,0:3:0:0:
393,102,148112,2,0,P|382:45|379:4,1,78.7500007510185,6|2,3:0|0:0,0:0:0:0:
146,170,148319,6,2,B|170:160|179:140|179:140|232:127|327:174|276:174,1,180,14|6,1:2|3:0,0:3:0:0:
254,372,148940,1,2,0:0:0:0:
245,351,149043,1,2,0:0:0:0:
248,331,149147,2,0,L|320:303,1,67.5000025749208,4|2,0:0|3:0,0:0:0:0:
141,298,149561,2,0,L|69:326,1,67.5000025749208,12|0,3:0|0:0,0:0:0:0:
390,109,149974,2,2,P|444:86|526:19,1,135.000005149842,14|0,1:2|0:0,0:3:0:0:
202,37,150388,1,2,0:0:0:0:
172,31,150492,1,0,3:0:0:0:
142,24,150595,1,0,3:0:0:0:
110,15,150699,1,0,3:0:0:0:
30,36,150802,6,2,B|60:52|108:42|108:42|140:110|143:194,1,236.250002253056,4|0,1:0|0:0,0:3:0:0:
125,186,151215,1,2,0:0:0:0:
57,256,151422,1,2,0:0:0:0:
107,340,151630,2,0,P|165:365|213:393,2,90,10|2|4,1:2|0:0|3:0,0:0:0:0:
407,345,152250,5,2,0:0:0:0:
319,360,152457,2,2,P|282:338|241:298,1,90,4|2,0:0|3:0,0:3:0:0:
445,174,152871,1,12,3:0:0:0:
475,272,153078,1,2,0:0:0:0:
167,244,153285,2,0,P|153:156|160:59,1,180,12|2,1:2|0:0,0:0:0:0:
99,1,153905,1,0,0:0:0:0:
477,58,154112,6,2,B|504:93|507:130|507:130|415:142|331:203,1,270.000010299683,4|2,1:0|0:0,0:3:0:0:
119,243,154733,1,0,3:0:0:0:
204,131,154940,5,6,1:0:0:0:
232,324,155147,1,4,0:0:0:0:
34,357,155353,1,6,3:0:0:0:
10,163,155561,2,2,P|19:76|25:-6,1,135.000005149842,2|4,0:0|0:0,0:3:0:0:
178,237,155974,5,2,3:0:0:0:
101,288,156181,2,2,P|78:244|45:129,1,135,12|0,3:0|0:0,0:3:0:0:
197,34,156595,2,2,P|143:91|137:151,1,135.000005149842,14|0,1:2|0:0,0:0:0:0:
381,59,157009,2,2,P|444:37|547:-3,1,135.000005149842,2|0,3:0|0:0,0:0:0:0:
137,343,157423,6,2,B|110:357|65:365|65:365|20:286|-11:186,1,236.250002253056,4|0,1:0|0:0,0:3:0:0:
6,199,157836,1,2,0:0:0:0:
92,159,158043,1,2,0:0:0:0:
186,121,158250,2,0,P|229:131|271:147,2,90,10|2|6,1:2|0:0|3:0,0:0:0:0:
181,299,158871,5,2,0:0:0:0:
202,312,158974,1,0,3:0:0:0:
229,312,159078,1,4,0:0:0:0:
322,284,159284,1,2,3:0:0:0:
440,55,159491,1,12,3:0:0:0:
298,84,159698,1,2,0:0:0:0:
376,366,159905,1,4,0:0:0:0:
376,366,160112,2,2,P|428:348|458:193,1,225,14|0,3:0|0:0,0:0:0:0:
18,30,160733,6,2,B|30:69|70:85|70:85|154:26|252:28,1,270.000010299683,4|0,1:0|0:0,0:3:0:0:
385,119,161354,2,0,P|361:86|323:47,1,78.7500007510185,6|2,3:0|0:0,0:0:0:0:
395,379,161561,6,2,B|370:350|342:329|342:329|344:277|387:226|412:277,1,180,14|6,1:2|3:0,0:3:0:0:
314,141,162181,1,2,0:0:0:0:
323,120,162284,1,2,0:0:0:0:
320,100,162388,2,0,L|248:72,1,67.5000025749208,4|2,0:0|3:0,0:0:0:0:
76,78,162802,2,0,L|148:106,1,67.5000025749208,12|0,3:0|0:0,0:0:0:0:
456,384,163216,2,2,P|402:361|320:294,1,135.000005149842,14|0,1:2|0:0,0:3:0:0:
43,244,163630,6,0,L|120:227,1,67.5000025749208,6|0,3:0|0:0,0:0:0:0:
221,288,163837,2,0,L|156:304,1,67.5000025749208,2|0,1:2|0:0,0:0:0:0:
477,27,164043,6,2,B|443:23|418:39|418:39|367:130|264:186,1,236.250002253056,4|0,1:0|0:0,0:3:0:0:
233,115,164457,1,2,0:0:0:0:
338,60,164664,1,2,0:0:0:0:
67,363,164871,6,2,P|41:309|15:96,1,270.000010299683,14|6,1:2|3:0,0:3:0:0:
211,47,165492,1,2,0:0:0:0:
211,47,165595,1,0,3:0:0:0:
211,47,165699,2,0,P|226:101|231:147,1,90,2|2,0:0|3:0,0:0:0:0:
206,349,166112,2,0,P|191:295|186:249,1,90,4|0,3:0|0:0,0:0:0:0:
493,214,166526,2,2,B|471:246|442:268|442:268|399:252|362:242|276:238,1,202.500007724762,6|0,1:2|0:0,0:3:0:0:
378,304,166940,6,0,P|403:265|417:226,1,67.5000025749208,4|0,0:0|0:0,0:0:0:0:
417,100,167147,2,0,P|392:139|378:178,1,67.5000025749208,2|0,0:0|0:0,0:0:0:0:
22,16,167354,6,2,B|67:17|97:38|97:38|148:129|227:142,1,236.250002253056,4|0,1:0|0:0,0:3:0:0:
169,58,167768,2,0,P|124:75|90:120,1,90,2|0,0:0|0:0,0:0:0:0:
246,368,168181,6,2,P|217:328|34:192,1,270.000010299683,14|6,1:2|3:0,0:3:0:0:
98,366,168802,1,2,0:0:0:0:
98,366,168905,1,0,3:0:0:0:
98,366,169009,2,0,P|152:344|185:320,1,90,2|8,0:0|3:0,0:0:0:0:
255,118,169423,2,0,P|201:140|168:164,1,90,12|2,3:0|0:0,0:0:0:0:
393,363,169837,5,6,1:0:0:0:
507,300,170043,1,2,0:0:0:0:
445,62,170250,1,6,0:0:0:0:
408,87,170354,1,2,0:0:0:0:
395,129,170457,1,4,3:0:0:0:
414,169,170561,1,2,3:0:0:0:
490,158,170664,6,2,P|402:138|331:123,1,135.000005149842,4|0,1:0|0:0,0:3:0:0:
257,230,170974,1,2,3:0:0:0:
257,230,171078,2,0,P|303:224|347:206,1,90,2|0,0:0|3:0,0:0:0:0:
61,29,171492,6,2,B|35:59|33:107|33:107|77:252,1,202.500007724762,14|0,1:2|0:0,0:3:0:0:
147,186,171905,1,6,3:0:0:0:
256,369,172112,1,2,0:0:0:0:
241,319,172216,1,0,3:0:0:0:
198,295,172319,1,4,0:0:0:0:
169,376,172525,1,2,3:0:0:0:
306,239,172732,1,12,3:0:0:0:
254,126,172939,1,2,0:0:0:0:
385,363,173146,1,4,0:0:0:0:
385,363,173354,2,0,P|353:300|317:264,2,112.5,6|2|0,3:0|0:0|0:0,0:0:0:0:
437,9,173974,6,2,B|471:28|492:61|492:61|439:142|438:247,1,270.000010299683,4|0,1:0|0:0,0:3:0:0:
507,80,174595,2,0,P|457:100|421:126,1,90,6|2,3:0|0:0,0:0:0:0:
222,159,174802,6,2,B|200:125|167:107|167:107|154:46|230:6|228:54,1,180,14|6,1:2|3:0,0:3:0:0:
241,372,175422,1,2,0:0:0:0:
232,351,175525,1,2,0:0:0:0:
235,331,175630,2,0,L|307:303,1,67.5000025749208,4|2,0:0|3:0,0:0:0:0:
128,298,176043,2,0,L|56:326,1,67.5000025749208,12|0,3:0|0:0,0:0:0:0:
363,0,176457,5,6,1:0:0:0:
407,367,176664,1,2,0:0:0:0:
67,223,176871,2,0,L|75:196,6,16.8750006437302,0|0|0|0|0|0|0,3:0|3:0|3:0|3:0|3:0|3:0|3:0,3:0:0:0:
72,163,177332,6,2,B|185:66|232:262|338:261,1,315,6|0,1:0|0:0,0:0:0:0:
359,238,178142,6,0,P|369:198|381:147,1,90,4|0,0:0|0:0,0:0:0:0:
475,91,178734,1,2,0:0:0:0:
508,130,178841,1,2,0:0:0:0:
482,198,178948,2,0,P|487:226|500:382,1,180,2|2,0:0|0:0,0:0:0:0:
286,241,180004,6,2,P|249:197|356:25,1,281.25,4|0,0:0|0:0,0:3:0:0:
320,59,180660,2,0,P|295:145|239:215,1,175.499991966248,4|2,0:0|0:0,0:0:0:0:
41,373,181417,6,0,P|29:339|3:282,1,90,4|0,0:0|0:0,0:0:0:0:
41,198,182037,1,2,0:0:0:0:
20,163,182150,1,2,0:0:0:0:
59,102,182264,2,0,L|67:42,1,45,2|0,0:0|0:0,0:0:0:0:
164,201,182677,6,2,P|178:256|188:350,1,135,2|0,0:0|0:0,0:0:0:0:
175,357,183091,2,0,P|182:307|211:273,1,90,2|0,0:0|0:0,0:0:0:0:
300,258,183505,2,2,B|384:265|418:353|510:361,2,225,4|2|0,0:0|0:0|0:0,0:3:0:0:
492,14,184746,6,0,P|465:26|426:127,1,135,4|0,0:0|0:0,0:0:0:0:
468,199,185574,2,0,L|519:189,1,45,2|0,0:0|0:0,0:0:0:0:
448,251,185993,1,2,0:0:0:0:
365,253,186203,1,0,0:0:0:0:
327,340,186413,2,0,P|284:351|226:374,1,90,2|0,0:0|0:0,0:0:0:0:
235,378,187252,6,2,P|173:351|159:238,1,180,4|0,0:0|0:0,0:3:0:0:
208,183,187811,1,2,0:0:0:0:
185,148,187933,1,0,0:0:0:0:
84,164,188141,2,2,B|94:141|119:119|119:119|184:110|234:51,1,180,2|0,0:0|0:0,0:3:0:0:
146,55,188634,1,2,0:0:0:0:
152,28,188733,1,0,0:0:0:0:
41,19,188944,6,2,B|97:163|213:43|261:215,1,315,4|0,0:0|0:0,0:0:0:0:
254,226,189795,2,2,B|308:238|465:368|510:381,1,296.99999093628,2|0,0:0|0:0,0:0:0:0:
