osu file format v14

[General]
AudioFilename: audio.mp3
AudioLeadIn: 0
PreviewTime: 114007
Countdown: 0
SampleSet: Drum
StackLeniency: 0.7
Mode: 0
LetterboxInBreaks: 0
WidescreenStoryboard: 1

[Editor]
DistanceSpacing: 1.1
BeatDivisor: 4
GridSize: 16
TimelineZoom: 1.800002

[Metadata]
Title:Kegare naki Bara Juuji
TitleUnicode:Kegare naki Bara Juuji
Artist:AriableyeS
ArtistUnicode:AriableyeS
Creator:Justus
Version:Remap
Source:
Tags:
BeatmapID:2944225
BeatmapSetID:742347

[Difficulty]
HPDrainRate:5
CircleSize:4.4
OverallDifficulty:8
ApproachRate:9.2
SliderMultiplier:1.4
SliderTickRate:1

[Events]
//Background and Video events
0,0,"80228673_p0.jpg",0,0
//Break Periods
//Storyboard Layer 0 (Background)
//Storyboard Layer 1 (Fail)
//Storyboard Layer 2 (Pass)
//Storyboard Layer 3 (Foreground)
//Storyboard Layer 4 (Overlay)
//Storyboard Sound Samples

[TimingPoints]
35546,461.538461538462,4,3,1,100,1,0
43853,-76.923076923077,4,3,1,100,0,0
44084,-66.6666666666667,4,3,1,100,0,0
44315,-55.5555555555556,4,3,1,100,0,0
44546,-50,4,3,1,100,0,0
44777,230.769230769231,4,3,1,100,1,0
44777,-83.3333333333333,4,3,1,100,0,0
58623,-100,4,3,1,100,0,0
59546,-83.3333333333333,4,3,1,100,0,0
66930,-100,4,3,1,100,0,0
70392,-76.9230769230769,4,3,1,100,0,0
70623,-83.3333333333333,4,3,1,100,0,0
92777,-166.666666666667,4,3,1,55,0,0
93007,-83.3333333333333,4,3,1,100,0,0
96700,-76.9230769230769,4,3,1,100,0,0
97161,-76.9230769230769,4,3,1,70,0,0
98315,-100,4,3,1,70,0,0
100161,-133.333333333333,4,3,1,70,0,0
107546,-100,4,3,1,100,0,0
114930,-66.6666666666667,4,3,1,100,0,0

[Colours]
Combo1 : 173,135,228
Combo2 : 62,75,234
Combo3 : 100,110,238
Combo4 : 137,83,217

[HitObjects]
134,239,35546,5,0,0:0:0:0:
129,227,36007,1,0,0:0:0:0:
124,215,36469,1,0,0:0:0:0:
184,151,36584,1,0,0:0:0:0:
260,193,36699,1,0,0:0:0:0:
325,134,36815,1,0,0:0:0:0:
419,198,36930,5,0,0:0:0:0:
426,209,37046,1,0,0:0:0:0:
433,220,37161,1,0,0:0:0:0:
440,231,37276,1,0,0:0:0:0:
448,242,37392,6,0,P|391:281|323:276,1,140
244,193,38084,1,0,0:0:0:0:
244,193,38199,1,0,0:0:0:0:
244,193,38315,2,0,L|220:330,1,140
95,198,39007,1,0,0:0:0:0:
94,198,39238,2,0,P|142:176|179:168,1,70
173,78,39584,2,0,P|220:99|272:106,1,105
390,62,40161,5,0,0:0:0:0:
368,200,40392,1,0,0:0:0:0:
365,215,40449,1,0,0:0:0:0:
363,230,40507,1,0,0:0:0:0:
361,245,40565,1,0,0:0:0:0:
359,260,40622,2,0,L|368:329,1,70
283,305,40969,1,0,0:0:0:0:
271,302,41026,1,0,0:0:0:0:
257,299,41084,2,0,P|205:289|153:291,1,105
85,325,41546,6,0,P|113:281|118:229,1,105
63,152,42007,2,0,L|83:13,1,140
159,97,42699,1,0,0:0:0:0:
240,16,42930,6,0,P|273:6|308:5,1,70
332,140,43392,2,0,P|298:149|263:150,1,70
197,245,43853,6,0,P|192:267|181:287,1,45.4999979171754
311,300,44084,2,0,P|333:328|362:346,1,52.5000020027161
172,150,44315,2,0,P|141:143|109:142,1,62.9999980773926
381,260,44546,2,0,P|415:262|450:259,1,70
445,98,44777,6,0,P|368:61|284:68,1,167.999994873047
110,224,45123,1,0,0:0:0:0:
184,145,45238,2,0,P|198:105|202:63,1,83.9999974365235
74,132,45469,2,0,P|78:173|92:213,1,83.9999974365235
217,270,45700,6,0,P|292:235|376:236,1,167.999994873047
322,333,46046,1,0,0:0:0:0:
222,298,46161,2,0,P|180:293|138:294,1,83.9999974365235
92,213,46392,2,0,P|116:179|137:142,1,83.9999974365235
283,46,46565,5,0,0:0:0:0:
283,46,46623,2,0,P|239:116|239:199,1,167.999994873047
161,55,46969,1,0,0:0:0:0:
327,142,47084,2,0,P|368:148|410:149,1,83.9999974365235
481,271,47315,2,0,P|439:264|397:263,1,83.9999974365235
285,358,47546,2,0,P|305:278|262:209,1,167.999994873047
151,249,47892,1,0,0:0:0:0:
71,214,48007,2,0,P|54:177|49:135,1,83.9999974365235
130,35,48238,5,0,0:0:0:0:
205,87,48353,1,0,0:0:0:0:
287,43,48469,2,0,P|367:54|412:122,1,167.999994873047
311,224,48815,1,0,0:0:0:0:
371,291,48930,2,0,P|411:301|453:305,1,83.9999974365235
321,136,49161,2,0,P|280:125|238:121,1,83.9999974365235
284,232,49392,2,0,P|280:274|270:315,1,83.9999974365235
156,181,49623,2,0,P|145:140|141:98,1,83.9999974365235
8,250,49853,2,0,P|48:239|90:235,1,83.9999974365235
187,329,50084,2,0,P|229:325|270:315,1,83.9999974365235
346,230,50257,5,0,0:0:0:0:
346,230,50315,2,0,P|276:190|268:110,1,167.999994873047
350,145,50661,1,0,0:0:0:0:
435,216,50777,2,0,P|433:258|415:296,1,83.9999974365235
307,375,51007,2,0,P|304:333|286:295,1,83.9999974365235
196,195,51238,2,0,P|186:254|164:292,1,83.9999974365235
80,308,51469,2,0,P|46:283|20:250,1,83.9999974365235
58,107,51700,5,0,0:0:0:0:
144,56,51815,1,0,0:0:0:0:
226,114,51930,1,0,0:0:0:0:
315,65,52046,1,0,0:0:0:0:
372,171,52161,2,0,B|367:226|367:226|346:263|346:263|337:332,1,167.999994873047
428,298,52507,5,0,0:0:0:0:
282,202,52623,2,0,P|241:194|200:191,1,83.9999974365235
110,244,52853,2,0,P|68:241|27:232,1,83.9999974365235
84,150,53084,2,0,P|97:110|104:68,1,83.9999974365235
214,21,53315,2,0,P|221:62|234:102,1,83.9999974365235
345,152,53546,2,0,P|348:71|413:23,1,167.999994873047
428,113,53892,1,0,0:0:0:0:
282,202,54007,2,0,P|198:205|122:172,1,167.999994873047
174,304,54353,5,0,0:0:0:0:
271,332,54469,1,0,0:0:0:0:
355,279,54584,2,0,P|393:261|435:252,2,83.9999974365235
261,353,54930,2,0,P|219:358|177:356,1,83.9999974365235
72,272,55161,2,0,P|113:267|155:269,1,83.9999974365235
259,240,55392,2,0,P|269:199|284:159,1,83.9999974365235
151,75,55623,2,0,P|165:114|175:155,1,83.9999974365235
427,104,55796,5,0,0:0:0:0:
427,104,55853,2,0,P|344:104|283:159,1,167.999994873047
267,48,56200,1,0,0:0:0:0:
377,183,56315,2,0,P|386:223|390:265,1,83.9999974365235
268,329,56546,2,0,P|271:287|281:246,1,83.9999974365235
472,281,56777,2,0,P|430:276|389:265,1,83.9999974365235
283,159,57007,2,0,P|241:163|200:174,1,83.9999974365235
124,333,57238,2,0,P|140:294|151:253,1,83.9999974365235
52,108,57469,2,0,P|76:141|106:171,1,83.9999974365235
271,260,57700,5,0,0:0:0:0:
355,223,57815,1,0,0:0:0:0:
364,130,57930,2,0,P|356:89|335:53,1,83.9999974365235
200,44,58162,1,0,0:0:0:0:
116,80,58277,1,0,0:0:0:0:
106,171,58392,2,0,P|114:212|135:248,1,83.9999974365235
357,257,58623,5,0,0:0:0:0:
384,253,58738,1,0,0:0:0:0:
411,249,58853,1,0,0:0:0:0:
438,245,58969,1,0,0:0:0:0:
486,177,59084,5,0,0:0:0:0:
393,333,59200,1,0,0:0:0:0:
365,178,59315,1,0,0:0:0:0:
490,310,59430,1,0,0:0:0:0:
277,234,59546,2,0,B|236:225|204:235|204:235|180:248|180:248|142:256|106:248,1,167.999994873047,0|0,3:0|3:0,3:0:0:0:
44,105,59892,1,0,0:0:0:0:
123,155,60007,2,0,P|165:147|203:129,1,83.9999974365235
244,35,60238,2,0,P|281:53|323:60,1,83.9999974365235
469,50,60469,6,0,P|418:114|415:197,1,167.999994873047
269,184,60815,1,0,0:0:0:0:
332,251,60930,2,0,P|336:292|335:334,1,83.9999974365235
136,273,61161,5,0,0:0:0:0:
83,196,61277,1,0,0:0:0:0:
106,106,61392,2,0,P|178:67|260:80,2,167.999994873047
248,180,61969,1,0,0:0:0:0:
181,243,62084,2,0,P|180:284|189:325,1,83.9999974365235
332,251,62315,6,0,L|357:84,1,167.999994873047
474,191,62661,2,0,P|392:194|331:250,1,167.999994873047
314,330,63007,2,0,P|330:291|331:249,1,83.9999974365235
101,210,63238,2,0,P|183:212|244:268,1,167.999994873047
144,300,63584,1,0,0:0:0:0:
88,223,63700,2,0,P|72:184|69:142,1,83.9999974365235
171,114,63930,2,0,P|196:81|230:58,1,83.9999974365235
306,132,64161,2,0,P|385:156|434:222,1,167.999994873047
475,133,64507,1,0,0:0:0:0:
337,241,64623,2,0,P|296:247|254:246,1,83.9999974365235
106,319,64853,5,0,0:0:0:0:
155,240,64969,1,0,0:0:0:0:
155,146,65084,2,0,P|129:68|60:23,1,167.999994873047
58,223,65430,5,0,0:0:0:0:
143,248,65546,2,0,P|184:260|225:255,1,83.9999974365235
392,329,65777,2,0,P|351:317|310:322,1,83.9999974365235
363,178,66007,2,0,B|351:114|351:114|360:73|360:73|348:10,1,167.999994873047
349,13,66353,1,0,0:0:0:0:
269,71,66469,5,0,0:0:0:0:
436,112,66584,1,0,0:0:0:0:
260,68,66700,1,0,0:0:0:0:
444,114,66815,1,0,0:0:0:0:
266,158,66930,6,0,P|257:192|255:227,1,70
313,290,67161,2,0,P|321:323|323:358,1,70
256,154,67392,2,0,P|247:187|245:222,1,70
324,289,67623,2,0,P|332:322|334:357,1,70
245,149,67853,2,0,P|236:182|234:217,1,70
335,288,68084,2,0,P|343:321|345:356,1,70
385,216,68315,5,0,0:0:0:0:
403,208,68373,1,0,0:0:0:0:
419,199,68430,1,0,0:0:0:0:
434,191,68488,1,0,0:0:0:0:
448,181,68546,2,0,P|456:148|458:113,1,70
281,136,68777,6,0,P|247:127|212:126,1,70
335,288,69008,2,0,P|369:286|403:277,1,70
282,125,69239,2,0,P|248:116|213:115,1,70
330,277,69469,2,0,P|364:275|398:266,1,70
260,329,69700,5,0,0:0:0:0:
189,283,69815,1,0,0:0:0:0:
106,284,69930,2,0,L|60:300,2,35
136,191,70161,5,0,0:0:0:0:
145,166,70218,1,0,0:0:0:0:
150,140,70276,1,0,0:0:0:0:
151,114,70334,1,0,0:0:0:0:
146,88,70391,1,0,0:0:0:0:
76,22,70507,1,0,0:0:0:0:
239,62,70623,6,0,B|276:41|330:62|314:62|361:91|418:61,1,167.999994873047
274,138,70969,1,0,0:0:0:0:
243,223,71084,2,0,P|236:265|245:306,1,83.9999974365235
412,301,71315,2,0,P|421:260|415:219,1,83.9999974365235
264,322,71546,2,0,L|181:336,1,83.9999974365235
129,258,71777,2,0,L|46:243,1,83.9999974365235
136,101,72007,6,0,P|104:176|137:250,1,167.999994873047
286,164,72353,2,0,P|245:167|204:177,2,83.9999974365235
378,267,72700,2,0,P|420:272|461:262,1,83.9999974365235
402,92,72930,2,0,P|397:133|407:174,1,83.9999974365235
280,248,73161,2,0,P|284:289|274:330,1,83.9999974365235
169,188,73392,6,0,P|131:206|102:236,1,83.9999974365235
213,117,73623,2,0,P|216:75|204:35,1,83.9999974365235
252,190,73853,2,0,P|286:213|327:223,1,83.9999974365235
402,92,74084,2,0,P|361:101|326:125,1,83.9999974365235
184,283,74257,5,0,0:0:0:0:
184,283,74315,2,0,B|136:238|136:238|145:136,1,167.999994873047
308,27,74661,1,0,0:0:0:0:
241,125,74777,2,0,L|233:208,1,83.9999974365235
137,52,75007,2,0,L|145:136,1,83.9999974365235
136,236,75238,2,0,L|53:229,1,83.9999974365235
188,313,75469,2,0,L|271:305,1,83.9999974365235
388,86,75700,5,0,0:0:0:0:
460,143,75815,1,0,0:0:0:0:
443,233,75930,1,0,0:0:0:0:
359,272,76046,1,0,0:0:0:0:
280,224,76161,2,0,P|261:186|255:144,1,83.9999974365235
377,76,76392,2,0,P|371:117|352:155,1,83.9999974365235
188,74,76623,2,0,P|226:55|268:50,1,83.9999974365235
179,186,76853,6,0,P|159:185|138:181,3,41.9999987182618
138,181,77084,6,0,L|167:346,1,167.999994873047
167,346,77430,1,0,0:0:0:0:
61,273,77546,5,0,0:0:0:0:
252,288,77661,1,0,0:0:0:0:
51,272,77777,1,0,0:0:0:0:
261,288,77892,1,0,0:0:0:0:
138,181,78007,6,0,P|164:104|242:82,1,167.999994873047
225,168,78353,1,0,0:0:0:0:
307,211,78469,2,0,P|348:216|390:213,1,83.9999974365235
261,288,78700,2,0,P|219:282|177:285,1,83.9999974365235
362,375,78930,2,0,P|352:334|351:292,1,83.9999974365235
468,268,79161,2,0,P|477:227|478:185,1,83.9999974365235
333,10,79392,2,0,P|325:89|389:137,1,167.999994873047
407,54,79738,5,0,0:0:0:0:
260,151,79853,2,0,B|191:160|191:160|156:176|156:176|89:180,1,167.999994873047
122,94,80200,1,0,0:0:0:0:
222,236,80315,2,0,P|217:277|200:315,1,83.9999974365235
29,242,80546,2,0,P|11:204|7:162,1,83.9999974365235
222,236,80777,2,0,P|263:235|303:221,1,83.9999974365235
203,79,81007,2,0,P|161:79|121:93,1,83.9999974365235
388,170,81238,6,0,P|390:212|401:253,1,83.9999974365235
249,339,81469,2,0,P|291:330|333:331,1,83.9999974365235
208,223,81700,2,0,P|187:143|121:93,1,167.999994873047
389,91,82046,2,0,P|323:141|302:220,1,167.999994873047
487,233,82392,2,0,P|451:210|411:197,1,83.9999974365235
305,335,82623,2,0,P|345:322|380:299,1,83.9999974365235
215,174,82848,2,0,P|205:214|208:256,1,83.9999974365235
161,342,83084,2,0,P|130:313|92:294,1,83.9999974365235
41,211,83315,2,0,P|82:198|117:175,1,83.9999974365235
256,33,83488,5,0,0:0:0:0:
256,33,83546,2,0,P|194:87|114:76,1,167.999994873047
172,10,83892,1,0,0:0:0:0:
290,138,84007,2,0,L|373:147,1,83.9999974365235
208,256,84238,2,0,L|291:246,1,83.9999974365235
391,307,84469,2,0,B|407:244|407:244|372:146,1,167.999994873047
372,146,84815,1,0,0:0:0:0:
316,247,84930,5,0,0:0:0:0:
485,238,85046,1,0,0:0:0:0:
306,247,85161,1,0,0:0:0:0:
494,237,85277,1,0,0:0:0:0:
280,114,85392,6,0,P|201:135|124:105,1,167.999994873047
210,47,85738,1,0,0:0:0:0:
91,196,85853,2,0,B|81:235|81:235|86:278,1,83.9999974365235
276,332,86084,2,0,B|286:293|286:293|280:249,1,83.9999974365235
165,97,86315,2,0,L|190:263,1,167.999994873047
390,341,86661,1,0,0:0:0:0:
473,278,86777,2,0,B|479:235|479:235|469:196,1,83.9999974365235
279,249,87008,2,0,B|274:293|274:293|284:332,1,83.9999974365235
404,131,87238,6,0,B|361:173|361:173|254:157,1,167.999994873047
178,61,87584,1,0,0:0:0:0:
94,102,87700,2,0,B|82:185,1,83.9999974365235
159,307,87930,2,0,B|170:223,1,83.9999974365235
418,102,88161,2,0,B|429:185,1,83.9999974365235
353,307,88391,2,0,B|341:223,1,83.9999974365235
171,145,88623,2,0,L|254:157,1,83.9999974365235
320,45,88853,2,0,L|236:57,1,83.9999974365235
72,172,89084,6,0,B|83:232|83:232|106:267|106:267|118:330,1,167.999994873047
31,303,89430,1,0,0:0:0:0:
191,280,89546,2,0,L|273:264,1,83.9999974365235
242,176,89777,2,0,L|159:191,1,83.9999974365235
323,354,90007,6,0,B|360:323|360:323|384:205,1,167.999994873047
399,114,90353,1,0,0:0:0:0:
308,140,90469,2,0,L|225:151,1,83.9999974365235
189,253,90700,2,0,L|273:264,1,83.9999974365235
225,151,90930,6,0,L|58:129,1,167.999994873047
159,64,91277,1,0,0:0:0:0:
408,204,91507,5,0,0:0:0:0:
308,139,91624,2,0,L|474:117,2,167.999994873047
465,280,92315,5,0,0:0:0:0:
292,232,92430,1,0,0:0:0:0:
473,282,92546,1,0,0:0:0:0:
283,229,92661,1,0,0:0:0:0:
446,202,92777,6,0,P|452:182|452:161,1,41.9999987182618,2|0,2:0|0:0,0:0:0:0:
352,306,93007,6,0,P|270:319|198:279,1,167.999994873047
