osu file format v14

[General]
AudioFilename: audio.ogg
AudioLeadIn: 0
PreviewTime: 45907
Countdown: 0
SampleSet: Normal
StackLeniency: 0.7
Mode: 1
LetterboxInBreaks: 0
WidescreenStoryboard: 1

[Editor]
Bookmarks: 819,12113,23407,26230,29054,31877,33289,43171,45995,55877,67171,69995,72818,75642,77054,88348,91171,93995,96818,98230,108113,110936,120818,122230,130701,139171,161760,170230,173760,185054,204818,216112,224583,227407
DistanceSpacing: 1
BeatDivisor: 4
GridSize: 32
TimelineZoom: 2.1

[Metadata]
Title:Tsumibukaki Boutoku no Kyouen
TitleUnicode:罪深き冒涜の饗宴
Artist:Ariabl'eyeS
ArtistUnicode:Ariabl'eyeS
Creator:KyeX
Version:Muzukashii
Source:
Tags:japanese metal rock jrock j-rock gothic female vocal vocals featured artist fa mappers mappers' guild mpg mg Toofu AriableyeS 片翼のロマンシア henyoku no romancia romanshia 黎明シンフォニア Reimei Symphonia shinfonia sinfonia 3rd single one winged one-winged rena lyse rize リゼ isami NoёlNoёl Noel -LostFairy- Jouer Satsuki Kazuma
BeatmapID:3640500
BeatmapSetID:1776493

[Difficulty]
HPDrainRate:6
CircleSize:3
OverallDifficulty:5
ApproachRate:10
SliderMultiplier:1.4
SliderTickRate:1

[Events]
//Background and Video events
0,0,"bg.jpg",0,50
//Break Periods
2,1023,6020
2,6670,10255
2,122434,130254
2,139375,144372
2,145022,150019
2,150669,155666
//Storyboard Layer 0 (Background)
//Storyboard Layer 1 (Fail)
//Storyboard Layer 2 (Pass)
//Storyboard Layer 3 (Foreground)
//Storyboard Layer 4 (Overlay)
//Storyboard Sound Samples

[TimingPoints]
823,352.941176470588,4,1,0,80,1,0
823,-90.909090909091,4,1,0,80,0,0
10705,-117.647058823529,4,1,0,90,0,0
11058,-112.676056338028,4,1,0,90,0,0
11411,-108.108108108108,4,1,0,90,0,0
11587,-105.966228893058,4,1,0,90,0,0
11764,-103.896103896104,4,1,0,90,0,0
11940,-101.916344869898,4,1,0,90,0,0
12117,-100,4,1,0,95,0,0
22352,-100,4,1,0,95,0,0
22528,-101.120733571065,4,1,0,95,0,0
22705,-102.273459135699,4,1,0,95,0,0
23058,-104.652695400026,4,1,0,95,0,0
23234,-105.880784104547,4,1,0,95,0,0
23411,-107.14526685109,4,1,0,90,0,0
23499,-107.785244010045,4,1,0,90,0,0
23587,-108.432912256743,4,1,0,90,0,0
23764,-109.759469173348,4,1,0,90,0,0
23940,-111.111111111111,4,1,0,95,0,0
25881,-108.116385911179,4,1,0,85,0,0
26058,-105.263157894737,4,1,0,85,0,0
26234,-100,4,1,0,90,0,0
28352,-100,4,1,0,90,0,0
28705,-102.942402267233,4,1,0,90,0,0
28881,-104.475086710092,4,1,0,90,0,0
29058,-106.063208519409,4,1,0,90,0,0
29146,-106.87088958117,4,1,0,90,0,0
29234,-107.690966166725,4,1,0,90,0,0
29411,-109.379151536622,4,1,0,90,0,0
29587,-111.111111111111,4,1,0,85,0,0
31528,-108.116385911179,4,1,0,85,0,0
31705,-105.263157894737,4,1,0,85,0,0
31881,-100,4,1,0,90,0,0
33558,-105.263157894737,4,1,0,90,0,0
42117,-111.111111111111,4,1,0,80,0,0
43175,-111.111111111111,4,1,0,90,0,0
43352,-109.584788513776,4,1,0,90,0,0
43528,-108.108108108108,4,1,0,90,0,0
43705,-106.662637860704,4,1,0,90,0,0
43881,-105.263157894737,4,1,0,90,0,0
44058,-103.892281656979,4,1,0,90,0,0
44234,-102.564102564103,4,1,0,90,0,0
44411,-101.262191623637,4,1,0,90,0,0
44587,-100,4,1,0,90,0,0
44940,-97.560975609756,4,1,0,90,0,0
45117,-96.382252559727,4,1,0,90,0,0
45293,-95.238095238095,4,1,0,90,0,0
45381,-94.676143221135,4,1,0,90,0,0
45470,-94.114510431247,4,1,0,90,0,0
45646,-93.023255813953,4,1,0,90,0,0
45999,-90.909090909091,4,1,0,95,0,1
55881,-90.909090909091,4,1,0,95,0,0
56234,-100,4,1,0,95,0,0
66117,-100,4,1,0,95,0,0
66293,-101.120733571065,4,1,0,95,0,0
66470,-102.273459135699,4,1,0,95,0,0
66822,-104.645799011532,4,1,0,95,0,0
66999,-105.880784104547,4,1,0,95,0,0
67175,-107.138038051545,4,1,0,90,0,0
67264,-107.785244010045,4,1,0,90,0,0
67352,-108.432912256743,4,1,0,90,0,0
67528,-109.751883336789,4,1,0,90,0,0
67705,-111.111111111111,4,1,0,85,0,0
69646,-108.116385911179,4,1,0,85,0,0
69822,-105.263157894737,4,1,0,85,0,0
69999,-100,4,1,0,90,0,0
72117,-100,4,1,0,90,0,0
72470,-102.942402267233,4,1,0,90,0,0
72646,-104.475086710092,4,1,0,90,0,0
72822,-106.054100472306,4,1,0,90,0,0
72911,-106.87088958117,4,1,0,90,0,0
72999,-107.690966166725,4,1,0,90,0,0
73175,-109.369465108041,4,1,0,90,0,0
73352,-111.111111111111,4,1,0,85,0,0
75293,-108.116385911179,4,1,0,85,0,0
75470,-105.263157894737,4,1,0,85,0,0
75646,-100,4,1,0,90,0,0
77058,-100,4,1,0,95,0,0
87293,-100,4,1,0,95,0,0
87469,-101.120733571065,4,1,0,95,0,0
87646,-102.273459135699,4,1,0,95,0,0
87999,-104.652695400026,4,1,0,95,0,0
88175,-105.880784104547,4,1,0,95,0,0
88352,-107.14526685109,4,1,0,90,0,0
88440,-107.785244010045,4,1,0,90,0,0
88528,-108.432912256743,4,1,0,90,0,0
88705,-109.759469173348,4,1,0,90,0,0
88881,-111.111111111111,4,1,0,85,0,0
90822,-108.116385911179,4,1,0,85,0,0
90999,-105.263157894737,4,1,0,85,0,0
91175,-100,4,1,0,90,0,0
93293,-100,4,1,0,90,0,0
93646,-102.942402267233,4,1,0,90,0,0
93822,-104.475086710092,4,1,0,90,0,0
93999,-106.063208519409,4,1,0,90,0,0
94087,-106.87088958117,4,1,0,90,0,0
94175,-107.690966166725,4,1,0,90,0,0
94352,-109.379151536622,4,1,0,90,0,0
94528,-111.111111111111,4,1,0,85,0,0
96469,-108.116385911179,4,1,0,85,0,0
96646,-105.263157894737,4,1,0,85,0,0
96822,-100,4,1,0,90,0,0
98499,-105.263157894737,4,1,0,90,0,0
107058,-111.111111111111,4,1,0,80,0,0
108116,-111.111111111111,4,1,0,90,0,0
108293,-109.584788513776,4,1,0,90,0,0
108469,-108.108108108108,4,1,0,90,0,0
108646,-106.662637860704,4,1,0,90,0,0
108822,-105.263157894737,4,1,0,90,0,0
108999,-103.892281656979,4,1,0,90,0,0
109175,-102.564102564103,4,1,0,90,0,0
109352,-101.262191623637,4,1,0,90,0,0
109528,-100,4,1,0,90,0,0
109881,-97.560975609756,4,1,0,90,0,0
110058,-96.382252559727,4,1,0,90,0,0
110234,-95.238095238095,4,1,0,90,0,0
110322,-94.676143221135,4,1,0,90,0,0
110411,-94.114510431247,4,1,0,90,0,0
110587,-93.023255813953,4,1,0,90,0,0
110940,-90.909090909091,4,1,0,95,0,1
119411,-83.333333333333,4,1,0,95,0,1
119675,-80.811554332875,4,1,0,95,0,1
119940,-78.42919123373,4,1,0,95,0,1
120116,-76.923076923077,4,1,0,95,0,1
120293,-83.333333333333,4,1,0,95,0,1
120381,-83.967814500779,4,1,0,95,0,1
120470,-84.619408841224,4,1,0,95,0,1
120558,-85.273701783675,4,1,0,95,0,1
120646,-85.93819180023,4,1,0,95,0,1
120734,-86.61311914324,4,1,0,95,0,1
120822,-87.298731672214,4,1,0,95,0,0
120940,-88.235294117647,4,1,0,95,0,0
121058,-89.192169837331,4,1,0,95,0,0
121175,-90.161649944259,4,1,0,95,0,0
121528,-93.218710978772,4,1,0,90,0,0
121881,-96.490355935574,4,1,0,90,0,0
122234,352.941176470588,6,1,0,90,1,0
122234,-90.909090909091,4,1,0,90,0,0
122322,-100,4,1,0,70,0,0
130704,-125,4,1,0,70,0,0
139175,352.941176470588,4,1,0,70,1,0
139175,-125,4,1,0,70,0,0
161763,-90.909090909091,4,1,0,95,0,0
173057,352.941176470588,4,1,0,95,1,8
173057,-90.909090909091,4,1,0,95,0,0
173233,-93.02018735981,4,1,0,95,0,0
173409,-95.231662839389,4,1,0,95,0,0
173586,-97.564350954885,4,1,0,95,0,0
173762,352.941176470588,4,1,0,95,1,0
184350,-100,4,1,0,95,0,0
184526,-97.567716970703,4,1,0,95,0,0
184703,-95.238095238094,4,1,0,95,0,0
184879,-93.029384635656,4,1,0,95,0,0
185056,-90.909090909091,4,1,0,95,0,1
204820,-90.909090909091,4,1,0,95,0,0
204997,-100,4,1,0,95,0,0
215409,-100,4,1,0,95,0,0
215761,-97.564350954884,4,1,0,95,0,0
215938,-96.383895003075,4,1,0,95,0,0
216114,-95.238095238094,4,1,0,95,0,0
228820,-100,4,1,0,80,0,0

[HitObjects]
256,192,823,5,12,0:0:0:0:
256,192,6470,5,12,0:0:0:0:
256,192,10705,5,8,0:0:0:0:
256,192,11058,1,8,0:0:0:0:
256,192,11411,1,8,0:0:0:0:
256,192,11587,1,8,0:0:0:0:
256,192,11764,1,0,0:0:0:0:
256,192,11940,1,8,0:0:0:0:
256,192,12117,1,4,0:0:0:0:
256,192,12470,1,8,0:0:0:0:
256,192,12822,1,0,0:0:0:0:
256,192,13175,1,8,0:0:0:0:
256,192,13352,1,0,0:0:0:0:
256,192,13528,1,8,0:0:0:0:
256,192,13705,1,8,0:0:0:0:
256,192,13793,1,8,0:0:0:0:
256,192,13881,1,8,0:0:0:0:
256,192,14058,1,0,0:0:0:0:
256,192,14234,1,8,0:0:0:0:
256,192,14587,1,8,0:0:0:0:
256,192,14764,1,0,0:0:0:0:
256,192,14940,1,8,0:0:0:0:
256,192,15293,1,8,0:0:0:0:
256,192,15646,1,0,0:0:0:0:
256,192,15999,1,0,0:0:0:0:
256,192,16175,1,8,0:0:0:0:
256,192,16352,1,0,0:0:0:0:
256,192,16528,1,0,0:0:0:0:
256,192,16617,1,0,0:0:0:0:
256,192,16705,1,0,0:0:0:0:
256,192,16881,1,8,0:0:0:0:
256,192,17058,1,0,0:0:0:0:
256,192,17411,1,8,0:0:0:0:
256,192,17587,1,8,0:0:0:0:
256,192,17764,1,4,0:0:0:0:
256,192,18117,1,8,0:0:0:0:
256,192,18470,1,0,0:0:0:0:
256,192,18822,1,8,0:0:0:0:
256,192,18999,1,0,0:0:0:0:
256,192,19175,1,8,0:0:0:0:
256,192,19352,1,8,0:0:0:0:
256,192,19440,1,8,0:0:0:0:
256,192,19528,1,8,0:0:0:0:
256,192,19705,1,0,0:0:0:0:
256,192,19881,1,8,0:0:0:0:
256,192,20234,1,0,0:0:0:0:
256,192,20411,1,0,0:0:0:0:
256,192,20587,1,8,0:0:0:0:
256,192,20940,1,8,0:0:0:0:
256,192,21293,1,0,0:0:0:0:
256,192,21646,1,8,0:0:0:0:
256,192,21822,1,8,0:0:0:0:
256,192,21999,1,0,0:0:0:0:
256,192,22175,1,0,0:0:0:0:
256,192,22264,1,0,0:0:0:0:
256,192,22352,1,0,0:0:0:0:
256,192,22528,1,8,0:0:0:0:
256,192,22705,1,8,0:0:0:0:
256,192,23058,1,8,0:0:0:0:
256,192,23234,1,8,0:0:0:0:
256,192,23411,1,0,0:0:0:0:
256,192,23499,1,0,0:0:0:0:
256,192,23587,1,0,0:0:0:0:
256,192,23764,1,0,0:0:0:0:
256,192,23940,1,12,0:0:0:0:
256,192,24470,1,8,0:0:0:0:
256,192,24646,1,8,0:0:0:0:
256,192,24822,1,0,0:0:0:0:
256,192,24911,1,0,0:0:0:0:
256,192,24999,1,0,0:0:0:0:
256,192,25175,1,0,0:0:0:0:
256,192,25352,1,12,0:0:0:0:
256,192,25881,1,8,0:0:0:0:
256,192,26058,1,0,0:0:0:0:
256,192,26234,1,12,0:0:0:0:
256,192,26587,1,8,0:0:0:0:
256,192,26764,1,0,0:0:0:0:
256,192,26940,1,8,0:0:0:0:
256,192,27117,1,8,0:0:0:0:
256,192,27293,1,0,0:0:0:0:
256,192,27470,1,0,0:0:0:0:
256,192,27646,1,8,0:0:0:0:
256,192,27999,1,8,0:0:0:0:
256,192,28352,1,8,0:0:0:0:
256,192,28705,1,8,0:0:0:0:
256,192,28881,1,8,0:0:0:0:
256,192,29058,1,0,0:0:0:0:
256,192,29146,1,0,0:0:0:0:
256,192,29234,1,0,0:0:0:0:
256,192,29411,1,0,0:0:0:0:
256,192,29587,1,12,0:0:0:0:
256,192,30117,1,8,0:0:0:0:
256,192,30293,1,8,0:0:0:0:
256,192,30470,1,0,0:0:0:0:
256,192,30558,1,0,0:0:0:0:
256,192,30646,1,0,0:0:0:0:
256,192,30822,1,0,0:0:0:0:
256,192,30999,1,12,0:0:0:0:
256,192,31528,1,8,0:0:0:0:
256,192,31705,1,0,0:0:0:0:
256,192,31881,1,12,0:0:0:0:
256,192,32234,1,8,0:0:0:0:
256,192,32411,1,0,0:0:0:0:
256,192,32587,1,8,0:0:0:0:
256,192,32764,1,0,0:0:0:0:
256,192,32940,1,8,0:0:0:0:
256,192,33117,1,8,0:0:0:0:
256,192,33293,1,4,0:0:0:0:
256,192,33646,1,8,0:0:0:0:
256,192,33822,1,0,0:0:0:0:
256,192,34175,1,0,0:0:0:0:
256,192,34352,1,8,0:0:0:0:
256,192,34528,1,8,0:0:0:0:
256,192,34705,1,0,0:0:0:0:
256,192,35058,1,8,0:0:0:0:
256,192,35234,1,8,0:0:0:0:
256,192,35587,1,8,0:0:0:0:
256,192,35675,1,8,0:0:0:0:
256,192,35764,1,8,0:0:0:0:
256,192,35940,1,8,0:0:0:0:
256,192,36117,1,0,0:0:0:0:
256,192,36470,1,8,0:0:0:0:
256,192,36646,1,0,0:0:0:0:
256,192,36822,1,8,0:0:0:0:
256,192,37175,1,8,0:0:0:0:
256,192,37528,1,0,0:0:0:0:
256,192,37881,1,8,0:0:0:0:
256,192,38058,1,8,0:0:0:0:
256,192,38234,1,0,0:0:0:0:
256,192,38411,1,0,0:0:0:0:
256,192,38587,1,8,0:0:0:0:
256,192,38764,1,8,0:0:0:0:
256,192,38940,1,4,0:0:0:0:
256,192,39293,1,8,0:0:0:0:
256,192,39470,1,8,0:0:0:0:
256,192,39822,1,8,0:0:0:0:
256,192,39999,1,8,0:0:0:0:
256,192,40175,1,8,0:0:0:0:
256,192,40352,1,0,0:0:0:0:
256,192,40705,1,8,0:0:0:0:
256,192,40881,1,0,0:0:0:0:
256,192,41234,1,0,0:0:0:0:
256,192,41322,1,0,0:0:0:0:
256,192,41411,1,0,0:0:0:0:
256,192,41587,1,8,0:0:0:0:
256,192,41764,1,4,0:0:0:0:
256,192,42117,1,8,0:0:0:0:
256,192,42293,1,0,0:0:0:0:
256,192,42822,1,8,0:0:0:0:
256,192,43175,1,0,0:0:0:0:
256,192,43352,1,8,0:0:0:0:
256,192,43528,1,0,0:0:0:0:
256,192,43705,1,8,0:0:0:0:
256,192,43881,1,0,0:0:0:0:
256,192,44058,1,8,0:0:0:0:
256,192,44234,1,0,0:0:0:0:
256,192,44411,1,8,0:0:0:0:
256,192,44587,1,4,0:0:0:0:
256,192,44940,1,8,0:0:0:0:
256,192,45117,1,0,0:0:0:0:
256,192,45293,1,8,0:0:0:0:
256,192,45381,1,8,0:0:0:0:
256,192,45470,1,8,0:0:0:0:
256,192,45646,1,0,0:0:0:0:
256,192,45999,1,12,0:0:0:0:
256,192,46352,1,0,0:0:0:0:
256,192,46705,1,8,0:0:0:0:
256,192,47058,1,8,0:0:0:0:
256,192,47234,1,0,0:0:0:0:
256,192,47411,1,8,0:0:0:0:
256,192,47499,1,8,0:0:0:0:
256,192,47587,1,8,0:0:0:0:
256,192,47764,1,8,0:0:0:0:
256,192,47940,1,0,0:0:0:0:
256,192,48117,1,8,0:0:0:0:
256,192,48470,1,8,0:0:0:0:
256,192,48646,1,0,0:0:0:0:
256,192,48822,1,12,0:0:0:0:
256,192,49175,1,8,0:0:0:0:
256,192,49528,1,0,0:0:0:0:
256,192,49881,1,8,0:0:0:0:
256,192,50058,1,8,0:0:0:0:
256,192,50234,1,0,0:0:0:0:
256,192,50322,1,0,0:0:0:0:
256,192,50411,1,0,0:0:0:0:
256,192,50587,1,8,0:0:0:0:
256,192,50764,1,0,0:0:0:0:
256,192,50940,1,8,0:0:0:0:
256,192,51117,1,8,0:0:0:0:
256,192,51205,1,8,0:0:0:0:
256,192,51293,1,8,0:0:0:0:
256,192,51470,1,0,0:0:0:0:
256,192,51646,1,12,0:0:0:0:
256,192,51999,1,0,0:0:0:0:
256,192,52352,1,8,0:0:0:0:
256,192,52705,1,8,0:0:0:0:
256,192,52881,1,0,0:0:0:0:
256,192,53058,1,8,0:0:0:0:
256,192,53146,1,8,0:0:0:0:
256,192,53234,1,8,0:0:0:0:
256,192,53411,1,8,0:0:0:0:
256,192,53587,1,0,0:0:0:0:
256,192,53764,1,8,0:0:0:0:
256,192,54117,1,8,0:0:0:0:
256,192,54470,1,12,0:0:0:0:
256,192,54734,1,4,0:0:0:0:
256,192,54999,1,4,0:0:0:0:
256,192,55175,1,12,0:0:0:0:
256,192,55528,1,8,0:0:0:0:
256,192,55705,1,8,0:0:0:0:
256,192,55881,1,4,0:0:0:0:
256,192,56234,1,8,0:0:0:0:
256,192,56587,1,0,0:0:0:0:
256,192,56940,1,8,0:0:0:0:
256,192,57117,1,0,0:0:0:0:
256,192,57293,1,8,0:0:0:0:
256,192,57470,1,8,0:0:0:0:
256,192,57558,1,8,0:0:0:0:
256,192,57646,1,8,0:0:0:0:
256,192,57822,1,0,0:0:0:0:
256,192,57999,1,8,0:0:0:0:
256,192,58352,1,8,0:0:0:0:
256,192,58528,1,0,0:0:0:0:
256,192,58705,1,8,0:0:0:0:
256,192,59058,1,8,0:0:0:0:
256,192,59411,1,0,0:0:0:0:
256,192,59764,1,0,0:0:0:0:
256,192,59940,1,8,0:0:0:0:
256,192,60117,1,0,0:0:0:0:
256,192,60293,1,0,0:0:0:0:
256,192,60381,1,0,0:0:0:0:
256,192,60470,1,0,0:0:0:0:
256,192,60646,1,8,0:0:0:0:
256,192,60822,1,0,0:0:0:0:
256,192,61175,1,8,0:0:0:0:
256,192,61352,1,8,0:0:0:0:
256,192,61528,1,4,0:0:0:0:
256,192,61881,1,8,0:0:0:0:
256,192,62234,1,0,0:0:0:0:
256,192,62587,1,8,0:0:0:0:
256,192,62764,1,0,0:0:0:0:
256,192,62940,1,8,0:0:0:0:
256,192,63117,1,8,0:0:0:0:
256,192,63205,1,8,0:0:0:0:
256,192,63293,1,8,0:0:0:0:
256,192,63470,1,0,0:0:0:0:
256,192,63646,1,8,0:0:0:0:
256,192,63999,1,0,0:0:0:0:
256,192,64175,1,0,0:0:0:0:
256,192,64352,1,8,0:0:0:0:
256,192,64705,1,8,0:0:0:0:
256,192,65058,1,0,0:0:0:0:
256,192,65411,1,8,0:0:0:0:
256,192,65587,1,8,0:0:0:0:
256,192,65764,1,0,0:0:0:0:
256,192,65940,1,0,0:0:0:0:
256,192,66028,1,0,0:0:0:0:
256,192,66117,1,0,0:0:0:0:
256,192,66293,1,8,0:0:0:0:
256,192,66470,1,8,0:0:0:0:
256,192,66822,1,8,0:0:0:0:
256,192,66999,1,8,0:0:0:0:
256,192,67175,1,0,0:0:0:0:
256,192,67264,1,0,0:0:0:0:
256,192,67352,1,0,0:0:0:0:
256,192,67528,1,0,0:0:0:0:
256,192,67705,1,12,0:0:0:0:
256,192,68234,1,8,0:0:0:0:
256,192,68411,1,8,0:0:0:0:
256,192,68587,1,0,0:0:0:0:
256,192,68675,1,0,0:0:0:0:
256,192,68764,1,0,0:0:0:0:
256,192,68940,1,0,0:0:0:0:
256,192,69117,1,12,0:0:0:0:
256,192,69646,1,8,0:0:0:0:
256,192,69822,1,0,0:0:0:0:
256,192,69999,1,12,0:0:0:0:
256,192,70352,1,8,0:0:0:0:
256,192,70528,1,0,0:0:0:0:
256,192,70705,1,8,0:0:0:0:
256,192,70881,1,8,0:0:0:0:
256,192,71058,1,0,0:0:0:0:
256,192,71234,1,0,0:0:0:0:
256,192,71411,1,8,0:0:0:0:
256,192,71764,1,8,0:0:0:0:
256,192,72117,1,8,0:0:0:0:
256,192,72470,1,8,0:0:0:0:
256,192,72646,1,8,0:0:0:0:
256,192,72822,1,0,0:0:0:0:
256,192,72911,1,0,0:0:0:0:
256,192,72999,1,0,0:0:0:0:
256,192,73175,1,0,0:0:0:0:
256,192,73352,1,12,0:0:0:0:
256,192,73881,1,8,0:0:0:0:
256,192,74058,1,8,0:0:0:0:
256,192,74234,1,0,0:0:0:0:
256,192,74322,1,0,0:0:0:0:
256,192,74411,1,0,0:0:0:0:
256,192,74587,1,0,0:0:0:0:
256,192,74764,1,12,0:0:0:0:
256,192,75293,1,8,0:0:0:0:
256,192,75470,1,0,0:0:0:0:
256,192,75646,1,12,0:0:0:0:
256,192,75999,1,8,0:0:0:0:
256,192,76175,1,0,0:0:0:0:
256,192,76352,1,8,0:0:0:0:
256,192,76528,1,0,0:0:0:0:
256,192,76705,1,8,0:0:0:0:
256,192,76881,1,8,0:0:0:0:
256,192,77058,1,4,0:0:0:0:
256,192,77411,1,8,0:0:0:0:
256,192,77764,1,0,0:0:0:0:
256,192,78117,1,8,0:0:0:0:
256,192,78293,1,0,0:0:0:0:
256,192,78470,1,8,0:0:0:0:
256,192,78646,1,8,0:0:0:0:
256,192,78734,1,8,0:0:0:0:
256,192,78822,1,8,0:0:0:0:
256,192,78999,1,0,0:0:0:0:
256,192,79175,1,8,0:0:0:0:
256,192,79528,1,8,0:0:0:0:
256,192,79705,1,0,0:0:0:0:
256,192,79881,1,8,0:0:0:0:
256,192,80234,1,8,0:0:0:0:
256,192,80587,1,0,0:0:0:0:
256,192,80940,1,0,0:0:0:0:
256,192,81117,1,8,0:0:0:0:
256,192,81293,1,0,0:0:0:0:
256,192,81470,1,0,0:0:0:0:
256,192,81558,1,0,0:0:0:0:
256,192,81646,1,0,0:0:0:0:
256,192,81822,1,8,0:0:0:0:
256,192,81999,1,0,0:0:0:0:
256,192,82352,1,8,0:0:0:0:
256,192,82528,1,8,0:0:0:0:
256,192,82705,1,4,0:0:0:0:
256,192,83058,1,8,0:0:0:0:
256,192,83411,1,0,0:0:0:0:
256,192,83764,1,8,0:0:0:0:
256,192,83940,1,0,0:0:0:0:
256,192,84117,1,8,0:0:0:0:
256,192,84293,1,8,0:0:0:0:
256,192,84381,1,8,0:0:0:0:
256,192,84470,1,8,0:0:0:0:
256,192,84646,1,0,0:0:0:0:
256,192,84822,1,8,0:0:0:0:
256,192,85175,1,0,0:0:0:0:
256,192,85352,1,0,0:0:0:0:
256,192,85528,1,8,0:0:0:0:
256,192,85881,1,8,0:0:0:0:
256,192,86234,1,0,0:0:0:0:
256,192,86587,1,8,0:0:0:0:
256,192,86764,1,8,0:0:0:0:
256,192,86940,1,0,0:0:0:0:
256,192,87117,1,0,0:0:0:0:
256,192,87205,1,0,0:0:0:0:
256,192,87293,1,0,0:0:0:0:
256,192,87470,1,8,0:0:0:0:
256,192,87646,1,8,0:0:0:0:
256,192,87999,1,8,0:0:0:0:
256,192,88175,1,8,0:0:0:0:
256,192,88352,1,0,0:0:0:0:
256,192,88440,1,0,0:0:0:0:
256,192,88528,1,0,0:0:0:0:
256,192,88705,1,0,0:0:0:0:
256,192,88881,1,12,0:0:0:0:
256,192,89411,1,8,0:0:0:0:
256,192,89587,1,8,0:0:0:0:
256,192,89764,1,0,0:0:0:0:
256,192,89852,1,0,0:0:0:0:
256,192,89940,1,0,0:0:0:0:
256,192,90117,1,0,0:0:0:0:
256,192,90293,1,12,0:0:0:0:
256,192,90822,1,8,0:0:0:0:
256,192,90999,1,0,0:0:0:0:
256,192,91175,1,12,0:0:0:0:
256,192,91528,1,8,0:0:0:0:
256,192,91705,1,0,0:0:0:0:
256,192,91881,1,8,0:0:0:0:
256,192,92058,1,8,0:0:0:0:
256,192,92234,1,0,0:0:0:0:
256,192,92411,1,0,0:0:0:0:
256,192,92587,1,8,0:0:0:0:
256,192,92940,1,8,0:0:0:0:
256,192,93293,1,8,0:0:0:0:
256,192,93646,1,8,0:0:0:0:
256,192,93822,1,8,0:0:0:0:
256,192,93999,1,0,0:0:0:0:
256,192,94087,1,0,0:0:0:0:
256,192,94175,1,0,0:0:0:0:
256,192,94352,1,0,0:0:0:0:
256,192,94528,1,12,0:0:0:0:
256,192,95058,1,8,0:0:0:0:
256,192,95234,1,8,0:0:0:0:
256,192,95411,1,0,0:0:0:0:
256,192,95499,1,0,0:0:0:0:
256,192,95587,1,0,0:0:0:0:
256,192,95764,1,0,0:0:0:0:
256,192,95940,1,12,0:0:0:0:
256,192,96470,1,8,0:0:0:0:
256,192,96646,1,0,0:0:0:0:
256,192,96822,1,12,0:0:0:0:
256,192,97175,1,8,0:0:0:0:
256,192,97352,1,0,0:0:0:0:
256,192,97528,1,8,0:0:0:0:
256,192,97705,1,0,0:0:0:0:
256,192,97881,1,8,0:0:0:0:
256,192,98058,1,8,0:0:0:0:
256,192,98234,1,4,0:0:0:0:
256,192,98587,1,8,0:0:0:0:
256,192,98764,1,0,0:0:0:0:
256,192,99117,1,0,0:0:0:0:
256,192,99293,1,8,0:0:0:0:
256,192,99470,1,8,0:0:0:0:
256,192,99646,1,0,0:0:0:0:
256,192,99999,1,8,0:0:0:0:
256,192,100175,1,8,0:0:0:0:
256,192,100528,1,8,0:0:0:0:
256,192,100617,1,8,0:0:0:0:
256,192,100705,1,8,0:0:0:0:
256,192,100881,1,8,0:0:0:0:
256,192,101058,1,0,0:0:0:0:
256,192,101411,1,8,0:0:0:0:
256,192,101587,1,0,0:0:0:0:
256,192,101764,1,8,0:0:0:0:
256,192,102117,1,8,0:0:0:0:
256,192,102470,1,0,0:0:0:0:
256,192,102822,1,8,0:0:0:0:
256,192,102999,1,8,0:0:0:0:
256,192,103175,1,0,0:0:0:0:
256,192,103352,1,0,0:0:0:0:
256,192,103528,1,8,0:0:0:0:
256,192,103705,1,8,0:0:0:0:
256,192,103881,1,4,0:0:0:0:
256,192,104234,1,8,0:0:0:0:
256,192,104411,1,8,0:0:0:0:
256,192,104764,1,8,0:0:0:0:
256,192,104940,1,8,0:0:0:0:
256,192,105117,1,8,0:0:0:0:
256,192,105293,1,0,0:0:0:0:
256,192,105646,1,8,0:0:0:0:
256,192,105822,1,0,0:0:0:0:
256,192,106175,1,0,0:0:0:0:
256,192,106264,1,0,0:0:0:0:
256,192,106352,1,0,0:0:0:0:
256,192,106528,1,8,0:0:0:0:
256,192,106705,1,4,0:0:0:0:
256,192,107058,1,8,0:0:0:0:
256,192,107234,1,0,0:0:0:0:
256,192,107764,1,8,0:0:0:0:
256,192,108117,1,0,0:0:0:0:
256,192,108293,1,8,0:0:0:0:
256,192,108470,1,0,0:0:0:0:
256,192,108646,1,8,0:0:0:0:
256,192,108822,1,0,0:0:0:0:
256,192,108999,1,8,0:0:0:0:
256,192,109175,1,0,0:0:0:0:
256,192,109352,1,8,0:0:0:0:
256,192,109528,1,4,0:0:0:0:
256,192,109881,1,8,0:0:0:0:
256,192,110058,1,0,0:0:0:0:
256,192,110234,1,8,0:0:0:0:
256,192,110322,1,8,0:0:0:0:
256,192,110411,1,8,0:0:0:0:
256,192,110587,1,0,0:0:0:0:
256,192,110940,1,12,0:0:0:0:
256,192,111293,1,0,0:0:0:0:
256,192,111646,1,8,0:0:0:0:
256,192,111999,1,8,0:0:0:0:
256,192,112175,1,8,0:0:0:0:
256,192,112352,1,0,0:0:0:0:
256,192,112440,1,0,0:0:0:0:
256,192,112528,1,0,0:0:0:0:
256,192,112705,1,8,0:0:0:0:
256,192,112881,1,8,0:0:0:0:
256,192,113058,1,0,0:0:0:0:
256,192,113411,1,8,0:0:0:0:
256,192,113587,1,0,0:0:0:0:
256,192,113764,1,12,0:0:0:0:
256,192,114117,1,8,0:0:0:0:
256,192,114470,1,0,0:0:0:0:
256,192,114822,1,8,0:0:0:0:
256,192,114999,1,0,0:0:0:0:
256,192,115175,1,8,0:0:0:0:
256,192,115264,1,8,0:0:0:0:
256,192,115352,1,8,0:0:0:0:
256,192,115528,1,0,0:0:0:0:
256,192,115705,1,0,0:0:0:0:
256,192,115881,1,8,0:0:0:0:
256,192,116058,1,8,0:0:0:0:
256,192,116146,1,8,0:0:0:0:
256,192,116234,1,8,0:0:0:0:
256,192,116411,1,0,0:0:0:0:
256,192,116587,1,12,0:0:0:0:
256,192,116940,1,0,0:0:0:0:
256,192,117293,1,8,0:0:0:0:
256,192,117646,1,8,0:0:0:0:
256,192,117822,1,0,0:0:0:0:
256,192,117999,1,8,0:0:0:0:
256,192,118087,1,8,0:0:0:0:
256,192,118175,1,8,0:0:0:0:
256,192,118352,1,0,0:0:0:0:
256,192,118528,1,8,0:0:0:0:
256,192,118705,1,0,0:0:0:0:
256,192,119058,1,8,0:0:0:0:
256,192,119411,1,12,0:0:0:0:
256,192,119675,1,4,0:0:0:0:
256,192,119940,1,4,0:0:0:0:
256,192,120117,1,12,0:0:0:0:
256,192,120470,1,8,0:0:0:0:
256,192,120646,1,8,0:0:0:0:
256,192,120822,1,0,0:0:0:0:
256,192,121058,1,8,0:0:0:0:
256,192,121175,1,8,0:0:0:0:
256,192,121528,1,0,0:0:0:0:
256,192,121881,1,8,0:0:0:0:
256,192,122234,1,4,0:0:0:0:
256,192,130704,5,12,0:0:0:0:
256,192,131057,1,0,0:0:0:0:
256,192,131410,1,8,0:0:0:0:
256,192,131763,1,8,0:0:0:0:
256,192,132116,1,8,0:0:0:0:
256,192,132292,1,8,0:0:0:0:
256,192,132469,1,0,0:0:0:0:
256,192,132822,1,0,0:0:0:0:
256,192,132998,1,8,0:0:0:0:
256,192,133175,1,8,0:0:0:0:
256,192,133528,1,8,0:0:0:0:
256,192,133881,1,8,0:0:0:0:
256,192,134057,1,0,0:0:0:0:
256,192,134234,1,8,0:0:0:0:
256,192,134586,1,0,0:0:0:0:
256,192,134763,1,8,0:0:0:0:
256,192,134939,1,4,0:0:0:0:
256,192,135292,1,0,0:0:0:0:
256,192,135645,1,8,0:0:0:0:
256,192,135998,1,8,0:0:0:0:
256,192,136175,1,8,0:0:0:0:
256,192,136351,1,0,0:0:0:0:
256,192,136704,1,8,0:0:0:0:
256,192,137057,1,4,0:0:0:0:
256,192,137410,1,8,0:0:0:0:
256,192,137763,1,0,0:0:0:0:
256,192,138116,1,8,0:0:0:0:
256,192,138292,1,0,0:0:0:0:
256,192,138469,1,8,0:0:0:0:
256,192,138645,1,8,0:0:0:0:
256,192,138822,1,8,0:0:0:0:
256,192,138998,1,0,0:0:0:0:
256,192,139175,1,12,0:0:0:0:
256,192,144822,5,12,0:0:0:0:
256,192,150469,5,12,0:0:0:0:
256,192,156116,5,4,0:0:0:0:
256,192,160704,1,8,0:0:0:0:
256,192,161057,12,0,161586,0:0:0:0:
256,192,161763,5,12,0:0:0:0:
256,192,162116,1,8,0:0:0:0:
256,192,162469,1,0,0:0:0:0:
256,192,162645,1,8,0:0:0:0:
256,192,162822,1,8,0:0:0:0:
256,192,163175,1,0,0:0:0:0:
256,192,163351,1,8,0:0:0:0:
256,192,163439,1,8,0:0:0:0:
256,192,163527,1,8,0:0:0:0:
256,192,163704,1,0,0:0:0:0:
256,192,163880,1,8,0:0:0:0:
256,192,164145,1,0,0:0:0:0:
256,192,164410,1,0,0:0:0:0:
256,192,164586,1,8,0:0:0:0:
256,192,164851,1,0,0:0:0:0:
256,192,164939,1,0,0:0:0:0:
256,192,165116,1,8,0:0:0:0:
256,192,165292,1,0,0:0:0:0:
256,192,165557,1,8,0:0:0:0:
256,192,165645,1,8,0:0:0:0:
256,192,165822,1,0,0:0:0:0:
256,192,165998,1,8,0:0:0:0:
256,192,166263,1,0,0:0:0:0:
256,192,166351,1,0,0:0:0:0:
256,192,166527,1,8,0:0:0:0:
256,192,166704,1,8,0:0:0:0:
256,192,166880,1,0,0:0:0:0:
256,192,167410,1,12,0:0:0:0:
256,192,168116,1,8,0:0:0:0:
256,192,168292,1,0,0:0:0:0:
256,192,168469,1,8,0:0:0:0:
256,192,168645,1,8,0:0:0:0:
256,192,168822,1,0,0:0:0:0:
256,192,168910,1,0,0:0:0:0:
256,192,168998,1,0,0:0:0:0:
256,192,169174,1,8,0:0:0:0:
256,192,169527,1,8,0:0:0:0:
256,192,169704,1,8,0:0:0:0:
256,192,169792,1,8,0:0:0:0:
256,192,169880,1,8,0:0:0:0:
256,192,170057,1,0,0:0:0:0:
256,192,170233,1,12,0:0:0:0:
256,192,170498,1,4,0:0:0:0:
256,192,170763,1,4,0:0:0:0:
256,192,170939,1,12,0:0:0:0:
256,192,171292,1,8,0:0:0:0:
256,192,171469,1,8,0:0:0:0:
256,192,171645,1,4,0:0:0:0:
256,192,171910,1,12,0:0:0:0:
256,192,172174,1,12,0:0:0:0:
256,192,172351,1,4,0:0:0:0:
256,192,173057,1,8,0:0:0:0:
256,192,173233,1,8,0:0:0:0:
256,192,173409,1,0,0:0:0:0:
256,192,173586,1,8,0:0:0:0:
256,192,173762,1,4,0:0:0:0:
256,192,174114,1,8,0:0:0:0:
256,192,174467,1,0,0:0:0:0:
256,192,174820,1,8,0:0:0:0:
256,192,174997,1,0,0:0:0:0:
256,192,175173,1,8,0:0:0:0:
256,192,175350,1,8,0:0:0:0:
256,192,175438,1,8,0:0:0:0:
256,192,175526,1,8,0:0:0:0:
256,192,175703,1,0,0:0:0:0:
256,192,175879,1,8,0:0:0:0:
256,192,176232,1,8,0:0:0:0:
256,192,176409,1,0,0:0:0:0:
256,192,176585,1,8,0:0:0:0:
256,192,176938,1,8,0:0:0:0:
256,192,177291,1,0,0:0:0:0:
256,192,177644,1,0,0:0:0:0:
256,192,177820,1,8,0:0:0:0:
256,192,177997,1,0,0:0:0:0:
256,192,178173,1,0,0:0:0:0:
256,192,178262,1,0,0:0:0:0:
256,192,178350,1,0,0:0:0:0:
256,192,178526,1,8,0:0:0:0:
256,192,178703,1,0,0:0:0:0:
256,192,179056,1,8,0:0:0:0:
256,192,179232,1,8,0:0:0:0:
256,192,179409,1,4,0:0:0:0:
256,192,179762,1,8,0:0:0:0:
256,192,180114,1,0,0:0:0:0:
256,192,180467,1,8,0:0:0:0:
256,192,180644,1,0,0:0:0:0:
256,192,180820,1,8,0:0:0:0:
256,192,180997,1,8,0:0:0:0:
256,192,181085,1,8,0:0:0:0:
256,192,181173,1,8,0:0:0:0:
256,192,181350,1,0,0:0:0:0:
256,192,181526,1,8,0:0:0:0:
256,192,181879,1,0,0:0:0:0:
256,192,182056,1,0,0:0:0:0:
256,192,182232,1,8,0:0:0:0:
256,192,182585,1,8,0:0:0:0:
256,192,182938,1,0,0:0:0:0:
256,192,183291,1,8,0:0:0:0:
256,192,183467,1,8,0:0:0:0:
256,192,183644,1,0,0:0:0:0:
256,192,183820,1,0,0:0:0:0:
256,192,183909,1,0,0:0:0:0:
256,192,183997,1,0,0:0:0:0:
256,192,184173,1,8,0:0:0:0:
256,192,184350,1,8,0:0:0:0:
256,192,184526,1,0,0:0:0:0:
256,192,184703,1,8,0:0:0:0:
256,192,184879,1,8,0:0:0:0:
256,192,185056,1,4,0:0:0:0:
256,192,185409,1,0,0:0:0:0:
256,192,185762,1,8,0:0:0:0:
256,192,186114,1,8,0:0:0:0:
256,192,186291,1,0,0:0:0:0:
256,192,186467,1,8,0:0:0:0:
256,192,186556,1,8,0:0:0:0:
256,192,186644,1,8,0:0:0:0:
256,192,186820,1,8,0:0:0:0:
256,192,186997,1,0,0:0:0:0:
256,192,187173,1,8,0:0:0:0:
256,192,187526,1,8,0:0:0:0:
256,192,187703,1,0,0:0:0:0:
256,192,187879,1,12,0:0:0:0:
256,192,188232,1,8,0:0:0:0:
256,192,188585,1,0,0:0:0:0:
256,192,188938,1,8,0:0:0:0:
256,192,189114,1,8,0:0:0:0:
256,192,189291,1,0,0:0:0:0:
256,192,189379,1,0,0:0:0:0:
256,192,189467,1,0,0:0:0:0:
256,192,189644,1,8,0:0:0:0:
256,192,189820,1,0,0:0:0:0:
256,192,189997,1,8,0:0:0:0:
256,192,190173,1,8,0:0:0:0:
256,192,190262,1,8,0:0:0:0:
256,192,190350,1,8,0:0:0:0:
256,192,190526,1,0,0:0:0:0:
256,192,190703,1,12,0:0:0:0:
256,192,191056,1,0,0:0:0:0:
256,192,191409,1,8,0:0:0:0:
256,192,191762,1,8,0:0:0:0:
256,192,191938,1,0,0:0:0:0:
256,192,192114,1,8,0:0:0:0:
256,192,192203,1,8,0:0:0:0:
256,192,192291,1,8,0:0:0:0:
256,192,192467,1,8,0:0:0:0:
256,192,192644,1,0,0:0:0:0:
256,192,192820,1,8,0:0:0:0:
256,192,193173,1,8,0:0:0:0:
256,192,193526,1,12,0:0:0:0:
256,192,193791,1,4,0:0:0:0:
256,192,194056,1,4,0:0:0:0:
256,192,194232,1,12,0:0:0:0:
256,192,194585,1,8,0:0:0:0:
256,192,194762,1,8,0:0:0:0:
256,192,194938,1,4,0:0:0:0:
256,192,195291,1,0,0:0:0:0:
256,192,195644,1,8,0:0:0:0:
256,192,195997,1,8,0:0:0:0:
256,192,196173,1,0,0:0:0:0:
256,192,196350,1,8,0:0:0:0:
256,192,196438,1,8,0:0:0:0:
256,192,196526,1,8,0:0:0:0:
256,192,196703,1,0,0:0:0:0:
256,192,196879,1,8,0:0:0:0:
256,192,197056,1,0,0:0:0:0:
256,192,197409,1,8,0:0:0:0:
256,192,197585,1,0,0:0:0:0:
256,192,197762,1,12,0:0:0:0:
256,192,198114,1,8,0:0:0:0:
256,192,198467,1,0,0:0:0:0:
256,192,198820,1,8,0:0:0:0:
256,192,198997,1,8,0:0:0:0:
256,192,199173,1,0,0:0:0:0:
256,192,199261,1,0,0:0:0:0:
256,192,199350,1,0,0:0:0:0:
256,192,199526,1,8,0:0:0:0:
256,192,199703,1,0,0:0:0:0:
256,192,199879,1,8,0:0:0:0:
256,192,200056,1,8,0:0:0:0:
256,192,200144,1,8,0:0:0:0:
256,192,200232,1,8,0:0:0:0:
256,192,200409,1,0,0:0:0:0:
256,192,200585,1,12,0:0:0:0:
256,192,200938,1,0,0:0:0:0:
256,192,201291,1,8,0:0:0:0:
256,192,201644,1,8,0:0:0:0:
256,192,201820,1,0,0:0:0:0:
256,192,201997,1,8,0:0:0:0:
256,192,202085,1,8,0:0:0:0:
256,192,202173,1,8,0:0:0:0:
256,192,202350,1,8,0:0:0:0:
256,192,202526,1,0,0:0:0:0:
256,192,202703,1,8,0:0:0:0:
256,192,203056,1,8,0:0:0:0:
256,192,203409,1,12,0:0:0:0:
256,192,203673,1,4,0:0:0:0:
256,192,203938,1,4,0:0:0:0:
256,192,204114,1,12,0:0:0:0:
256,192,204467,1,8,0:0:0:0:
256,192,204644,1,8,0:0:0:0:
256,192,204820,1,4,0:0:0:0:
256,192,205173,1,8,0:0:0:0:
256,192,205526,1,0,0:0:0:0:
256,192,205879,1,8,0:0:0:0:
256,192,206056,1,0,0:0:0:0:
256,192,206232,1,8,0:0:0:0:
256,192,206409,1,8,0:0:0:0:
256,192,206497,1,8,0:0:0:0:
256,192,206585,1,8,0:0:0:0:
256,192,206761,1,0,0:0:0:0:
256,192,206938,1,8,0:0:0:0:
256,192,207291,1,8,0:0:0:0:
256,192,207467,1,0,0:0:0:0:
256,192,207644,1,8,0:0:0:0:
256,192,207997,1,8,0:0:0:0:
256,192,208350,1,0,0:0:0:0:
256,192,208703,1,0,0:0:0:0:
256,192,208879,1,8,0:0:0:0:
256,192,209056,1,0,0:0:0:0:
256,192,209232,1,0,0:0:0:0:
256,192,209320,1,0,0:0:0:0:
256,192,209409,1,0,0:0:0:0:
256,192,209585,1,8,0:0:0:0:
256,192,209761,1,0,0:0:0:0:
256,192,210114,1,8,0:0:0:0:
256,192,210291,1,8,0:0:0:0:
256,192,210467,1,4,0:0:0:0:
256,192,210820,1,8,0:0:0:0:
256,192,211173,1,0,0:0:0:0:
256,192,211526,1,8,0:0:0:0:
256,192,211703,1,0,0:0:0:0:
256,192,211879,1,8,0:0:0:0:
256,192,212056,1,8,0:0:0:0:
256,192,212144,1,8,0:0:0:0:
256,192,212232,1,8,0:0:0:0:
256,192,212409,1,0,0:0:0:0:
256,192,212585,1,8,0:0:0:0:
256,192,212938,1,0,0:0:0:0:
256,192,213114,1,0,0:0:0:0:
256,192,213291,1,8,0:0:0:0:
256,192,213644,1,8,0:0:0:0:
256,192,213997,1,0,0:0:0:0:
256,192,214350,1,8,0:0:0:0:
256,192,214526,1,8,0:0:0:0:
256,192,214703,1,0,0:0:0:0:
256,192,214879,1,0,0:0:0:0:
256,192,214967,1,0,0:0:0:0:
256,192,215056,1,0,0:0:0:0:
256,192,215232,1,8,0:0:0:0:
256,192,215409,1,8,0:0:0:0:
256,192,215761,1,8,0:0:0:0:
256,192,215938,1,8,0:0:0:0:
256,192,216114,1,4,0:0:0:0:
256,192,216467,1,8,0:0:0:0:
256,192,216820,1,0,0:0:0:0:
256,192,217173,1,8,0:0:0:0:
256,192,217350,1,0,0:0:0:0:
256,192,217526,1,8,0:0:0:0:
256,192,217703,1,8,0:0:0:0:
256,192,217791,1,8,0:0:0:0:
256,192,217879,1,8,0:0:0:0:
256,192,218056,1,0,0:0:0:0:
256,192,218232,1,8,0:0:0:0:
256,192,218585,1,8,0:0:0:0:
256,192,218761,1,0,0:0:0:0:
256,192,218938,1,8,0:0:0:0:
256,192,219291,1,8,0:0:0:0:
256,192,219644,1,0,0:0:0:0:
256,192,219997,1,0,0:0:0:0:
256,192,220085,1,0,0:0:0:0:
256,192,220173,1,0,0:0:0:0:
256,192,220350,1,12,0:0:0:0:
256,192,220526,1,0,0:0:0:0:
256,192,220703,1,8,0:0:0:0:
256,192,220879,1,8,0:0:0:0:
256,192,221056,1,0,0:0:0:0:
256,192,221409,1,8,0:0:0:0:
256,192,221585,1,8,0:0:0:0:
256,192,221761,1,4,0:0:0:0:
256,192,222114,1,8,0:0:0:0:
256,192,222467,1,0,0:0:0:0:
256,192,222820,1,8,0:0:0:0:
256,192,222997,1,0,0:0:0:0:
256,192,223173,1,8,0:0:0:0:
256,192,223350,1,8,0:0:0:0:
256,192,223438,1,8,0:0:0:0:
256,192,223526,1,8,0:0:0:0:
256,192,223703,1,0,0:0:0:0:
256,192,223879,1,8,0:0:0:0:
256,192,224232,1,0,0:0:0:0:
256,192,224409,1,0,0:0:0:0:
256,192,224585,1,12,0:0:0:0:
256,192,224938,1,8,0:0:0:0:
256,192,225291,1,0,0:0:0:0:
256,192,225644,1,8,0:0:0:0:
256,192,225820,1,8,0:0:0:0:
256,192,225997,1,4,0:0:0:0:
256,192,226350,1,0,0:0:0:0:
256,192,226526,1,8,0:0:0:0:
256,192,226703,1,8,0:0:0:0:
256,192,226879,1,0,0:0:0:0:
256,192,227056,1,8,0:0:0:0:
256,192,227144,1,8,0:0:0:0:
256,192,227232,1,8,0:0:0:0:
256,192,227409,12,0,230232,0:0:0:0:
