osu file format v14

[General]
AudioFilename: 03 Symmetric Rose.mp3
AudioLeadIn: 0
PreviewTime: 86688
Countdown: 0
SampleSet: Soft
StackLeniency: 0.9
Mode: 0
LetterboxInBreaks: 0
WidescreenStoryboard: 0

[Editor]
Bookmarks: 670,9813,30388,34960,53116,71545,87402,124116,133259,151545,167402,204116,222402,240688,257830,266972,294258,330972,340115,349258,367544,385830
DistanceSpacing: 1.5
BeatDivisor: 4
GridSize: 4
TimelineZoom: 2.899999

[Metadata]
Title:Symmetric Rose
TitleUnicode:Symmetric Rose
Artist:Ariabl'eyeS
ArtistUnicode:Ariabl'eyeS
Creator:Pawlyk here
Version:Rose
Source:
Tags:Ruriiro no Rosenkreuz Ariabl eyes sister twins nice song 瑠璃色のローゼンクロイツ Rena Marathon
BeatmapID:1079078
BeatmapSetID:383857

[Difficulty]
HPDrainRate:7
CircleSize:4.3
OverallDifficulty:8.5
ApproachRate:9.6
SliderMultiplier:1.8
SliderTickRate:1

[Events]
//Background and Video events
0,0,"bg.jpg",0,0
//Break Periods
2,258077,266508
//Storyboard Layer 0 (Background)
//Storyboard Layer 1 (Fail)
//Storyboard Layer 2 (Pass)
//Storyboard Layer 3 (Foreground)
//Storyboard Sound Samples

[TimingPoints]
732.645972067412,571.428571428571,4,2,1,45,1,0
9875,-200,4,2,1,70,0,0
10734,-111.111111111111,4,2,1,70,0,0
11018,285.714285714286,4,2,1,45,1,0
28162,-100,4,2,1,70,0,0
30162,-100,4,2,1,55,0,0
30448,-133.333333333333,4,2,1,70,0,0
30877,-133.333333333333,4,2,1,45,0,0
31591,-133.333333333333,4,2,1,70,0,0
31805,-133.333333333333,4,2,1,45,0,0
32734,-133.333333333333,4,2,1,70,0,0
35018,-166.666666666667,4,2,1,60,0,0
39589,-133.333333333333,4,2,1,70,0,0
40018,-166.666666666667,4,2,1,70,0,0
43734,-133.333333333333,4,2,1,70,0,0
50875,-117.647058823529,4,2,1,70,0,0
53020,-111.111111111111,4,2,1,70,0,0
69020,-100,4,2,1,70,0,0
70875,-166.666666666667,4,2,1,70,0,0
71232,-133.333333333333,4,2,1,70,0,0
71589,-133.333333333333,4,2,1,70,0,0
76160,-125,4,2,1,70,0,0
76448,-133.333333333333,4,2,1,70,0,0
80732,-133.333333333333,4,2,1,70,0,0
85305,-133.333333333333,4,2,1,75,0,0
85734,-133.333333333333,4,2,1,80,0,0
86162,-133.333333333333,4,2,1,85,0,0
87446,-100,4,2,1,75,0,1
101303,-100,4,2,1,75,0,0
105875,-100,4,2,1,75,0,1
124160,-133.333333333333,4,2,1,45,0,0
128734,-133.333333333333,4,2,1,70,0,0
133303,-111.111111111111,4,2,1,70,0,0
151591,-133.333333333333,4,2,1,70,0,0
167446,-100,4,2,1,75,0,1
181303,-100,4,2,1,75,0,0
185875,-100,4,2,1,75,0,1
204160,-133.333333333333,4,2,1,55,0,0
213303,-153.846153846154,4,2,1,55,0,0
222303,-133.333333333333,4,2,1,55,0,0
222446,-117.647058823529,4,2,1,55,0,0
230160,-100,4,2,1,55,0,0
230732,-117.647058823529,4,2,1,55,0,0
238446,-111.111111111111,4,2,1,55,0,0
240734,-133.333333333333,4,2,1,55,0,0
257875,571.428571428571,4,2,1,45,1,0
267017,-83.3333333333333,4,2,1,70,0,0
276160,-76.9230769230769,4,2,1,70,0,0
284732,-71.4285714285714,4,2,1,70,0,0
289875,285.714285714286,4,2,1,45,1,0
294303,-100,4,2,1,70,0,1
308160,-100,4,2,1,70,0,0
312732,-100,4,2,1,70,0,1
331017,-142.857142857143,4,2,1,70,0,0
332517,-111.111111111111,4,2,1,70,0,0
333303,-142.857142857143,4,2,1,70,0,0
335303,-125,4,2,1,70,0,0
335448,-133.333333333333,4,2,1,70,0,0
338732,-125,4,2,1,70,0,0
339017,-111.111111111111,4,2,1,70,0,0
386162,-133.333333333333,4,2,1,70,0,0

[Colours]
Combo1 : 255,196,15
Combo2 : 255,255,255
Combo3 : 53,157,242
Combo4 : 242,34,65

[HitObjects]
240,112,732,6,0,P|292:108|376:156,1,135
240,208,1304,2,0,P|228:256|236:312,1,90,2|0,0:0|0:0,0:0:0:0:
344,248,1875,2,0,P|404:272|436:320,2,90,2|0|2,0:0|0:0|0:0,0:0:0:0:
344,248,2732,1,0,0:0:0:0:
164,168,3018,6,0,P|92:192|40:248,1,135,2|0,0:0|0:0,0:0:0:0:
196,292,3589,2,0,P|248:284|300:256,1,90,2|0,0:0|0:0,0:0:0:0:
168,152,4161,1,2,0:0:0:0:
288,148,4446,1,0,0:0:0:0:
220,208,4732,1,8,0:0:0:0:
232,96,5018,1,2,0:0:0:0:
308,168,5304,6,0,P|316:220|296:308,1,135,2|0,0:0|0:0,0:0:0:0:
120,196,5875,2,0,P|120:152|136:104,1,90,2|0,0:0|0:0,0:0:0:0:
264,152,6446,1,2,0:0:0:0:
133,108,6732,1,0,0:0:0:0:
252,48,7018,1,8,0:0:0:0:
192,184,7304,1,2,0:0:0:0:
104,44,7589,6,0,P|84:96|88:184,1,135,2|0,0:0|0:0,0:0:0:0:
284,256,8161,2,0,P|304:208|304:164,1,90,2|0,0:0|0:0,0:0:0:0:
152,152,8732,1,2,0:0:0:0:
228,248,9018,1,0,0:0:0:0:
40,184,9304,1,10,0:0:0:0:
244,96,9589,1,2,0:0:0:0:
136,184,9875,6,0,P|120:252|144:320,1,135,4|8,0:0|0:0,0:0:0:0:
300,132,11018,1,0,0:0:0:0:
428,192,11160,1,8,0:0:0:0:
428,208,11232,2,0,P|420:244|408:284,1,45
288,312,11446,1,2,0:0:0:0:
248,172,11589,5,8,0:0:0:0:
224,144,11660,1,0,0:0:0:0:
188,128,11732,1,0,0:0:0:0:
152,132,11803,1,0,0:0:0:0:
120,144,11875,2,0,P|120:196|96:240,1,90,2|0,0:0|0:0,0:0:0:0:
48,80,12160,6,0,B|124:16|212:84,1,180,12|8,0:0|0:0,0:0:0:0:
160,224,12589,1,0,0:0:0:0:
160,224,12660,1,0,0:0:0:0:
160,224,12732,2,0,P|160:296|168:324,1,90
296,160,13018,1,10,0:0:0:0:
252,253,13160,1,2,0:0:0:0:
388,168,13303,6,0,P|420:224|400:296,1,135,4|0,0:0|0:0,0:0:0:0:
340,252,13589,2,0,P|292:244|248:256,1,90,8|0,0:0|0:0,0:0:0:0:
136,340,13875,2,0,P|108:296|108:236,1,90
220,188,14160,1,10,0:0:0:0:
116,128,14303,1,0,0:0:0:0:
116,128,14375,1,0,0:0:0:0:
116,128,14446,2,0,P|116:56|124:16,1,90,8|0,0:0|0:0,0:0:0:0:
192,208,14732,2,0,P|128:228|76:200,1,90,14|0,0:0|0:0,0:0:0:0:
116,128,15018,1,0,0:0:0:0:
196,72,15160,2,0,P|244:60|324:80,1,90,2|8,0:0|0:0,0:0:0:0:
384,248,15446,2,0,P|336:256|279:247,1,90,0|2,0:0|0:0,0:0:0:0:
168,152,15732,2,0,P|160:196|167:253,1,90,8|0,0:0|0:0,0:0:0:0:
328,184,16017,5,8,0:0:0:0:
328,184,16089,1,0,0:0:0:0:
328,184,16160,1,0,0:0:0:0:
164,240,16303,1,0,0:0:0:0:
272,116,16446,1,10,0:0:0:0:
296,96,16518,1,0,0:0:0:0:
336,92,16589,1,0,0:0:0:0:
376,100,16660,1,0,0:0:0:0:
400,120,16732,6,0,B|400:172|400:172|372:216|372:216|372:300,1,180,4|8,0:0|0:0,0:0:0:0:
485,345,17160,2,0,P|487:300|484:256,1,90,2|0,0:0|0:0,0:0:0:0:
400,120,17446,1,0,0:0:0:0:
344,220,17589,1,10,0:0:0:0:
476,172,17732,1,0,0:0:0:0:
420,284,17875,6,4,P|344:332|256:272,1,180,6|8,0:0|0:0,0:0:0:0:
165,154,18303,2,0,P|160:199|164:244,1,90,2|0,0:0|0:0,0:0:0:0:
220,344,18589,1,2,0:0:0:0:
340,244,18732,1,8,0:0:0:0:
348,252,18803,1,0,0:0:0:0:
348,252,18875,1,0,0:0:0:0:
192,184,19018,6,0,B|150:168|76:196,1,90,6|8,0:0|0:0,0:0:0:0:
72,120,19303,1,0,0:0:0:0:
168,280,19446,2,0,P|240:308|356:268,1,180,2|0,0:0|0:0,0:0:0:0:
392,144,19875,1,8,0:0:0:0:
440,260,20018,2,0,L|484:352,2,90,0|6|0,0:0|0:0|0:0,0:0:0:0:
320,132,20446,1,10,0:0:0:0:
368,240,20589,1,0,0:0:0:0:
392,96,20732,1,10,0:0:0:0:
288,304,20875,1,0,0:0:0:0:
276,296,20946,1,0,0:0:0:0:
264,280,21018,5,8,0:0:0:0:
256,256,21089,1,0,0:0:0:0:
256,224,21160,1,2,0:0:0:0:
264,184,21232,1,0,0:0:0:0:
268,152,21303,2,0,P|252:100|208:72,1,90
148,200,21589,2,0,L|148:320,1,90
268,188,21875,2,0,P|320:172|388:200,1,90
432,296,22160,5,8,0:0:0:0:
340,256,22303,1,0,0:0:0:0:
456,212,22446,2,0,P|478:117|439:35,1,180,6|10,0:0|0:0,0:0:0:0:
352,136,22875,2,0,P|304:144|240:128,1,90
184,64,23160,1,0,0:0:0:0:
308,56,23303,5,10,0:0:0:0:
160,184,23446,1,0,0:0:0:0:
160,184,23518,1,0,0:0:0:0:
160,184,23589,2,0,P|148:240|152:304,1,90,6|0,0:0|0:0,0:0:0:0:
250,126,23875,2,0,P|169:92|84:116,1,180,10|0,0:0|0:0,0:0:0:0:
48,232,24303,1,2,0:0:0:0:
136,188,24446,1,12,0:0:0:0:
80,320,24589,1,2,0:0:0:0:
228,232,24732,6,0,P|296:264|316:292,1,90,0|2,0:0|0:0,0:0:0:0:
440,332,25018,1,8,0:0:0:0:
440,332,25089,1,0,0:0:0:0:
440,332,25160,2,0,P|448:276|448:208,1,90,8|2,0:0|0:0,0:0:0:0:
316,88,25446,2,0,P|310:138|314:178,1,90,0|8,0:0|0:0,0:0:0:0:
356,296,25732,1,0,0:0:0:0:
356,296,25803,1,0,0:0:0:0:
356,296,25875,6,0,P|296:312|228:296,1,90,12|0,0:0|0:0,0:0:0:0:
160,212,26160,1,8,0:0:0:0:
76,136,26303,2,0,P|42:218|82:318,1,180
232,248,26732,1,0,0:0:0:0:
168,336,26875,1,0,0:0:0:0:
172,176,27018,2,0,P|232:156|304:188,1,135
380,336,27303,2,0,L|387:246,1,90,8|0,0:0|0:0,0:0:0:0:
320,112,27589,5,8,0:0:0:0:
456,148,27732,1,0,0:0:0:0:
320,112,27875,1,8,0:0:0:0:
440,244,28018,1,8,0:0:0:0:
440,244,28089,1,0,0:0:0:0:
440,244,28160,2,0,P|428:288|416:340,1,90,8|0,0:0|0:0,0:0:0:0:
186,179,28446,6,0,P|193:224|204:268,1,90,8|0,0:0|0:0,0:0:0:0:
320,328,28732,1,0,0:0:0:0:
320,328,28875,1,0,0:0:0:0:
348,156,29018,2,0,P|392:149|437:148,1,90,8|0,0:0|0:0,0:0:0:0:
192,48,29303,1,8,0:0:0:0:
272,192,29446,1,0,0:0:0:0:
192,48,29589,5,8,0:0:0:0:
84,112,29732,1,0,0:0:0:0:
68,140,29803,1,0,0:0:0:0:
60,172,29875,1,8,0:0:0:0:
68,200,29946,1,0,0:0:0:0:
84,228,30018,2,0,P|148:208|188:236,1,90,0|8,0:0|0:0,0:0:0:0:
224,236,30232,1,8,0:0:0:0:
225,278,30303,1,8,0:0:0:0:
200,315,30375,1,8,0:0:0:0:
164,340,30446,6,0,P|119:349|68:344,1,67.5000025749208,0|0,0:0|2:2,0:1:0:0:
60,252,30732,2,0,L|60:176,1,67.5000025749208
152,128,31018,2,0,L|240:128,2,67.5000025749208
152,128,31446,1,0,0:0:0:0:
156,228,31589,2,0,L|156:320,1,67.5000025749208
288,280,31875,2,0,P|336:272|368:248,2,67.5000025749208
288,280,32303,1,0,0:0:0:0:
276,196,32446,2,0,L|276:100,1,67.5000025749208
184,60,32732,2,0,P|144:60|96:80,2,67.5000025749208
184,60,33160,1,0,0:0:0:0:
168,160,33303,2,0,L|168:248,1,67.5000025749208
280,212,33589,2,0,L|280:280,1,67.5000025749208
140,296,33875,5,8,0:0:0:0:
96,176,34018,1,0,0:0:0:0:
224,232,34160,1,0,0:0:0:0:
96,176,34303,1,2,0:0:0:0:
196,112,34446,1,0,0:0:0:0:
160,232,34589,1,0,0:0:0:0:
284,92,34732,1,8,0:0:0:0:
256,192,34875,1,0,0:0:0:0:
348,148,35018,6,0,B|364:192|348:264,1,107.999996704102,4|2,0:0|0:0,0:0:0:0:
240,256,35446,2,0,P|208:252|168:260,1,53.9999983520508,0|2,0:0|0:0,0:0:0:0:
212,340,35732,1,0,0:0:0:0:
88,268,35875,2,0,L|88:212,1,53.9999983520508
164,100,36160,2,2,P|212:148|224:200,2,107.999996704102,2|0|2,0:0|0:0|0:0,0:0:0:0:
132,208,36875,2,0,L|131:265,1,53.9999983520508
223,185,37160,2,0,P|275:165|343:189,1,107.999996704102,2|0,0:0|0:0,0:0:0:0:
396,208,37589,2,0,P|400:236|396:264,1,53.9999983520508,2|0,0:0|0:0,0:0:0:0:
223,185,37875,1,2,0:0:0:0:
316,236,38018,1,0,0:0:0:0:
248,308,38160,6,0,P|216:312|176:308,1,53.9999983520508,2|0,0:0|0:0,0:0:0:0:
108,216,38446,2,0,P|108:190|112:156,1,53.9999983520508,2|0,0:0|0:0,0:0:0:0:
264,208,38732,2,2,P|268:260|264:284,1,53.9999983520508,2|0,0:0|0:0,0:0:0:0:
180,228,39018,1,2,0:0:0:0:
212,148,39160,1,0,0:0:0:0:
96,272,39303,1,2,0:0:0:0:
120,180,39446,1,0,0:0:0:0:
200,316,39589,6,0,B|248:256|196:164,1,135.000005149842,2|0,0:0|0:0,0:0:0:0:
176,84,40018,2,0,P|144:96|120:124,2,53.9999983520508,2|0|2,0:0|0:0|0:0,0:0:0:0:
288,88,40446,1,2,0:0:0:0:
232,176,40589,1,0,0:0:0:0:
232,176,40732,2,0,P|191:187|107:183,1,107.999996704102,2|0,0:0|0:0,0:0:0:0:
52,144,41160,2,0,P|36:216|48:268,1,107.999996704102,2|0,0:0|0:0,0:0:0:0:
136,280,41589,5,2,0:0:0:0:
216,224,41732,1,0,0:0:0:0:
304,244,41875,2,0,P|304:262|304:298,1,53.9999983520508,2|0,0:0|0:0,0:0:0:0:
140,184,42160,2,0,P|140:148|140:120,1,53.9999983520508,2|0,0:0|0:0,0:0:0:0:
248,272,42446,2,0,P|243:303|227:323,1,53.9999983520508,2|0,0:0|0:0,0:0:0:0:
60,176,42732,2,0,P|68:148|92:116,1,53.9999983520508
228,208,43018,1,2,0:0:0:0:
152,112,43160,1,0,0:0:0:0:
136,260,43303,5,6,0:0:0:0:
204,152,43446,1,0,0:0:0:0:
64,224,43589,1,2,0:0:0:0:
120,112,43732,5,2,0:0:0:0:
140,92,43803,1,0,0:0:0:0:
172,80,43875,1,0,0:0:0:0:
200,88,43946,1,0,0:0:0:0:
224,104,44018,2,2,P|272:116|300:116,1,67.5000025749208
392,104,44303,1,0,0:0:0:0:
440,200,44446,6,0,P|444:232|436:268,1,67.5000025749208,2|0,0:0|0:0,0:0:0:0:
296,336,44732,2,0,P|288:304|296:244,1,67.5000025749208,0|2,0:0|0:0,0:0:0:0:
372,160,45018,1,0,0:0:0:0:
384,288,45160,1,2,0:0:0:0:
264,172,45303,6,0,P|208:196|184:280,1,135.000005149842,0|2,0:0|0:0,0:0:0:0:
336,332,45732,2,0,L|424:332,1,67.5000025749208
272,248,46018,1,2,0:0:0:0:
188,328,46160,1,2,0:0:0:0:
80,296,46303,1,0,0:0:0:0:
80,296,46446,6,0,P|72:228|96:168,1,135.000005149842,2|0,0:0|0:0,0:0:0:0:
208,136,46875,1,2,0:0:0:0:
208,136,47018,2,0,L|212:64,1,67.5000025749208
320,80,47303,2,0,P|389:118|473:106,1,135.000005149842,2|0,0:0|0:0,0:0:0:0:
408,36,47732,1,0,0:0:0:0:
296,148,47875,6,0,P|293:181|297:215,1,67.5000025749208,2|0,0:0|0:0,0:0:0:0:
448,224,48160,2,0,P|458:255|454:289,1,67.5000025749208,2|0,0:0|0:0,0:0:0:0:
312,312,48446,2,0,L|224:312,1,67.5000025749208,2|0,0:0|0:0,0:0:0:0:
176,172,48732,2,0,P|224:124|304:128,1,135.000005149842,2|0,0:0|0:0,0:0:0:0:
368,248,49160,2,0,L|368:336,1,67.5000025749208,2|0,0:0|0:0,0:0:0:0:
272,228,49446,1,2,0:0:0:0:
192,304,49589,5,0,0:0:0:0:
108,216,49732,1,0,0:0:0:0:
160,112,49875,2,0,P|84:100|16:148,1,135.000005149842,2|2,0:0|0:0,0:0:0:0:
112,299,50303,2,0,L|112:232,1,67.5000025749208
160,112,50589,1,2,0:0:0:0:
268,68,50732,5,2,0:0:0:0:
268,68,50803,1,0,0:0:0:0:
268,68,50875,2,0,P|276:136|272:172,1,76.5000014591217
224,232,51160,2,0,P|180:224|128:232,1,76.5000014591217,0|8,0:0|0:0,0:0:0:0:
72,328,51446,2,0,P|44:256|52:160,1,153.000002918243
120,104,51875,5,8,0:0:0:0:
260,92,52018,2,0,P|308:120|332:152,1,76.5000014591217
384,268,52303,1,0,0:0:0:0:
244,176,52446,1,8,0:0:0:0:
432,176,52589,1,0,0:0:0:0:
292,264,52732,5,0,0:0:0:0:
360,140,52875,1,8,0:0:0:0:
340,108,52946,1,0,0:0:0:0:
304,88,53018,1,8,0:0:0:0:
264,84,53089,1,0,0:0:0:0:
224,80,53160,2,0,P|176:80|124:80,1,80.9999975280763,4|8,0:0|0:0,0:0:0:0:
160,240,53446,2,0,B|156:288|156:288|144:328,1,80.9999975280763,0|8,0:0|0:0,0:0:0:0:
84,180,53732,2,0,P|164:156|240:180,1,161.999995056153
316,292,54160,5,8,0:0:0:0:
432,216,54303,2,0,P|435:174|428:136,1,80.9999975280763
348,72,54589,1,0,0:0:0:0:
284,184,54732,2,0,P|244:200|180:200,1,80.9999975280763,8|0,0:0|0:0,0:0:0:0:
220,88,55018,1,0,0:0:0:0:
296,248,55160,1,0,0:0:0:0:
148,144,55303,1,8,0:0:0:0:
336,128,55446,6,0,P|407:165|431:253,1,161.999995056153
348,328,55875,1,8,0:0:0:0:
156,252,56018,2,0,P|204:216|244:208,1,80.9999975280763
356,248,56303,1,0,0:0:0:0:
304,128,56446,1,8,0:0:0:0:
223,210,56589,1,0,0:0:0:0:
404,164,56732,6,0,P|412:120|392:60,1,80.9999975280763
232,120,57018,1,8,0:0:0:0:
400,168,57160,1,0,0:0:0:0:
280,228,57303,6,0,P|272:264|284:316,1,80.9999975280763
400,168,57589,1,8,0:0:0:0:
204,160,57732,1,0,0:0:0:0:
204,160,57875,6,0,B|204:216|204:216|188:268|188:268|188:332,1,161.999995056153,0|8,0:0|0:0,0:0:0:0:
276,256,58303,2,0,P|340:244|384:268,1,80.9999975280763
448,340,58589,1,0,0:0:0:0:
312,324,58732,1,8,0:0:0:0:
400,168,58875,1,0,0:0:0:0:
276,256,59018,2,0,P|252:180|272:88,1,161.999995056153,0|8,0:0|0:0,0:0:0:0:
352,308,59446,2,0,B|272:364|180:292,1,161.999995056153
88,132,59875,5,8,0:0:0:0:
88,132,59946,1,0,0:0:0:0:
88,132,60018,2,0,L|88:236,1,80.9999975280763
200,307,60303,1,0,0:0:0:0:
276,148,60446,1,8,0:0:0:0:
284,264,60589,1,0,0:0:0:0:
204,124,60732,1,0,0:0:0:0:
388,216,60875,1,0,0:0:0:0:
216,204,61018,6,0,P|188:248|240:340,1,161.999995056153,8|0,0:0|0:0,0:0:0:0:
360,260,61446,1,0,0:0:0:0:
432,156,61589,1,8,0:0:0:0:
312,60,61732,2,0,P|312:108|312:152,1,80.9999975280763
464,244,62018,1,0,0:0:0:0:
464,244,62089,1,0,0:0:0:0:
464,244,62160,2,8,P|464:292|456:340,1,80.9999975280763,12|8,0:0|0:0,0:0:0:0:
244,144,62446,6,0,B|328:80|396:152,1,161.999995056153,8|8,0:0|0:0,0:0:0:0:
420,244,62875,1,0,0:0:0:0:
308,208,63018,1,0,0:0:0:0:
392,168,63160,1,0,0:0:0:0:
308,276,63303,1,8,0:0:0:0:
216,200,63446,1,0,0:0:0:0:
352,220,63589,5,0,0:0:0:0:
256,132,63732,1,0,0:0:0:0:
228,276,63875,1,8,0:0:0:0:
176,152,64018,1,0,0:0:0:0:
168,240,64160,5,0,0:0:0:0:
104,88,64303,1,0,0:0:0:0:
88,208,64446,1,8,0:0:0:0:
32,140,64589,1,0,0:0:0:0:
176,180,64732,2,0,B|176:244|176:244|156:276|156:276|156:368,1,161.999995056153,8|0,0:0|0:0,0:0:0:0:
352,296,65160,2,0,P|352:232|344:184,1,80.9999975280763,8|0,0:0|0:0,0:0:0:0:
280,124,65446,1,0,0:0:0:0:
280,124,65589,6,0,B|244:152|244:152|120:152,1,161.999995056153,8|0,0:0|0:0,0:0:0:0:
232,52,66018,2,0,P|300:44|328:52,1,80.9999975280763,0|8,0:0|0:0,0:0:0:0:
376,216,66303,2,0,P|328:228|272:224,1,80.9999975280763,0|8,0:0|0:0,0:0:0:0:
144,216,66589,1,0,0:0:0:0:
212,96,66732,5,8,0:0:0:0:
192,68,66803,1,0,0:0:0:0:
160,60,66875,1,0,0:0:0:0:
128,76,66946,1,0,0:0:0:0:
104,108,67018,2,0,P|104:160|96:224,1,80.9999975280763,8|0,0:0|0:0,0:0:0:0:
52,304,67303,1,8,0:0:0:0:
208,160,67446,2,0,P|208:120|184:76,2,80.9999975280763
112,248,67875,1,8,0:0:0:0:
112,136,68018,1,0,0:0:0:0:
256,128,68160,6,0,B|336:192|260:280,1,161.999995056153,0|8,0:0|0:0,0:0:0:0:
428,80,68589,2,0,P|440:136|440:176,1,80.9999975280763,0|8,0:0|0:0,0:0:0:0:
444,268,68875,1,0,0:0:0:0:
316,180,69018,1,8,0:0:0:0:
272,168,69089,1,0,0:0:0:0:
224,192,69160,1,0,0:0:0:0:
192,232,69232,1,0,0:0:0:0:
160,264,69303,6,0,P|148:212|144:156,1,90,8|0,0:0|0:0,0:0:0:0:
344,160,69589,2,0,P|328:104|324:52,1,90,8|0,0:0|0:0,0:0:0:0:
76,288,69875,2,0,P|100:224|100:176,1,90,8|0,0:0|0:0,0:0:0:0:
416,268,70160,2,0,P|393:226|384:172,1,90,8|0,0:0|0:0,0:0:0:0:
284,156,70446,5,2,0:0:0:0:
124,144,70589,1,2,0:0:0:0:
332,60,70732,1,8,0:0:0:0:
248,204,70875,2,0,P|240:264|248:324,1,107.999996704102,10|10,0:0|0:0,0:0:0:0:
396,244,71232,2,0,L|364:256,1,33.7500012874604
248,204,71446,1,10,0:0:0:0:
332,88,71589,1,6,0:0:0:0:
168,132,71875,2,0,P|152:196|168:272,2,135.000005149842
272,180,72589,1,0,0:0:0:0:
271,179,72732,2,0,B|311:195|367:195|423:175,1,135.000005149842
488,120,73160,2,0,P|500:168|468:264,1,135.000005149842
403,181,73589,5,8,0:0:0:0:
336,288,73732,1,0,0:0:0:0:
288,196,73875,2,0,P|236:204|186:280,1,135.000005149842
348,248,74303,2,0,P|372:184|328:116,1,135.000005149842
352,252,74732,1,8,0:0:0:0:
152,104,75018,1,0,0:0:0:0:
400,196,75303,5,8,0:0:0:0:
336,120,75446,1,0,0:0:0:0:
336,120,75589,1,0,0:0:0:0:
304,208,75732,1,8,0:0:0:0:
256,128,75875,1,0,0:0:0:0:
204,224,76018,1,8,0:0:0:0:
204,224,76160,6,0,B|148:268|64:216,1,144
168,84,76589,2,0,P|196:72|232:84,1,67.5000025749208
272,208,76875,2,0,P|277:251|273:295,2,67.5000025749208,0|8|0,0:0|0:0|0:0,0:0:0:0:
180,152,77303,2,0,L|176:252,1,67.5000025749208
176,316,77589,1,0,0:0:0:0:
136,72,77732,6,0,P|80:108|68:196,1,135.000005149842
112,264,78160,1,0,0:0:0:0:
204,140,78303,1,0,0:0:0:0:
208,280,78446,2,0,L|208:204,1,67.5000025749208
328,124,78732,1,0,0:0:0:0:
280,192,78875,6,0,P|348:208|408:168,1,135.000005149842
288,276,79303,2,0,L|288:356,1,67.5000025749208
132,152,79589,1,0,0:0:0:0:
160,312,79875,5,8,0:0:0:0:
236,256,80018,1,8,0:0:0:0:
236,256,80160,1,0,0:0:0:0:
296,332,80303,1,0,0:0:0:0:
364,252,80446,1,8,0:0:0:0:
452,332,80589,1,0,0:0:0:0:
452,332,80732,6,0,P|472:268|440:200,1,135.000005149842,8|0,0:0|0:0,0:0:0:0:
340,188,81160,1,0,0:0:0:0:
340,188,81303,2,0,L|272:216,2,67.5000025749208
356,284,81732,1,0,0:0:0:0:
404,108,81875,6,0,P|364:104|316:116,1,67.5000025749208,8|0,0:0|0:0,0:0:0:0:
248,148,82160,1,0,0:0:0:0:
336,192,82303,1,0,0:0:0:0:
336,192,82446,2,0,P|336:272|336:328,1,135.000005149842,8|0,0:0|0:0,0:0:0:0:
252,192,82875,1,0,0:0:0:0:
252,192,83018,6,0,B|254:156|254:156|278:120|278:120|278:64,1,135.000005149842,8|0,0:0|0:0,0:0:0:0:
192,80,83446,1,0,0:0:0:0:
368,72,83589,2,0,P|420:124|416:188,1,135.000005149842,8|0,0:0|0:0,0:0:0:0:
324,152,84018,1,0,0:0:0:0:
324,152,84160,6,0,P|296:224|324:288,1,135.000005149842,8|0,0:0|0:0,0:0:0:0:
416,216,84589,1,0,0:0:0:0:
416,216,84732,5,8,0:0:0:0:
313,275,84875,1,0,0:0:0:0:
380,132,85018,1,8,0:0:0:0:
404,320,85160,1,0,0:0:0:0:
304,184,85304,5,2,0:0:0:0:
176,340,85446,1,0,0:0:0:0:
176,340,85589,1,0,0:0:0:0:
336,288,85732,5,2,0:0:0:0:
136,176,85875,1,0,0:0:0:0:
136,176,86018,1,0,0:0:0:0:
348,120,86160,1,2,0:0:0:0:
216,284,86303,1,0,0:0:0:0:
240,100,86446,5,4,0:0:0:0:
300,292,86589,1,10,0:0:0:0:
240,100,86732,5,2,0:0:0:0:
104,108,87446,6,0,B|104:171|104:171|124:211|124:211|124:283,1,180
200,112,87875,2,0,P|268:72|360:128,1,180,8|0,0:0|0:0,0:0:0:0:
400,264,88303,1,0,0:0:0:0:
256,248,88446,1,8,0:0:0:0:
344,176,88589,1,0,0:0:0:0:
168,332,88732,2,0,P|160:276|168:212,1,90
192,120,89018,5,8,0:0:0:0:
336,76,89160,2,0,P|392:72|436:76,1,90
216,200,89446,2,0,P|168:208|100:200,1,90,0|8,0:0|0:0,0:0:0:0:
76,104,89732,1,0,0:0:0:0:
272,52,89875,2,0,B|272:112|272:112|296:148|296:148|296:256,1,180,0|8,0:0|0:0,0:0:0:0:
176,324,90303,1,0,0:0:0:0:
48,240,90446,1,0,0:0:0:0:
192,176,90589,1,0,0:0:0:0:
176,324,90732,6,0,P|265:335|353:323,1,180,8|0,0:0|0:0,0:0:0:0:
416,248,91160,1,0,0:0:0:0:
264,144,91303,2,0,L|156:144,1,90,8|0,0:0|0:0,0:0:0:0:
336,80,91589,2,0,L|432:80,1,90
336,184,91875,1,8,0:0:0:0:
300,212,91946,1,0,0:0:0:0:
252,204,92018,1,0,0:0:0:0:
216,188,92089,1,0,0:0:0:0:
180,168,92160,6,0,B|180:200|152:280,1,90,8|0,0:0|0:0,0:0:0:0:
60,140,92446,2,0,P|76:84|104:40,1,90,8|0,0:0|0:0,0:0:0:0:
212,84,92732,1,0,0:0:0:0:
328,152,92875,2,0,P|340:208|332:248,1,90,0|8,0:0|0:0,0:0:0:0:
144,236,93160,2,0,P|83:228|56:200,2,90
216,68,93589,5,8,0:0:0:0:
144,236,93732,1,0,0:0:0:0:
216,68,93875,1,0,0:0:0:0:
40,124,94018,1,0,0:0:0:0:
40,124,94160,2,0,B|40:180|40:180|64:220|64:220|64:316,1,180,8|0,0:0|0:0,0:0:0:0:
248,344,94589,2,0,P|260:300|252:252,1,90,0|8,0:0|0:0,0:0:0:0:
152,56,94875,1,0,0:0:0:0:
152,56,94946,1,0,0:0:0:0:
152,56,95018,2,0,P|144:104|152:160,1,90
340,228,95303,5,8,0:0:0:0:
228,156,95446,1,0,0:0:0:0:
296,320,95589,2,0,P|372:336|464:280,1,180,0|8,0:0|0:0,0:0:0:0:
324,196,96018,2,0,P|316:148|324:100,1,90
440,148,96303,1,0,0:0:0:0:
128,72,96446,5,8,0:0:0:0:
116,84,96518,1,0,0:0:0:0:
104,100,96589,1,0,0:0:0:0:
92,120,96660,1,0,0:0:0:0:
88,140,96732,2,0,P|100:204|92:240,1,90,8|0,0:0|0:0,0:0:0:0:
152,300,97018,1,8,0:0:0:0:
308,204,97160,2,0,L|324:96,2,90
120,244,97589,5,8,0:0:0:0:
108,128,97732,2,0,L|204:104,1,90
272,192,98018,1,0,0:0:0:0:
112,248,98160,1,8,0:0:0:0:
352,272,98303,1,0,0:0:0:0:
204,288,98446,1,0,0:0:0:0:
308,184,98589,1,0,0:0:0:0:
261,315,98732,1,8,0:0:0:0:
188,208,98875,1,0,0:0:0:0:
92,320,99018,6,0,P|176:344|288:292,1,180,0|8,0:0|0:0,0:0:0:0:
392,148,99446,2,0,P|356:116|288:108,1,90
172,240,99732,1,0,0:0:0:0:
324,184,99875,1,8,0:0:0:0:
136,80,100018,1,0,0:0:0:0:
136,80,100160,6,0,B|136:132|136:132|104:176|104:176|104:256,1,180,0|8,0:0|0:0,0:0:0:0:
176,312,100589,2,0,P|220:272|272:244,1,90,0|8,0:0|0:0,0:0:0:0:
344,280,100803,1,0,0:0:0:0:
344,280,100875,2,0,L|372:168,1,90,0|8,0:0|0:0,0:0:0:0:
264,120,101160,1,0,0:0:0:0:
428,56,101303,5,8,0:0:0:0:
256,304,101589,1,8,0:0:0:0:
296,160,101875,5,8,0:0:0:0:
192,180,102018,1,8,0:0:0:0:
284,256,102160,1,8,0:0:0:0:
340,120,102303,1,8,0:0:0:0:
168,300,102446,1,8,0:0:0:0:
244,76,102732,1,8,0:0:0:0:
196,232,103018,5,8,0:0:0:0:
84,240,103160,1,8,0:0:0:0:
148,320,103303,1,8,0:0:0:0:
136,152,103446,1,8,0:0:0:0:
276,300,103589,2,8,P|268:216|208:96,1,180
36,124,104160,6,8,P|16:212|8:236,1,90
156,328,104446,1,8,0:0:0:0:
36,296,104589,1,8,0:0:0:0:
124,232,104732,1,8,0:0:0:0:
100,352,104875,1,8,0:0:0:0:
228,208,105018,1,8,0:0:0:0:
200,344,105160,1,0,0:0:0:0:
224,52,105303,5,8,0:0:0:0:
176,56,105375,1,0,0:0:0:0:
136,88,105446,1,0,0:0:0:0:
120,132,105518,1,0,0:0:0:0:
136,180,105589,1,8,0:0:0:0:
164,220,105660,1,0,0:0:0:0:
176,268,105732,1,0,0:0:0:0:
152,316,105803,1,0,0:0:0:0:
108,332,105875,6,0,B|104:276|104:276|56:224|56:224|56:128,1,180,8|8,0:0|0:0,0:0:0:0:
224,60,106303,2,0,L|344:60,1,90
240,216,106589,1,0,0:0:0:0:
336,148,106732,1,8,0:0:0:0:
252,304,106875,1,0,0:0:0:0:
156,136,107018,6,0,P|88:200|80:308,1,180,0|8,0:0|0:0,0:0:0:0:
232,240,107446,2,0,P|272:212|300:160,1,90
232,56,107732,1,0,0:0:0:0:
208,160,107875,1,8,0:0:0:0:
420,144,108018,1,0,0:0:0:0:
420,144,108160,6,0,P|440:228|420:336,1,180,0|8,0:0|0:0,0:0:0:0:
324,256,108589,2,0,P|280:220|212:220,1,90
120,300,108875,2,0,P|72:260|64:220,2,90,0|8|0,0:0|0:0|0:0,0:0:0:0:
244,332,109303,1,0,0:0:0:0:
336,196,109446,1,0,0:0:0:0:
172,208,109589,1,8,0:0:0:0:
332,312,109732,1,0,0:0:0:0:
272,140,109875,5,8,0:0:0:0:
272,140,109946,1,0,0:0:0:0:
272,140,110018,2,0,P|276:88|288:36,1,90,0|8,0:0|0:0,0:0:0:0:
420,116,110303,1,0,0:0:0:0:
420,116,110375,1,0,0:0:0:0:
420,116,110446,2,0,L|396:256,1,135,8|0,0:0|0:0,0:0:0:0:
288,348,110732,6,0,P|272:304|224:276,1,90
88,132,111018,1,8,0:0:0:0:
108,120,111089,1,0,0:0:0:0:
132,112,111160,2,0,B|192:120|192:120|232:68,1,90
428,124,111446,1,0,0:0:0:0:
428,148,111518,1,0,0:0:0:0:
428,176,111589,2,0,P|428:244|428:276,1,90,8|0,0:0|0:0,0:0:0:0:
200,236,111875,5,0,0:0:0:0:
56,124,112018,2,0,P|136:72|244:68,1,180,8|0,0:0|0:0,0:0:0:0:
288,276,112446,1,8,0:0:0:0:
328,96,112589,1,0,0:0:0:0:
436,108,112732,2,0,B|440:180|440:180|416:228|416:228|416:316,1,180,8|0,0:0|0:0,0:0:0:0:
304,300,113160,2,0,P|284:224|192:168,1,180,8|0,0:0|0:0,0:0:0:0:
100,308,113589,5,8,0:0:0:0:
56,192,113732,1,0,0:0:0:0:
56,192,113803,1,0,0:0:0:0:
56,192,113875,1,8,0:0:0:0:
196,288,114018,1,0,0:0:0:0:
164,144,114160,1,8,0:0:0:0:
96,248,114303,1,0,0:0:0:0:
212,72,114446,5,8,0:0:0:0:
296,144,114589,1,8,0:0:0:0:
320,192,114660,1,0,0:0:0:0:
320,244,114732,1,8,0:0:0:0:
300,288,114803,1,0,0:0:0:0:
272,312,114875,1,0,0:0:0:0:
232,296,114946,1,0,0:0:0:0:
192,316,115018,6,0,B|192:248|192:248|220:228|220:228|220:132,1,180,8|8,0:0|0:0,0:0:0:0:
32,144,115446,2,0,L|32:260,1,90
120,300,115732,1,0,0:0:0:0:
200,172,115875,1,8,0:0:0:0:
232,252,116018,1,0,0:0:0:0:
116,152,116160,1,0,0:0:0:0:
304,200,116303,1,0,0:0:0:0:
232,84,116446,6,0,P|184:80|112:88,1,90,8|0,0:0|0:0,0:0:0:0:
64,168,116732,1,0,0:0:0:0:
88,280,116875,1,0,0:0:0:0:
204,212,117018,2,0,L|208:92,1,90,8|0,0:0|0:0,0:0:0:0:
296,52,117303,2,0,P|364:112|348:216,1,180,0|8,0:0|0:0,0:0:0:0:
152,236,117732,2,0,L|152:360,1,90
260,200,118018,1,0,0:0:0:0:
200,72,118160,1,8,0:0:0:0:
152,236,118303,1,0,0:0:0:0:
288,64,118446,6,0,P|368:68|440:136,1,180,0|8,0:0|0:0,0:0:0:0:
444,160,118803,1,0,0:0:0:0:
444,192,118875,6,0,L|440:320,1,90
224,320,119160,2,0,P|220:272|244:196,1,90,0|8,0:0|0:0,0:0:0:0:
300,100,119446,1,0,0:0:0:0:
292,84,119518,1,0,0:0:0:0:
284,72,119589,2,0,P|196:64|80:76,1,180,8|0,0:0|0:0,0:0:0:0:
40,264,120018,1,8,0:0:0:0:
56,252,120089,1,0,0:0:0:0:
80,240,120160,2,0,L|120:328,1,90
208,328,120446,2,0,P|236:268|280:240,1,90,8|0,0:0|0:0,0:0:0:0:
388,264,120732,6,0,P|383:219|372:175,1,90,8|0,0:0|0:0,0:0:0:0:
280,88,120946,1,0,0:0:0:0:
264,72,121018,2,0,P|208:64|172:80,1,90,8|0,0:0|0:0,0:0:0:0:
68,232,121303,1,8,0:0:0:0:
104,264,121375,1,0,0:0:0:0:
152,272,121446,1,0,0:0:0:0:
200,260,121518,1,0,0:0:0:0:
248,240,121589,1,8,0:0:0:0:
304,240,121660,1,0,0:0:0:0:
348,264,121732,1,8,0:0:0:0:
376,304,121803,1,8,0:0:0:0:
372,352,121875,1,8,0:0:0:0:
116,116,122160,5,8,0:0:0:0:
324,236,122446,1,8,0:0:0:0:
100,268,122732,1,8,0:0:0:0:
240,124,123018,5,10,0:0:0:0:
148,224,123160,1,0,0:0:0:0:
232,220,123303,1,6,0:0:0:0:
108,112,123446,1,2,0:0:0:0:
192,304,123589,5,8,0:0:0:0:
248,88,123732,1,0,0:0:0:0:
112,252,123875,1,2,0:0:0:0:
80,104,124018,1,0,0:0:0:0:
236,92,124160,6,0,P|284:120|336:208,1,135.000005149842
248,300,124589,2,0,P|168:304|152:300,4,67.5000025749208
200,188,125303,1,0,0:0:0:0:
228,92,125446,2,0,P|260:100|316:124,6,67.5000025749208
124,172,126446,5,0,0:0:0:0:
176,276,126589,2,0,P|204:244|220:200,6,67.5000025749208
76,216,127589,1,0,0:0:0:0:
124,108,127732,2,0,P|176:144|184:156,6,67.5000025749208
176,232,128732,5,2,0:0:0:0:
276,232,128875,1,0,0:0:0:0:
204,120,129018,1,0,0:0:0:0:
88,180,129160,2,0,L|100:272,1,67.5000025749208
200,108,129446,2,0,L|224:28,2,67.5000025749208
208,252,129875,5,2,0:0:0:0:
328,136,130018,1,2,0:0:0:0:
372,196,130160,2,0,P|384:268|384:272,1,67.5000025749208
424,112,130446,2,0,L|432:40,2,67.5000025749208
332,260,130875,1,0,0:0:0:0:
144,144,131018,5,2,0:0:0:0:
264,160,131160,1,2,0:0:0:0:
60,108,131303,2,0,L|96:32,1,67.5000025749208,2|0,0:0|0:0,0:0:0:0:
112,188,131589,2,0,L|128:284,2,67.5000025749208,2|2|2,0:0|0:0|0:0,0:0:0:0:
176,80,132018,1,0,0:0:0:0:
76,232,132160,1,2,0:0:0:0:
288,128,132303,1,2,0:0:0:0:
184,252,132446,1,2,0:0:0:0:
196,104,132589,1,0,0:0:0:0:
288,264,132732,5,2,0:0:0:0:
60,152,132875,1,2,0:0:0:0:
240,76,133018,1,2,0:0:0:0:
116,264,133160,1,0,0:0:0:0:
236,184,133303,2,0,B|236:244|236:244|260:276|260:276|260:360,1,161.999995056153,0|8,0:0|0:0,0:0:0:0:
356,180,133732,2,0,P|396:176|468:188,1,80.9999975280763
316,240,134018,1,0,0:0:0:0:
436,179,134160,1,8,0:0:0:0:
444,288,134303,1,0,0:0:0:0:
356,104,134446,6,0,P|292:100|252:108,1,80.9999975280763
144,184,134732,1,8,0:0:0:0:
208,244,134875,1,0,0:0:0:0:
120,84,135018,1,0,0:0:0:0:
280,172,135160,2,0,L|280:272,1,80.9999975280763,0|8,0:0|0:0,0:0:0:0:
55,226,135446,2,0,P|87:118|139:70,1,161.999995056153
164,196,135875,6,0,L|164:308,1,80.9999975280763,8|0,0:0|0:0,0:0:0:0:
272,96,136160,1,0,0:0:0:0:
164,196,136303,1,0,0:0:0:0:
304,276,136446,2,0,L|184:276,1,80.9999975280763,8|0,0:0|0:0,0:0:0:0:
152,120,136732,5,0,0:0:0:0:
280,156,136875,1,0,0:0:0:0:
160,296,137018,2,0,P|112:264|84:220,2,80.9999975280763,8|0|0,0:0|0:0|0:0,0:0:0:0:
296,216,137446,1,0,0:0:0:0:
120,128,137589,1,8,0:0:0:0:
292,64,137732,1,0,0:0:0:0:
212,152,137875,6,0,B|212:204|212:204|236:252|236:252|236:308,1,161.999995056153,8|8,0:0|0:0,0:0:0:0:
128,312,138303,2,0,P|112:268|76:224,1,80.9999975280763
60,128,138589,1,0,0:0:0:0:
192,184,138732,1,8,0:0:0:0:
156,64,138875,1,0,0:0:0:0:
312,124,139018,6,0,B|311:164|311:164|296:208|296:208|296:288,1,161.999995056153,0|8,0:0|0:0,0:0:0:0:
200,244,139446,2,0,P|120:216|40:256,1,161.999995056153
184,149,139875,2,0,P|184:108|204:64,1,80.9999975280763,8|0,0:0|0:0,0:0:0:0:
344,48,140160,5,0,0:0:0:0:
464,104,140303,1,0,0:0:0:0:
356,128,140446,1,8,0:0:0:0:
428,40,140589,1,0,0:0:0:0:
272,92,140732,1,0,0:0:0:0:
420,180,140875,1,0,0:0:0:0:
296,184,141018,6,0,P|284:264|296:360,1,161.999995056153,8|0,0:0|0:0,0:0:0:0:
440,300,141446,2,0,L|440:208,1,80.9999975280763,0|8,0:0|0:0,0:0:0:0:
308,108,141732,1,0,0:0:0:0:
396,44,141875,1,8,0:0:0:0:
184,88,142018,1,0,0:0:0:0:
184,112,142089,1,0,0:0:0:0:
184,132,142160,2,0,L|184:224,1,80.9999975280763,8|0,0:0|0:0,0:0:0:0:
260,68,142446,6,0,P|184:42|104:80,1,161.999995056153,8|8,0:0|0:0,0:0:0:0:
56,196,142875,1,0,0:0:0:0:
196,220,143018,1,0,0:0:0:0:
120,136,143160,1,0,0:0:0:0:
172,288,143303,1,8,0:0:0:0:
220,160,143446,1,0,0:0:0:0:
104,272,143589,5,0,0:0:0:0:
160,152,143732,1,0,0:0:0:0:
232,268,143875,1,8,0:0:0:0:
248,120,144018,1,0,0:0:0:0:
320,216,144160,1,0,0:0:0:0:
300,64,144303,1,0,0:0:0:0:
352,152,144446,5,8,0:0:0:0:
424,68,144589,1,0,0:0:0:0:
480,172,144732,2,0,B|480:236|480:236|460:264|460:264|460:340,1,161.999995056153,0|8,0:0|0:0,0:0:0:0:
368,320,145160,2,0,P|312:296|260:296,1,80.9999975280763
168,296,145446,1,0,0:0:0:0:
72,200,145589,2,0,P|148:180|256:208,1,161.999995056153,8|0,0:0|0:0,0:0:0:0:
328,328,146018,2,0,L|236:328,1,80.9999975280763,0|8,0:0|0:0,0:0:0:0:
72,200,146303,2,0,L|72:104,1,80.9999975280763,0|8,0:0|0:0,0:0:0:0:
204,224,146589,1,0,0:0:0:0:
264,120,146732,5,8,0:0:0:0:
288,80,146803,1,0,0:0:0:0:
336,72,146875,1,0,0:0:0:0:
376,100,146946,1,0,0:0:0:0:
368,148,147018,2,0,P|364:196|376:248,1,80.9999975280763,8|0,0:0|0:0,0:0:0:0:
476,200,147303,1,8,0:0:0:0:
280,136,147446,2,0,P|252:160|212:232,2,80.9999975280763
408,204,147875,1,8,0:0:0:0:
312,272,148018,1,0,0:0:0:0:
168,216,148160,6,0,B|172:152|172:152|156:104|156:104|156:32,1,161.999995056153,0|8,0:0|0:0,0:0:0:0:
284,188,148589,1,0,0:0:0:0:
304,64,148732,2,0,L|400:64,1,80.9999975280763,8|0,0:0|0:0,0:0:0:0:
416,196,149018,1,8,0:0:0:0:
400,244,149089,1,0,0:0:0:0:
356,268,149160,5,0,0:0:0:0:
308,252,149232,1,0,0:0:0:0:
276,216,149303,2,0,P|228:196|180:196,1,80.9999975280763,8|0,0:0|0:0,0:0:0:0:
348,324,149589,2,8,L|444:321,1,80.9999975280763,8|0,0:0|0:0,0:0:0:0:
164,304,149875,1,8,0:0:0:0:
164,304,150018,1,0,0:0:0:0:
312,144,150160,2,0,L|390:125,1,80.9999975280763,8|0,0:0|0:0,0:0:0:0:
236,252,150446,5,8,0:0:0:0:
72,104,150589,1,0,0:0:0:0:
264,144,150732,1,0,0:0:0:0:
152,256,150875,2,0,P|152:184|176:88,1,161.999995056153,8|8,0:0|0:0,0:0:0:0:
288,80,151232,2,0,L|348:80,1,40.4999987640381,0|8,0:0|0:0,0:0:0:0:
440,104,151446,1,0,0:0:0:0:
272,216,151589,1,10,0:0:0:0:
420,176,151875,6,0,P|432:236|424:324,2,135.000005149842,0|0|8,0:0|0:0|0:0,0:0:0:0:
336,92,152589,1,0,0:0:0:0:
292,192,152732,2,0,B|220:236|156:192,1,135.000005149842
64,72,153160,2,0,B|64:124|64:124|48:160|48:160|48:232,1,135.000005149842
144,312,153589,5,8,0:0:0:0:
232,220,153732,1,0,0:0:0:0:
296,120,153875,2,0,B|376:120|376:120|416:140|416:140|512:140,2,202.500007724762,0|0|8,0:0|0:0|0:0,0:0:0:0:
216,280,155018,1,0,0:0:0:0:
112,132,155303,5,8,0:0:0:0:
136,120,155446,1,8,0:0:0:0:
164,108,155589,1,0,0:0:0:0:
192,100,155732,1,8,0:0:0:0:
220,96,155875,1,0,0:0:0:0:
248,100,156018,1,8,0:0:0:0:
272,112,156160,6,0,L|280:268,1,135.000005149842
184,352,156589,2,0,P|166:323|158:290,1,67.5000025749208
192,144,156875,2,0,P|232:132|280:120,2,67.5000025749208,0|8|0,0:0|0:0|0:0,0:0:0:0:
116,224,157303,2,0,P|67:155|139:58,2,202.500007724762,0|0|8,0:0|0:0|0:0,0:0:0:0:
192,148,158303,1,0,0:0:0:0:
312,136,158446,6,0,B|312:208|312:208|292:256|292:256|292:344,2,202.500007724762,0|0|8,0:0|0:0|0:0,0:0:0:0:
216,52,159589,1,0,0:0:0:0:
88,124,159875,5,8,0:0:0:0:
88,124,160018,1,8,0:0:0:0:
192,188,160160,1,0,0:0:0:0:
72,224,160303,1,0,0:0:0:0:
72,224,160446,1,8,0:0:0:0:
160,296,160589,1,0,0:0:0:0:
268,232,160732,6,0,B|340:232|340:232|384:260|384:260|488:260,1,202.500007724762
416,176,161303,2,0,P|408:112|432:40,1,135.000005149842,8|0,0:0|0:0,0:0:0:0:
476,288,161875,2,0,P|384:336|288:312,1,202.500007724762
304,212,162446,2,0,B|248:211|248:211|215:226|215:226|151:225,1,135.000005149842,8|0,0:0|0:0,0:0:0:0:
56,120,163018,6,0,P|132:64|248:80,1,202.500007724762
164,184,163589,2,0,B|164:236|164:236|192:268|192:268|192:336,1,135.000005149842,8|0,0:0|0:0,0:0:0:0:
272,192,164018,1,0,0:0:0:0:
400,168,164160,6,0,P|388:104|324:60,1,135.000005149842
192,100,164589,1,0,0:0:0:0:
272,144,164732,1,10,0:0:0:0:
160,192,164875,1,0,0:0:0:0:
264,56,165018,1,2,0:0:0:0:
212,248,165160,1,0,0:0:0:0:
360,108,165303,5,10,0:0:0:0:
288,288,165446,1,0,0:0:0:0:
196,108,165589,1,0,0:0:0:0:
164,312,165732,1,10,0:0:0:0:
272,164,165875,1,0,0:0:0:0:
96,228,166018,1,0,0:0:0:0:
288,252,166160,5,10,0:0:0:0:
144,72,166303,1,0,0:0:0:0:
268,328,166446,1,2,0:0:0:0:
388,60,166589,1,2,0:0:0:0:
268,328,166732,1,10,0:0:0:0:
136,132,167446,6,0,B|136:180|136:180|152:236|152:236|152:324,1,180
36,116,167875,2,0,P|52:72|100:32,1,90,8|0,0:0|0:0,0:0:0:0:
256,208,168160,1,0,0:0:0:0:
336,104,168303,1,0,0:0:0:0:
208,84,168446,1,8,0:0:0:0:
156,216,168589,2,0,P|148:264|156:324,1,90
288,344,168875,1,0,0:0:0:0:
408,224,169018,6,0,P|364:220|296:224,1,90,8|0,0:0|0:0,0:0:0:0:
132,116,169303,2,0,P|180:112|228:116,1,90
322,217,169589,1,8,0:0:0:0:
464,152,169732,1,0,0:0:0:0:
464,152,169875,2,0,B|464:208|464:208|448:260|448:260|448:348,1,180,0|8,0:0|0:0,0:0:0:0:
372,180,170303,1,0,0:0:0:0:
276,284,170446,1,0,0:0:0:0:
216,140,170589,1,0,0:0:0:0:
280,284,170732,6,0,P|184:312|112:280,1,180,8|0,0:0|0:0,0:0:0:0:
176,192,171160,2,0,P|176:148|160:92,1,90,0|8,0:0|0:0,0:0:0:0:
114,281,171446,1,0,0:0:0:0:
280,116,171589,2,0,P|328:108|392:112,1,90,8|0,0:0|0:0,0:0:0:0:
300,224,171875,1,8,0:0:0:0:
288,248,171946,1,0,0:0:0:0:
280,280,172018,1,0,0:0:0:0:
284,316,172089,1,0,0:0:0:0:
296,348,172160,6,0,P|356:336|408:324,1,90,8|0,0:0|0:0,0:0:0:0:
352,180,172446,1,8,0:0:0:0:
200,88,172589,1,0,0:0:0:0:
232,204,172732,1,0,0:0:0:0:
392,96,172875,1,0,0:0:0:0:
308,280,173018,2,0,P|248:300|212:304,1,90,8|0,0:0|0:0,0:0:0:0:
112,132,173303,6,0,P|106:170|108:236,2,90,0|0|8,0:0|0:0|0:0,0:0:0:0:
248,184,173732,1,0,0:0:0:0:
168,300,173875,1,0,0:0:0:0:
340,232,174018,1,0,0:0:0:0:
320,72,174160,2,0,B|384:72|384:72|440:88|440:88|520:88,1,180,8|0,0:0|0:0,0:0:0:0:
464,204,174589,2,0,P|468:256|464:316,1,90,0|8,0:0|0:0,0:0:0:0:
272,144,174875,1,0,0:0:0:0:
276,148,174946,1,0,0:0:0:0:
276,148,175018,2,0,P|224:184|192:228,1,90,8|0,0:0|0:0,0:0:0:0:
296,236,175303,5,8,0:0:0:0:
76,220,175446,1,0,0:0:0:0:
76,220,175589,2,0,P|84:128|132:72,1,135
200,236,175875,2,0,P|216:284|184:340,1,90,8|0,0:0|0:0,0:0:0:0:
288,304,176160,1,0,0:0:0:0:
100,280,176303,1,0,0:0:0:0:
204,160,176446,1,8,0:0:0:0:
216,136,176518,1,0,0:0:0:0:
240,116,176589,1,0,0:0:0:0:
276,112,176660,1,0,0:0:0:0:
304,128,176732,2,0,P|344:96|360:40,1,90
168,104,177018,6,0,P|128:128|80:164,1,90,8|0,0:0|0:0,0:0:0:0:
144,304,177303,1,0,0:0:0:0:
304,240,177446,2,0,P|308:192|296:140,2,90,0|8|0,0:0|0:0|0:0,0:0:0:0:
176,200,177875,1,0,0:0:0:0:
252,64,178018,2,0,P|300:60|372:72,1,90,0|8,0:0|0:0,0:0:0:0:
408,192,178303,1,0,0:0:0:0:
280,136,178446,1,0,0:0:0:0:
292,244,178589,1,0,0:0:0:0:
360,132,178732,1,8,0:0:0:0:
208,192,178875,1,0,0:0:0:0:
220,312,179018,6,0,P|308:328|428:308,1,180,0|8,0:0|0:0,0:0:0:0:
352,232,179446,2,0,P|340:180|336:136,1,90
452,248,179732,1,0,0:0:0:0:
336,143,179875,1,8,0:0:0:0:
272,276,180018,1,0,0:0:0:0:
144,220,180160,2,0,B|144:156|144:156|164:120|164:120|164:32,1,180,0|8,0:0|0:0,0:0:0:0:
36,160,180589,2,0,L|36:260,1,90,0|8,0:0|0:0,0:0:0:0:
120,292,180803,1,0,0:0:0:0:
120,292,180875,2,0,P|140:248|176:204,1,90,0|8,0:0|0:0,0:0:0:0:
288,272,181160,1,0,0:0:0:0:
220,92,181303,5,8,0:0:0:0:
216,72,181589,1,8,0:0:0:0:
80,124,181875,1,8,0:0:0:0:
220,192,182018,1,8,0:0:0:0:
76,240,182160,1,8,0:0:0:0:
168,68,182303,1,8,0:0:0:0:
228,236,182446,5,8,0:0:0:0:
248,264,182732,1,8,0:0:0:0:
356,152,183018,1,8,0:0:0:0:
176,196,183160,1,8,0:0:0:0:
344,300,183303,1,8,0:0:0:0:
260,112,183446,1,8,0:0:0:0:
164,296,183589,5,8,0:0:0:0:
152,320,183875,1,8,0:0:0:0:
56,132,184160,1,8,0:0:0:0:
208,84,184303,1,8,0:0:0:0:
136,232,184446,1,8,0:0:0:0:
252,296,184589,1,8,0:0:0:0:
180,160,184732,5,8,0:0:0:0:
84,304,184875,1,0,0:0:0:0:
276,168,185018,2,0,P|278:212|274:257,1,90,8|0,0:0|0:0,0:0:0:0:
164,56,185303,1,8,0:0:0:0:
116,56,185375,1,0,0:0:0:0:
84,80,185446,1,0,0:0:0:0:
64,120,185518,1,0,0:0:0:0:
76,164,185589,1,8,0:0:0:0:
116,192,185660,1,0,0:0:0:0:
136,232,185732,1,0,0:0:0:0:
136,280,185803,1,0,0:0:0:0:
132,320,185875,6,0,B|180:284|180:284|224:300|224:300|300:280,1,180,8|8,0:0|0:0,0:0:0:0:
440,324,186303,2,0,L|340:348,1,90
294,281,186589,1,0,0:0:0:0:
400,136,186732,1,8,0:0:0:0:
412,252,186875,1,0,0:0:0:0:
216,216,187018,2,0,P|248:124|328:84,1,180,0|8,0:0|0:0,0:0:0:0:
352,224,187446,2,0,L|352:328,1,90
448,172,187732,1,0,0:0:0:0:
280,228,187875,1,8,0:0:0:0:
348,112,188018,1,0,0:0:0:0:
168,176,188160,6,0,B|168:252|168:252|204:288|204:288|204:368,1,180,0|8,0:0|0:0,0:0:0:0:
56,260,188589,2,0,L|56:152,1,90
280,176,188875,2,0,L|280:280,2,90,0|8|0,0:0|0:0|0:0,0:0:0:0:
80,124,189303,1,0,0:0:0:0:
176,252,189446,1,0,0:0:0:0:
236,100,189589,1,8,0:0:0:0:
92,200,189732,1,0,0:0:0:0:
152,332,189875,5,8,0:0:0:0:
176,328,189946,1,0,0:0:0:0:
204,324,190018,2,0,P|264:312|296:296,1,90,0|8,0:0|0:0,0:0:0:0:
324,124,190303,1,0,0:0:0:0:
300,140,190375,1,0,0:0:0:0:
288,164,190446,2,0,P|248:108|176:108,1,135,8|0,0:0|0:0,0:0:0:0:
56,200,190732,2,0,L|56:316,1,90,8|0,0:0|0:0,0:0:0:0:
308,184,191018,5,8,0:0:0:0:
312,188,191089,1,0,0:0:0:0:
312,188,191160,2,0,L|416:184,1,90,0|8,0:0|0:0,0:0:0:0:
172,324,191446,1,0,0:0:0:0:
172,324,191518,1,0,0:0:0:0:
172,324,191589,6,0,L|168:228,1,90,8|0,0:0|0:0,0:0:0:0:
208,100,191875,1,0,0:0:0:0:
396,112,192018,2,0,P|420:180|400:312,1,180,8|0,0:0|0:0,0:0:0:0:
212,292,192446,1,8,0:0:0:0:
236,156,192589,1,0,0:0:0:0:
212,292,192732,2,0,B|124:292|124:292|96:272|96:272|20:272,1,180,8|0,0:0|0:0,0:0:0:0:
176,200,193160,2,0,P|220:116|172:32,1,180,8|0,0:0|0:0,0:0:0:0:
176,200,193589,5,8,0:0:0:0:
324,124,193732,1,0,0:0:0:0:
324,124,193803,1,0,0:0:0:0:
324,124,193875,1,8,0:0:0:0:
148,148,194018,1,0,0:0:0:0:
272,224,194160,1,0,0:0:0:0:
216,68,194303,1,0,0:0:0:0:
148,248,194446,5,8,0:0:0:0:
260,144,194589,1,0,0:0:0:0:
308,148,194660,1,0,0:0:0:0:
344,168,194732,1,8,0:0:0:0:
368,216,194803,1,0,0:0:0:0:
356,264,194875,1,0,0:0:0:0:
360,312,194946,1,0,0:0:0:0:
400,342,195018,6,0,B|400:290|400:290|420:266|420:266|420:170,1,180,8|8,0:0|0:0,0:0:0:0:
308,40,195446,2,0,P|304:88|308:144,1,90
420,170,195732,1,0,0:0:0:0:
376,88,195875,1,8,0:0:0:0:
312,228,196018,1,0,0:0:0:0:
306,129,196160,1,0,0:0:0:0:
177,193,196303,1,0,0:0:0:0:
172,104,196446,2,0,L|180:228,1,90,8|0,0:0|0:0,0:0:0:0:
65,226,196732,5,0,0:0:0:0:
72,316,196875,2,0,L|65:226,1,90,0|8,0:0|0:0,0:0:0:0:
177,193,197160,1,0,0:0:0:0:
224,300,197303,2,0,B|296:300|296:300|320:272|320:272|416:272,1,180,0|8,0:0|0:0,0:0:0:0:
448,144,197732,2,0,L|332:148,1,90
244,128,198018,1,0,0:0:0:0:
391,272,198160,1,8,0:0:0:0:
448,152,198303,1,0,0:0:0:0:
156,64,198446,6,0,P|144:140|156:256,1,180,0|8,0:0|0:0,0:0:0:0:
208,316,198803,1,0,0:0:0:0:
224,300,198875,2,0,P|272:280|332:276,1,90
436,296,199160,2,0,P|428:248|436:188,1,90,0|8,0:0|0:0,0:0:0:0:
332,56,199446,1,0,0:0:0:0:
320,48,199518,1,0,0:0:0:0:
308,40,199589,6,0,P|216:28|120:48,1,180,8|0,0:0|0:0,0:0:0:0:
64,264,200018,1,8,0:0:0:0:
64,248,200089,1,0,0:0:0:0:
64,224,200160,2,0,L|68:128,1,90
208,72,200446,2,0,P|256:56|312:68,1,90,8|0,0:0|0:0,0:0:0:0:
408,256,200732,2,0,P|348:272|304:260,1,90,8|0,0:0|0:0,0:0:0:0:
220,200,200946,1,0,0:0:0:0:
192,216,201018,2,0,P|188:256|191:313,1,90,8|0,0:0|0:0,0:0:0:0:
408,248,201303,5,8,0:0:0:0:
424,200,201375,1,8,0:0:0:0:
416,152,201446,1,8,0:0:0:0:
392,112,201518,1,8,0:0:0:0:
360,80,201589,1,8,0:0:0:0:
320,64,201660,1,8,0:0:0:0:
272,60,201732,1,8,0:0:0:0:
224,80,201803,1,0,0:0:0:0:
196,120,201875,5,8,0:0:0:0:
352,264,202160,1,8,0:0:0:0:
140,160,202446,1,8,0:0:0:0:
312,164,202732,1,8,0:0:0:0:
84,240,203018,5,10,0:0:0:0:
196,268,203160,1,8,0:0:0:0:
120,312,203303,1,2,0:0:0:0:
140,164,203446,1,8,0:0:0:0:
172,340,203589,5,2,0:0:0:0:
232,156,203732,1,2,0:0:0:0:
32,296,203875,1,8,0:0:0:0:
80,120,204018,1,8,0:0:0:0:
160,248,204160,6,0,L|244:252,1,67.5000025749208,2|0,0:3|0:3,0:3:0:0:
260,124,204446,2,0,P|356:116|420:212,1,202.500007724762,0|0,0:3|0:3,0:3:0:0:
424,192,205303,5,0,0:3:0:0:
312,280,205589,2,0,B|300:320|300:320|272:304|272:304|240:336|240:336|220:308|220:308|164:332|116:264,1,270.000010299683,0|0,0:3|0:3,0:3:0:0:
156,164,206303,1,0,0:3:0:0:
312,280,206446,2,0,L|460:288,1,135.000005149842,0|0,0:3|0:3,0:3:0:0:
448,288,207160,5,0,0:3:0:0:
364,188,207303,1,0,0:3:0:0:
344,292,207446,1,0,0:3:0:0:
256,240,207589,2,0,B|220:268|220:268|192:244|192:244|152:272|152:272|124:264,1,135.000005149842,0|0,0:3|0:3,0:3:0:0:
36,248,208018,2,0,L|36:176,1,67.5000025749208,0|0,0:3|0:3,0:3:0:0:
144,104,208303,2,0,L|144:176,1,67.5000025749208,0|0,0:3|0:3,0:3:0:0:
148,270,208589,1,0,0:3:0:0:
248,192,208732,6,0,P|320:160|444:288,1,270.000010299683,4|0,0:3|0:3,0:3:0:0:
316,344,209446,2,0,P|268:344|224:348,2,67.5000025749208,0|0|0,0:3|0:3|0:3,0:3:0:0:
280,248,209875,2,0,B|248:232|248:232|224:236|224:236|204:216|204:216|172:224|172:224|140:196|76:200|52:272,1,270.000010299683,0|0,0:3|0:3,0:3:0:0:
168,336,210589,2,0,L|236:336,1,67.5000025749208,0|0,0:3|0:3,0:3:0:0:
376,212,210875,1,0,0:3:0:0:
376,212,211018,6,0,B|372:160|348:124|348:124|292:168|168:144,1,270.000010299683,0|0,0:3|0:3,0:3:0:0:
240,56,211875,1,0,0:3:0:0:
184,212,212018,1,0,0:3:0:0:
116,120,212160,2,0,L|68:120,4,33.7500012874604,4|4|0|0|0,0:3|0:3|0:3|0:3|0:3,0:3:0:0:
256,88,212589,2,0,L|335:88,1,67.5000025749208,0|0,0:3|0:3,0:3:0:0:
184,212,212875,1,0,0:3:0:0:
316,212,213018,5,0,0:3:0:0:
248,284,213160,1,0,0:3:0:0:
248,284,213303,6,0,P|360:300|248:132,1,467.999978576661,4|0,0:3|0:3,0:3:0:0:
248,292,214589,2,0,L|248:356,1,58.4999973220826,0|0,0:3|0:3,0:3:0:0:
144,240,214875,2,0,L|144:160,1,58.4999973220826,0|0,0:3|0:3,0:3:0:0:
48,312,215160,2,0,L|49:240,1,58.4999973220826,0|0,0:3|0:3,0:3:0:0:
88,132,215446,1,0,0:3:0:0:
208,76,215589,6,0,P|304:116|252:232,2,233.999989288331,0|0|0,0:3|0:3|0:3,0:3:0:0:
44,180,217303,5,0,0:3:0:0:
128,228,217446,1,0,0:3:0:0:
56,272,217589,1,0,0:3:0:0:
136,328,217732,1,0,0:3:0:0:
224,260,217875,6,0,L|224:124,1,116.999994644165,0|0,0:3|0:3,0:3:0:0:
228,148,218589,5,0,0:3:0:0:
128,108,218732,1,0,0:3:0:0:
144,224,218875,1,0,0:3:0:0:
48,164,219018,2,0,P|36:224|40:284,2,116.999994644165,0|0|0,0:3|0:3|0:3,0:3:0:0:
136,236,219732,2,0,L|136:312,1,58.4999973220826,0|0,0:3|0:3,0:3:0:0:
240,320,220018,1,0,0:3:0:0:
352,244,220160,6,0,P|344:148|212:132,1,233.999989288331,0|0,0:3|0:3,0:3:0:0:
180,224,220875,1,0,0:3:0:0:
120,132,221018,1,0,0:3:0:0:
225,122,221160,1,0,0:3:0:0:
112,252,221303,2,0,L|96:324,2,58.4999973220826,8|0|0,0:3|0:3|0:3,0:3:0:0:
176,80,221732,1,0,0:3:0:0:
224,256,221875,5,8,0:0:0:0:
292,128,222018,1,0,0:0:0:0:
316,96,222089,1,0,0:0:0:0:
352,80,222160,1,8,0:0:0:0:
396,76,222232,1,0,0:0:0:0:
428,96,222303,2,0,L|428:148,1,33.7500012874604
360,300,222446,6,0,P|323:274|212:260,1,153.000002918243,8|8,0:0|0:0,0:0:0:0:
104,336,222875,2,0,B|104:272|104:272|92:236|92:236|92:160,1,153.000002918243
144,56,223303,2,0,L|236:56,1,76.5000014591217,8|0,0:0|0:0,0:0:0:0:
296,216,223589,1,0,0:0:0:0:
176,136,223732,1,0,0:0:0:0:
296,100,223875,5,8,0:0:0:0:
172,248,224018,1,0,0:0:0:0:
92,148,224160,2,0,L|104:68,1,76.5000014591217
224,208,224446,1,8,0:0:0:0:
88,288,224589,1,0,0:0:0:0:
88,288,224732,6,0,P|152:320|240:284,1,153.000002918243,0|8,0:0|0:0,0:0:0:0:
152,140,225160,2,0,P|184:76|272:60,1,153.000002918243
396,224,225589,1,8,0:0:0:0:
256,152,225732,1,0,0:0:0:0:
408,68,225875,1,0,0:0:0:0:
408,68,226018,1,0,0:0:0:0:
296,204,226160,5,8,0:0:0:0:
258,56,226303,1,0,0:0:0:0:
356,140,226446,2,0,L|428:200,1,76.5000014591217
296,204,226732,1,8,0:0:0:0:
396,296,226875,1,0,0:0:0:0:
248,340,227018,6,0,P|192:248|192:176,1,153.000002918243,8|8,0:0|0:0,0:0:0:0:
328,60,227446,2,0,P|260:96|240:120,2,76.5000014591217
424,232,227875,1,8,0:0:0:0:
332,160,228018,1,0,0:0:0:0:
312,284,228160,2,0,P|228:284|148:320,1,153.000002918243,0|8,0:0|0:0,0:0:0:0:
56,272,228589,2,0,B|56:212|56:212|80:180|80:180|80:112,1,153.000002918243
24,44,229018,5,8,0:0:0:0:
120,252,229160,1,0,0:0:0:0:
212,120,229303,2,0,P|236:88|272:64,1,76.5000014591217
223,259,229589,2,0,P|200:298|172:320,1,76.5000014591217,8|0,0:0|0:0,0:0:0:0:
352,120,229875,2,0,P|380:92|416:72,1,76.5000014591217
372,260,230160,6,0,B|352:344|352:344|256:320|172:352|172:352|148:260,1,360,8|8,0:0|0:0,0:0:0:0:
248,116,230875,1,0,0:0:0:0:
240,96,230946,1,0,0:0:0:0:
232,80,231018,2,0,P|192:48|136:48,2,76.5000014591217,8|0|8,0:0|0:0|0:0,0:0:0:0:
84,232,231446,1,0,0:0:0:0:
204,156,231589,5,0,0:0:0:0:
192,256,231732,1,0,0:0:0:0:
88,144,231875,1,8,0:0:0:0:
96,328,232018,1,0,0:0:0:0:
192,256,232160,2,0,P|244:300|264:344,1,114.750002188683
328,272,232446,2,0,P|360:260|403:258,1,76.5000014591217,8|0,0:0|0:0,0:0:0:0:
448,328,232732,5,0,0:0:0:0:
400,176,232875,1,0,0:0:0:0:
364,328,233018,1,8,0:0:0:0:
196,248,233160,1,0,0:0:0:0:
300,160,233303,2,0,P|252:124|184:120,1,114.750002188683
104,256,233589,2,0,L|104:352,1,76.5000014591217,8|0,0:0|0:0,0:0:0:0:
216,216,233875,5,0,0:0:0:0:
248,196,233946,1,0,0:0:0:0:
284,183,234018,1,0,0:0:0:0:
322,178,234089,1,0,0:0:0:0:
360,183,234160,1,8,0:0:0:0:
396,197,234232,1,0,0:0:0:0:
424,228,234303,2,0,P|432:260|432:296,1,38.2500007295609
312,328,234446,5,0,0:0:0:0:
296,296,234518,1,0,0:0:0:0:
292,260,234589,1,0,0:0:0:0:
296,220,234660,1,0,0:0:0:0:
288,180,234732,1,8,0:0:0:0:
268,152,234803,1,0,0:0:0:0:
248,128,234875,2,0,P|248:108|244:68,1,38.2500007295609
408,108,235018,5,0,0:0:0:0:
420,144,235089,1,0,0:0:0:0:
420,180,235160,1,0,0:0:0:0:
416,212,235232,1,0,0:0:0:0:
396,240,235303,2,0,P|356:256|320:252,1,76.5000014591217,8|0,0:0|0:0,0:0:0:0:
168,128,235589,5,8,0:0:0:0:
276,96,235732,1,0,0:0:0:0:
244,240,235875,1,8,0:0:0:0:
208,264,235946,1,0,0:0:0:0:
160,276,236018,1,0,0:0:0:0:
112,264,236089,1,0,0:0:0:0:
88,232,236160,6,0,B|116:184|116:184|136:68,1,153.000002918243,8|8,0:0|0:0,0:0:0:0:
52,128,236589,1,0,0:0:0:0:
184,180,236732,1,0,0:0:0:0:
80,264,236875,6,0,L|68:376,1,76.5000014591217,0|8,0:0|0:0,0:0:0:0:
144,120,237160,1,0,0:0:0:0:
168,76,237232,1,0,0:0:0:0:
212,60,237303,1,8,0:0:0:0:
260,72,237375,1,0,0:0:0:0:
284,112,237446,2,0,P|284:144|284:176,1,38.2500007295609
272,272,237589,1,8,0:0:0:0:
296,320,237660,1,0,0:0:0:0:
340,348,237732,1,0,0:0:0:0:
392,336,237803,1,0,0:0:0:0:
432,304,237875,1,8,0:0:0:0:
436,252,237946,1,0,0:0:0:0:
408,216,238018,2,0,L|344:232,1,38.2500007295609
272,272,238160,5,8,0:0:0:0:
220,272,238232,1,0,0:0:0:0:
184,232,238303,1,8,0:0:0:0:
180,180,238375,1,0,0:0:0:0:
204,136,238446,2,0,P|248:112|288:68,1,80.9999975280763,8|0,0:0|0:0,0:0:0:0:
160,296,238732,2,0,P|112:332|72:344,1,80.9999975280763,8|0,0:0|0:0,0:0:0:0:
352,136,239018,2,0,P|403:100|448:88,1,80.9999975280763,8|0,0:0|0:0,0:0:0:0:
116,192,239303,2,0,P|64:172|32:132,1,80.9999975280763,8|0,0:0|0:0,0:0:0:0:
212,68,239589,5,8,0:0:0:0:
288,192,239732,1,0,0:0:0:0:
128,108,239875,1,8,0:0:0:0:
368,136,240018,2,0,P|376:212|364:300,1,161.999995056153,8|0,0:0|0:0,0:0:0:0:
280,244,240375,2,0,L|220:244,1,40.4999987640381,0|8,0:0|0:0,0:0:0:0:
76,260,240589,1,0,0:0:0:0:
192,88,240732,5,8,0:0:0:0:
156,196,241018,2,0,B|156:240|156:240|168:272|168:272|168:348,2,135.000005149842,0|0|8,0:0|0:0|0:0,0:0:0:0:
240,136,241732,1,0,0:0:0:0:
276,240,241875,2,0,P|352:280|420:264,1,135.000005149842
356,184,242303,2,0,P|351:117|370:52,1,135.000005149842
432,128,242732,5,8,0:0:0:0:
356,184,242875,1,0,0:0:0:0:
256,136,243018,2,0,P|180:164|180:276,2,202.500007724762,0|0|8,0:0|0:0|0:0,0:0:0:0:
272,152,244160,1,2,0:0:0:0:
344,320,244446,5,8,0:0:0:0:
456,228,244589,1,8,0:0:0:0:
456,228,244732,1,0,0:0:0:0:
348,244,244875,1,8,0:0:0:0:
432,132,245018,1,0,0:0:0:0:
344,240,245160,1,8,0:0:0:0:
348,244,245303,6,0,P|284:248|196:240,1,135.000005149842
204,56,245732,2,0,L|124:56,1,67.5000025749208
60,181,246018,2,0,P|54:214|56:248,2,67.5000025749208,0|8|0,0:0|0:0|0:0,0:0:0:0:
200,124,246446,2,0,B|272:124|272:124|316:100|316:100|416:100,2,202.500007724762,0|0|8,0:0|0:0|0:0,0:0:0:0:
56,192,247446,1,0,0:0:0:0:
56,192,247589,2,0,P|72:288|168:248,2,202.500007724762,0|0|8,0:0|0:0|0:0,0:0:0:0:
248,160,248732,1,0,0:0:0:0:
404,88,249018,5,8,0:0:0:0:
368,212,249160,1,0,0:0:0:0:
368,212,249303,1,8,0:0:0:0:
260,136,249446,1,8,0:0:0:0:
168,184,249589,1,0,0:0:0:0:
168,184,249732,1,8,0:0:0:0:
72,80,249875,6,0,L|72:216,1,135.000005149842
152,304,250303,2,0,P|206:280|244:280,1,67.5000025749208,0|8,0:0|0:0,0:0:0:0:
340,296,250589,1,0,0:0:0:0:
240,160,250732,1,0,0:0:0:0:
312,216,250875,1,0,0:0:0:0:
152,144,251018,2,0,P|200:88|268:80,1,135.000005149842
344,144,251446,1,0,0:0:0:0:
344,144,251589,6,0,L|344:292,1,135.000005149842,8|0,0:0|0:0,0:0:0:0:
224,320,252018,1,0,0:0:0:0:
80,264,252160,2,0,P|120:204|192:164,1,135.000005149842
304,212,252589,1,0,0:0:0:0:
304,212,252732,2,0,L|304:68,1,135.000005149842,8|0,0:0|0:0,0:0:0:0:
212,212,253160,1,0,0:0:0:0:
396,288,253303,6,0,L|396:140,1,135.000005149842,8|8,0:0|0:0,0:0:0:0:
280,72,253732,1,0,0:0:0:0:
172,168,253875,1,8,0:0:0:0:
120,88,254018,1,0,0:0:0:0:
96,192,254160,1,8,0:0:0:0:
192,80,254303,1,0,0:0:0:0:
152,244,254446,5,10,0:0:0:0:
48,96,254589,1,8,0:0:0:0:
212,176,254732,1,0,0:0:0:0:
44,328,254875,1,10,0:0:0:0:
144,88,255018,1,0,0:0:0:0:
200,304,255160,1,0,0:0:0:0:
64,132,255303,5,10,0:0:0:0:
320,108,255446,1,0,0:0:0:0:
112,320,255589,1,10,0:0:0:0:
340,208,255732,1,2,0:0:0:0:
64,132,255875,1,14,0:0:0:0:
256,192,256018,12,4,257875,0:0:0:0:
392,228,267017,6,0,P|396:263|392:288,1,53.9999983520508,2|0,0:3|0:3,0:3:0:0:
393,281,267303,1,0,0:3:0:0:
384,312,267732,1,0,0:3:0:0:
260,268,268160,1,2,0:3:0:0:
212,196,268303,1,0,0:3:0:0:
260,268,268446,2,0,L|120:268,1,107.999996704102,0|0,0:3|0:3,0:3:0:0:
72,268,268875,2,0,P|67:297|69:331,1,53.9999983520508,0|2,0:3|0:3,0:3:0:0:
216,336,269160,1,0,0:3:0:0:
216,336,269303,6,0,P|228:260|220:184,1,107.999996704102,0|2,0:3|0:3,0:3:0:0:
224,224,270017,1,0,0:3:0:0:
160,152,270160,1,2,0:3:0:0:
76,168,270303,1,0,0:3:0:0:
76,168,270446,6,0,L|72:296,1,107.999996704102,2|0,0:3|0:3,0:3:0:0:
152,272,270875,2,0,P|204:260|276:276,1,107.999996704102,2|0,0:3|0:3,0:3:0:0:
348,332,271303,1,2,0:3:0:0:
408,268,271446,2,0,P|448:264|480:260,2,53.9999983520508,0|0|2,0:3|0:3|0:3,0:3:0:0:
316,232,271875,2,0,B|316:192|316:192|324:164|324:164|324:88,1,107.999996704102,0|2,0:3|0:3,0:3:0:0:
224,140,272303,2,0,P|152:164|84:148,1,107.999996704102,0|0,0:3|0:3,0:3:0:0:
121,161,272732,5,10,0:3:0:0:
272,84,273017,1,0,0:3:0:0:
272,84,273160,2,0,B|308:84|308:84|344:96|344:96|408:96,1,107.999996704102,0|0,0:3|0:3,0:3:0:0:
468,32,273589,2,0,B|480:72|480:72|480:168,1,107.999996704102,0|8,0:3|0:3,0:3:0:0:
304,300,274160,1,0,0:3:0:0:
180,192,274446,5,2,0:3:0:0:
232,112,274589,1,0,0:3:0:0:
176,192,274732,1,0,0:3:0:0:
316,264,275017,6,0,P|376:276|448:260,1,107.999996704102,2|0,0:0|0:0,0:0:0:0:
480,200,275446,2,0,L|480:108,1,53.9999983520508,0|2,0:0|0:0,0:0:0:0:
424,72,275732,1,2,0:0:0:0:
280,72,275875,1,2,0:0:0:0:
348,128,276017,1,0,0:0:0:0:
212,140,276160,6,0,L|212:304,1,116.999994644165
288,188,276589,2,0,P|338:184|388:188,1,58.4999973220826,0|8,0:0|0:0,0:0:0:0:
464,208,276875,1,0,0:0:0:0:
464,208,277017,2,0,P|476:264|464:360,1,116.999994644165
384,256,277446,2,0,P|332:244|292:256,1,58.4999973220826
224,312,277732,1,0,0:0:0:0:
224,312,277875,2,0,P|184:256|108:236,1,116.999994644165,8|0,0:0|0:0,0:0:0:0:
48,160,278446,6,0,P|40:236|52:304,1,116.999994644165
200,216,278875,1,0,0:0:0:0:
284,180,279017,1,8,0:0:0:0:
236,292,279160,1,0,0:0:0:0:
120,156,279303,1,0,0:0:0:0:
120,156,279446,2,0,L|120:232,1,58.4999973220826
200,216,279732,5,0,0:0:0:0:
240,120,279875,2,0,P|280:116|324:120,1,58.4999973220826
340,180,280089,1,0,0:0:0:0:
336,200,280160,2,0,P|332:240|340:284,1,58.4999973220826,8|0,0:0|0:0,0:0:0:0:
464,188,280446,2,0,L|464:100,1,58.4999973220826
368,56,280732,6,0,P|308:104|307:171,1,116.999994644165
391,207,281160,2,0,P|392:232|383:275,1,58.4999973220826,0|8,0:0|0:0,0:0:0:0:
292,312,281446,1,0,0:0:0:0:
292,312,281589,1,0,0:0:0:0:
391,207,281732,1,0,0:0:0:0:
208,152,281875,6,0,B|208:200|208:200|196:232|196:232|196:292,1,116.999994644165
280,248,282303,1,0,0:0:0:0:
280,248,282446,2,0,P|323:251|363:259,1,58.4999973220826,8|0,0:0|0:0,0:0:0:0:
296,340,282732,1,0,0:0:0:0:
224,168,282875,1,0,0:0:0:0:
224,168,283017,2,0,P|292:152|360:172,1,116.999994644165
432,224,283446,2,0,L|436:128,1,58.4999973220826,0|8,0:0|0:0,0:0:0:0:
368,32,283732,6,0,P|344:61|328:116,1,58.4999973220826
316,208,284017,1,0,0:0:0:0:
316,208,284089,1,0,0:0:0:0:
316,208,284160,1,0,0:0:0:0:
408,104,284303,1,0,0:0:0:0:
216,64,284446,1,2,0:0:0:0:
324,184,284589,5,2,0:0:0:0:
324,184,284660,1,0,0:0:0:0:
324,184,284732,2,0,P|328:220|324:264,1,62.9999980773926,8|0,0:0|0:0,0:0:0:0:
224,300,285017,1,0,0:0:0:0:
140,240,285160,1,0,0:0:0:0:
140,240,285303,6,0,P|140:164|156:104,1,125.999996154785,4|0,0:0|0:0,0:0:0:0:
240,52,285732,2,0,L|332:52,1,62.9999980773926,0|8,0:0|0:0,0:0:0:0:
440,148,286017,2,0,L|352:147,1,62.9999980773926
303,52,286303,1,0,0:0:0:0:
422,56,286446,2,0,P|438:112|438:164,1,94.499997116089
392,216,286732,2,0,L|304:216,1,62.9999980773926
200,116,287017,5,8,0:0:0:0:
296,128,287160,1,0,0:0:0:0:
192,40,287303,1,0,0:0:0:0:
220,200,287446,1,0,0:0:0:0:
120,132,287589,2,0,P|112:188|116:248,1,94.499997116089
176,292,287875,2,0,P|216:276|260:272,1,62.9999980773926
340,344,288160,2,0,P|400:336|440:304,2,62.9999980773926,8|0|0,0:0|0:0|0:0,0:0:0:0:
235,272,288589,1,0,0:0:0:0:
140,248,288732,6,0,B|140:203|140:203|148:168|148:168|148:96,1,125.999996154785
260,164,289160,2,0,P|303:175|355:167,1,62.9999980773926,0|8,0:0|0:0,0:0:0:0:
452,92,289446,2,0,P|424:72|384:64,1,62.9999980773926,0|8,0:0|0:0,0:0:0:0:
148,112,289732,1,0,0:0:0:0:
148,112,289803,1,0,0:0:0:0:
148,112,289875,6,0,B|148:184|148:184|120:228|120:228|120:304,1,180,8|8,0:0|0:0,0:0:0:0:
312,188,290303,1,0,0:0:0:0:
312,188,290375,1,0,0:0:0:0:
312,188,290446,2,0,P|360:176|420:188,1,90
420,316,290732,1,8,0:0:0:0:
399,180,290875,1,0,0:0:0:0:
192,300,291017,2,0,L|192:192,1,90
124,124,291232,1,0,0:0:0:0:
124,124,291303,2,0,P|168:108|220:108,1,90,8|0,0:0|0:0,0:0:0:0:
388,212,291589,5,8,0:0:0:0:
372,252,291660,1,8,0:0:0:0:
340,280,291732,1,8,0:0:0:0:
300,296,291803,1,8,0:0:0:0:
264,300,291875,1,8,0:0:0:0:
220,292,291946,1,8,0:0:0:0:
192,268,292017,1,8,0:0:0:0:
168,236,292089,1,8,0:0:0:0:
152,196,292160,1,8,0:0:0:0:
296,92,292446,5,8,0:0:0:0:
72,272,292732,1,8,0:0:0:0:
288,304,293017,1,8,0:0:0:0:
248,152,293303,5,10,0:0:0:0:
136,168,293446,1,10,0:0:0:0:
196,252,293589,1,2,0:0:0:0:
208,88,293732,1,8,0:0:0:0:
44,224,293875,1,2,0:0:0:0:
272,200,294017,1,8,0:0:0:0:
60,96,294160,5,10,0:0:0:0:
200,256,294303,2,0,P|208:160|200:56,1,180,12|0,0:0|0:0,0:0:0:0:
116,324,294732,2,0,P|208:344|284:304,1,180,8|0,0:0|0:0,0:0:0:0:
320,112,295160,1,0,0:0:0:0:
208,220,295303,1,8,0:0:0:0:
320,224,295446,1,0,0:0:0:0:
196,76,295589,5,0,0:0:0:0:
188,280,295732,1,0,0:0:0:0:
256,128,295875,2,0,P|300:104|352:96,1,90,8|0,0:0|0:0,0:0:0:0:
356,300,296160,2,0,P|304:304|256:320,1,90
124,260,296446,2,0,L|124:152,1,90,8|0,0:0|0:0,0:0:0:0:
212,48,296732,2,0,P|288:92|324:184,1,180,0|8,0:0|0:0,0:0:0:0:
96,272,297160,1,0,0:0:0:0:
96,272,297232,1,0,0:0:0:0:
96,272,297303,6,0,L|96:156,1,90
208,300,297589,2,0,P|292:328|392:292,1,180,8|0,0:0|0:0,0:0:0:0:
456,107,298017,2,0,P|416:90|376:108,1,90,0|8,0:0|0:0,0:0:0:0:
276,216,298303,1,0,0:0:0:0:
392,336,298446,5,8,0:0:0:0:
464,192,298589,1,0,0:0:0:0:
440,152,298660,1,0,0:0:0:0:
404,132,298732,1,8,0:0:0:0:
360,140,298803,1,0,0:0:0:0:
324,176,298875,1,0,0:0:0:0:
284,208,298946,1,0,0:0:0:0:
240,236,299017,6,0,B|236:196|236:196|256:160|240:120,1,90,8|0,0:0|0:0,0:0:0:0:
128,68,299303,1,8,0:0:0:0:
238,156,299446,1,0,0:0:0:0:
136,192,299589,1,0,0:0:0:0:
240,72,299732,1,0,0:0:0:0:
64,128,299875,5,8,0:0:0:0:
232,244,300017,1,0,0:0:0:0:
56,224,300160,1,0,0:0:0:0:
176,344,300303,1,0,0:0:0:0:
136,192,300446,1,8,0:0:0:0:
136,192,300517,1,0,0:0:0:0:
136,192,300589,2,0,P|168:144|220:168,1,90
316,280,300875,1,0,0:0:0:0:
316,280,301017,6,0,P|304:172|328:96,1,180,8|0,0:0|0:0,0:0:0:0:
444,244,301446,2,0,P|452:288|448:356,1,90,0|8,0:0|0:0,0:0:0:0:
228,240,301732,1,0,0:0:0:0:
228,240,301803,1,0,0:0:0:0:
228,240,301875,2,0,L|228:140,1,90,8|0,0:0|0:0,0:0:0:0:
324,168,302160,5,8,0:0:0:0:
140,99,302303,1,0,0:0:0:0:
140,99,302446,2,0,P|221:64|308:84,1,180,0|8,0:0|0:0,0:0:0:0:
300,248,302875,2,0,P|304:300|300:368,1,90
148,296,303160,1,0,0:0:0:0:
240,184,303303,1,8,0:0:0:0:
268,160,303375,1,0,0:0:0:0:
304,160,303446,1,0,0:0:0:0:
344,184,303517,1,0,0:0:0:0:
364,224,303589,6,0,P|424:212|448:184,1,90,8|0,0:0|0:0,0:0:0:0:
307,84,303875,1,8,0:0:0:0:
240,264,304017,1,0,0:0:0:0:
320,172,304160,1,0,0:0:0:0:
152,244,304303,2,0,P|112:268|136:292,1,90,0|8,0:0|0:0,0:0:0:0:
328,252,304589,1,0,0:0:0:0:
188,136,304732,6,0,P|140:120|92:140,2,90,0|0|8,0:0|0:0|0:0,0:0:0:0:
284,332,305160,2,0,P|236:340|192:328,1,90
144,208,305446,1,0,0:0:0:0:
328,252,305589,1,8,0:0:0:0:
212,124,305732,1,0,0:0:0:0:
163,282,305875,6,0,P|246:296|342:232,1,180,0|8,0:0|0:0,0:0:0:0:
404,64,306303,2,0,L|404:172,1,90
232,216,306589,1,0,0:0:0:0:
232,216,306660,1,0,0:0:0:0:
232,216,306732,1,8,0:0:0:0:
296,128,306875,1,0,0:0:0:0:
136,92,307017,6,0,P|84:236|92:268,1,180,0|8,0:0|0:0,0:0:0:0:
192,212,307446,2,0,P|276:172|292:176,1,90,0|8,0:0|0:0,0:0:0:0:
316,252,307660,1,0,0:0:0:0:
316,252,307732,2,0,P|264:308|224:312,1,90,0|8,0:0|0:0,0:0:0:0:
136,264,308017,1,0,0:0:0:0:
352,136,308160,5,8,0:0:0:0:
144,88,308446,1,8,0:0:0:0:
372,248,308732,1,8,0:0:0:0:
200,184,308875,1,8,0:0:0:0:
240,316,309017,1,8,0:0:0:0:
332,136,309160,1,8,0:0:0:0:
240,316,309303,5,8,0:0:0:0:
168,76,309589,1,8,0:0:0:0:
80,256,309875,1,8,0:0:0:0:
260,212,310017,1,8,0:0:0:0:
132,176,310160,1,8,0:0:0:0:
240,340,310303,1,8,0:0:0:0:
132,176,310446,5,8,0:0:0:0:
424,280,310732,1,8,0:0:0:0:
232,96,311017,1,10,0:0:0:0:
356,192,311160,1,0,0:0:0:0:
232,192,311303,1,0,0:0:0:0:
380,56,311446,1,2,0:0:0:0:
232,192,311589,1,8,0:0:0:0:
260,56,311732,1,2,0:0:0:0:
312,244,311875,1,0,0:0:0:0:
132,80,312017,1,2,0:0:0:0:
112,236,312160,5,10,0:0:0:0:
136,276,312232,1,0,0:0:0:0:
172,308,312303,1,0,0:0:0:0:
216,316,312375,1,0,0:0:0:0:
252,284,312446,1,10,0:0:0:0:
280,244,312517,1,0,0:0:0:0:
320,224,312589,1,2,0:0:0:0:
368,232,312660,1,0,0:0:0:0:
412,252,312732,6,0,B|420:228|452:204|452:204|444:168|452:80,1,180,10|10,0:0|0:0,0:0:0:0:
288,68,313160,2,0,P|248:116|232:168,1,90
352,212,313446,2,0,P|408:216|448:200,1,90,0|8,0:0|0:0,0:0:0:0:
392,56,313732,1,0,0:0:0:0:
344,204,313875,2,0,P|332:256|344:312,1,90
456,200,314160,1,8,0:0:0:0:
336,291,314303,1,0,0:0:0:0:
396,124,314446,1,0,0:0:0:0:
216,296,314589,1,0,0:0:0:0:
304,128,314732,6,0,B|304:96|304:96|320:60|320:60|296:24|236:28|204:68,1,180,8|0,0:0|0:0,0:0:0:0:
120,156,315160,2,0,P|108:204|112:248,1,90,0|8,0:0|0:0,0:0:0:0:
280,316,315446,2,0,P|324:328|388:312,2,90
200,184,315875,1,8,0:0:0:0:
328,216,316017,1,0,0:0:0:0:
228,324,316160,5,0,0:0:0:0:
108,232,316303,2,0,P|99:178|108:124,1,90,0|8,0:0|0:0,0:0:0:0:
296,68,316589,1,0,0:0:0:0:
296,68,316660,1,0,0:0:0:0:
296,68,316732,6,0,L|296:176,1,90,8|0,0:0|0:0,0:0:0:0:
200,116,316946,1,0,0:0:0:0:
200,116,317017,2,0,P|148:116|72:172,1,135,8|0,0:0|0:0,0:0:0:0:
168,280,317303,2,0,L|288:280,1,90,8|0,0:0|0:0,0:0:0:0:
296,158,317589,1,8,0:0:0:0:
80,168,317732,1,0,0:0:0:0:
80,168,317803,1,0,0:0:0:0:
80,168,317875,6,0,P|80:244|100:304,1,135,8|0,0:0|0:0,0:0:0:0:
196,248,318160,2,0,P|244:216|292:216,1,90,8|8,0:0|0:0,0:0:0:0:
384,272,318375,1,0,0:0:0:0:
384,272,318446,2,0,P|396:212|388:160,1,90,8|0,0:0|0:0,0:0:0:0:
176,112,318732,1,8,0:0:0:0:
176,112,318875,2,0,B|176:152|176:152|200:208|200:208|200:304,1,180
120,264,319303,5,8,0:0:0:0:
264,148,319446,1,8,0:0:0:0:
72,120,319589,2,0,P|124:60|232:44,1,180,8|0,0:0|0:0,0:0:0:0:
204,208,320017,2,0,P|176:288|84:340,1,180,8|0,0:0|0:0,0:0:0:0:
72,172,320446,5,8,0:0:0:0:
244,132,320589,1,0,0:0:0:0:
244,132,320660,1,0,0:0:0:0:
244,132,320732,1,8,0:0:0:0:
140,72,320875,1,0,0:0:0:0:
224,232,321017,1,8,0:0:0:0:
80,140,321160,1,0,0:0:0:0:
216,312,321303,5,8,0:0:0:0:
216,88,321446,1,0,0:0:0:0:
264,76,321517,1,0,0:0:0:0:
312,100,321589,1,8,0:0:0:0:
344,144,321660,1,0,0:0:0:0:
348,196,321732,1,0,0:0:0:0:
324,244,321803,1,0,0:0:0:0:
312,288,321875,6,0,P|244:272|128:304,1,180,8|8,0:0|0:0,0:0:0:0:
384,352,322303,2,0,P|392:304|388:240,1,90
288,136,322589,1,0,0:0:0:0:
240,264,322732,1,8,0:0:0:0:
391,262,322875,1,0,0:0:0:0:
420,72,323017,2,0,P|364:60|316:76,1,90
240,208,323303,5,8,0:0:0:0:
372,168,323446,1,0,0:0:0:0:
456,296,323589,1,0,0:0:0:0:
344,256,323732,2,0,P|296:256|248:280,1,90,0|8,0:0|0:0,0:0:0:0:
448,248,324017,1,0,0:0:0:0:
448,248,324089,1,0,0:0:0:0:
448,248,324160,6,0,P|472:180|468:92,1,135
372,56,324446,2,0,P|320:80|288:76,1,90,8|0,0:0|0:0,0:0:0:0:
156,48,324732,2,0,P|156:128|156:216,1,135
240,220,325017,2,0,P|312:204|344:208,1,90,8|0,0:0|0:0,0:0:0:0:
424,308,325303,1,0,0:0:0:0:
200,288,325446,1,0,0:0:0:0:
200,288,325517,1,0,0:0:0:0:
200,288,325589,6,0,L|200:188,1,90,8|0,0:0|0:0,0:0:0:0:
320,64,325875,1,0,0:0:0:0:
372,76,325946,1,0,0:0:0:0:
384,128,326017,1,0,0:0:0:0:
344,164,326089,1,0,0:0:0:0:
304,148,326160,6,0,P|256:116|196:136,1,90,8|0,0:0|0:0,0:0:0:0:
68,160,326375,1,0,0:0:0:0:
68,176,326446,2,0,L|68:320,1,135,8|0,0:0|0:0,0:0:0:0:
160,196,326732,2,0,P|204:184|247:194,1,90,8|0,0:0|0:0,0:0:0:0:
168,332,327017,2,0,P|116:336|68:304,1,90,8|0,0:0|0:0,0:0:0:0:
192,128,327303,2,0,P|232:120|296:124,1,90,8|0,0:0|0:0,0:0:0:0:
408,256,327589,2,0,P|348:272|304:260,1,90,8|0,0:0|0:0,0:0:0:0:
256,204,327803,1,0,0:0:0:0:
228,220,327875,2,0,P|224:260|227:317,1,90,8|0,0:0|0:0,0:0:0:0:
264,88,328160,5,8,0:0:0:0:
220,56,328232,1,8,0:0:0:0:
172,52,328303,1,8,0:0:0:0:
128,64,328375,1,8,0:0:0:0:
96,104,328446,1,8,0:0:0:0:
84,148,328517,1,8,0:0:0:0:
96,192,328589,1,8,0:0:0:0:
124,232,328660,1,0,0:0:0:0:
168,252,328732,5,8,0:0:0:0:
344,72,329017,1,8,0:0:0:0:
172,332,329303,1,8,0:0:0:0:
432,164,329589,1,8,0:0:0:0:
148,184,329875,5,10,0:0:0:0:
224,96,330017,1,10,0:0:0:0:
64,156,330160,1,0,0:0:0:0:
220,216,330303,1,10,0:0:0:0:
128,72,330446,1,2,0:0:0:0:
144,276,330589,1,10,0:0:0:0:
296,96,330732,1,8,0:0:0:0:
72,216,330875,1,10,0:0:0:0:
236,168,331017,6,0,B|276:164|276:164|296:152|296:152|404:144|424:248|340:272|340:272|272:272|280:300|280:300|276:336,1,377.999988464356,4|0,0:0|0:0,0:0:0:0:
120,232,332160,1,8,0:0:0:0:
112,216,332232,1,8,0:0:0:0:
108,200,332303,1,8,0:0:0:0:
104,188,332375,1,8,0:0:0:0:
104,172,332446,1,8,0:0:0:0:
104,156,332517,2,0,P|120:128|168:96,2,53.9999983520508,0|0|2,0:0|0:0|0:0,0:0:0:0:
264,224,332875,1,0,0:0:0:0:
324,136,333017,1,8,0:0:0:0:
196,176,333160,1,0,0:0:0:0:
344,44,333303,6,0,P|452:120|384:204,1,251.999992309571,4|0,0:0|0:0,0:0:0:0:
152,120,334446,2,0,P|108:164|108:248,1,125.999996154785,0|8,0:0|0:0,0:0:0:0:
176,320,334875,1,0,0:0:0:0:
236,220,335017,1,8,0:0:0:0:
280,240,335089,1,0,0:0:0:0:
320,216,335160,1,0,0:0:0:0:
352,232,335232,1,0,0:0:0:0:
380,248,335303,2,0,P|376:180|380:156,1,72
416,56,335589,6,0,P|464:104|472:176,1,135.000005149842,8|0,0:0|0:0,0:0:0:0:
348,288,336017,1,0,0:0:0:0:
348,288,336160,2,0,P|296:232|232:224,1,135.000005149842,8|0,0:0|0:0,0:0:0:0:
108,180,336589,1,0,0:0:0:0:
108,180,336732,6,0,P|156:136|228:124,1,135.000005149842,8|0,0:0|0:0,0:0:0:0:
384,208,337160,1,0,0:0:0:0:
384,208,337303,2,0,P|396:144|376:72,1,135.000005149842,8|0,0:0|0:0,0:0:0:0:
248,84,337732,1,0,0:0:0:0:
248,84,337875,6,0,P|160:104|124:152,1,135.000005149842,8|0,0:0|0:0,0:0:0:0:
248,220,338303,1,0,0:0:0:0:
355,302,338446,2,0,L|364:236,1,67.5000025749208,8|0,0:0|0:0,0:0:0:0:
137,248,338732,2,0,L|144:320,1,72,8|0,0:0|0:0,0:0:0:0:
224,160,339017,6,0,P|268:120|332:96,1,121.499996292114,8|0,0:0|0:0,0:0:0:0:
464,204,339303,2,0,P|468:244|459:283,1,80.9999975280763,8|0,0:0|0:0,0:0:0:0:
325,97,339589,1,8,0:0:0:0:
288,240,339732,1,0,0:0:0:0:
412,64,339803,1,0,0:0:0:0:
452,64,339875,1,8,0:0:0:0:
484,92,339946,1,0,0:0:0:0:
488,132,340017,1,0,0:0:0:0:
456,164,340089,1,0,0:0:0:0:
424,184,340160,6,0,B|420:240|420:240|444:268|444:268|448:344,1,161.999995056153,8|8,0:0|0:0,0:0:0:0:
512,168,340589,2,0,P|496:124|456:88,1,80.9999975280763
284,164,340875,2,0,P|272:212|288:272,1,80.9999975280763,0|8,0:0|0:0,0:0:0:0:
376,336,341160,1,0,0:0:0:0:
364,200,341303,1,0,0:0:0:0:
184,268,341446,2,0,P|172:308|168:348,1,80.9999975280763,0|8,0:0|0:0,0:0:0:0:
344,252,341732,1,0,0:0:0:0:
344,252,341803,1,0,0:0:0:0:
344,252,341875,6,0,P|404:236|484:276,1,121.499996292114
336,144,342160,2,0,P|340:72|356:32,1,80.9999975280763,8|0,0:0|0:0,0:0:0:0:
468,172,342446,2,0,P|472:224|464:260,1,80.9999975280763
272,180,342732,1,8,0:0:0:0:
248,256,342875,1,0,0:0:0:0:
336,224,343017,1,0,0:0:0:0:
196,152,343160,1,0,0:0:0:0:
316,308,343303,5,8,0:0:0:0:
392,140,343446,1,0,0:0:0:0:
392,140,343517,1,0,0:0:0:0:
392,140,343589,2,0,P|416:180|412:264,1,121.499996292114
212,340,343875,2,0,P|196:292|208:236,1,80.9999975280763,8|0,0:0|0:0,0:0:0:0:
328,80,344160,5,8,0:0:0:0:
296,280,344303,1,0,0:0:0:0:
208,56,344446,1,8,0:0:0:0:
168,60,344517,1,0,0:0:0:0:
132,80,344589,1,0,0:0:0:0:
100,108,344660,1,0,0:0:0:0:
76,136,344732,6,0,B|76:188|152:196|168:248|112:276,1,161.999995056153,8|8,0:0|0:0,0:0:0:0:
236,124,345160,1,0,0:0:0:0:
236,124,345232,1,0,0:0:0:0:
236,124,345303,2,0,L|336:124,1,80.9999975280763,8|0,0:0|0:0,0:0:0:0:
376,40,345517,1,0,0:0:0:0:
376,40,345589,2,0,P|424:60|448:156,1,121.499996292114,8|0,0:0|0:0,0:0:0:0:
272,244,345875,2,0,P|264:287|268:323,1,80.9999975280763,8|0,0:0|0:0,0:0:0:0:
392,240,346160,2,0,P|398:200|391:160,1,80.9999975280763,8|0,0:0|0:0,0:0:0:0:
240,48,346446,5,8,0:0:0:0:
192,60,346517,1,8,0:0:0:0:
160,96,346589,1,8,0:0:0:0:
156,144,346660,1,8,0:0:0:0:
192,184,346732,1,8,0:0:0:0:
220,224,346803,1,8,0:0:0:0:
216,276,346875,1,8,0:0:0:0:
184,316,346946,1,8,0:0:0:0:
136,332,347017,5,8,0:0:0:0:
360,64,347303,1,8,0:0:0:0:
104,192,347589,1,8,0:0:0:0:
384,296,347875,1,8,0:0:0:0:
200,80,348160,5,10,0:0:0:0:
220,188,348303,1,2,0:0:0:0:
296,80,348446,1,2,0:0:0:0:
128,124,348589,1,8,0:0:0:0:
296,224,348732,5,2,0:0:0:0:
220,32,348875,1,2,0:0:0:0:
132,220,349017,1,8,0:0:0:0:
344,120,349160,1,2,0:0:0:0:
112,132,349303,6,0,P|60:188|72:288,1,161.999995056153,8|8,0:0|0:0,0:0:0:0:
248,180,349732,2,0,L|248:88,1,80.9999975280763
60,60,350017,1,0,0:0:0:0:
164,40,350160,1,8,0:0:0:0:
132,224,350303,1,0,0:0:0:0:
284,72,350446,2,0,P|332:116|332:192,1,121.499996292114
236,260,350732,2,0,P|236:320|252:364,1,80.9999975280763,8|0,0:0|0:0,0:0:0:0:
348,284,351017,1,0,0:0:0:0:
428,100,351160,1,0,0:0:0:0:
428,100,351232,1,0,0:0:0:0:
428,100,351303,6,0,P|437:140|421:192,1,80.9999975280763,8|0,0:0|0:0,0:0:0:0:
336,224,351589,2,0,P|280:212|236:208,1,80.9999975280763
216,312,351875,1,8,0:0:0:0:
408,292,352017,1,0,0:0:0:0:
408,292,352089,1,0,0:0:0:0:
408,292,352160,6,0,P|416:244|408:192,1,80.9999975280763
248,184,352446,2,0,P|188:188|140:172,1,80.9999975280763,8|0,0:0|0:0,0:0:0:0:
64,120,352732,2,0,P|61:80|73:42,1,80.9999975280763
184,260,353017,1,8,0:0:0:0:
168,80,353160,1,8,0:0:0:0:
168,80,353232,5,0,0:0:0:0:
168,80,353303,1,0,0:0:0:0:
360,180,353446,1,8,0:0:0:0:
184,168,353589,1,8,0:0:0:0:
156,184,353660,1,0,0:0:0:0:
136,212,353732,1,0,0:0:0:0:
128,244,353803,1,0,0:0:0:0:
136,272,353875,6,0,P|216:248|304:264,1,161.999995056153,8|8,0:0|0:0,0:0:0:0:
72,336,354303,2,0,P|56:292|60:232,1,80.9999975280763
152,116,354589,1,0,0:0:0:0:
140,276,354732,1,8,0:0:0:0:
60,132,354875,1,0,0:0:0:0:
260,180,355017,6,0,B|260:236|260:236|244:272|244:272|248:356,1,161.999995056153,0|8,0:0|0:0,0:0:0:0:
352,188,355446,2,0,P|396:180|452:192,1,80.9999975280763
400,288,355732,1,0,0:0:0:0:
312,124,355875,1,8,0:0:0:0:
312,124,355946,1,0,0:0:0:0:
312,124,356017,1,0,0:0:0:0:
428,48,356160,6,0,L|432:220,1,161.999995056153,8|8,0:0|0:0,0:0:0:0:
292,64,356589,2,0,P|232:56|176:72,1,80.9999975280763
112,136,356875,1,0,0:0:0:0:
312,220,357017,1,8,0:0:0:0:
184,268,357160,2,0,P|208:308|240:332,2,80.9999975280763
248,128,357589,1,8,0:0:0:0:
260,256,357732,1,0,0:0:0:0:
140,96,357875,5,8,0:0:0:0:
268,180,358017,1,8,0:0:0:0:
304,188,358089,1,0,0:0:0:0:
332,172,358160,1,8,0:0:0:0:
372,172,358232,1,0,0:0:0:0:
404,196,358303,1,0,0:0:0:0:
428,228,358375,1,0,0:0:0:0:
456,240,358446,6,8,B|456:188|456:188|444:156|444:156|444:60,1,161.999995056153
340,236,358875,2,0,L|340:348,1,80.9999975280763
200,148,359160,1,0,0:0:0:0:
256,268,359303,1,8,0:0:0:0:
316,152,359446,1,0,0:0:0:0:
176,224,359589,2,0,P|152:268|216:348,1,161.999995056153,0|8,0:0|0:0,0:0:0:0:
320,220,360017,2,0,P|324:152|312:124,1,80.9999975280763
120,64,360303,1,0,0:0:0:0:
360,148,360446,1,8,0:0:0:0:
172,184,360589,5,0,0:0:0:0:
172,184,360660,1,0,0:0:0:0:
172,184,360732,2,0,P|168:232|172:268,1,80.9999975280763,8|0,0:0|0:0,0:0:0:0:
104,88,361017,2,0,P|184:56|272:96,1,161.999995056153,8|0,0:0|0:0,0:0:0:0:
276,244,361446,1,0,0:0:0:0:
352,116,361589,1,8,0:0:0:0:
244,144,361732,1,0,0:0:0:0:
412,280,361875,6,0,L|420:176,1,80.9999975280763
304,52,362160,1,8,0:0:0:0:
304,52,362232,1,0,0:0:0:0:
304,52,362303,2,0,P|294:91|290:131,1,80.9999975280763
344,264,362589,2,0,P|373:243|393:199,1,80.9999975280763,0|8,0:0|0:0,0:0:0:0:
232,72,362875,1,0,0:0:0:0:
232,72,362946,1,0,0:0:0:0:
232,72,363017,6,0,P|144:88|80:144,1,161.999995056153,8|8,0:0|0:0,0:0:0:0:
148,288,363446,2,0,L|240:288,1,80.9999975280763
304,160,363732,2,0,P|356:152|400:160,1,80.9999975280763,0|8,0:0|0:0,0:0:0:0:
352,268,364017,1,0,0:0:0:0:
212,189,364160,2,0,P|216:109|244:53,1,121.499996292114
276,248,364446,2,0,L|276:328,1,80.9999975280763,8|0,0:0|0:0,0:0:0:0:
400,312,364732,1,8,0:0:0:0:
400,312,364875,1,8,0:0:0:0:
304,160,365017,1,8,0:0:0:0:
176,256,365160,1,0,0:0:0:0:
176,256,365232,1,0,0:0:0:0:
176,252,365303,6,0,P|136:256|80:240,1,80.9999975280763,8|0,0:0|0:0,0:0:0:0:
340,152,365589,2,0,P|420:160|440:172,1,80.9999975280763,8|0,0:0|0:0,0:0:0:0:
188,108,365875,2,0,P|148:96|80:112,1,80.9999975280763,8|0,0:0|0:0,0:0:0:0:
312,248,366160,2,0,P|332:286|368:320,1,80.9999975280763,8|0,0:0|0:0,0:0:0:0:
436,188,366446,5,0,0:0:0:0:
224,168,366589,1,0,0:0:0:0:
436,188,366732,1,8,0:0:0:0:
280,64,366875,1,0,0:0:0:0:
232,44,366946,1,0,0:0:0:0:
184,64,367017,1,8,0:0:0:0:
160,112,367089,1,0,0:0:0:0:
180,156,367160,2,0,P|216:196|220:228,1,80.9999975280763,0|8,0:0|0:0,0:0:0:0:
88,276,367375,1,0,0:0:0:0:
48,248,367446,1,0,0:0:0:0:
44,200,367517,1,0,0:0:0:0:
80,160,367589,6,0,P|144:128|172:128,1,80.9999975280763,8|0,0:0|0:0,0:0:0:0:
292,176,367875,1,8,0:0:0:0:
236,304,368017,2,0,P|140:308|132:272,1,121.499996292114
211,178,368303,2,0,L|319:174,1,80.9999975280763,0|8,0:0|0:0,0:0:0:0:
432,304,368589,1,0,0:0:0:0:
432,304,368732,2,0,P|448:248|444:140,1,161.999995056153,0|8,0:0|0:0,0:0:0:0:
344,84,369160,2,0,P|308:104|256:108,1,80.9999975280763
112,64,369446,1,0,0:0:0:0:
268,109,369589,1,8,0:0:0:0:
160,176,369732,1,0,0:0:0:0:
160,176,369803,1,0,0:0:0:0:
160,176,369875,6,0,L|152:276,1,80.9999975280763,8|0,0:0|0:0,0:0:0:0:
360,192,370160,2,0,L|372:308,1,80.9999975280763,8|0,0:0|0:0,0:0:0:0:
288,128,370446,1,0,0:0:0:0:
240,232,370589,1,0,0:0:0:0:
408,184,370732,2,0,P|364:52|352:52,1,161.999995056153,8|0,0:0|0:0,0:0:0:0:
184,136,371160,2,0,P|144:108|124:68,1,80.9999975280763,0|8,0:0|0:0,0:0:0:0:
248,48,371446,5,0,0:0:0:0:
248,48,371517,1,0,0:0:0:0:
248,48,371589,1,8,0:0:0:0:
256,176,371732,1,0,0:0:0:0:
84,144,371875,1,8,0:0:0:0:
64,172,371946,1,8,0:0:0:0:
60,208,372017,1,8,0:0:0:0:
64,244,372089,1,8,0:0:0:0:
88,272,372160,6,0,B|156:200|240:240,1,161.999995056153,8|8,0:0|0:0,0:0:0:0:
120,344,372589,2,0,P|68:356|24:344,1,80.9999975280763
196,156,372875,2,0,P|240:144|292:168,1,80.9999975280763,0|8,0:0|0:0,0:0:0:0:
240,280,373160,1,0,0:0:0:0:
60,236,373303,6,0,P|52:184|76:68,1,161.999995056153,0|8,0:0|0:0,0:0:0:0:
304,72,373732,1,0,0:0:0:0:
304,72,373803,1,0,0:0:0:0:
304,72,373875,2,0,P|308:116|300:160,1,80.9999975280763
192,40,374160,1,8,0:0:0:0:
192,208,374303,1,0,0:0:0:0:
192,208,374375,1,0,0:0:0:0:
192,208,374446,6,0,B|204:252|204:252|252:224|332:248,1,161.999995056153,0|8,0:0|0:0,0:0:0:0:
436,176,374875,1,0,0:0:0:0:
356,68,375017,2,0,P|304:72|264:88,2,80.9999975280763,0|0|8,0:0|0:0|0:0,0:0:0:0:
384,228,375446,1,0,0:0:0:0:
280,148,375589,1,0,0:0:0:0:
472,76,375732,1,0,0:0:0:0:
472,76,375803,1,0,0:0:0:0:
472,76,375875,2,0,L|472:184,1,80.9999975280763,8|0,0:0|0:0,0:0:0:0:
392,332,376160,5,8,0:0:0:0:
332,180,376303,1,0,0:0:0:0:
312,144,376375,1,0,0:0:0:0:
280,128,376446,1,8,0:0:0:0:
240,120,376517,1,0,0:0:0:0:
200,132,376589,1,8,0:0:0:0:
176,168,376660,1,0,0:0:0:0:
172,212,376732,6,0,P|212:240|224:272,1,80.9999975280763,8|0,0:0|0:0,0:0:0:0:
72,268,377017,2,0,P|64:216|80:164,1,80.9999975280763,8|0,0:0|0:0,0:0:0:0:
160,80,377303,1,0,0:0:0:0:
264,172,377446,2,0,L|356:180,1,80.9999975280763,0|8,0:0|0:0,0:0:0:0:
444,64,377732,1,0,0:0:0:0:
444,64,377803,1,0,0:0:0:0:
444,64,377875,2,0,P|356:40|276:56,1,161.999995056153,0|8,0:0|0:0,0:0:0:0:
208,184,378303,1,0,0:0:0:0:
344,176,378446,1,0,0:0:0:0:
182,71,378589,1,0,0:0:0:0:
264,232,378732,5,8,0:0:0:0:
104,140,378875,1,0,0:0:0:0:
104,140,378946,1,0,0:0:0:0:
104,140,379017,2,0,P|100:192|104:228,1,80.9999975280763,8|0,0:0|0:0,0:0:0:0:
36,68,379303,2,0,P|104:40|192:84,1,161.999995056153,8|0,0:0|0:0,0:0:0:0:
288,252,379732,2,0,L|288:156,1,80.9999975280763,0|8,0:0|0:0,0:0:0:0:
108,196,380017,1,0,0:0:0:0:
248,52,380160,5,8,0:0:0:0:
248,52,380232,1,0,0:0:0:0:
248,52,380303,2,0,P|292:44|340:52,1,80.9999975280763,8|8,0:0|0:0,0:0:0:0:
304,168,380589,2,0,P|284:236|284:272,1,80.9999975280763,0|8,0:0|0:0,0:0:0:0:
404,336,380875,2,0,P|416:292|420:240,1,80.9999975280763,0|8,0:0|0:0,0:0:0:0:
408,104,381160,1,0,0:0:0:0:
408,104,381232,1,0,0:0:0:0:
408,104,381303,5,8,0:0:0:0:
216,216,381446,1,0,0:0:0:0:
216,64,381589,1,8,0:0:0:0:
324,176,381732,2,0,P|344:232|336:280,1,80.9999975280763
288,344,382017,1,0,0:0:0:0:
220,256,382160,2,0,P|168:252|80:288,1,121.499996292114,8|0,0:0|0:0,0:0:0:0:
40,204,382446,2,0,P|56:116|120:48,1,161.999995056153,0|8,0:0|0:0,0:0:0:0:
220,256,382875,1,0,0:0:0:0:
308,108,383017,1,8,0:0:0:0:
220,256,383160,1,0,0:0:0:0:
136,112,383303,5,8,0:0:0:0:
316,224,383446,1,8,0:0:0:0:
316,224,383517,1,0,0:0:0:0:
316,224,383589,2,0,P|364:264|404:280,1,80.9999975280763,8|0,0:0|0:0,0:0:0:0:
300,96,383875,2,0,P|268:64|224:44,1,80.9999975280763,8|0,0:0|0:0,0:0:0:0:
200,292,384160,2,0,P|228:336|256:360,1,80.9999975280763,8|0,0:0|0:0,0:0:0:0:
216,160,384446,2,0,P|188:136|136:116,1,80.9999975280763,8|0,0:0|0:0,0:0:0:0:
72,248,384732,5,8,0:0:0:0:
92,48,384875,1,0,0:0:0:0:
76,244,385017,1,8,0:0:0:0:
188,108,385160,1,0,0:0:0:0:
208,64,385232,1,0,0:0:0:0:
248,48,385303,1,8,0:0:0:0:
296,56,385375,1,0,0:0:0:0:
320,100,385446,2,0,P|308:128|308:188,1,80.9999975280763,0|8,0:0|0:0,0:0:0:0:
388,204,385660,1,0,0:0:0:0:
432,228,385732,1,0,0:0:0:0:
440,280,385803,1,0,0:0:0:0:
408,320,385875,6,0,P|356:336|300:332,1,80.9999975280763,10|0,0:0|0:0,0:0:0:0:
260,232,386160,2,0,P|216:216|168:224,1,67.5000025749208,2|0,0:0|0:0,0:0:0:0:
144,308,386446,2,0,L|56:308,2,67.5000025749208,4|0|2,0:0|0:0|0:0,0:0:0:0:
144,308,386875,1,0,0:0:0:0:
104,212,387017,6,0,L|104:124,1,67.5000025749208,2|0,0:0|0:0,0:0:0:0:
172,56,387303,2,0,L|252:56,2,67.5000025749208,2|0|8,0:0|0:0|0:0,0:0:0:0:
172,56,387732,1,0,0:0:0:0:
176,164,387875,2,0,L|176:240,1,67.5000025749208,2|0,0:0|0:0,0:0:0:0:
244,300,388160,6,0,P|288:304|336:292,2,67.5000025749208,2|0|2,0:0|0:0|0:0,0:0:0:0:
244,300,388589,1,0,0:0:0:0:
272,200,388732,2,0,L|272:124,1,67.5000025749208,8|0,0:0|0:0,0:0:0:0:
328,48,389017,2,0,P|368:64|392:88,2,67.5000025749208,0|0|4,0:0|0:0|0:0,0:0:0:0:
208,48,389446,2,0,P|168:68|152:96,2,67.5000025749208,0|4|0,0:0|0:0|0:0,0:0:0:0:
316,132,389875,2,0,L|348:200,1,67.5000025749208,4|0,0:0|0:0,0:0:0:0:
224,132,390160,2,0,L|188:212,1,67.5000025749208,4|0,0:0|0:0,0:0:0:0:
128,296,390446,6,0,P|84:260|80:180,1,135.000005149842,2|0,0:0|0:0,0:0:0:0:
77,185,390875,1,0,0:0:0:0:
144,104,391017,2,0,L|240:100,1,67.5000025749208
280,184,391303,2,0,L|192:184,1,67.5000025749208
188,296,391589,6,0,P|260:316|316:276,1,135.000005149842,2|0,0:0|0:0,0:0:0:0:
308,184,392017,2,0,L|308:108,1,67.5000025749208
224,48,392303,2,0,L|224:128,1,67.5000025749208
210,228,392589,1,0,0:0:0:0:
210,228,392732,6,0,P|145:244|84:220,1,135.000005149842,4|0,0:0|0:0,0:0:0:0:
80,76,393160,2,0,L|152:76,1,67.5000025749208
164,156,393446,2,0,L|248:156,1,67.5000025749208
231,156,393732,1,0,0:0:0:0:
276,56,393875,5,4,0:0:0:0:
340,108,394017,1,0,0:0:0:0:
212,88,394160,1,2,0:0:0:0:
328,32,394303,1,0,0:0:0:0:
280,152,394446,5,0,0:0:0:0:
380,180,394589,1,0,0:0:0:0:
280,152,394732,1,8,0:0:0:0:
328,256,394875,1,0,0:0:0:0:
280,152,395017,1,4,0:0:0:0:
256,192,395160,12,0,397874,0:0:0:0:
