osu file format v14

[General]
AudioFilename: 03 Symmetric Rose.mp3
AudioLeadIn: 0
PreviewTime: 86688
Countdown: 0
SampleSet: Soft
StackLeniency: 0.9
Mode: 0
LetterboxInBreaks: 0
WidescreenStoryboard: 1

[Editor]
Bookmarks: 670,9813,30388,53116,71545,87402,124116,124589,133259,151545,167402,170089,204116,222402,240688,257830,266972,294258,330972,340115,349258,367544,385830
DistanceSpacing: 1.9
BeatDivisor: 4
GridSize: 4
TimelineZoom: 2.899999

[Metadata]
Title:Symmetric Rose
TitleUnicode:Symmetric Rose
Artist:Ariabl'eyeS
ArtistUnicode:Ariabl'eyeS
Creator:Pawlyk here
Version:Asymmetry
Source:
Tags:Ruriiro no Rosenkreuz Ariabl eyes sister twins nice song 瑠璃色のローゼンクロイツ Rena Marathon
BeatmapID:869625
BeatmapSetID:383857

[Difficulty]
HPDrainRate:7
CircleSize:4.2
OverallDifficulty:8.5
ApproachRate:9.6
SliderMultiplier:1.8
SliderTickRate:1

[Events]
//Background and Video events
0,0,"bg.jpg",0,0
//Break Periods
2,258077,266508
//Storyboard Layer 0 (Background)
//Storyboard Layer 1 (Fail)
//Storyboard Layer 2 (Pass)
//Storyboard Layer 3 (Foreground)
//Storyboard Sound Samples

[TimingPoints]
732.645972067412,571.428571428571,4,2,1,45,1,0
9875,-200,4,1,1,70,0,0
10734,-111.111111111111,4,1,1,70,0,0
11018,285.714285714286,4,1,1,45,1,0
28162,-100,4,1,1,60,0,0
30162,-100,4,1,1,60,0,0
30448,-133.333333333333,4,2,1,70,0,0
30877,-133.333333333333,4,2,1,45,0,0
31591,-133.333333333333,4,2,1,70,0,0
31805,-133.333333333333,4,2,1,45,0,0
32734,-133.333333333333,4,2,1,70,0,0
35018,-166.666666666667,4,2,1,60,0,0
39589,-133.333333333333,4,2,1,70,0,0
40018,-166.666666666667,4,2,1,70,0,0
43734,-133.333333333333,4,2,1,70,0,0
50875,-117.647058823529,4,1,1,70,0,0
53020,-111.111111111111,4,1,1,70,0,0
69020,-100,4,1,1,70,0,0
70875,-166.666666666667,4,1,1,70,0,0
71232,-133.333333333333,4,1,1,70,0,0
71589,-133.333333333333,4,1,1,70,0,0
76160,-125,4,1,1,70,0,0
76448,-133.333333333333,4,1,1,70,0,0
80732,-133.333333333333,4,1,1,70,0,0
85305,-133.333333333333,4,1,1,75,0,0
85732,-83.3333333333333,4,1,1,80,0,0
86162,-133.333333333333,4,1,1,85,0,0
87446,-100,4,1,1,75,0,1
101303,-100,4,1,1,75,0,0
102446,-83.3333333333333,4,1,1,75,0,0
102589,-100,4,1,1,75,0,0
103589,-83.3333333333333,4,1,1,75,0,0
103732,-100,4,1,1,75,0,0
105875,-100,4,1,1,75,0,1
110018,-90.9090909090909,4,1,1,75,0,1
115018,-100,4,1,1,75,0,1
124160,-133.333333333333,4,2,1,45,0,0
128734,-133.333333333333,4,2,1,70,0,0
133303,-111.111111111111,4,1,1,70,0,0
151591,-133.333333333333,4,1,1,70,0,0
165732,-83.3333333333333,4,1,1,70,0,0
167446,-100,4,1,1,75,0,1
181303,-100,4,1,1,75,0,0
185875,-100,4,1,1,75,0,1
204160,-133.333333333333,4,2,1,55,0,0
213303,-153.846153846154,4,2,1,55,0,0
222303,-133.333333333333,4,2,1,55,0,0
222446,-117.647058823529,4,1,1,55,0,0
230160,-100,4,1,1,55,0,0
230732,-117.647058823529,4,1,1,55,0,0
238446,-111.111111111111,4,1,1,55,0,0
240018,-100,4,1,1,55,0,0
240734,-133.333333333333,4,1,1,55,0,0
257875,571.428571428571,4,2,1,45,1,0
267017,-83.3333333333333,4,2,1,70,0,0
276160,-76.9230769230769,4,2,1,70,0,0
284732,-71.4285714285714,4,2,1,70,0,0
288732,-66.6666666666667,4,2,1,70,0,0
289875,285.714285714286,4,1,1,45,1,0
294303,-100,4,1,1,70,0,1
308160,-100,4,1,1,70,0,0
312732,-100,4,1,1,70,0,1
331017,-142.857142857143,4,1,1,70,0,0
332517,-111.111111111111,4,1,1,60,0,0
333303,-142.857142857143,4,1,1,60,0,0
335303,-125,4,1,1,60,0,0
335448,-133.333333333333,4,1,1,60,0,0
338732,-125,4,1,1,60,0,0
339017,-111.111111111111,4,1,1,60,0,0
386162,-133.333333333333,4,1,1,60,0,0
397732,-133.333333333333,4,1,1,10,0,0

[Colours]
Combo1 : 255,196,15
Combo2 : 255,255,255
Combo3 : 53,157,242
Combo4 : 242,34,65

[HitObjects]
299,118,732,6,0,P|349:109|413:137,1,90
284,268,1304,2,0,P|231:276|176:263,1,90,2|0,0:0|0:0,0:0:0:0:
60,152,1875,2,0,P|48:198|56:248,2,90,2|0|10,0:0|0:0|0:0,0:0:0:0:
208,88,2732,1,0,0:0:0:0:
320,208,3018,6,0,P|332:252|324:308,1,90,2|0,0:0|0:0,0:0:0:0:
192,176,3589,2,0,P|187:131|204:72,1,90,2|0,0:0|0:0,0:0:0:0:
356,48,4161,1,2,0:0:0:0:
400,204,4446,1,0,0:0:0:0:
256,128,4732,1,8,0:0:0:0:
416,96,5018,1,2,0:0:0:0:
464,252,5304,6,0,P|472:207|460:152,1,90,2|0,0:0|0:0,0:0:0:0:
340,268,5875,2,0,P|336:316|332:360,1,90,2|0,0:0|0:0,0:0:0:0:
204,256,6446,1,2,0:0:0:0:
292,120,6732,1,0,0:0:0:0:
136,160,7018,1,8,0:0:0:0:
292,212,7304,1,2,0:0:0:0:
200,80,7589,6,0,P|188:136|215:195,1,90,2|0,0:0|0:0,0:0:0:0:
332,80,8161,2,0,P|374:62|421:73,1,90,2|0,0:0|0:0,0:0:0:0:
480,220,8732,1,2,0:0:0:0:
320,228,9018,1,0,0:0:0:0:
404,88,9304,1,8,0:0:0:0:
364,244,9589,1,0,0:0:0:0:
208,188,9875,6,0,P|192:256|216:324,1,135,4|8,0:0|0:0,0:0:0:0:
300,132,11018,1,0,0:0:0:0:
428,192,11160,1,8,0:0:0:0:
428,192,11232,2,0,P|420:228|408:268,1,45
288,312,11446,1,2,0:0:0:0:
248,172,11589,5,8,0:0:0:0:
224,144,11660,1,0,0:0:0:0:
188,128,11732,1,0,0:0:0:0:
152,132,11803,1,0,0:0:0:0:
120,144,11875,2,0,P|120:196|119:246,1,90,2|0,0:0|0:0,0:0:0:0:
36,68,12160,6,0,P|76:49|148:62,1,90,12|0,0:0|0:0,0:0:0:0:
260,136,12446,1,0,0:0:0:0:
112,184,12589,2,0,P|86:261|136:359,1,180,4|0,0:2|0:0,0:0:0:0:
280,256,13018,2,0,L|184:258,1,90,8|0,0:0|0:0,0:0:0:0:
212,96,13303,6,0,B|265:69|320:112|320:112|316:144,1,135,4|0,0:0|0:0,0:0:0:0:
376,172,13589,2,0,P|388:220|380:263,1,90,8|0,0:0|0:0,0:0:0:0:
232,328,13875,2,0,P|221:285|234:243,1,90
336,112,14160,1,10,0:0:0:0:
160,132,14303,1,0,0:0:0:0:
160,132,14375,1,0,0:0:0:0:
160,132,14446,2,0,P|160:60|168:20,1,90,8|0,0:0|0:0,0:0:0:0:
236,200,14732,2,0,P|156:228|60:172,1,180,14|0,0:0|0:0,0:0:0:0:
296,144,15160,2,0,P|308:188|296:264,1,90,2|8,0:0|0:0,0:0:0:0:
140,352,15446,2,0,B|104:328|104:328|116:276,1,90,0|2,0:0|0:0,0:0:0:0:
344,328,15732,2,0,P|276:348|236:328,1,90,8|0,0:0|0:0,0:0:0:0:
152,208,16018,5,8,0:0:0:0:
152,208,16089,1,0,0:0:0:0:
152,208,16160,1,0,0:0:0:0:
260,343,16303,1,0,0:0:0:0:
272,144,16446,1,10,0:0:0:0:
300,120,16518,1,0,0:0:0:0:
340,116,16589,1,0,0:0:0:0:
380,124,16660,1,0,0:0:0:0:
404,144,16732,6,0,B|404:196|404:196|352:224|376:324,1,180,4|8,0:0|0:0,0:0:0:0:
476,356,17160,2,0,P|488:312|475:267,1,90,2|0,0:0|0:0,0:0:0:0:
352,168,17446,1,0,0:0:0:0:
412,312,17589,1,10,0:0:0:0:
480,176,17732,1,0,0:0:0:0:
320,220,17875,6,4,P|276:296|316:380,1,180,6|8,0:0|0:0,0:0:0:0:
408,220,18303,2,0,P|416:176|408:131,1,90,2|0,0:0|0:0,0:0:0:0:
248,44,18589,1,2,0:0:0:0:
352,216,18732,1,8,0:0:0:0:
352,216,18803,1,0,0:0:0:0:
352,216,18875,2,0,P|324:236|300:240,1,45
188,212,19018,6,0,P|168:160|188:112,1,90,6|0,0:2|0:0,0:0:0:0:
300,68,19303,1,0,0:0:0:0:
272,256,19446,2,0,P|188:296|104:264,1,180,6|0,0:2|0:0,0:0:0:0:
248,160,19875,1,8,0:0:0:0:
396,268,20018,2,0,L|396:392,2,90,0|6|0,0:0|0:0|0:0,0:0:0:0:
448,96,20446,2,0,L|359:112,1,90,8|0,0:0|0:0,0:0:0:0:
216,264,20732,5,10,0:0:0:0:
192,264,20803,1,0,0:0:0:0:
172,256,20875,1,0,0:0:0:0:
160,248,20946,1,0,0:0:0:0:
148,232,21018,5,8,0:0:0:0:
140,208,21089,1,0,0:0:0:0:
140,176,21160,1,2,0:0:0:0:
148,136,21232,1,0,0:0:0:0:
156,104,21303,2,0,P|148:48|96:24,1,90,4|0,0:2|0:0,0:0:0:0:
64,216,21589,5,8,0:0:0:0:
224,104,21732,2,0,B|292:68|356:100|356:100|336:160,1,180,2|0,0:0|0:0,0:0:0:0:
252,256,22160,2,0,L|256:364,1,90,10|0,0:0|0:0,0:0:0:0:
448,272,22446,2,0,P|468:176|424:104,1,180,6|10,0:0|0:0,0:0:0:0:
344,268,22875,2,0,L|344:384,1,90
176,292,23160,1,0,0:0:0:0:
296,184,23303,5,10,0:0:0:0:
140,148,23446,1,0,0:0:0:0:
140,148,23518,1,0,0:0:0:0:
140,148,23589,2,0,P|128:212|148:268,1,90,6|0,0:0|0:0,0:0:0:0:
224,68,23875,2,0,P|150:25|68:60,1,180,10|0,0:0|0:0,0:0:0:0:
48,236,24303,1,2,0:0:0:0:
204,148,24446,1,12,0:0:0:0:
144,320,24589,1,0,0:0:0:0:
300,232,24732,2,0,B|321:316|321:316|308:352,1,90,0|2,0:0|0:0,0:0:0:0:
352,96,25018,1,10,0:0:0:0:
352,96,25089,1,0,0:0:0:0:
352,96,25160,6,0,P|400:80|456:112,1,90,2|0,0:0|0:0,0:0:0:0:
476,268,25446,2,0,L|476:372,1,90,2|8,0:0|0:0,0:0:0:0:
368,212,25732,1,0,0:0:0:0:
356,204,25803,1,0,0:0:0:0:
344,196,25875,6,0,P|284:212|232:184,1,90,14|0,0:0|0:0,0:0:0:0:
132,104,26160,1,8,0:0:0:0:
48,244,26303,2,0,B|108:276|176:252|176:252|188:300,1,180,2|0,0:0|0:0,0:0:0:0:
280,144,26732,2,0,L|260:48,1,90,10|0,0:0|0:0,0:0:0:0:
220,232,27018,2,0,P|284:256|352:228,1,135,2|0,0:0|0:0,0:0:0:0:
464,84,27303,2,0,L|468:184,1,90,10|0,0:0|0:0,0:0:0:0:
356,320,27589,5,10,0:0:0:0:
376,140,27732,1,8,0:0:0:0:
472,292,27875,1,10,0:0:0:0:
296,260,28018,1,8,0:0:0:0:
296,260,28089,1,0,0:0:0:0:
296,260,28160,2,0,P|272:304|276:356,1,90,10|0,0:0|0:0,0:0:0:0:
444,156,28446,6,2,P|444:111|424:71,1,90,10|0,0:0|0:0,0:0:0:0:
264,48,28732,1,8,0:0:0:0:
364,200,28875,1,2,0:0:0:0:
184,192,29018,2,0,P|180:240|188:284,1,90,8|2,0:0|0:0,0:0:0:0:
284,116,29303,5,10,0:0:0:0:
324,96,29375,1,10,0:0:0:0:
376,92,29446,1,10,0:0:0:0:
420,116,29518,1,0,0:0:0:0:
436,160,29589,5,2,0:0:0:0:
432,212,29660,1,0,0:0:0:0:
416,260,29732,1,2,0:0:0:0:
404,304,29803,1,2,0:0:0:0:
412,348,29875,2,0,P|452:372|504:348,1,90,10|0,0:0|0:0,0:0:0:0:
408,224,30160,5,10,0:0:0:0:
376,196,30232,1,10,0:0:0:0:
328,192,30303,1,10,0:0:0:0:
288,216,30375,1,8,0:0:0:0:
260,252,30446,6,0,P|264:308|240:368,1,90,0|0,0:0|2:2,0:1:0:0:
116,288,30732,2,0,L|116:212,1,67.5000025749208
168,84,31018,2,0,L|256:84,2,67.5000025749208
80,88,31446,1,0,0:0:0:0:
168,216,31589,2,0,L|168:308,1,67.5000025749208
324,284,31875,2,0,P|364:284|408:280,2,67.5000025749208
248,284,32303,1,0,0:0:0:0:
352,196,32446,2,0,L|352:100,1,67.5000025749208
236,60,32732,2,0,P|202:59|169:65,2,67.5000025749208
352,64,33160,1,0,0:0:0:0:
416,184,33303,2,0,L|416:272,1,67.5000025749208
284,152,33589,2,0,L|248:212,1,67.5000025749208
140,296,33875,5,8,0:0:0:0:
96,176,34018,1,0,0:0:0:0:
224,232,34160,1,0,0:0:0:0:
96,176,34303,1,2,0:0:0:0:
196,112,34446,1,0,0:0:0:0:
160,232,34589,1,0,0:0:0:0:
284,92,34732,1,8,0:0:0:0:
264,208,34875,1,0,0:0:0:0:
360,160,35018,6,0,B|388:216|368:264,1,107.999996704102,6|0,0:0|0:0,0:0:0:0:
476,276,35446,2,0,L|476:330,1,53.9999983520508,2|0,0:0|0:0,0:0:0:0:
368,328,35732,2,0,L|314:328,1,53.9999983520508,2|0,0:0|0:0,0:0:0:0:
296,216,36018,1,2,0:0:0:0:
188,208,36160,2,2,P|128:208|64:204,2,107.999996704102
320,200,36875,2,0,L|319:257,1,53.9999983520508
264,136,37160,2,0,P|316:116|384:140,1,107.999996704102,2|0,0:0|0:0,0:0:0:0:
420,244,37589,2,0,L|420:300,1,53.9999983520508,2|0,0:0|0:0,0:0:0:0:
296,340,37875,1,2,0:0:0:0:
224,232,38018,1,0,0:0:0:0:
148,336,38160,6,0,L|76:336,1,53.9999983520508,2|0,0:0|0:0,0:0:0:0:
36,208,38446,2,0,L|100:208,1,53.9999983520508,2|0,0:0|0:0,0:0:0:0:
232,200,38732,2,2,P|216:152|156:116,1,107.999996704102,2|0,0:0|0:0,0:0:0:0:
156,228,39160,1,0,0:0:0:0:
256,264,39303,1,2,0:0:0:0:
348,208,39446,1,0,0:0:0:0:
464,140,39589,6,0,B|467:299,1,135.000005149842,2|0,0:0|0:0,0:0:0:0:
356,272,40018,2,0,L|284:272,2,53.9999983520508,2|0|2,0:0|0:0|0:0,0:0:0:0:
264,328,40446,1,2,0:0:0:0:
352,188,40589,1,0,0:0:0:0:
352,188,40732,2,0,P|300:160|244:196,1,107.999996704102,6|0,0:0|0:0,0:0:0:0:
200,84,41160,2,0,P|132:88|96:128,1,107.999996704102,2|0,0:0|0:0,0:0:0:0:
72,216,41589,5,2,0:0:0:0:
180,196,41732,1,0,0:0:0:0:
284,232,41875,2,0,L|284:316,1,80.9999975280763,6|0,0:0|0:0,0:0:0:0:
364,344,42160,2,0,P|388:324|424:316,1,53.9999983520508,2|0,0:0|0:0,0:0:0:0:
456,180,42446,2,0,L|412:240,1,53.9999983520508,2|0,0:0|0:0,0:0:0:0:
236,152,42732,2,0,L|331:167,1,80.9999975280763,6|0,0:0|0:0,0:0:0:0:
416,80,43018,2,0,L|384:136,1,53.9999983520508,2|2,0:0|0:0,0:0:0:0:
348,216,43303,5,6,0:0:0:0:
280,132,43446,1,0,0:0:0:0:
192,196,43589,1,2,0:0:0:0:
100,128,43732,5,2,0:0:0:0:
80,144,43803,1,0,0:0:0:0:
68,168,43875,1,0,0:0:0:0:
64,196,43946,1,0,0:0:0:0:
72,228,44018,2,2,P|96:264|96:308,1,67.5000025749208
228,332,44303,1,0,0:0:0:0:
404,224,44446,6,0,P|408:256|400:292,1,67.5000025749208,2|0,0:0|0:0,0:0:0:0:
271,238,44732,2,0,P|263:206|271:146,1,67.5000025749208,0|2,0:0|0:0,0:0:0:0:
336,56,45018,1,0,0:0:0:0:
344,188,45160,1,2,0:0:0:0:
244,116,45303,2,0,L|276:116,3,22.5000008583069
416,128,45589,2,0,P|436:180|416:240,1,101.250003862381,2|0,0:0|0:0,0:0:0:0:
320,236,45875,2,0,P|308:260|320:304,1,67.5000025749208
372,196,46160,1,2,0:0:0:0:
256,164,46303,1,0,0:0:0:0:
136,180,46446,6,0,P|112:240|138:304,1,135.000005149842,6|0,0:0|0:0,0:0:0:0:
208,180,46875,1,2,0:0:0:0:
208,180,47018,2,0,L|212:108,1,67.5000025749208
304,68,47303,2,0,P|352:116|428:108,1,135.000005149842,2|0,0:0|0:0,0:0:0:0:
384,44,47732,1,0,0:0:0:0:
292,152,47875,6,0,P|288:188|293:219,1,67.5000025749208,2|0,0:0|0:0,0:0:0:0:
432,240,48160,2,0,P|442:271|438:305,1,67.5000025749208,2|0,0:0|0:0,0:0:0:0:
292,332,48446,2,0,L|204:332,1,67.5000025749208,2|0,0:0|0:0,0:0:0:0:
156,200,48732,2,0,P|204:152|284:156,1,135.000005149842,2|0,0:0|0:0,0:0:0:0:
380,244,49160,2,0,L|380:332,1,67.5000025749208,2|0,0:0|0:0,0:0:0:0:
268,264,49446,1,2,0:0:0:0:
172,336,49589,5,0,0:0:0:0:
148,216,49732,1,0,0:0:0:0:
24,172,49875,2,0,P|16:240|48:296,1,135.000005149842,2|2,0:0|0:0,0:0:0:0:
172,340,50303,2,0,L|172:273,1,67.5000025749208
172,152,50589,1,2,0:0:0:0:
272,320,50732,5,2,0:0:0:0:
272,320,50803,1,0,0:0:0:0:
272,320,50875,2,0,P|316:336|364:312,1,76.5000014591217,0|4,0:0|0:2,0:0:0:0:
392,192,51160,1,0,0:0:0:0:
432,316,51303,1,8,0:0:0:0:
484,224,51446,2,0,P|472:148|396:108,1,153.000002918243
284,252,51875,5,8,0:0:0:0:
408,210,52018,2,0,L|496:226,1,76.5000014591217
332,56,52303,1,0,0:0:0:0:
316,208,52446,1,8,0:0:0:0:
456,144,52589,1,0,0:0:0:0:
356,260,52732,5,0,0:0:0:0:
324,96,52875,1,8,0:0:0:0:
312,64,52946,1,0,0:0:0:0:
284,44,53018,1,8,0:0:0:0:
248,40,53089,1,0,0:0:0:0:
212,52,53160,2,0,L|212:156,1,80.9999975280763,4|8,0:0|0:0,0:0:0:0:
144,280,53446,2,0,B|144:180,1,80.9999975280763,0|8,0:0|0:0,0:0:0:0:
284,284,53732,2,0,P|364:308|436:280,1,161.999995056153,0|0,0:2|0:0,0:0:0:0:
472,124,54160,5,8,0:0:0:0:
472,124,54303,2,0,P|480:164|477:205,1,80.9999975280763
380,72,54589,1,0,0:0:0:0:
308,216,54732,2,0,P|268:232|208:220,1,80.9999975280763,8|0,0:0|0:0,0:0:0:0:
132,100,55018,1,0,0:0:0:0:
276,112,55160,1,0,0:0:0:0:
160,208,55303,1,8,0:0:0:0:
324,36,55446,6,0,P|356:108|328:192,1,161.999995056153,4|0,0:2|0:0,0:0:0:0:
196,220,55875,2,0,P|188:264|204:308,1,80.9999975280763,8|0,0:0|0:0,0:0:0:0:
336,340,56160,1,0,0:0:0:0:
416,216,56303,1,0,0:0:0:0:
296,132,56446,1,8,0:0:0:0:
280,276,56589,1,0,0:0:0:0:
379,171,56732,6,0,P|387:127|367:67,1,80.9999975280763
240,52,57018,1,8,0:0:0:0:
380,91,57160,1,0,0:0:0:0:
260,176,57303,6,0,P|252:212|264:264,1,80.9999975280763
396,204,57589,1,8,0:0:0:0:
308,88,57732,1,0,0:0:0:0:
176,152,57875,6,0,P|148:228|184:324,1,161.999995056153,4|8,0:2|0:0,0:0:0:0:
284,216,58303,2,0,P|348:204|392:228,1,80.9999975280763
452,324,58589,1,0,0:0:0:0:
328,284,58732,1,8,0:0:0:0:
428,156,58875,1,0,0:0:0:0:
248,240,59018,2,0,P|220:164|252:92,1,161.999995056153,4|8,0:2|0:0,0:0:0:0:
328,304,59446,2,0,B|248:376|156:288,1,161.999995056153
72,136,59875,5,8,0:0:0:0:
72,136,59946,1,0,0:0:0:0:
72,136,60018,2,0,L|72:240,1,80.9999975280763,0|4,0:0|0:2,0:0:0:0:
260,100,60303,2,0,P|300:76|352:84,1,80.9999975280763,0|8,0:0|0:0,0:0:0:0:
444,152,60589,1,0,0:0:0:0:
260,100,60732,1,0,0:0:0:0:
384,204,60875,1,0,0:0:0:0:
240,200,61018,6,0,P|220:284|260:352,1,161.999995056153,8|4,0:0|0:2,0:0:0:0:
384,288,61446,1,0,0:0:0:0:
420,148,61589,1,8,0:0:0:0:
296,68,61732,2,0,L|296:116|296:160,1,80.9999975280763
420,224,62018,1,0,0:0:0:0:
420,224,62089,1,0,0:0:0:0:
420,224,62160,2,8,P|420:272|412:320,1,80.9999975280763,12|8,0:0|0:0,0:0:0:0:
272,132,62446,6,0,B|312:92|372:104,1,80.9999975280763,8|0,0:0|0:0,0:0:0:0:
476,296,62732,2,0,L|472:215,1,80.9999975280763,8|0,0:0|0:0,0:0:0:0:
324,200,63018,1,0,0:0:0:0:
328,344,63160,1,0,0:0:0:0:
408,212,63303,1,8,0:0:0:0:
288,276,63446,1,0,0:0:0:0:
360,140,63589,5,0,0:0:0:0:
240,232,63732,1,0,0:0:0:0:
292,100,63875,1,8,0:0:0:0:
172,220,64018,1,0,0:0:0:0:
212,56,64160,5,0,0:0:0:0:
120,188,64303,1,0,0:0:0:0:
240,136,64446,1,8,0:0:0:0:
48,164,64589,1,0,0:0:0:0:
204,208,64732,2,0,P|248:280|200:376,1,161.999995056153,4|0,0:2|0:0,0:0:0:0:
380,268,65160,2,0,P|392:216|372:168,1,80.9999975280763,8|0,0:0|0:0,0:0:0:0:
228,92,65446,1,0,0:0:0:0:
228,92,65589,6,0,B|192:120|192:120|68:120,1,161.999995056153,8|4,0:0|0:2,0:0:0:0:
212,28,66018,2,0,P|280:20|308:28,1,80.9999975280763,0|8,0:0|0:0,0:0:0:0:
368,164,66303,2,0,P|320:184|264:172,1,80.9999975280763,0|8,0:0|0:0,0:0:0:0:
144,48,66589,1,0,0:0:0:0:
60,160,66732,5,8,0:0:0:0:
36,184,66803,1,0,0:0:0:0:
24,220,66875,1,0,0:0:0:0:
28,256,66946,1,0,0:0:0:0:
48,292,67018,2,0,P|124:284|200:328,1,161.999995056153,4|8,0:2|0:0,0:0:0:0:
288,160,67446,2,0,P|292:104|268:60,2,80.9999975280763
216,260,67875,1,8,0:0:0:0:
156,132,68018,1,0,0:0:0:0:
296,188,68160,6,0,P|332:256|276:332,1,161.999995056153,4|8,0:2|0:0,0:0:0:0:
360,148,68589,2,0,P|408:140|448:160,1,80.9999975280763,0|8,0:0|0:0,0:0:0:0:
460,320,68875,1,8,0:0:0:0:
328,212,69018,1,8,0:0:0:0:
288,184,69089,1,0,0:0:0:0:
244,184,69160,1,0,0:0:0:0:
204,212,69232,1,0,0:0:0:0:
168,244,69303,6,0,P|168:184|152:136,1,90,8|0,0:0|0:0,0:0:0:0:
344,160,69589,2,0,P|332:104|344:48,1,90,8|0,0:0|0:0,0:0:0:0:
88,284,69875,2,0,P|100:224|88:172,1,90,8|0,0:0|0:0,0:0:0:0:
416,264,70160,2,0,P|401:222|408:160,1,90,8|0,0:0|0:0,0:0:0:0:
448,80,70446,5,2,0:0:0:0:
304,204,70589,1,2,0:0:0:0:
332,60,70732,1,8,0:0:0:0:
192,188,70875,2,0,P|171:247|192:308,1,107.999996704102,10|10,0:0|0:0,0:0:0:0:
284,136,71303,1,0,0:0:0:0:
256,248,71446,1,10,0:0:0:0:
108,56,71589,1,6,0:0:0:0:
168,132,71875,6,0,P|132:188|168:272,2,135.000005149842,4|0|8,0:2|0:2|0:1,0:2:0:0:
271,179,72589,1,0,0:0:0:0:
271,179,72732,2,0,P|336:200|423:175,1,135.000005149842,4|0,0:2|0:0,0:0:0:0:
472,204,73160,2,0,P|484:252|452:348,1,135.000005149842,4|0,0:2|0:0,0:0:0:0:
384,248,73589,5,8,0:0:0:0:
288,312,73732,1,0,0:0:0:0:
236,208,73875,2,0,P|184:216|134:292,1,135.000005149842,4|0,0:2|0:0,0:0:0:0:
324,252,74303,2,0,P|348:188|304:120,1,135.000005149842,4|0,0:2|0:0,0:0:0:0:
324,252,74732,1,8,0:0:0:0:
468,60,75018,1,0,0:0:0:0:
432,204,75303,5,8,0:0:0:0:
348,124,75446,1,0,0:0:0:0:
348,124,75589,1,0,0:0:0:0:
276,216,75732,1,8,0:0:0:0:
208,124,75875,1,0,0:0:0:0:
152,224,76018,1,8,0:0:0:0:
152,224,76160,6,0,P|72:248|15:227,1,144,4|0,0:2|0:0,0:0:0:0:
148,104,76589,2,0,L|228:104,1,67.5000025749208,4|0,0:2|0:0,0:0:0:0:
288,192,76875,2,0,P|293:235|289:279,2,67.5000025749208,0|8|0,0:2|0:0|0:0,0:0:0:0:
172,188,77303,2,0,L|174:288,1,67.5000025749208,4|0,0:2|0:0,0:0:0:0:
176,320,77589,1,0,0:0:0:0:
176,104,77732,6,0,P|104:120|80:176,1,135.000005149842,4|0,0:2|0:0,0:0:0:0:
124,280,78160,1,8,0:0:0:0:
204,196,78303,1,0,0:0:0:0:
280,284,78446,2,0,L|280:208,1,67.5000025749208,4|0,0:2|0:0,0:0:0:0:
344,120,78732,1,0,0:0:0:0:
401,200,78875,6,0,P|343:232|280:216,1,135.000005149842,4|0,0:2|0:0,0:0:0:0:
180,276,79303,2,0,L|180:356,1,67.5000025749208,8|0,0:0|0:0,0:0:0:0:
80,212,79589,1,4,0:2:0:0:
268,84,79875,5,8,0:0:0:0:
368,144,80018,1,8,0:0:0:0:
368,144,80160,1,0,0:0:0:0:
284,224,80303,1,0,0:0:0:0:
392,256,80446,1,8,0:0:0:0:
320,344,80589,1,0,0:0:0:0:
432,320,80732,6,0,P|460:256|428:188,1,135.000005149842,4|0,0:0|0:0,0:0:0:0:
340,188,81160,1,0,0:0:0:0:
340,188,81303,2,0,L|272:216,2,67.5000025749208,8|0|0,0:0|0:0|0:0,0:0:0:0:
412,160,81732,1,0,0:2:0:0:
216,160,81875,6,0,P|186:218|211:278,1,135.000005149842,8|0,0:0|0:0,0:0:0:0:
324,128,82303,2,0,L|324:56,1,67.5000025749208,8|0,0:0|0:0,0:0:0:0:
112,88,82589,2,0,L|178:88,1,67.5000025749208,0|8,0:0|0:0,0:0:0:0:
320,216,82875,1,0,0:0:0:0:
319,215,83018,6,0,P|348:264|296:332,1,135.000005149842,8|0,0:0|0:0,0:0:0:0:
216,160,83446,1,0,0:0:0:0:
368,72,83589,2,0,P|420:124|416:188,1,135.000005149842,8|0,0:0|0:0,0:0:0:0:
204,268,84018,1,0,0:0:0:0:
204,268,84160,6,0,B|244:200|244:200|224:116,1,135.000005149842,8|0,0:0|0:0,0:0:0:0:
120,88,84589,1,2,0:0:0:0:
256,68,84732,5,10,0:0:0:0:
148,192,84875,1,2,0:0:0:0:
196,24,85018,1,10,0:0:0:0:
32,112,85160,1,0,0:0:0:0:
255,81,85303,1,8,0:0:0:0:
120,244,85446,1,0,0:0:0:0:
268,16,85589,1,0,0:0:0:0:
352,180,85732,2,0,P|384:260|352:340,1,161.999995056153,10|0,0:0|0:0,0:0:0:0:
280,256,86018,2,0,B|228:288|228:288|196:352,1,107.999996704102,2|8,0:0|0:0,0:0:0:0:
176,192,86303,1,0,0:0:0:0:
312,352,86446,5,10,0:0:0:0:
428,164,86589,1,2,0:0:0:0:
224,40,86732,5,4,0:2:0:0:
136,136,87446,6,0,B|136:200|136:200|124:236|124:236|124:336,1,180,6|0,0:2|0:0,0:0:0:0:
84,84,87875,2,0,P|136:60|188:84,1,90,10|0,0:0|0:0,0:0:0:0:
296,164,88160,1,0,0:0:0:0:
136,136,88303,1,2,0:0:0:0:
204,284,88446,1,8,0:0:0:0:
360,236,88589,1,2,0:0:0:0:
360,236,88660,1,0,0:0:0:0:
360,236,88732,2,0,P|369:279|363:324,1,90,0|2,0:0|0:0,0:0:0:0:
224,204,89018,6,0,P|215:159|224:116,1,90,10|0,0:0|0:0,0:0:0:0:
470,168,89303,2,0,B|428:160|428:160|384:188,1,90,2|0,0:0|0:0,0:0:0:0:
362,324,89589,1,10,0:0:0:0:
296,176,89732,1,0,0:0:0:0:
200,308,89875,2,0,P|156:232|176:136,1,180,6|8,0:2|0:0,0:0:0:0:
336,176,90303,2,0,B|336:108|336:108|316:72,1,90,2|0,0:0|0:0,0:0:0:0:
244,28,90589,1,2,0:0:0:0:
260,224,90732,6,0,P|339:258|411:210,1,180,8|0,0:0|0:0,0:0:0:0:
284,136,91160,1,2,0:0:0:0:
156,288,91303,2,0,L|180:388,1,90,10|0,0:0|0:0,0:0:0:0:
396,152,91589,2,0,L|384:52,1,90,2|0,0:0|0:0,0:0:0:0:
280,248,91875,1,10,0:0:0:0:
244,276,91946,1,0,0:0:0:0:
196,268,92018,1,0,0:0:0:0:
160,252,92089,1,0,0:0:0:0:
120,232,92160,6,0,B|136:288|116:344,1,90,6|0,0:2|0:0,0:0:0:0:
64,108,92446,2,0,P|112:88|172:100,1,90,8|2,0:0|0:0,0:0:0:0:
264,220,92732,1,0,0:0:0:0:
120,152,92875,1,2,0:0:0:0:
268,68,93018,1,8,0:0:0:0:
164,236,93160,2,0,P|122:249|80:235,2,90,2|0|0,0:0|0:0|0:0,0:0:0:0:
272,100,93589,5,10,0:0:0:0:
124,180,93732,1,0,0:0:0:0:
304,208,93875,1,2,0:0:0:0:
200,72,94018,1,0,0:0:0:0:
216,264,94160,2,0,P|247:297|380:280,1,180,4|0,0:2|0:0,0:0:0:0:
456,336,94589,2,0,L|467:246,1,90,2|8,0:0|0:0,0:0:0:0:
368,96,94875,1,2,0:0:0:0:
368,96,94946,1,0,0:0:0:0:
368,96,95018,2,0,P|348:144|368:200,1,90,4|0,0:2|0:0,0:0:0:0:
388,348,95303,5,8,0:0:0:0:
440,184,95446,1,2,0:0:0:0:
276,116,95589,2,0,P|260:180|280:252,1,135,8|0,0:0|0:0,0:0:0:0:
356,288,95875,2,0,B|314:268|314:268|274:285,1,90,10|0,0:0|0:0,0:0:0:0:
112,336,96160,1,8,0:0:0:0:
216,200,96303,1,10,0:0:0:0:
144,56,96446,5,8,0:0:0:0:
116,60,96518,1,0,0:0:0:0:
92,76,96589,1,0,0:0:0:0:
80,96,96660,1,0,0:0:0:0:
76,124,96732,2,0,P|88:188|80:224,1,90,4|0,0:0|0:0,0:0:0:0:
160,340,97018,2,0,L|260:368,2,90,10|0|0,0:0|0:0|0:0,0:0:0:0:
60,208,97446,1,0,0:0:0:0:
160,340,97589,5,10,0:0:0:0:
248,232,97732,2,0,P|264:168|246:110,1,90,0|2,0:0|0:0,0:0:0:0:
80,44,98018,1,0,0:0:0:0:
124,208,98160,1,8,0:0:0:0:
208,60,98303,1,2,0:0:0:0:
60,144,98446,5,0,0:0:0:0:
236,148,98589,1,0,0:0:0:0:
76,236,98732,1,10,0:0:0:0:
208,60,98875,1,0,0:0:0:0:
184,240,99018,6,0,P|272:300|332:248,1,180,6|10,0:2|0:0,0:0:0:0:
304,112,99446,2,0,L|256:212,1,90
184,304,99732,1,10,0:0:0:0:
184,304,99803,1,0,0:0:0:0:
184,304,99875,1,8,0:0:0:0:
208,136,100018,1,2,0:0:0:0:
208,136,100160,6,0,P|128:148|64:88,1,135,8|0,0:0|0:0,0:0:0:0:
56,144,100446,2,0,L|60:272,1,90,10|0,0:0|0:0,0:0:0:0:
180,208,100732,2,0,P|248:236|296:216,1,90,10|8,0:0|0:0,0:0:0:0:
348,316,100946,2,8,L|296:268,1,45,10|8,0:0|0:0,0:0:0:0:
272,156,101160,1,10,0:0:0:0:
348,76,101303,2,0,P|428:84|448:156,1,135,4|0,0:2|0:0,0:0:0:0:
464,324,101589,2,0,L|464:234,1,90,10|0,0:0|0:0,0:0:0:0:
468,104,101875,5,8,0:0:0:0:
356,200,102018,1,10,0:0:0:0:
344,80,102160,1,8,0:0:0:0:
464,234,102303,1,10,0:0:0:0:
240,88,102446,2,0,P|179:135|191:203,1,107.999996704102,4|0,0:2|0:0,0:0:0:0:
323,305,102732,2,0,L|320:216,1,90,10|0,0:0|0:0,0:0:0:0:
240,88,103018,5,8,0:0:0:0:
164,216,103160,1,10,0:0:0:0:
316,144,103303,1,8,0:0:0:0:
112,144,103446,1,10,0:0:0:0:
396,116,103589,2,0,P|360:72|304:68,1,107.999996704102,4|0,0:2|0:0,0:0:0:0:
264,232,103875,2,0,L|264:332,1,90,10|0,0:0|0:0,0:0:0:0:
316,144,104160,6,8,P|270:120|222:136,1,90,10|0,0:0|0:0,0:0:0:0:
136,284,104446,1,10,0:0:0:0:
280,224,104589,1,8,0:0:0:0:
144,140,104732,1,8,0:0:0:0:
224,344,104875,1,0,0:0:0:0:
92,220,105018,1,10,0:0:0:0:
288,232,105160,1,0,0:0:0:0:
204,80,105303,5,10,0:0:0:0:
156,84,105375,1,8,0:0:0:0:
116,116,105446,1,8,0:0:0:0:
100,160,105518,1,8,0:0:0:0:
116,208,105589,1,8,0:0:0:0:
144,248,105660,1,0,0:0:0:0:
156,296,105732,1,8,0:0:0:0:
132,344,105803,1,0,0:0:0:0:
88,360,105875,6,0,B|84:304|84:304|36:252|36:252|36:156,1,180,6|8,0:2|0:0,0:0:0:0:
172,84,106303,2,0,B|196:124|196:124|188:172,2,90
224,236,106732,1,10,0:0:0:0:
340,72,106875,1,0,0:0:0:0:
340,72,106946,1,0,0:0:0:0:
340,72,107018,2,0,P|388:60|444:92,1,90,2|0,0:0|0:0,0:0:0:0:
284,264,107303,6,0,P|244:256|220:184,1,90,8|0,0:0|0:0,0:0:0:0:
352,200,107589,2,0,P|372:248|364:296,1,90,2|0,0:0|0:0,0:0:0:0:
204,340,107875,1,8,0:0:0:0:
280,192,108018,1,0,0:0:0:0:
100,204,108160,6,0,P|60:296|108:364,1,180,6|8,0:2|0:0,0:0:0:0:
276,236,108589,2,0,P|236:220|180:248,1,90
396,328,108875,1,2,0:0:0:0:
396,328,108946,1,0,0:0:0:0:
396,328,109018,2,0,L|412:228,1,90,8|2,0:0|0:0,0:0:0:0:
444,64,109303,1,0,0:0:0:0:
336,208,109446,1,2,0:0:0:0:
356,92,109589,1,8,0:0:0:0:
248,236,109732,1,0,0:0:0:0:
400,172,109875,5,10,0:0:0:0:
188,176,110018,2,0,P|163:223|171:271,1,99.0000030212403,2|8,0:0|0:0,0:0:0:0:
388,104,110303,1,0,0:0:0:0:
388,104,110375,1,0,0:0:0:0:
388,104,110446,2,0,B|388:176|344:192|344:192|360:224|360:224|328:268,1,148.50000453186,4|0,0:2|0:0,0:0:0:0:
248,344,110732,6,0,P|232:300|176:272,1,99.0000030212403,10|0,0:0|0:0,0:0:0:0:
96,128,111018,1,8,0:0:0:0:
112,116,111089,1,0,0:0:0:0:
132,112,111160,2,0,B|192:120|192:120|240:64,1,99.0000030212403,8|0,0:0|0:0,0:0:0:0:
392,48,111446,1,8,0:0:0:0:
392,48,111518,1,0,0:0:0:0:
392,48,111589,2,0,P|400:104|388:160,1,99.0000030212403,6|0,0:2|0:0,0:0:0:0:
276,308,111875,5,10,0:0:0:0:
160,148,112018,2,0,P|224:84|316:120,1,198.000006042481,8|0,0:0|0:0,0:0:0:0:
372,308,112446,1,10,0:0:0:0:
452,128,112589,1,0,0:0:0:0:
314,118,112732,2,0,P|272:200|328:320,1,198.000006042481,6|0,0:2|0:0,0:0:0:0:
392,92,113160,2,0,P|316:40|232:92,1,198.000006042481,10|0,0:0|0:0,0:0:0:0:
128,256,113589,5,10,0:0:0:0:
300,156,113732,1,0,0:0:0:0:
300,156,113803,1,0,0:0:0:0:
300,156,113875,1,10,0:0:0:0:
204,304,114018,1,2,0:0:0:0:
120,140,114160,1,8,0:0:0:0:
304,220,114303,2,0,L|304:344,1,99.0000030212403,0|8,0:0|0:0,0:0:0:0:
96,272,114589,1,10,0:0:0:0:
60,260,114660,1,0,0:0:0:0:
32,228,114732,1,10,0:0:0:0:
24,180,114803,1,0,0:0:0:0:
36,128,114875,1,0,0:0:0:0:
60,88,114946,1,0,0:0:0:0:
104,64,115018,6,0,B|104:132|104:132|132:152|132:152|132:248,1,180,6|8,0:2|0:0,0:0:0:0:
44,348,115446,2,0,L|148:348,1,90,2|0,0:0|0:0,0:0:0:0:
296,304,115732,1,2,0:0:0:0:
240,140,115875,1,8,0:0:0:0:
200,244,116018,1,0,0:0:0:0:
360,136,116160,1,2,0:0:0:0:
276,56,116303,1,0,0:0:0:0:
180,96,116446,6,0,P|172:156|196:208,1,90,10|0,0:0|0:0,0:0:0:0:
292,272,116732,1,0,0:0:0:0:
370,170,116875,1,2,0:0:0:0:
480,148,117018,2,0,L|480:252,1,90,8|0,0:0|0:0,0:0:0:0:
452,36,117303,2,0,P|388:72|372:176,1,180,6|8,0:2|0:0,0:0:0:0:
212,236,117732,1,2,0:0:0:0:
212,236,117803,1,0,0:0:0:0:
212,236,117875,2,0,L|212:360,1,90,0|2,0:0|0:0,0:0:0:0:
312,260,118160,1,8,0:0:0:0:
128,184,118303,1,0,0:0:0:0:
288,64,118446,6,0,P|368:68|412:168,1,180,2|8,0:0|0:0,0:0:0:0:
288,196,118875,6,0,P|280:248|296:324,1,90,2|0,0:0|0:0,0:0:0:0:
500,204,119160,2,0,P|504:156|488:92,1,90,2|8,0:0|0:0,0:0:0:0:
368,300,119446,1,0,0:0:0:0:
368,300,119518,1,0,0:0:0:0:
368,300,119589,2,0,P|292:352|188:308,1,180,6|0,0:2|0:0,0:0:0:0:
40,264,120018,1,10,0:0:0:0:
56,252,120089,1,0,0:0:0:0:
80,240,120160,2,0,L|120:328,1,90,0|2,0:0|0:0,0:0:0:0:
224,232,120446,2,0,P|252:172|296:144,1,90,8|0,0:0|0:0,0:0:0:0:
468,140,120732,6,0,P|463:95|436:56,1,90,6|0,0:2|0:0,0:0:0:0:
344,212,120946,1,0,0:0:0:0:
344,212,121018,2,0,L|344:268|344:316,1,90,10|0,0:0|0:0,0:0:0:0:
136,236,121303,1,10,0:0:0:0:
108,200,121375,1,8,0:0:0:0:
96,156,121446,1,8,0:0:0:0:
104,112,121518,1,8,0:0:0:0:
136,76,121589,2,0,L|212:76,1,45,8|0,0:0|0:0,0:0:0:0:
288,176,121732,2,0,L|228:136,1,45,8|0,0:0|0:0,0:0:0:0:
80,44,121875,1,4,0:2:0:0:
172,272,122160,5,8,0:0:0:0:
360,96,122446,1,10,0:0:0:0:
104,168,122732,1,8,0:0:0:0:
240,124,123018,5,10,0:0:0:0:
148,224,123160,1,0,0:0:0:0:
232,220,123303,1,6,0:0:0:0:
108,112,123446,1,2,0:0:0:0:
192,304,123589,5,8,0:0:0:0:
248,88,123732,1,0,0:0:0:0:
112,252,123875,1,2,0:0:0:0:
80,104,124018,1,0,0:0:0:0:
204,152,124160,6,0,L|288:168,1,67.5000025749208,2|0,0:0|0:0,0:0:0:0:
188,244,124446,2,0,L|104:288,1,67.5000025749208
232,336,124732,2,0,P|265:336|298:329,2,67.5000025749208
128,275,125160,1,0,0:0:0:0:
236,196,125303,2,0,L|284:136,1,67.5000025749208,2|0,0:0|0:0,0:0:0:0:
312,272,125589,2,0,L|376:336,1,67.5000025749208
444,200,125875,2,0,L|444:124,2,67.5000025749208
448,296,126303,5,0,0:0:0:0:
316,340,126446,2,0,P|276:352|228:340,1,67.5000025749208,2|0,0:0|0:0,0:0:0:0:
188,224,126732,2,0,P|224:216|268:228,1,67.5000025749208
372,168,127018,2,0,P|374:134|371:100,2,67.5000025749208
356,240,127446,1,0,0:0:0:0:
220,224,127589,2,0,L|188:296,1,67.5000025749208,2|0,0:0|0:0,0:0:0:0:
280,104,127875,2,0,L|320:180,1,67.5000025749208
200,44,128160,2,0,L|163:101,2,67.5000025749208
308,32,128589,1,0,0:0:0:0:
384,128,128732,5,2,0:0:0:0:
312,224,128875,1,0,0:0:0:0:
460,164,129018,1,8,0:0:0:0:
248,196,129160,2,0,L|260:262,1,67.5000025749208,0|8,0:0|0:0,0:0:0:0:
200,108,129446,2,0,L|224:28,2,67.5000025749208,0|8|0,0:0|0:0|0:0,0:0:0:0:
168,236,129875,5,2,0:0:0:0:
264,120,130018,1,2,0:0:0:0:
96,244,130160,2,0,L|108:320,1,67.5000025749208,8|0,0:0|0:0,0:0:0:0:
264,336,130446,2,0,L|352:336,2,67.5000025749208,8|0|8,0:0|0:0|0:0,0:0:0:0:
168,336,130875,1,0,0:0:0:0:
272,264,131018,5,2,0:0:0:0:
124,192,131160,2,0,L|128:104,1,67.5000025749208,2|10,0:0|0:0,0:0:0:0:
248,64,131446,2,0,L|328:64,2,67.5000025749208,0|10|2,0:0|0:0|0:0,0:0:0:0:
224,204,131875,2,0,L|224:300,1,67.5000025749208
116,344,132160,1,10,0:0:0:0:
64,252,132303,1,10,0:0:0:0:
172,248,132446,1,10,0:0:0:0:
128,136,132589,1,0,0:0:0:0:
264,264,132732,5,2,0:0:0:0:
52,155,132875,1,2,0:0:0:0:
216,80,133018,1,2,0:0:0:0:
116,264,133160,1,0,0:0:0:0:
264,180,133303,2,0,P|304:260|276:336,1,161.999995056153,0|8,0:0|0:0,0:0:0:0:
408,132,133732,2,0,B|399:162|399:162|411:210,1,80.9999975280763
440,340,134018,1,0,0:0:0:0:
480,176,134160,1,8,0:0:0:0:
332,168,134303,1,0,0:0:0:0:
336,172,134375,1,0,0:0:0:0:
336,172,134446,6,0,L|344:272,1,80.9999975280763
224,152,134732,2,0,P|208:108|236:52,1,80.9999975280763,8|0,0:0|0:0,0:0:0:0:
408,148,135018,2,0,L|492:104,1,80.9999975280763
308,40,135303,1,8,0:0:0:0:
288,196,135446,2,0,P|220:224|140:180,1,161.999995056153,4|0,0:2|0:0,0:0:0:0:
48,68,135875,6,0,L|35:147,1,80.9999975280763,8|0,0:0|0:0,0:0:0:0:
96,268,136160,1,0,0:0:0:0:
220,68,136303,1,0,0:0:0:0:
220,68,136375,1,0,0:0:0:0:
220,68,136446,2,0,L|220:152,1,80.9999975280763,8|0,0:0|0:0,0:0:0:0:
276,264,136732,1,0,0:0:0:0:
392,128,136875,1,0,0:0:0:0:
220,68,137018,2,0,P|176:72|128:56,1,80.9999975280763,8|0,0:0|0:0,0:0:0:0:
48,40,137303,1,0,0:0:0:0:
224,136,137446,1,0,0:0:0:0:
224,136,137518,1,0,0:0:0:0:
224,136,137589,1,8,0:0:0:0:
44,208,137732,1,0,0:0:0:0:
232,160,137875,6,0,P|276:224|256:316,1,161.999995056153,4|8,0:2|0:0,0:0:0:0:
152,132,138303,2,0,L|180:52,2,80.9999975280763
104,256,138732,1,8,0:0:0:0:
72,128,138875,1,0,0:0:0:0:
220,196,139018,6,0,B|219:236|219:236|204:280|204:280|204:360,1,161.999995056153,4|8,0:2|0:0,0:0:0:0:
144,132,139446,2,0,P|218:103|292:132,1,161.999995056153
408,292,139875,2,0,L|408:204,1,80.9999975280763,8|0,0:0|0:0,0:0:0:0:
344,48,140160,5,4,0:2:0:0:
464,104,140303,1,0,0:0:0:0:
356,128,140446,1,8,0:0:0:0:
428,40,140589,1,0,0:0:0:0:
436,188,140732,2,0,L|432:296,1,80.9999975280763
272,92,141018,6,0,P|240:148|276:252,1,161.999995056153,8|4,0:0|0:2,0:0:0:0:
408,336,141446,2,0,L|324:336,1,80.9999975280763,0|8,0:0|0:0,0:0:0:0:
208,304,141732,1,0,0:0:0:0:
328,168,141875,1,8,0:0:0:0:
153,122,142018,1,0,0:0:0:0:
153,122,142089,1,0,0:0:0:0:
153,122,142160,2,0,L|153:214,1,80.9999975280763,8|0,0:0|0:0,0:0:0:0:
196,44,142446,6,0,P|155:32|107:44,1,80.9999975280763,4|0,0:2|0:0,0:0:0:0:
28,196,142732,1,8,0:0:0:0:
196,168,142875,1,0,0:0:0:0:
28,108,143018,1,0,0:0:0:0:
136,232,143160,1,0,0:0:0:0:
92,52,143303,1,8,0:0:0:0:
32,192,143446,1,0,0:0:0:0:
184,80,143589,5,0,0:0:0:0:
136,204,143732,1,0,0:0:0:0:
276,112,143875,1,8,0:0:0:0:
224,240,144018,1,0,0:0:0:0:
360,180,144160,1,0,0:0:0:0:
204,120,144303,1,0,0:0:0:0:
288,220,144446,5,8,0:0:0:0:
204,120,144589,1,0,0:0:0:0:
360,180,144732,2,0,B|360:244|360:244|340:272|340:272|340:348,1,161.999995056153,4|8,0:2|0:0,0:0:0:0:
335,107,145160,2,0,P|379:98|412:113,1,80.9999975280763
436,264,145446,1,0,0:0:0:0:
271,179,145589,2,0,P|243:116|275:23,1,161.999995056153,4|0,0:2|0:0,0:0:0:0:
380,208,146018,2,0,L|456:257,1,80.9999975280763,0|8,0:0|0:0,0:0:0:0:
168,128,146303,2,0,L|134:20,1,80.9999975280763,0|8,0:0|0:0,0:0:0:0:
48,192,146589,1,0,0:0:0:0:
185,322,146732,5,8,0:0:0:0:
229,326,146803,1,0,0:0:0:0:
270,309,146875,1,0,0:0:0:0:
297,274,146946,1,0,0:0:0:0:
332,246,147018,2,0,P|396:224|480:284,1,161.999995056153,4|8,0:2|0:0,0:0:0:0:
248,296,147446,2,0,P|236:244|244:192,1,80.9999975280763
320,92,147732,1,0,0:0:0:0:
332,246,147875,1,8,0:0:0:0:
240,112,148018,1,0,0:0:0:0:
392,72,148160,6,0,P|436:144|396:204,1,161.999995056153,4|0,0:2|0:0,0:0:0:0:
252,224,148589,1,0,0:0:0:0:
340,140,148732,1,8,0:0:0:0:
388,280,148875,1,0,0:0:0:0:
464,97,149018,1,8,0:0:0:0:
429,69,149089,1,0,0:0:0:0:
386,59,149160,1,0,0:0:0:0:
340,78,149232,1,0,0:0:0:0:
310,109,149303,6,0,P|288:152|231:166,1,80.9999975280763,4|0,0:2|0:0,0:0:0:0:
28,90,149589,2,8,P|55:65|116:66,1,80.9999975280763,8|0,0:0|0:0,0:0:0:0:
251,275,149875,1,8,0:0:0:0:
251,275,150018,1,0,0:0:0:0:
393,59,150160,2,0,L|460:147,1,80.9999975280763,8|0,0:0|0:0,0:0:0:0:
424,228,150446,5,4,0:2:0:0:
323,89,150589,1,0,0:0:0:0:
326,272,150732,1,4,0:2:0:0:
191,202,150875,2,0,P|171:280|194:359,1,161.999995056153,8|8,0:0|0:0,0:0:0:0:
257,144,151303,1,0,0:0:0:0:
105,232,151446,1,8,0:0:0:0:
241,46,151589,1,4,0:0:0:0:
400,200,151875,6,0,P|384:260|404:340,2,135.000005149842,4|0|8,0:2|0:0|0:0,0:0:0:0:
472,172,152589,1,0,0:0:0:0:
320,288,152732,2,0,P|255:285|220:220,1,135.000005149842,4|0,0:2|0:0,0:0:0:0:
208,120,153160,2,0,P|144:148|140:236,1,135.000005149842,4|0,0:2|0:0,0:0:0:0:
148,308,153589,5,8,0:0:0:0:
212,200,153732,1,0,0:0:0:0:
272,288,153875,2,0,B|328:288|328:288|356:304|356:304|432:304,1,135.000005149842,4|0,0:2|0:0,0:0:0:0:
272,156,154303,2,0,P|216:124|144:156,1,135.000005149842,4|0,0:2|0:0,0:0:0:0:
153,145,154732,1,8,0:0:0:0:
216,280,155018,1,0,0:0:0:0:
372,216,155303,5,8,0:0:0:0:
272,148,155446,1,8,0:0:0:0:
256,136,155589,1,0,0:0:0:0:
384,88,155732,1,8,0:0:0:0:
308,192,155875,1,0,0:0:0:0:
224,116,156018,1,8,0:0:0:0:
204,104,156160,6,0,P|176:168|204:248,1,135.000005149842,4|0,0:2|0:0,0:0:0:0:
304,260,156589,2,0,L|304:328,1,67.5000025749208,4|0,0:2|0:0,0:0:0:0:
396,240,156875,2,0,L|396:168,1,67.5000025749208,0|8,0:0|0:0,0:0:0:0:
396,96,157160,1,0,0:0:0:0:
308,192,157303,2,0,P|270:199|232:192,1,67.5000025749208,4|0,0:2|0:0,0:0:0:0:
176,132,157589,1,0,0:0:0:0:
352,112,157732,2,0,P|394:181|380:252,1,135.000005149842,6|0,0:2|0:0,0:0:0:0:
324,312,158160,2,0,P|284:320|248:312,1,67.5000025749208,10|0,0:0|0:0,0:0:0:0:
172,288,158446,1,6,0:2:0:0:
252,224,158589,1,0,0:0:0:0:
172,164,158732,1,0,0:0:0:0:
272,136,158875,6,0,P|328:172|340:240,1,135.000005149842,6|0,0:2|0:0,0:0:0:0:
236,332,159303,2,0,L|236:248,1,67.5000025749208,10|0,0:0|0:0,0:0:0:0:
236,264,159589,1,0,0:0:0:0:
124,88,159875,5,8,0:0:0:0:
196,152,160018,1,8,0:0:0:0:
76,168,160160,1,0,0:0:0:0:
196,152,160303,1,0,0:0:0:0:
92,248,160446,1,8,0:0:0:0:
196,152,160589,1,0,0:0:0:0:
192,304,160732,6,0,P|264:336|324:304,1,135.000005149842,4|0,0:2|0:0,0:0:0:0:
260,172,161160,2,0,P|252:208|260:252,1,67.5000025749208,0|8,0:0|0:0,0:0:0:0:
420,336,161446,2,0,P|424:296|408:248,1,67.5000025749208
336,212,161732,1,0,0:0:0:0:
480,248,161875,2,0,P|488:200|484:160,1,67.5000025749208,4|0,0:2|0:0,0:0:0:0:
432,88,162160,1,0,0:0:0:0:
348,120,162303,2,0,P|336:88|352:40,1,67.5000025749208,4|8,0:2|0:0,0:0:0:0:
408,192,162589,2,0,L|360:240,1,67.5000025749208
224,128,162875,1,0,0:0:0:0:
224,128,163018,6,0,P|158:131|112:179,1,135.000005149842,4|8,0:2|0:0,0:0:0:0:
224,268,163446,1,0,0:0:0:0:
224,268,163589,2,0,P|276:292|352:268,1,135.000005149842,8|0,0:0|0:0,0:0:0:0:
420,160,164018,1,0,0:0:0:0:
316,103,164160,6,0,P|315:137|315:171,1,67.5000025749208,4|0,0:2|0:0,0:0:0:0:
320,264,164446,1,0,0:0:0:0:
192,100,164589,1,0,0:0:0:0:
272,144,164732,1,10,0:0:0:0:
160,192,164875,1,0,0:0:0:0:
264,56,165018,1,2,0:0:0:0:
212,248,165160,1,0,0:0:0:0:
360,108,165303,5,6,0:2:0:0:
288,288,165446,1,8,0:0:0:0:
196,108,165589,1,0,0:0:0:0:
122,279,165732,2,0,P|67:223|68:144,1,161.999995056153,10|0,0:0|0:0,0:0:0:0:
208,256,166018,2,0,L|208:372,1,107.999996704102,10|0,0:0|0:0,0:0:0:0:
152,168,166303,1,0,0:0:0:0:
292,320,166446,1,10,0:0:0:0:
376,88,166589,1,2,0:0:0:0:
292,320,166732,1,6,0:2:0:0:
320,112,167446,6,0,P|360:192|328:284,1,180,6|0,0:2|0:0,0:0:0:0:
216,128,167875,2,0,P|184:120|104:140,1,90,10|0,0:0|0:0,0:0:0:0:
52,300,168160,1,0,0:0:0:0:
172,196,168303,1,2,0:0:0:0:
16,208,168446,1,8,0:0:0:0:
216,268,168589,1,2,0:0:0:0:
216,268,168660,1,0,0:0:0:0:
216,268,168732,2,0,L|224:376,1,90,0|2,0:0|0:0,0:0:0:0:
96,192,169018,6,0,P|112:148|172:124,1,90,10|0,0:0|0:0,0:0:0:0:
288,240,169303,2,0,P|340:256|392:224,1,90,2|0,0:0|0:0,0:0:0:0:
388,92,169589,1,10,0:0:0:0:
288,240,169732,1,8,0:0:0:0:
140,176,169875,2,0,P|112:256|180:344,1,180,6|8,0:2|0:0,0:0:0:0:
260,224,170303,2,0,L|260:134,1,90,2|0,0:0|0:0,0:0:0:0:
344,76,170589,1,0,0:0:0:0:
344,264,170732,6,0,P|248:292|176:260,1,180,10|0,0:0|0:0,0:0:0:0:
338,130,171160,1,0,0:0:0:0:
440,280,171303,2,0,P|450:323|451:368,1,90,10|0,0:0|0:0,0:0:0:0:
280,184,171589,2,0,P|260:136|268:84,1,90,10|0,0:0|0:0,0:0:0:0:
332,328,171875,1,10,0:0:0:0:
296,312,171946,1,0,0:0:0:0:
256,312,172018,1,0,0:0:0:0:
216,332,172089,1,0,0:0:0:0:
184,348,172160,6,0,B|164:308|164:308|168:244,1,90,6|0,0:2|0:0,0:0:0:0:
260,76,172446,1,8,0:0:0:0:
284,268,172589,1,2,0:0:0:0:
164,136,172732,1,0,0:0:0:0:
352,200,172875,1,2,0:0:0:0:
156,232,173018,2,0,P|92:196|76:152,1,90,8|2,0:0|0:0,0:0:0:0:
268,216,173303,6,0,P|272:260|244:316,1,90,2|0,0:0|0:0,0:0:0:0:
136,92,173589,2,0,L|256:64,1,90,10|0,0:0|0:0,0:0:0:0:
296,144,173803,1,0,0:0:0:0:
296,160,173875,6,0,B|280:220|280:220|304:276,1,90,10|2,0:0|0:0,0:0:0:0:
440,344,174160,2,0,P|472:272|456:204,1,135,6|0,0:2|0:0,0:0:0:0:
464,128,174446,2,0,P|409:119|376:68,1,90,0|2,0:0|0:0,0:0:0:0:
284,44,174732,1,8,0:0:0:0:
380,216,174875,1,2,0:0:0:0:
384,220,174946,1,0,0:0:0:0:
384,220,175018,2,0,L|384:324,1,90,4|2,0:2|0:0,0:0:0:0:
280,348,175303,5,8,0:0:0:0:
176,264,175446,1,0,0:0:0:0:
268,80,175589,2,0,P|292:160|272:212,1,135,6|0,0:2|0:0,0:0:0:0:
176,264,175875,2,0,B|224:252|224:252|280:264,1,90,10|0,0:0|0:0,0:0:0:0:
468,328,176160,2,0,B|412:352|412:352|352:344,1,90,4|0,0:2|0:0,0:0:0:0:
324,176,176446,1,10,0:0:0:0:
304,148,176518,1,0,0:0:0:0:
272,124,176589,1,2,0:0:0:0:
232,120,176660,1,0,0:0:0:0:
200,136,176732,2,0,P|172:180|172:232,1,90,4|0,0:0|0:0,0:0:0:0:
300,332,177018,6,0,B|260:304|260:304|204:300,1,90,10|0,0:0|0:0,0:0:0:0:
72,200,177303,1,0,0:0:0:0:
252,196,177446,1,0,0:0:0:0:
104,296,177589,1,10,0:0:0:0:
148,120,177732,1,0,0:0:0:0:
320,268,177875,2,0,P|339:204|320:156,1,90,2|0,0:0|0:0,0:0:0:0:
221,283,178160,2,0,L|280:352,1,90,8|0,0:0|0:0,0:0:0:0:
388,336,178446,1,2,0:0:0:0:
488,264,178589,1,0,0:0:0:0:
416,108,178732,1,8,0:0:0:0:
488,264,178875,1,0,0:0:0:0:
328,144,179018,6,0,P|292:216|340:312,1,180,6|8,0:2|0:0,0:0:0:0:
456,155,179446,1,2,0:0:0:0:
456,155,179518,1,0,0:0:0:0:
456,155,179589,2,0,P|448:108|464:64,1,90,0|2,0:0|0:0,0:0:0:0:
444,248,179875,1,10,0:0:0:0:
328,144,180018,1,0,0:0:0:0:
196,264,180160,6,0,B|196:212|196:212|212:172|212:172|212:104,1,135,6|0,0:2|0:0,0:0:0:0:
128,88,180446,2,0,P|180:80|216:36,1,90,8|10,0:0|0:0,0:0:0:0:
384,32,180732,2,0,P|412:96|400:148,1,90
301,242,181018,2,0,L|309:190,1,45,10|0,0:0|0:0,0:0:0:0:
220,256,181160,2,0,L|216:304,1,45
80,160,181303,6,0,P|108:108|200:96,1,135,6|0,0:2|0:0,0:0:0:0:
140,256,181589,2,0,L|108:356,1,90,10|0,0:0|0:0,0:0:0:0:
8,152,181875,1,8,0:0:0:0:
196,184,182018,1,10,0:0:0:0:
36,256,182160,1,8,0:0:0:0:
116,48,182303,1,10,0:0:0:0:
296,124,182446,6,0,P|321:161|330:205,1,90,4|0,0:2|0:0,0:0:0:0:
212,336,182732,2,0,L|217:246,1,90,10|0,0:0|0:0,0:0:0:0:
240,44,183018,1,8,0:0:0:0:
100,168,183160,1,10,0:0:0:0:
304,236,183303,1,10,0:0:0:0:
160,24,183446,1,8,0:0:0:0:
152,236,183589,6,0,L|152:326,1,90,4|0,0:2|0:0,0:0:0:0:
308,164,183875,2,0,L|356:44,1,90,10|0,0:0|0:0,0:0:0:0:
480,260,184160,1,10,0:0:0:0:
336,248,184303,1,8,0:0:0:0:
416,144,184446,1,8,0:0:0:0:
416,356,184589,1,10,0:0:0:0:
296,152,184732,5,4,0:2:0:0:
296,328,184875,1,2,0:0:0:0:
380,112,185018,2,0,P|384:156|378:201,1,90,6|0,0:2|0:0,0:0:0:0:
212,40,185303,1,10,0:0:0:0:
164,40,185375,1,8,0:0:0:0:
132,64,185446,1,8,0:0:0:0:
120,108,185518,1,8,0:0:0:0:
140,144,185589,1,8,0:0:0:0:
176,176,185660,1,0,0:0:0:0:
184,224,185732,1,10,0:0:0:0:
172,272,185803,1,0,0:0:0:0:
160,316,185875,6,0,B|208:280|208:280|252:296|252:296|328:276,1,180,6|8,0:2|0:0,0:0:0:0:
450,308,186303,2,0,L|378:212,1,90,2|0,0:0|0:0,0:0:0:0:
272,360,186589,1,0,0:0:0:0:
396,236,186732,1,10,0:0:0:0:
232,160,186875,1,2,0:0:0:0:
232,160,186946,1,0,0:0:0:0:
232,160,187018,2,0,P|224:104|260:60,1,90,0|2,0:0|0:0,0:0:0:0:
336,252,187303,2,0,L|336:356,1,90,10|0,0:0|0:0,0:0:0:0:
188,216,187589,2,0,P|140:232|72:208,1,90
32,60,187875,1,10,0:0:0:0:
148,148,188018,1,0,0:0:0:0:
276,24,188160,6,0,P|348:100|324:188,1,180,6|8,0:2|0:0,0:0:0:0:
188,272,188589,2,0,L|188:164,1,90,2|0,0:0|0:0,0:0:0:0:
56,76,188875,1,2,0:0:0:0:
56,76,188946,1,0,0:0:0:0:
56,76,189018,2,0,L|56:176,1,90,8|2,0:0|0:0,0:0:0:0:
112,292,189303,1,0,0:0:0:0:
248,248,189446,1,2,0:0:0:0:
112,164,189589,1,8,0:0:0:0:
312,188,189732,1,0,0:0:0:0:
176,56,189875,5,10,0:0:0:0:
176,56,189946,1,0,0:0:0:0:
176,56,190018,2,0,L|176:152,1,90,0|10,0:0|0:0,0:0:0:0:
184,280,190303,1,0,0:0:0:0:
348,176,190446,2,0,P|308:120|244:120,1,135,6|0,0:2|0:0,0:0:0:0:
300,312,190732,2,0,P|340:332|400:316,1,90,10|0,0:0|0:0,0:0:0:0:
456,112,191018,5,10,0:0:0:0:
456,112,191089,1,0,0:0:0:0:
456,112,191160,2,0,L|456:216,1,90,2|8,0:0|0:0,0:0:0:0:
383,326,191446,1,2,0:0:0:0:
208,256,191589,6,0,B|192:208|192:208|208:164,1,90,6|0,0:2|0:0,0:0:0:0:
292,48,191875,1,0,0:0:0:0:
300,260,192018,2,0,P|264:332|156:332,1,180,10|0,0:0|0:0,0:0:0:0:
108,200,192446,1,10,0:0:0:0:
200,44,192589,1,0,0:0:0:0:
208,256,192732,2,14,P|119:287|32:228,1,180,14|12,0:2|0:2,0:2:0:0:
176,200,193160,2,0,P|220:116|172:32,1,180,10|0,0:0|0:0,0:0:0:0:
176,200,193589,5,10,0:0:0:0:
320,92,193732,1,0,0:0:0:0:
320,92,193803,1,0,0:0:0:0:
320,92,193875,1,6,0:2:0:0:
124,56,194018,1,0,0:0:0:0:
272,208,194160,1,2,0:0:0:0:
84,200,194303,2,0,P|50:152|50:108,1,90,0|8,0:0|0:0,0:0:0:0:
200,324,194589,1,10,0:0:0:0:
240,340,194660,1,8,0:0:0:0:
280,328,194732,1,8,0:0:0:0:
304,296,194803,1,0,0:0:0:0:
320,256,194875,1,10,0:0:0:0:
352,232,194946,1,0,0:0:0:0:
392,220,195018,6,0,P|436:308|408:380,1,180,4|10,0:2|0:0,0:0:0:0:
312,208,195446,2,0,L|316:104,1,90
448,220,195732,1,2,0:0:0:0:
315,118,195875,1,8,0:0:0:0:
404,324,196018,1,0,0:0:0:0:
404,324,196089,1,0,0:0:0:0:
404,324,196160,2,0,P|336:332|296:292,1,90,6|0,0:2|0:0,0:0:0:0:
216,224,196446,2,0,L|212:328,1,90,10|0,0:0|0:0,0:0:0:0:
292,156,196732,1,0,0:0:0:0:
88,224,196875,2,0,P|76:180|88:132,1,90,2|8,0:0|0:0,0:0:0:0:
216,96,197160,1,0,0:0:0:0:
224,300,197303,6,0,P|316:332|400:264,1,180,6|8,0:2|0:0,0:0:0:0:
452,96,197732,2,0,L|452:192,1,90,2|0,0:0|0:0,0:0:0:0:
460,324,198018,1,2,0:0:0:0:
460,324,198089,1,0,0:0:0:0:
460,324,198160,1,8,0:0:0:0:
304,224,198303,1,2,0:0:0:0:
488,201,198446,6,0,P|504:140|488:80,1,90
388,212,198732,2,0,P|392:264|388:304,1,90,10|0,0:0|0:0,0:0:0:0:
228,200,199018,1,2,0:0:0:0:
316,256,199160,1,0,0:0:0:0:
380,140,199303,2,0,L|368:68,1,45,10|0,0:0|0:0,0:0:0:0:
308,40,199446,1,0,0:0:0:0:
308,40,199518,1,0,0:0:0:0:
308,40,199589,6,0,P|216:28|168:108,1,180,6|0,0:2|0:0,0:0:0:0:
64,264,200018,1,10,0:0:0:0:
64,248,200089,1,0,0:0:0:0:
64,224,200160,2,0,L|68:128,1,90
208,72,200446,2,0,P|256:56|312:68,1,90,10|0,0:0|0:0,0:0:0:0:
408,256,200732,2,0,P|348:272|304:260,1,90,4|0,0:2|0:0,0:0:0:0:
220,200,200946,1,0,0:0:0:0:
192,216,201018,2,0,P|188:256|191:313,1,90,10|0,0:0|0:0,0:0:0:0:
412,300,201303,5,10,0:0:0:0:
448,264,201375,1,10,0:0:0:0:
464,216,201446,1,10,0:0:0:0:
464,168,201518,1,0,0:0:0:0:
440,120,201589,2,0,L|392:76,1,45,8|0,0:0|0:0,0:0:0:0:
216,60,201732,2,0,L|272:40,1,45,8|0,0:0|0:0,0:0:0:0:
416,16,201875,5,6,0:2:0:0:
208,256,202160,1,12,0:2:0:0:
440,132,202446,1,12,0:0:0:0:
100,40,202732,1,8,0:0:0:0:
84,240,203018,5,10,0:0:0:0:
196,268,203160,1,8,0:0:0:0:
120,312,203303,1,2,0:0:0:0:
140,164,203446,1,8,0:0:0:0:
172,340,203589,5,2,0:0:0:0:
232,156,203732,1,2,0:0:0:0:
32,296,203875,1,8,0:0:0:0:
80,120,204018,1,8,0:0:0:0:
160,248,204160,6,0,L|244:252,1,67.5000025749208,2|0,0:3|0:3,0:3:0:0:
265,123,204446,2,0,P|361:115|425:211,1,202.500007724762,4|0,0:3|0:3,0:3:0:0:
424,192,205303,5,0,0:3:0:0:
312,280,205589,2,0,B|300:320|300:320|272:304|272:304|240:336|240:336|220:308|220:308|164:332|116:264,1,270.000010299683,2|0,0:3|0:3,0:3:0:0:
204,164,206303,1,0,0:3:0:0:
312,280,206446,2,0,P|403:276|456:276,1,135.000005149842,0|0,0:3|0:3,0:3:0:0:
446,275,207160,5,0,0:3:0:0:
356,200,207303,1,0,0:3:0:0:
288,292,207446,1,0,0:3:0:0:
196,216,207589,2,0,B|160:244|160:244|132:220|132:220|92:248|92:248|64:240,1,135.000005149842,0|0,0:3|0:3,0:3:0:0:
32,132,208018,2,0,L|32:60,1,67.5000025749208,0|0,0:3|0:3,0:3:0:0:
156,100,208303,2,0,L|156:172,1,67.5000025749208,0|0,0:3|0:3,0:3:0:0:
160,296,208589,1,0,0:3:0:0:
252,208,208732,6,0,P|324:176|448:304,1,270.000010299683,4|0,0:3|0:3,0:3:0:0:
328,340,209446,2,0,P|280:340|236:344,2,67.5000025749208,0|0|0,0:3|0:3|0:3,0:3:0:0:
284,220,209875,2,0,B|252:204|252:204|228:208|228:208|208:188|208:188|176:196|176:196|144:168|80:172|56:244,1,270.000010299683,4|0,0:3|0:3,0:3:0:0:
136,340,210589,2,0,L|204:340,1,67.5000025749208,0|0,0:3|0:3,0:3:0:0:
332,320,210875,1,0,0:3:0:0:
376,212,211018,6,0,B|372:160|348:124|348:124|292:168|168:144,1,270.000010299683,4|0,0:3|0:3,0:3:0:0:
177,145,211875,1,0,0:3:0:0:
108,252,212018,1,0,0:3:0:0:
60,136,212160,2,0,L|12:136,4,33.7500012874604,4|4|0|0|2,0:3|0:3|0:3|0:3|0:3,0:3:0:0:
192,80,212589,2,0,L|271:80,1,67.5000025749208,0|0,0:3|0:3,0:3:0:0:
200,188,212875,1,0,0:3:0:0:
320,208,213018,5,0,0:3:0:0:
248,284,213160,1,0,0:3:0:0:
248,284,213303,6,0,P|360:300|248:132,1,467.999978576661,4|0,0:3|0:3,0:3:0:0:
248,292,214589,2,0,L|248:356,1,58.4999973220826,0|4,0:3|0:3,0:3:0:0:
144,240,214875,2,0,L|144:160,1,58.4999973220826,4|4,0:3|0:3,0:3:0:0:
48,312,215160,2,0,L|49:240,1,58.4999973220826,2|4,0:3|0:3,0:3:0:0:
88,132,215446,1,2,0:3:0:0:
208,76,215589,6,0,P|304:116|252:232,2,233.999989288331,4|0|4,0:3|0:3|0:3,0:3:0:0:
64,136,217303,5,4,0:3:0:0:
140,208,217446,1,0,0:3:0:0:
64,280,217589,1,4,0:3:0:0:
152,340,217732,1,0,0:3:0:0:
228,265,217875,6,0,L|228:129,1,116.999994644165,4|0,0:3|0:3,0:3:0:0:
228,148,218589,5,4,0:3:0:0:
132,104,218732,1,0,0:3:0:0:
136,208,218875,1,0,0:3:0:0:
28,164,219018,2,0,P|16:224|20:284,2,116.999994644165,4|0|4,0:3|0:3|0:3,0:3:0:0:
128,220,219732,2,0,L|132:300,1,58.4999973220826,0|0,0:3|0:3,0:3:0:0:
236,328,220018,1,0,0:3:0:0:
328,256,220160,6,0,P|320:160|188:144,1,233.999989288331,4|4,0:3|0:3,0:3:0:0:
188,260,220875,1,0,0:3:0:0:
108,332,221018,1,4,0:3:0:0:
108,204,221160,1,0,0:3:0:0:
36,296,221303,2,0,L|20:368,2,58.4999973220826,8|0|0,0:3|0:3|0:3,0:3:0:0:
96,148,221732,1,0,0:3:0:0:
224,256,221875,5,12,0:0:0:0:
280,96,222018,1,0,0:0:0:0:
304,64,222089,1,0,0:0:0:0:
340,48,222160,1,8,0:0:0:0:
384,44,222232,1,0,0:0:0:0:
420,68,222303,2,0,L|452:104,1,33.7500012874604
376,224,222446,6,0,P|348:240|296:208,1,76.5000014591217,8|0,0:0|0:0,0:0:0:0:
496,136,222732,1,8,0:0:0:0:
432,312,222875,2,0,P|352:352|296:312,1,153.000002918243
240,184,223303,1,8,0:0:0:0:
368,268,223446,1,0,0:0:0:0:
160,244,223589,2,0,P|144:188|168:116,1,114.750002188683
289,89,223875,2,0,P|248:88|216:72,1,76.5000014591217,8|0,0:0|0:0,0:0:0:0:
64,48,224160,1,0,0:0:0:0:
172,156,224303,1,0,0:0:0:0:
48,248,224446,1,8,0:0:0:0:
168,316,224589,1,0,0:0:0:0:
168,316,224660,1,0,0:0:0:0:
168,316,224732,6,0,P|240:292|308:340,1,153.000002918243,4|8,0:2|0:0,0:0:0:0:
436,244,225160,2,0,P|460:176|428:104,1,153.000002918243
216,148,225589,2,0,B|256:168|256:168|312:156,1,76.5000014591217,8|0,0:0|0:0,0:0:0:0:
412,72,225875,1,0,0:0:0:0:
258,56,226018,1,0,0:0:0:0:
368,184,226160,2,0,L|344:280,1,76.5000014591217,8|0,0:0|0:0,0:0:0:0:
216,336,226446,1,0,0:0:0:0:
260,176,226589,1,0,0:0:0:0:
260,176,226660,1,0,0:0:0:0:
260,176,226732,1,8,0:0:0:0:
236,360,226875,1,0,0:0:0:0:
176,172,227018,6,0,P|60:192|36:232,1,153.000002918243,4|8,0:2|0:0,0:0:0:0:
176,72,227446,1,0,0:0:0:0:
176,72,227518,1,0,0:0:0:0:
176,72,227589,2,0,B|212:100|212:100|268:88,1,76.5000014591217
368,56,227875,1,8,0:0:0:0:
242,93,228018,1,0,0:0:0:0:
384,176,228160,2,0,P|441:172|464:80,1,153.000002918243,4|8,0:2|0:0,0:0:0:0:
312,184,228589,2,0,B|312:237|312:237|328:280|328:280|328:352,1,153.000002918243
204,196,229018,5,8,0:0:0:0:
120,316,229160,1,0,0:0:0:0:
52,184,229303,2,0,P|76:144|72:88,1,76.5000014591217,4|0,0:2|0:0,0:0:0:0:
252,52,229589,2,0,P|264:96|248:140,1,76.5000014591217,8|0,0:0|0:0,0:0:0:0:
184,244,229875,1,0,0:0:0:0:
432,104,230018,1,0,0:0:0:0:
432,104,230160,6,0,B|432:128|432:128|440:140|440:140|428:156|428:156|440:172|440:172|428:188|428:188|440:208|440:208|428:228|428:228|440:248|440:248|428:268|428:268|440:296|440:296|400:372|331:313|328:292,1,360,8|8,0:0|0:0,0:0:0:0:
260,84,230875,1,0,0:0:0:0:
260,84,230946,1,0,0:0:0:0:
260,84,231018,2,0,L|232:168,1,76.5000014591217,8|0,0:0|0:0,0:0:0:0:
132,256,231303,1,8,0:0:0:0:
308,204,231446,1,0,0:0:0:0:
196,352,231589,5,0,0:0:0:0:
192,140,231732,1,0,0:0:0:0:
192,140,231803,1,0,0:0:0:0:
192,140,231875,2,0,P|240:176|284:160,1,76.5000014591217,8|0,0:0|0:0,0:0:0:0:
384,84,232160,1,0,0:0:0:0:
420,96,232232,1,0,0:0:0:0:
448,124,232303,1,0,0:0:0:0:
456,164,232375,1,0,0:0:0:0:
440,204,232446,2,0,P|392:208|356:236,1,76.5000014591217,8|0,0:0|0:0,0:0:0:0:
280,340,232732,5,0,0:0:0:0:
420,284,232875,1,0,0:0:0:0:
232,224,233018,1,8,0:0:0:0:
364,352,233160,1,0,0:0:0:0:
304,176,233303,2,0,P|324:212|324:252,1,76.5000014591217
192,320,233518,1,0,0:0:0:0:
192,319,233589,2,0,L|192:243,1,76.5000014591217,8|0,0:0|0:0,0:0:0:0:
272,112,233875,5,0,0:0:0:0:
292,80,233946,1,0,0:0:0:0:
324,60,234018,1,0,0:0:0:0:
364,48,234089,1,0,0:0:0:0:
408,56,234160,1,8,0:0:0:0:
448,80,234232,1,0,0:0:0:0:
472,104,234303,2,0,L|460:176,1,38.2500007295609
352,288,234446,2,0,L|365:252,1,38.2500007295609
368,120,234589,2,0,L|380:184,1,38.2500007295609
500,232,234732,2,0,L|456:264,1,38.2500007295609,8|0,0:0|0:0,0:0:0:0:
280,204,234875,2,0,L|308:156,1,38.2500007295609
256,76,235018,5,0,0:0:0:0:
228,56,235089,1,0,0:0:0:0:
192,48,235160,1,0,0:0:0:0:
156,64,235232,1,0,0:0:0:0:
124,96,235303,2,0,P|128:140|124:172,1,76.5000014591217,8|0,0:0|0:0,0:0:0:0:
56,284,235589,5,8,0:0:0:0:
124,96,235732,1,0,0:0:0:0:
268,240,235875,1,8,0:0:0:0:
304,264,235946,1,0,0:0:0:0:
352,276,236018,1,0,0:0:0:0:
400,264,236089,1,0,0:0:0:0:
424,232,236160,6,0,B|396:184|396:184|386:98|386:98|400:64,1,153.000002918243,4|8,0:2|0:0,0:0:0:0:
480,272,236589,1,0,0:0:0:0:
384,88,236732,1,0,0:0:0:0:
324,280,236875,6,0,L|312:392,1,76.5000014591217,0|10,0:0|0:0,0:0:0:0:
128,288,237160,1,0,0:0:0:0:
92,272,237232,1,0,0:0:0:0:
64,236,237303,1,10,0:0:0:0:
52,196,237375,1,0,0:0:0:0:
56,148,237446,1,0,0:0:0:0:
80,120,237518,1,0,0:0:0:0:
120,104,237589,6,2,L|176:88,1,38.2500007295609,10|2,0:0|0:0,0:0:0:0:
280,176,237732,2,0,L|232:216,1,38.2500007295609
264,336,237875,2,0,L|256:374,1,38.2500007295609,8|0,0:0|0:0,0:0:0:0:
372,200,238018,2,0,L|416:164,1,38.2500007295609
168,176,238160,5,2,0:0:0:0:
164,128,238232,1,0,0:0:0:0:
188,80,238303,1,8,0:0:0:0:
236,52,238375,1,0,0:0:0:0:
296,44,238446,2,0,L|380:56,1,80.9999975280763,12|0,0:0|0:0,0:0:0:0:
148,224,238732,2,0,P|108:236|48:228,1,80.9999975280763,8|0,0:0|0:0,0:0:0:0:
352,300,239018,1,12,0:0:0:0:
352,300,239160,1,0,0:0:0:0:
188,144,239303,2,0,P|176:96|200:44,1,80.9999975280763,8|0,0:0|0:0,0:0:0:0:
296,48,239589,5,12,0:0:0:0:
284,212,239732,1,0,0:0:0:0:
184,72,239875,1,8,0:0:0:0:
368,136,240018,2,0,P|408:208|392:272,1,135,8|0,0:0|0:0,0:0:0:0:
336,328,240303,1,0,0:0:0:0:
288,160,240446,1,8,0:0:0:0:
168,328,240589,1,0,0:0:0:0:
156,76,240732,5,12,0:0:0:0:
156,196,241018,2,0,B|156:240|156:240|168:272|168:272|168:348,2,135.000005149842,4|0|8,0:2|0:0|0:0,0:0:0:0:
192,64,241732,1,0,0:0:0:0:
276,180,241875,2,0,P|352:220|400:180,1,135.000005149842,4|0,0:2|0:0,0:0:0:0:
464,232,242303,2,0,P|422:291|450:363,1,135.000005149842,4|0,0:2|0:0,0:0:0:0:
464,232,242732,5,8,0:0:0:0:
344,296,242875,1,0,0:0:0:0:
288,180,243018,2,0,P|216:188|212:264,1,135.000005149842,4|0,0:2|0:0,0:0:0:0:
364,240,243446,2,0,L|388:104,1,135.000005149842,4|0,0:2|0:0,0:0:0:0:
387,107,243875,1,8,0:0:0:0:
108,48,244160,1,2,0:0:0:0:
140,200,244446,5,8,0:0:0:0:
244,152,244589,1,8,0:0:0:0:
244,152,244732,1,0,0:0:0:0:
288,256,244875,1,8,0:0:0:0:
388,200,245018,1,0,0:0:0:0:
424,308,245160,1,8,0:0:0:0:
316,256,245303,6,0,P|300:184|348:112,1,135.000005149842,4|0,0:2|0:0,0:0:0:0:
392,56,245732,2,0,L|312:56,1,67.5000025749208,4|0,0:2|0:0,0:0:0:0:
188,144,246018,2,0,P|230:145|256:152,2,67.5000025749208,0|8|0,0:0|0:0|0:0,0:0:0:0:
88,224,246446,2,0,B|88:292,1,67.5000025749208,4|0,0:2|0:0,0:0:0:0:
84,136,246732,1,0,0:0:0:0:
146,328,246875,2,0,P|91:362|32:336,1,135.000005149842,4|0,0:2|0:0,0:0:0:0:
168,256,247303,1,8,0:0:0:0:
296,192,247446,1,0,0:0:0:0:
296,192,247589,2,0,B|260:200|260:200|216:192,1,67.5000025749208,4|0,0:2|0:0,0:0:0:0:
160,172,247875,1,0,0:0:0:0:
360,128,248018,2,0,P|380:190|352:250,1,135.000005149842,4|0,0:2|0:0,0:0:0:0:
352,250,248446,1,8,0:0:0:0:
172,64,248732,1,0,0:0:0:0:
400,104,249018,5,10,0:0:0:0:
356,208,249160,1,0,0:0:0:0:
356,208,249303,1,10,0:0:0:0:
332,88,249446,1,8,0:0:0:0:
420,172,249589,1,0,0:0:0:0:
300,148,249732,1,10,0:0:0:0:
408,268,249875,6,0,P|356:328|284:304,1,135.000005149842,4|0,0:2|0:0,0:0:0:0:
240,216,250303,2,0,L|216:288,1,67.5000025749208,4|8,0:2|0:0,0:0:0:0:
328,248,250589,1,0,0:0:0:0:
264,136,250732,1,0,0:0:0:0:
160,204,250875,1,0,0:0:0:0:
196,80,251018,2,0,P|264:48|328:72,1,135.000005149842,4|0,0:2|0:0,0:0:0:0:
372,176,251446,1,4,0:2:0:0:
372,176,251589,6,0,L|376:264,1,67.5000025749208,8|0,0:0|0:0,0:0:0:0:
316,328,251875,2,0,L|220:328,1,67.5000025749208
80,264,252160,2,0,B|180:256|180:256|208:216,1,135.000005149842,4|0,0:2|0:0,0:0:0:0:
312,148,252589,1,0,0:0:0:0:
312,148,252732,2,0,P|325:213|301:275,1,135.000005149842,8|0,0:0|0:0,0:0:0:0:
188,220,253160,1,0,0:0:0:0:
136,336,253303,6,0,P|76:284|12:288,1,135.000005149842,4|8,0:2|0:0,0:0:0:0:
280,72,253732,1,0,0:0:0:0:
172,168,253875,1,8,0:0:0:0:
120,88,254018,1,0,0:0:0:0:
96,192,254160,1,8,0:0:0:0:
192,80,254303,1,0,0:0:0:0:
152,244,254446,5,10,0:0:0:0:
48,96,254589,1,8,0:0:0:0:
212,176,254732,1,0,0:0:0:0:
44,328,254875,1,10,0:0:0:0:
144,88,255018,1,0,0:0:0:0:
200,304,255160,1,0,0:0:0:0:
64,132,255303,5,10,0:0:0:0:
320,108,255446,1,0,0:0:0:0:
112,320,255589,1,10,0:0:0:0:
340,208,255732,1,2,0:0:0:0:
64,132,255875,1,14,0:0:0:0:
256,192,256018,12,4,257875,0:0:0:0:
392,228,267017,6,0,P|396:263|392:288,1,53.9999983520508,2|0,0:3|0:3,0:3:0:0:
393,281,267303,1,0,0:3:0:0:
384,312,267732,1,0,0:3:0:0:
272,232,268160,1,2,0:3:0:0:
192,296,268303,1,0,0:3:0:0:
160,204,268446,2,0,P|128:168|76:164,1,80.9999975280763,0|0,0:3|0:3,0:3:0:0:
60,176,268732,2,0,L|68:100,1,53.9999983520508
176,64,269017,2,0,L|176:128,1,53.9999983520508,2|0,0:3|0:3,0:3:0:0:
268,224,269303,6,0,P|300:188|292:120,1,107.999996704102,0|2,0:3|0:3,0:3:0:0:
96,60,270017,1,0,0:3:0:0:
152,132,270160,1,2,0:3:0:0:
76,184,270303,1,0,0:3:0:0:
152,236,270446,6,0,L|148:364,1,107.999996704102,2|0,0:3|0:3,0:3:0:0:
100,192,270875,2,0,P|152:168|212:200,1,107.999996704102,2|0,0:3|0:3,0:3:0:0:
240,264,271303,1,2,0:3:0:0:
332,328,271446,2,0,L|332:256,2,53.9999983520508,0|0|2,0:3|0:3|0:3,0:3:0:0:
404,268,271875,2,0,P|420:208|372:144,1,107.999996704102,0|2,0:3|0:3,0:3:0:0:
344,68,272303,2,0,L|300:172,1,107.999996704102,0|0,0:3|0:3,0:3:0:0:
301,167,272732,5,10,0:1:0:0:
96,308,273017,1,0,0:3:0:0:
96,308,273160,2,0,P|160:332|220:280,1,107.999996704102,0|0,0:3|0:3,0:3:0:0:
306,237,273589,2,0,P|334:282|336:336,1,107.999996704102,0|8,0:3|0:3,0:3:0:0:
336,336,274160,1,0,0:3:0:0:
180,192,274446,5,2,0:3:0:0:
236,116,274589,1,0,0:3:0:0:
176,192,274732,1,0,0:3:0:0:
316,264,275017,6,0,P|368:288|436:248,1,107.999996704102,2|0,0:0|0:0,0:0:0:0:
480,200,275446,2,0,L|480:108,1,53.9999983520508,0|2,0:0|0:0,0:0:0:0:
424,72,275732,1,2,0:0:0:0:
280,72,275875,1,2,0:0:0:0:
348,128,276017,1,0,0:0:0:0:
212,140,276160,6,0,L|212:304,1,116.999994644165
308,200,276589,2,0,P|340:188|388:208,1,58.4999973220826,0|8,0:0|0:0,0:0:0:0:
464,208,276875,1,0,0:0:0:0:
464,208,277017,2,0,P|488:264|464:360,1,116.999994644165
380,276,277446,2,0,L|308:324,1,58.4999973220826
240,352,277732,1,0,0:0:0:0:
152,304,277875,2,0,P|192:256|276:268,1,116.999994644165,8|0,0:0|0:0,0:0:0:0:
72,212,278446,6,0,L|75:96,1,116.999994644165
224,168,278875,1,0,0:0:0:0:
308,132,279017,1,8,0:0:0:0:
260,244,279160,1,0,0:0:0:0:
152,132,279303,1,0,0:0:0:0:
152,132,279446,2,0,L|152:208,1,58.4999973220826
244,188,279732,5,0,0:0:0:0:
264,92,279875,2,0,P|304:88|348:92,1,58.4999973220826
376,152,280089,1,0,0:0:0:0:
368,160,280160,2,0,P|364:200|376:240,1,58.4999973220826,8|0,0:0|0:0,0:0:0:0:
464,180,280446,2,0,L|464:92,1,58.4999973220826
424,264,280732,6,0,P|372:288|300:236,1,116.999994644165
204,256,281160,2,0,L|140:252,2,58.4999973220826,0|8|0,0:0|0:0|0:0,0:0:0:0:
276,324,281589,1,0,0:0:0:0:
384,264,281732,1,0,0:0:0:0:
472,220,281875,6,0,P|488:284|464:344,1,116.999994644165
320,264,282303,1,0,0:0:0:0:
320,264,282446,2,0,L|316:332,1,58.4999973220826,8|0,0:0|0:0,0:0:0:0:
391,187,282732,1,0,0:0:0:0:
387,348,282875,1,0,0:0:0:0:
391,187,283017,2,0,P|337:166|283:187,1,116.999994644165
456,264,283446,2,0,L|460:168,1,58.4999973220826,0|8,0:0|0:0,0:0:0:0:
404,64,283732,6,0,L|364:148,1,58.4999973220826
316,208,284017,1,0,0:0:0:0:
316,208,284089,1,0,0:0:0:0:
316,208,284160,1,0,0:0:0:0:
378,116,284303,1,0,0:0:0:0:
232,208,284446,1,2,0:0:0:0:
408,244,284589,5,2,0:0:0:0:
408,244,284660,1,0,0:0:0:0:
408,244,284732,2,0,P|412:280|408:324,1,62.9999980773926,8|0,0:0|0:0,0:0:0:0:
312,348,285017,1,0,0:0:0:0:
208,320,285160,1,0,0:0:0:0:
140,240,285303,6,0,P|116:168|156:104,1,125.999996154785,4|0,0:0|0:0,0:0:0:0:
240,52,285732,2,0,L|332:52,1,62.9999980773926,0|8,0:0|0:0,0:0:0:0:
372,148,286017,2,0,L|284:147,1,62.9999980773926
240,148,286303,1,0,0:0:0:0:
428,104,286446,2,0,P|444:156|432:208,1,94.499997116089
372,264,286732,2,0,B|404:244|404:244|436:240,1,62.9999980773926
512,248,287017,5,8,0:0:0:0:
440,352,287160,1,0,0:0:0:0:
429,240,287303,1,0,0:0:0:0:
336,328,287446,1,0,0:0:0:0:
252,248,287589,2,0,P|292:248|352:196,1,94.499997116089
184,260,287875,2,0,L|184:339,1,62.9999980773926
88,196,288160,2,0,L|124:136,2,62.9999980773926,8|0|0,0:0|0:0|0:0,0:0:0:0:
56,320,288589,1,0,0:0:0:0:
212,224,288732,6,0,P|240:160|216:80,1,135.000005149842
268,264,289160,2,0,P|323:283|375:275,1,67.5000025749208,0|8,0:0|0:0,0:0:0:0:
448,132,289446,2,0,P|416:120|380:124,1,67.5000025749208,0|8,0:0|0:0,0:0:0:0:
168,280,289732,1,0,0:0:0:0:
168,280,289803,1,0,0:0:0:0:
168,280,289875,6,0,P|124:192|176:96,1,180,8|8,0:0|0:0,0:0:0:0:
312,228,290303,1,0,0:0:0:0:
312,228,290375,1,0,0:0:0:0:
312,228,290446,2,0,P|360:240|412:232,1,90
488,56,290732,1,8,0:0:0:0:
304,112,290875,1,0,0:0:0:0:
488,220,291017,2,0,L|488:310,1,90
400,332,291232,1,0,0:0:0:0:
400,332,291303,2,0,P|355:333|313:349,1,90,8|0,0:0|0:0,0:0:0:0:
136,176,291589,5,8,0:0:0:0:
152,136,291660,1,8,0:0:0:0:
184,108,291732,1,8,0:0:0:0:
224,92,291803,1,8,0:0:0:0:
256,100,291875,2,0,L|304:136,1,45,8|0,0:0|0:0,0:0:0:0:
340,272,292017,2,0,L|312:224,1,45,8|0,0:0|0:0,0:0:0:0:
256,100,292160,1,8,0:0:0:0:
408,292,292446,5,8,0:0:0:0:
72,272,292732,1,8,0:0:0:0:
392,84,293017,1,8,0:0:0:0:
248,152,293303,5,10,0:0:0:0:
136,168,293446,1,10,0:0:0:0:
196,252,293589,1,2,0:0:0:0:
208,88,293732,1,8,0:0:0:0:
44,224,293875,1,2,0:0:0:0:
272,200,294017,1,8,0:0:0:0:
60,96,294160,5,10,0:0:0:0:
200,256,294303,2,0,P|228:160|184:64,1,180,12|0,0:0|0:0,0:0:0:0:
120,320,294732,2,0,P|212:340|288:300,1,180,10|0,0:0|0:0,0:0:0:0:
376,132,295160,1,2,0:0:0:0:
200,256,295303,1,8,0:0:0:0:
440,180,295446,1,2,0:0:0:0:
440,180,295517,1,0,0:0:0:0:
440,180,295589,5,0,0:0:0:0:
288,64,295732,1,2,0:0:0:0:
292,244,295875,2,0,L|310:346,1,90,10|0,0:0|0:0,0:0:0:0:
464,216,296160,2,0,B|477:174|477:174|468:128,1,90,2|0,0:0|0:0,0:0:0:0:
284,56,296446,1,10,0:0:0:0:
148,240,296589,1,0,0:0:0:0:
80,112,296732,2,0,P|136:84|220:112,1,135,6|0,0:2|0:0,0:0:0:0:
264,232,297017,2,0,L|340:208,1,45,10|0,0:0|0:0,0:0:0:0:
400,100,297160,2,0,L|436:144,1,45,2|0,0:0|0:0,0:0:0:0:
400,316,297303,6,0,L|400:200,1,90,2|0,0:0|0:0,0:0:0:0:
308,68,297589,2,0,P|240:104|142:73,1,180,10|0,0:0|0:0,0:0:0:0:
44,36,298017,1,0,0:0:0:0:
128,224,298160,2,0,P|131:269|108:320,1,90,10|0,0:0|0:0,0:0:0:0:
290,150,298446,1,10,0:0:0:0:
290,150,298517,1,0,0:0:0:0:
290,150,298589,2,0,P|286:105|308:67,1,90,0|10,0:0|0:0,0:0:0:0:
392,160,298803,1,0,0:0:0:0:
420,196,298875,1,0,0:0:0:0:
416,244,298946,1,0,0:0:0:0:
392,288,299017,6,0,B|388:326|388:326|408:362|398:374,1,90,6|0,0:2|0:0,0:0:0:0:
120,248,299303,2,0,B|168:228|168:228|232:240,1,90,10|0,0:0|0:0,0:0:0:0:
280,280,299589,1,0,0:0:0:0:
208,64,299732,1,2,0:0:0:0:
208,64,299803,1,0,0:0:0:0:
208,64,299875,5,8,0:0:0:0:
120,248,300017,1,2,0:0:0:0:
364,120,300160,2,0,P|380:176|364:240,1,90
316,296,300446,2,0,P|268:272|216:292,1,90,8|2,0:0|0:0,0:0:0:0:
48,164,300732,2,0,P|92:168|148:120,1,90
348,60,301017,6,0,P|377:140|340:236,1,180,6|0,0:2|0:0,0:0:0:0:
449,340,301446,1,2,0:0:0:0:
449,340,301517,1,0,0:0:0:0:
449,340,301589,2,0,P|456:296|448:252,1,90,8|0,0:0|0:0,0:0:0:0:
228,240,301875,2,0,L|228:140,1,90,10|0,0:0|0:0,0:0:0:0:
128,48,302160,5,8,0:0:0:0:
348,112,302303,1,2,0:0:0:0:
132,180,302446,2,0,P|108:240|144:335,1,135
164,328,302732,2,0,P|195:305|256:308,1,90,10|0,0:0|0:0,0:0:0:0:
400,240,303017,2,0,P|404:292|400:360,1,90
332,160,303303,1,10,0:0:0:0:
360,132,303375,1,0,0:0:0:0:
404,120,303446,1,0,0:0:0:0:
448,120,303517,1,0,0:0:0:0:
488,144,303589,6,0,L|492:260,1,90,6|0,0:2|0:0,0:0:0:0:
276,256,303875,1,8,0:0:0:0:
340,80,304017,1,2,0:0:0:0:
176,168,304160,1,0,0:0:0:0:
376,176,304303,2,0,L|440:92,1,90,0|10,0:0|0:0,0:0:0:0:
264,40,304589,1,0,0:0:0:0:
240,60,304660,1,0,0:0:0:0:
220,72,304732,6,0,P|236:128|228:168,2,90,2|0|8,0:0|0:0|0:0,0:0:0:0:
366,224,305160,2,0,P|355:268|364:312,1,90,2|0,0:0|0:0,0:0:0:0:
352,76,305446,1,0,0:0:0:0:
248,192,305589,1,10,0:0:0:0:
296,20,305732,1,0,0:0:0:0:
324,248,305875,6,0,P|252:292|168:248,1,180,6|8,0:2|0:0,0:0:0:0:
52,88,306303,1,2,0:0:0:0:
52,88,306375,1,0,0:0:0:0:
52,88,306446,2,0,L|52:196,1,90,0|2,0:0|0:0,0:0:0:0:
136,328,306732,1,10,0:0:0:0:
224,172,306875,1,0,0:0:0:0:
376,204,307017,6,0,P|416:308|380:356,1,180,2|8,0:0|0:0,0:0:0:0:
192,212,307446,2,0,P|276:172|292:176,1,90,2|8,0:0|0:0,0:0:0:0:
316,252,307660,1,0,0:0:0:0:
316,252,307732,2,0,P|264:308|224:312,1,90,10|8,0:0|0:0,0:0:0:0:
176,96,308017,1,0,0:0:0:0:
40,256,308160,2,0,P|20:328|36:388,1,135,6|0,0:2|0:0,0:0:0:0:
168,288,308446,2,0,P|176:248|140:180,1,90,10|0,0:0|0:0,0:0:0:0:
64,72,308732,1,10,0:0:0:0:
92,256,308875,1,10,0:0:0:0:
244,104,309017,1,8,0:0:0:0:
36,164,309160,1,10,0:0:0:0:
256,228,309303,6,0,P|264:276|249:317,1,90,6|0,0:2|0:0,0:0:0:0:
176,144,309589,2,0,P|164:96|192:35,1,90,2|0,0:0|0:0,0:0:0:0:
372,48,309875,1,10,0:0:0:0:
248,220,310017,1,8,0:0:0:0:
416,128,310160,1,10,0:0:0:0:
174,57,310303,1,8,0:0:0:0:
104,220,310446,6,0,P|88:268|96:319,1,90,6|0,0:2|0:0,0:0:0:0:
248,180,310732,2,0,P|296:156|360:184,1,90,10|0,0:0|0:0,0:0:0:0:
472,260,311017,1,10,0:0:0:0:
472,260,311160,1,0,0:0:0:0:
304,228,311303,1,8,0:0:0:0:
420,64,311446,1,2,0:0:0:0:
380,288,311589,1,4,0:2:0:0:
488,120,311732,1,2,0:0:0:0:
256,220,311875,2,0,P|238:271|254:315,1,90,8|0,0:0|0:0,0:0:0:0:
388,312,312160,5,10,0:0:0:0:
428,296,312232,1,0,0:0:0:0:
460,272,312303,1,0,0:0:0:0:
472,232,312375,1,0,0:0:0:0:
468,184,312446,1,10,0:0:0:0:
444,140,312517,1,0,0:0:0:0:
448,92,312589,1,2,0:0:0:0:
472,52,312660,1,0,0:0:0:0:
444,32,312732,6,0,B|407:49|383:43|383:43|340:28|340:28|296:24|268:60,1,180,6|10,0:2|0:0,0:0:0:0:
352,196,313160,2,0,P|362:244|349:287,1,90
80,264,313446,1,0,0:0:0:0:
320,160,313589,1,8,0:0:0:0:
180,40,313732,1,2,0:0:0:0:
180,40,313803,1,0,0:0:0:0:
180,40,313875,2,0,P|164:88|184:156,1,90
216,204,314160,2,0,B|260:200|260:200|296:164,1,90,10|0,0:0|0:0,0:0:0:0:
396,24,314446,1,0,0:0:0:0:
232,92,314589,1,0,0:0:0:0:
424,168,314732,6,0,P|460:224|424:348,1,180,10|4,0:0|0:2,0:0:0:0:
288,252,315160,2,0,L|200:281,1,90,2|8,0:0|0:0,0:0:0:0:
44,128,315446,1,2,0:0:0:0:
44,128,315517,1,0,0:0:0:0:
44,128,315589,2,0,L|44:220,1,90,0|2,0:0|0:0,0:0:0:0:
152,356,315875,1,8,0:0:0:0:
288,252,316017,1,2,0:0:0:0:
44,218,316160,5,0,0:0:0:0:
327,233,316303,2,0,P|335:189|320:148,1,90,0|10,0:0|0:0,0:0:0:0:
216,48,316589,1,0,0:0:0:0:
436,40,316732,1,2,0:0:0:0:
472,68,316803,1,0,0:0:0:0:
484,112,316875,1,0,0:0:0:0:
480,152,316946,1,0,0:0:0:0:
464,192,317017,2,0,L|432:236,1,45,8|0,0:0|0:0,0:0:0:0:
324,268,317160,2,0,L|360:296,1,45
368,136,317303,2,0,P|340:120|268:136,1,90,6|0,0:2|0:0,0:0:0:0:
212,252,317589,1,0,0:0:0:0:
400,219,317732,6,0,L|364:127,1,90,10|0,0:0|0:0,0:0:0:0:
256,56,318017,1,0,0:0:0:0:
264,248,318160,2,0,P|304:228|360:252,1,90,10|0,0:0|0:0,0:0:0:0:
404,200,318375,1,0,0:0:0:0:
404,200,318446,2,0,P|416:144|408:88,1,90,6|0,0:2|0:0,0:0:0:0:
308,52,318732,1,0,0:0:0:0:
311,243,318875,2,0,P|392:275|468:232,1,180,10|0,0:0|0:0,0:0:0:0:
364,64,319303,5,10,0:0:0:0:
467,232,319446,1,8,0:0:0:0:
264,160,319589,2,0,P|212:254|252:322,1,180,6|0,0:2|0:0,0:0:0:0:
324,332,320017,2,0,P|252:308|160:360,1,180,10|0,0:0|0:0,0:0:0:0:
68,236,320446,5,10,0:0:0:0:
224,116,320589,1,0,0:0:0:0:
224,116,320660,1,0,0:0:0:0:
224,116,320732,1,10,0:0:0:0:
164,252,320875,1,0,0:0:0:0:
340,132,321017,1,10,0:0:0:0:
112,140,321160,1,0,0:0:0:0:
324,272,321303,5,10,0:0:0:0:
256,64,321446,1,0,0:0:0:0:
216,36,321517,1,0,0:0:0:0:
168,44,321589,1,10,0:0:0:0:
128,76,321660,1,0,0:0:0:0:
112,120,321732,1,0,0:0:0:0:
124,164,321803,1,0,0:0:0:0:
148,204,321875,6,0,B|164:256|164:256|140:288|140:288|164:328|144:376,1,180,6|8,0:2|0:0,0:0:0:0:
24,232,322303,2,0,L|32:128,1,90,2|0,0:0|0:0,0:0:0:0:
104,288,322589,1,0,0:0:0:0:
92,76,322732,1,10,0:0:0:0:
220,212,322875,1,0,0:0:0:0:
220,212,322946,1,0,0:0:0:0:
220,212,323017,1,2,0:0:0:0:
30,142,323160,1,2,0:0:0:0:
284,122,323303,6,0,P|308:160|304:220,1,90,8|0,0:0|0:0,0:0:0:0:
160,300,323589,1,2,0:0:0:0:
40,168,323732,2,0,P|48:148|40:64,1,90,0|8,0:0|0:0,0:0:0:0:
160,232,324017,1,0,0:0:0:0:
160,232,324089,1,0,0:0:0:0:
159,231,324160,6,0,P|183:299|162:358,1,135,6|0,0:2|0:0,0:0:0:0:
268,256,324446,2,0,P|307:245|367:265,1,90,8|0,0:0|0:0,0:0:0:0:
484,180,324732,2,0,L|484:125|484:57,1,90,2|0,0:0|0:0,0:0:0:0:
296,72,325017,2,0,P|250:82|204:68,1,90,8|0,0:0|0:0,0:0:0:0:
76,80,325303,1,2,0:0:0:0:
184,272,325446,1,0,0:0:0:0:
184,272,325517,1,0,0:0:0:0:
184,272,325589,6,0,L|184:172,1,90,8|0,0:0|0:0,0:0:0:0:
320,64,325875,1,2,0:0:0:0:
372,76,325946,1,0,0:0:0:0:
384,128,326017,1,2,0:0:0:0:
344,164,326089,1,0,0:0:0:0:
304,148,326160,6,0,P|256:116|196:136,1,90,8|2,0:0|0:0,0:0:0:0:
208,256,326446,2,0,P|192:304|228:360,1,90,6|0,0:2|0:0,0:0:0:0:
304,148,326732,2,0,P|348:136|391:146,1,90,10|0,0:0|0:0,0:0:0:0:
168,332,327017,2,0,P|116:336|68:304,1,90,10|0,0:0|0:0,0:0:0:0:
96,132,327303,1,10,0:0:0:0:
96,132,327375,1,0,0:0:0:0:
96,132,327446,1,10,0:0:0:0:
252,256,327589,2,0,P|275:303|260:364,1,90,6|0,0:2|0:0,0:0:0:0:
392,144,327875,2,0,P|383:100|403:61,1,90,10|0,0:0|0:0,0:0:0:0:
256,188,328160,5,10,0:0:0:0:
216,216,328232,1,8,0:0:0:0:
176,228,328303,1,8,0:0:0:0:
132,216,328375,1,8,0:0:0:0:
88,192,328446,2,0,L|68:116,1,45,8|0,0:0|0:0,0:0:0:0:
24,248,328589,2,0,L|0:286,1,45,10|0,0:0|0:0,0:0:0:0:
44,84,328732,1,6,0:2:0:0:
176,312,329017,1,8,0:0:0:0:
312,76,329303,1,10,0:0:0:0:
296,352,329589,1,8,0:0:0:0:
148,184,329875,5,10,0:0:0:0:
224,96,330017,1,10,0:0:0:0:
64,156,330160,1,0,0:0:0:0:
220,216,330303,1,10,0:0:0:0:
128,72,330446,1,2,0:0:0:0:
144,276,330589,1,10,0:0:0:0:
296,96,330732,1,8,0:0:0:0:
72,216,330875,1,10,0:0:0:0:
236,168,331017,6,0,B|276:164|276:164|296:152|296:152|404:144|424:248|340:272|340:272|272:272|280:300|280:300|276:336,1,377.999988464356,4|0,0:0|0:0,0:0:0:0:
120,232,332160,1,8,0:0:0:0:
112,216,332232,1,8,0:0:0:0:
108,200,332303,1,8,0:0:0:0:
104,188,332375,1,8,0:0:0:0:
104,172,332446,1,8,0:0:0:0:
104,156,332517,2,0,P|120:128|168:96,2,53.9999983520508,0|0|2,0:0|0:0|0:0,0:0:0:0:
264,224,332875,1,0,0:0:0:0:
324,136,333017,1,8,0:0:0:0:
196,176,333160,1,0,0:0:0:0:
344,44,333303,6,0,P|452:120|384:204,1,251.999992309571,4|0,0:0|0:0,0:0:0:0:
152,120,334446,2,0,P|108:164|40:164,1,125.999996154785,0|8,0:0|0:0,0:0:0:0:
44,52,334875,1,0,0:0:0:0:
252,104,335017,1,10,0:0:0:0:
272,136,335089,1,0,0:0:0:0:
288,176,335160,1,0,0:0:0:0:
288,220,335232,1,0,0:0:0:0:
276,260,335303,2,0,B|264:296|264:296|228:320,1,72
368,168,335589,6,0,P|452:142|500:170,1,135.000005149842,10|0,0:0|0:0,0:0:0:0:
428,240,336017,1,0,0:0:0:0:
296,280,336160,2,0,L|280:356,1,67.5000025749208,10|0,0:0|0:0,0:0:0:0:
368,168,336446,2,0,L|343:105,1,67.5000025749208
424,268,336732,6,0,P|473:257|501:169,1,135.000005149842,10|0,0:0|0:0,0:0:0:0:
440,80,337160,1,0,0:0:0:0:
440,80,337232,1,0,0:0:0:0:
440,80,337303,2,0,P|396:64|356:76,1,67.5000025749208,10|0,0:0|0:0,0:0:0:0:
216,132,337589,2,0,L|208:48,1,67.5000025749208
376,184,337875,6,0,P|404:240|356:320,1,135.000005149842,10|0,0:0|0:0,0:0:0:0:
304,160,338303,1,0,0:0:0:0:
213,230,338446,2,0,L|204:296,1,67.5000025749208,10|0,0:0|0:0,0:0:0:0:
436,208,338732,2,0,L|448:116,1,72,10|0,0:0|0:0,0:0:0:0:
340,40,339017,6,0,P|288:68|228:64,1,121.499996292114,10|0,0:0|0:0,0:0:0:0:
200,128,339303,2,0,P|204:168|195:207,1,80.9999975280763,8|0,0:0|0:0,0:0:0:0:
56,40,339589,1,10,0:0:0:0:
200,128,339732,1,0,0:0:0:0:
76,236,339875,1,10,0:0:0:0:
100,272,339946,1,2,0:0:0:0:
140,304,340017,1,2,0:0:0:0:
188,300,340089,1,0,0:0:0:0:
228,288,340160,6,0,B|248:272|248:272|248:248|248:248|310:148,1,161.999995056153,10|8,0:0|0:0,0:0:0:0:
495,42,340589,2,0,P|504:81|492:120,1,80.9999975280763,2|0,0:0|0:0,0:0:0:0:
428,280,340875,1,0,0:0:0:0:
364,88,341017,1,10,0:0:0:0:
512,296,341160,1,0,0:0:0:0:
512,296,341232,1,0,0:0:0:0:
512,292,341303,2,0,L|468:380,1,80.9999975280763,2|0,0:0|0:0,0:0:0:0:
372,176,341589,2,0,L|424:80,1,80.9999975280763,8|0,0:0|0:0,0:0:0:0:
152,248,341875,6,0,L|152:332,1,80.9999975280763,2|0,0:0|0:0,0:0:0:0:
280,308,342160,1,8,0:0:0:0:
372,176,342303,1,0,0:0:0:0:
236,380,342446,2,0,P|201:310|228:236,1,161.999995056153,2|8,0:0|0:0,0:0:0:0:
332,96,342875,1,2,0:0:0:0:
352,280,343017,1,0,0:0:0:0:
196,152,343160,1,2,0:0:0:0:
196,152,343232,1,0,0:0:0:0:
196,152,343303,5,8,0:0:0:0:
340,48,343446,1,2,0:0:0:0:
436,224,343589,2,0,P|456:264|432:340,1,121.499996292114,2|0,0:0|0:0,0:0:0:0:
380,368,343875,2,0,L|292:352,1,80.9999975280763,8|2,0:0|0:0,0:0:0:0:
44,228,344160,2,0,L|36:340,1,80.9999975280763
92,180,344446,1,8,0:0:0:0:
84,136,344517,1,0,0:0:0:0:
104,88,344589,1,0,0:0:0:0:
152,72,344660,1,0,0:0:0:0:
188,60,344732,6,0,P|272:88|344:68,1,161.999995056153,10|0,0:0|0:0,0:0:0:0:
256,256,345160,1,10,0:0:0:0:
256,256,345232,1,0,0:0:0:0:
256,256,345303,2,0,L|256:368,1,80.9999975280763
448,220,345589,2,0,P|484:192|484:108,1,121.499996292114,10|0,0:0|0:0,0:0:0:0:
366,215,345875,2,0,L|360:296,1,80.9999975280763
164,140,346160,2,0,L|151:61,1,80.9999975280763,10|0,0:0|0:0,0:0:0:0:
304,300,346446,5,10,0:0:0:0:
340,272,346517,1,10,0:0:0:0:
356,236,346589,1,10,0:0:0:0:
360,188,346660,1,0,0:0:0:0:
348,144,346732,2,0,L|320:84,1,40.4999987640381,8|0,0:0|0:0,0:0:0:0:
176,36,346875,2,0,L|165:75,1,40.4999987640381,10|0,0:0|0:0,0:0:0:0:
132,212,347017,5,8,0:0:0:0:
330,107,347303,1,8,0:0:0:0:
88,188,347589,1,8,0:0:0:0:
384,296,347875,1,8,0:0:0:0:
200,80,348160,5,10,0:0:0:0:
220,188,348303,1,2,0:0:0:0:
296,80,348446,1,2,0:0:0:0:
128,124,348589,1,8,0:0:0:0:
296,224,348732,5,2,0:0:0:0:
220,32,348875,1,2,0:0:0:0:
132,220,349017,1,8,0:0:0:0:
344,120,349160,1,2,0:0:0:0:
48,152,349303,2,0,P|44:112|80:52,1,80.9999975280763,8|0,0:0|0:0,0:0:0:0:
288,184,349589,1,8,0:0:0:0:
288,184,349732,2,0,B|356:216|412:164|412:164|428:220,1,161.999995056153,2|0,0:0|0:0,0:0:0:0:
400,256,350160,2,0,P|392:296|404:360,1,80.9999975280763,8|0,0:0|0:0,0:0:0:0:
448,104,350446,6,0,B|412:80|376:103|376:103|324:107,1,121.499996292114,6|0,0:0|0:0,0:0:0:0:
288,88,350732,2,0,P|298:39|280:0,1,80.9999975280763,10|0,0:0|0:0,0:0:0:0:
232,216,351017,2,0,P|272:236|324:208,1,80.9999975280763
144,264,351303,2,0,L|149:345,1,80.9999975280763,8|0,0:0|0:0,0:0:0:0:
40,252,351517,1,0,0:0:0:0:
40,252,351589,2,0,P|28:208|44:164,1,80.9999975280763,6|0,0:0|0:0,0:0:0:0:
120,60,351875,1,8,0:0:0:0:
228,232,352017,6,0,B|268:296|236:351|236:351|260:392,1,161.999995056153,0|2,0:0|0:0,0:0:0:0:
132,228,352446,2,0,P|120:184|136:132,1,80.9999975280763,8|0,0:0|0:0,0:0:0:0:
300,128,352732,2,0,B|336:132|336:132|372:96,1,80.9999975280763,2|0,0:0|0:0,0:0:0:0:
480,52,353017,1,10,0:0:0:0:
284,48,353160,1,8,0:0:0:0:
284,48,353232,5,0,0:0:0:0:
284,48,353303,1,0,0:0:0:0:
448,152,353446,1,10,0:0:0:0:
272,148,353589,1,10,0:0:0:0:
236,176,353660,1,0,0:0:0:0:
220,216,353732,1,0,0:0:0:0:
224,264,353803,1,0,0:0:0:0:
248,308,353875,6,0,B|276:316|312:308|312:308|352:400,1,161.999995056153,10|8,0:0|0:0,0:0:0:0:
445,248,354303,2,0,P|447:207|440:168,1,80.9999975280763,2|0,0:0|0:0,0:0:0:0:
388,68,354589,1,0,0:0:0:0:
288,264,354732,2,0,L|288:172,1,80.9999975280763,8|0,0:0|0:0,0:0:0:0:
172,56,355017,6,0,B|112:56|112:56|68:76|68:76|12:76,1,161.999995056153,2|8,0:0|0:0,0:0:0:0:
120,136,355446,2,0,P|136:184|120:232,1,80.9999975280763,2|0,0:0|0:0,0:0:0:0:
28,312,355732,1,0,0:0:0:0:
188,112,355875,1,10,0:0:0:0:
228,116,355946,1,0,0:0:0:0:
256,148,356017,2,0,L|268:220,1,40.4999987640381
336,292,356160,6,0,P|380:304|440:276,1,80.9999975280763,8|0,0:0|0:0,0:0:0:0:
432,124,356446,1,8,0:0:0:0:
292,200,356589,2,0,P|268:284|296:356,1,161.999995056153,2|0,0:0|0:0,0:0:0:0:
104,252,357017,1,10,0:0:0:0:
188,104,357160,2,0,L|265:79,2,80.9999975280763,0|2|0,0:0|0:0|0:0,0:0:0:0:
44,216,357589,1,10,0:0:0:0:
64,64,357732,1,0,0:0:0:0:
152,272,357875,5,8,0:0:0:0:
152,40,358017,1,10,0:0:0:0:
172,24,358089,1,10,0:0:0:0:
196,16,358160,1,10,0:0:0:0:
228,20,358232,1,0,0:0:0:0:
256,36,358303,1,8,0:0:0:0:
288,52,358375,1,0,0:0:0:0:
320,72,358446,6,8,B|360:88|424:60|424:60|500:66,1,161.999995056153,10|8,0:0|0:0,0:0:0:0:
432,188,358875,2,0,P|344:216|272:184,1,161.999995056153,2|0,0:0|0:0,0:0:0:0:
184,76,359303,1,10,0:0:0:0:
276,200,359446,1,0,0:0:0:0:
276,200,359517,1,0,0:0:0:0:
276,200,359589,2,0,B|292:236|292:236|272:260|272:260|268:336,1,121.499996292114,2|0,0:0|0:0,0:0:0:0:
256,356,359875,2,0,P|204:360|160:396,1,80.9999975280763,10|0,0:0|0:0,0:0:0:0:
76,184,360160,2,0,L|96:88,1,80.9999975280763
256,40,360446,1,8,0:0:0:0:
172,184,360589,5,2,0:0:0:0:
172,184,360660,1,0,0:0:0:0:
172,184,360732,2,0,P|168:232|172:268,1,80.9999975280763,8|0,0:0|0:0,0:0:0:0:
104,88,361017,2,0,P|184:56|272:96,1,161.999995056153,10|2,0:0|0:0,0:0:0:0:
276,244,361446,1,0,0:0:0:0:
352,116,361589,1,8,0:0:0:0:
208,172,361732,1,0,0:0:0:0:
420,204,361875,6,0,L|428:100,1,80.9999975280763,2|0,0:0|0:0,0:0:0:0:
352,40,362160,1,8,0:0:0:0:
352,40,362232,1,0,0:0:0:0:
352,40,362303,2,0,P|304:52|240:32,1,80.9999975280763,2|0,0:0|0:0,0:0:0:0:
136,76,362589,1,0,0:0:0:0:
273,47,362732,1,8,0:0:0:0:
240,188,362875,1,0,0:0:0:0:
240,188,362946,1,0,0:0:0:0:
240,188,363017,6,0,P|152:220|76:176,1,161.999995056153,10|8,0:0|0:0,0:0:0:0:
4,40,363446,2,0,L|108:20,2,80.9999975280763,2|0|0,0:0|0:0|0:0,0:0:0:0:
8,192,363875,1,10,0:0:0:0:
124,72,364017,1,0,0:0:0:0:
248,164,364160,2,0,P|276:220|248:284,1,121.499996292114,2|0,0:0|0:0,0:0:0:0:
192,272,364446,2,0,L|192:352,1,80.9999975280763,8|0,0:0|0:0,0:0:0:0:
276,108,364732,1,10,0:0:0:0:
356,268,364875,1,8,0:0:0:0:
276,108,365017,1,10,0:0:0:0:
172,248,365160,1,2,0:0:0:0:
172,248,365232,1,0,0:0:0:0:
172,248,365303,6,0,P|132:252|76:236,1,80.9999975280763,8|0,0:0|0:0,0:0:0:0:
340,152,365589,2,0,P|420:160|440:172,1,80.9999975280763,10|0,0:0|0:0,0:0:0:0:
188,108,365875,2,0,P|148:96|80:112,1,80.9999975280763,8|0,0:0|0:0,0:0:0:0:
312,248,366160,2,0,P|332:286|368:320,1,80.9999975280763,10|0,0:0|0:0,0:0:0:0:
436,188,366446,5,2,0:0:0:0:
224,168,366589,1,0,0:0:0:0:
436,188,366732,1,8,0:0:0:0:
280,64,366875,1,2,0:0:0:0:
232,44,366946,1,0,0:0:0:0:
184,64,367017,1,8,0:0:0:0:
160,112,367089,1,0,0:0:0:0:
180,156,367160,2,0,P|216:196|220:228,1,80.9999975280763,2|8,0:0|0:0,0:0:0:0:
88,276,367375,1,0,0:0:0:0:
48,248,367446,1,0,0:0:0:0:
44,200,367517,1,0,0:0:0:0:
80,160,367589,6,0,P|144:128|172:128,1,80.9999975280763,10|0,0:0|0:0,0:0:0:0:
292,176,367875,1,8,0:0:0:0:
236,304,368017,2,0,P|156:328|100:264,1,161.999995056153,2|0,0:0|0:0,0:0:0:0:
211,178,368446,2,0,L|319:174,1,80.9999975280763,10|0,0:0|0:0,0:0:0:0:
432,304,368732,2,0,P|448:248|444:140,1,161.999995056153,2|10,0:0|0:0,0:0:0:0:
344,84,369160,2,0,P|308:104|256:108,1,80.9999975280763
112,64,369446,1,0,0:0:0:0:
268,109,369589,1,10,0:0:0:0:
136,212,369732,1,0,0:0:0:0:
136,212,369803,1,0,0:0:0:0:
136,212,369875,6,0,L|128:312,1,80.9999975280763,10|0,0:0|0:0,0:0:0:0:
360,192,370160,2,0,L|372:308,1,80.9999975280763,8|0,0:0|0:0,0:0:0:0:
288,128,370446,1,0,0:0:0:0:
240,232,370589,1,0,0:0:0:0:
408,184,370732,2,0,P|364:52|352:52,1,161.999995056153,10|0,0:0|0:0,0:0:0:0:
184,136,371160,2,0,P|144:108|124:68,1,80.9999975280763,0|10,0:0|0:0,0:0:0:0:
248,48,371446,5,10,0:0:0:0:
248,48,371517,1,0,0:0:0:0:
248,48,371589,1,0,0:0:0:0:
256,176,371732,1,2,0:0:0:0:
84,144,371875,1,8,0:0:0:0:
64,172,371946,1,8,0:0:0:0:
60,208,372017,1,8,0:0:0:0:
64,244,372089,1,8,0:0:0:0:
88,272,372160,6,0,B|156:200|240:240,1,161.999995056153,10|8,0:0|0:0,0:0:0:0:
120,344,372589,2,0,P|68:356|24:344,1,80.9999975280763
196,156,372875,2,0,P|240:144|292:168,1,80.9999975280763,0|10,0:0|0:0,0:0:0:0:
240,280,373160,1,0,0:0:0:0:
60,236,373303,6,0,P|52:184|76:68,1,161.999995056153,2|8,0:0|0:0,0:0:0:0:
304,72,373732,1,2,0:0:0:0:
304,72,373803,1,0,0:0:0:0:
304,72,373875,2,0,P|308:116|300:160,1,80.9999975280763
192,40,374160,1,10,0:0:0:0:
192,208,374303,1,0,0:0:0:0:
192,208,374375,1,0,0:0:0:0:
192,208,374446,6,0,B|204:252|204:252|252:224|332:248,1,161.999995056153,2|8,0:0|0:0,0:0:0:0:
436,176,374875,1,2,0:0:0:0:
356,68,375017,2,0,P|304:72|264:88,2,80.9999975280763,0|0|10,0:0|0:0|0:0,0:0:0:0:
384,228,375446,1,0,0:0:0:0:
280,148,375589,1,2,0:0:0:0:
472,76,375732,1,0,0:0:0:0:
472,76,375803,1,0,0:0:0:0:
472,76,375875,2,0,L|472:184,1,80.9999975280763,8|0,0:0|0:0,0:0:0:0:
392,332,376160,5,10,0:0:0:0:
332,180,376303,1,0,0:0:0:0:
312,144,376375,1,0,0:0:0:0:
280,128,376446,1,8,0:0:0:0:
240,120,376517,1,0,0:0:0:0:
200,132,376589,1,8,0:0:0:0:
176,168,376660,1,0,0:0:0:0:
172,212,376732,6,0,P|212:240|224:272,1,80.9999975280763,10|0,0:0|0:0,0:0:0:0:
72,268,377017,2,0,P|64:216|80:164,1,80.9999975280763,10|0,0:0|0:0,0:0:0:0:
160,80,377303,1,0,0:0:0:0:
264,172,377446,2,0,L|356:180,1,80.9999975280763,0|10,0:0|0:0,0:0:0:0:
444,64,377732,1,0,0:0:0:0:
444,64,377803,1,0,0:0:0:0:
444,64,377875,2,0,P|356:40|276:56,1,161.999995056153,2|8,0:0|0:0,0:0:0:0:
208,184,378303,1,2,0:0:0:0:
344,176,378446,1,0,0:0:0:0:
182,71,378589,1,0,0:0:0:0:
264,232,378732,5,10,0:0:0:0:
104,140,378875,1,0,0:0:0:0:
104,140,378946,1,0,0:0:0:0:
104,140,379017,2,0,P|100:192|104:228,1,80.9999975280763,10|0,0:0|0:0,0:0:0:0:
36,68,379303,2,0,P|104:40|192:84,1,161.999995056153,10|0,0:0|0:0,0:0:0:0:
288,252,379732,2,0,L|288:156,1,80.9999975280763,0|10,0:0|0:0,0:0:0:0:
108,196,380017,1,0,0:0:0:0:
248,52,380160,5,10,0:0:0:0:
248,52,380232,1,0,0:0:0:0:
248,52,380303,2,0,P|292:44|340:52,1,80.9999975280763,8|8,0:0|0:0,0:0:0:0:
304,168,380589,2,0,P|284:236|284:272,1,80.9999975280763,0|10,0:0|0:0,0:0:0:0:
404,336,380875,2,0,P|416:292|420:240,1,80.9999975280763,0|8,0:0|0:0,0:0:0:0:
408,104,381160,1,2,0:0:0:0:
408,104,381232,1,0,0:0:0:0:
408,104,381303,5,8,0:0:0:0:
216,216,381446,1,2,0:0:0:0:
216,64,381589,1,8,0:0:0:0:
324,176,381732,2,0,P|344:232|336:280,1,80.9999975280763
288,344,382017,1,0,0:0:0:0:
220,256,382160,2,0,P|168:252|80:288,1,121.499996292114,10|0,0:0|0:0,0:0:0:0:
40,204,382446,2,0,P|56:116|120:48,1,161.999995056153,2|8,0:0|0:0,0:0:0:0:
220,256,382875,1,0,0:0:0:0:
308,108,383017,1,10,0:0:0:0:
220,256,383160,1,0,0:0:0:0:
136,112,383303,5,10,0:0:0:0:
316,224,383446,1,8,0:0:0:0:
316,224,383517,1,0,0:0:0:0:
316,224,383589,2,0,P|364:264|404:280,1,80.9999975280763,10|0,0:0|0:0,0:0:0:0:
300,96,383875,2,0,P|268:64|224:44,1,80.9999975280763,8|0,0:0|0:0,0:0:0:0:
200,292,384160,2,0,P|228:336|256:360,1,80.9999975280763,10|0,0:0|0:0,0:0:0:0:
216,160,384446,2,0,P|188:136|136:116,1,80.9999975280763,8|0,0:0|0:0,0:0:0:0:
72,248,384732,5,10,0:0:0:0:
92,48,384875,1,2,0:0:0:0:
76,244,385017,1,10,0:0:0:0:
188,108,385160,1,0,0:0:0:0:
208,64,385232,1,0,0:0:0:0:
248,48,385303,1,8,0:0:0:0:
296,56,385375,1,0,0:0:0:0:
320,100,385446,2,0,P|308:128|308:188,1,80.9999975280763,2|8,0:0|0:0,0:0:0:0:
388,204,385660,1,0,0:0:0:0:
432,228,385732,1,0,0:0:0:0:
440,280,385803,1,0,0:0:0:0:
408,320,385875,6,0,P|356:336|300:332,1,80.9999975280763,8|0,0:0|0:0,0:0:0:0:
260,232,386160,2,0,P|212:208|168:224,1,80.9999975280763,2|0,0:0|0:0,0:0:0:0:
144,308,386446,2,0,L|56:308,2,67.5000025749208,4|0|2,0:0|0:0|0:0,0:0:0:0:
144,308,386875,1,0,0:0:0:0:
104,212,387017,6,0,L|104:124,1,67.5000025749208,2|0,0:0|0:0,0:0:0:0:
172,56,387303,2,0,L|252:56,2,67.5000025749208,2|0|8,0:0|0:0|0:0,0:0:0:0:
172,56,387732,1,0,0:0:0:0:
176,164,387875,2,0,L|176:240,1,67.5000025749208,2|0,0:0|0:0,0:0:0:0:
244,300,388160,6,0,P|288:304|336:292,2,67.5000025749208,2|0|2,0:0|0:0|0:0,0:0:0:0:
244,300,388589,1,0,0:0:0:0:
272,200,388732,2,0,L|272:124,1,67.5000025749208,8|0,0:0|0:0,0:0:0:0:
328,48,389017,2,0,P|368:64|392:88,2,67.5000025749208,0|0|4,0:0|0:0|0:0,0:0:0:0:
208,48,389446,2,0,P|168:68|152:96,2,67.5000025749208,0|4|0,0:0|0:0|0:0,0:0:0:0:
316,132,389875,2,0,L|348:200,1,67.5000025749208,4|0,0:0|0:0,0:0:0:0:
224,132,390160,2,0,L|188:212,1,67.5000025749208,4|0,0:0|0:0,0:0:0:0:
128,296,390446,6,0,P|84:260|80:180,1,135.000005149842,2|0,0:0|0:0,0:0:0:0:
77,185,390875,1,0,0:0:0:0:
144,104,391017,2,0,L|240:100,1,67.5000025749208
280,184,391303,2,0,L|192:184,1,67.5000025749208
188,296,391589,6,0,P|260:316|316:276,1,135.000005149842,2|0,0:0|0:0,0:0:0:0:
308,184,392017,2,0,L|308:108,1,67.5000025749208
224,48,392303,2,0,L|224:128,1,67.5000025749208
210,228,392589,1,0,0:0:0:0:
210,228,392732,6,0,P|145:244|84:220,1,135.000005149842,4|0,0:0|0:0,0:0:0:0:
80,76,393160,2,0,L|152:76,1,67.5000025749208
164,156,393446,2,0,L|248:156,1,67.5000025749208
231,156,393732,1,0,0:0:0:0:
276,56,393875,5,4,0:0:0:0:
340,108,394017,1,0,0:0:0:0:
212,88,394160,1,2,0:0:0:0:
328,32,394303,1,0,0:0:0:0:
280,152,394446,5,0,0:0:0:0:
380,180,394589,1,0,0:0:0:0:
280,152,394732,1,8,0:0:0:0:
328,256,394875,1,0,0:0:0:0:
280,152,395017,1,4,0:0:0:0:
256,192,395160,12,2,397875,0:2:0:0:
