osu file format v14

[General]
AudioFilename: 03 Symmetric Rose.mp3
AudioLeadIn: 0
PreviewTime: 86688
Countdown: 0
SampleSet: Soft
StackLeniency: 0.9
Mode: 0
LetterboxInBreaks: 0
WidescreenStoryboard: 1

[Editor]
Bookmarks: 670,9813,15589,30388,53116,71545,87402,124116,124589,133259,151545,167402,170089,204116,222402,240688,257830,266972,294258,330972,340115,349258,367544,385830
DistanceSpacing: 1.1
BeatDivisor: 4
GridSize: 4
TimelineZoom: 2.899999

[Metadata]
Title:Symmetric Rose
TitleUnicode:Symmetric Rose
Artist:Ariabl'eyeS
ArtistUnicode:Ariabl'eyeS
Creator:Pawlyk here
Version:Asymmetric
Source:
Tags:Ruriiro no Rosenkreuz Ariabl eyes sister twins nice song 瑠璃色のローゼンクロイツ Rena Marathon
BeatmapID:1077444
BeatmapSetID:383857

[Difficulty]
HPDrainRate:6.5
CircleSize:4.2
OverallDifficulty:9
ApproachRate:9.6
SliderMultiplier:1.8
SliderTickRate:1

[Events]
//Background and Video events
0,0,"bg.jpg",0,0
//Break Periods
2,258075,266508
//Storyboard Layer 0 (Background)
//Storyboard Layer 1 (Fail)
//Storyboard Layer 2 (Pass)
//Storyboard Layer 3 (Foreground)
//Storyboard Sound Samples

[TimingPoints]
732.645972067412,571.428571428571,4,2,1,45,1,0
11018,285.714285714286,4,2,1,45,1,0
11303,-111.111111111111,4,2,1,65,0,0
12160,-100,4,2,1,65,0,0
30446,-117.647058823529,4,2,1,45,0,0
31018,-142.857142857143,4,2,1,45,0,0
43589,-133.333333333333,4,2,1,45,0,0
44160,-125,4,2,1,45,0,0
44375,-133.333333333333,4,2,1,45,0,0
51018,-125,4,2,1,45,0,0
53303,-111.111111111111,4,2,1,45,0,0
59446,-100,4,2,1,45,0,0
59732,-111.111111111111,4,2,1,45,0,0
69303,-105.263157894737,4,2,1,45,0,0
71589,-133.333333333333,4,2,1,45,0,0
84160,-125,4,2,1,45,0,0
85303,-100,4,2,1,55,0,0
85732,-90.9090909090909,4,2,1,55,0,0
86732,-100,4,2,1,45,0,0
87446,-90.9090909090909,4,2,1,45,0,1
101303,-86.9565217391304,4,2,1,45,0,0
105875,-86.9565217391304,4,2,1,45,0,1
124160,-125,4,2,1,35,0,0
128732,-125,4,2,1,45,0,0
133303,-111.111111111111,4,2,1,45,0,0
139446,-100,4,2,1,45,0,0
139732,-111.111111111111,4,2,1,45,0,0
149303,-105.263157894737,4,2,1,45,0,0
151589,-133.333333333333,4,2,1,45,0,0
164160,-125,4,2,1,45,0,0
165303,-100,4,2,1,45,0,0
165732,-90.9090909090909,4,2,1,45,0,0
167446,-90.9090909090909,4,2,1,45,0,1
167875,-86.9565217391304,4,2,1,45,0,1
168089,-90.9090909090909,4,2,1,45,0,1
181303,-86.9565217391304,4,2,1,45,0,0
185875,-86.9565217391304,4,2,1,45,0,1
204160,-111.111111111111,4,2,1,45,0,0
204446,-125,4,2,1,45,0,0
213303,-133.333333333333,4,2,1,45,0,0
217875,-125,4,2,1,45,0,0
222446,-100,4,2,1,45,0,0
238446,-90.9090909090909,4,2,1,45,0,0
240732,-133.333333333333,4,2,1,45,0,0
249875,-125,4,2,1,45,0,0
254446,-90.9090909090909,4,2,1,45,0,0
257875,571.428571428571,4,2,1,70,1,0
267017,-90.9090909090909,4,2,1,70,0,0
276160,-83.3333333333333,4,2,1,70,0,0
285303,-76.9230769230769,4,2,1,70,0,0
289875,285.714285714286,4,2,1,70,1,0
292160,-90.9090909090909,4,2,1,70,0,0

[Colours]
Combo1 : 168,11,34
Combo2 : 255,255,255
Combo3 : 244,81,105
Combo4 : 240,19,52

[HitObjects]
160,200,732,6,0,P|204:188|264:204,1,90,2|0,0:0|0:0,0:0:0:0:
68,240,1304,2,0,P|60:195|72:152,1,90,2|0,0:0|0:0,0:0:0:0:
208,280,1875,1,0,0:0:0:0:
92,320,2161,1,0,0:0:0:0:
160,200,2446,1,2,0:0:0:0:
244,340,2732,1,0,0:0:0:0:
155,287,3018,6,0,P|147:242|159:199,1,90,2|0,0:0|0:0,0:0:0:0:
340,252,3589,6,0,P|295:259|252:247,1,90,2|0,2:0|2:0,2:0:0:0:
232,112,4161,1,0,0:0:0:0:
159,199,4446,1,0,0:0:0:0:
296,180,4732,1,2,0:0:0:0:
136,108,5018,1,0,0:0:0:0:
232,112,5304,6,0,P|236:60|204:8,1,90,2|0,0:0|0:0,0:0:0:0:
180,192,5875,2,0,P|228:208|292:188,1,90,2|0,0:0|0:0,0:0:0:0:
368,164,6446,1,0,0:0:0:0:
304,88,6732,1,0,0:0:0:0:
420,116,7018,1,2,0:0:0:0:
264,144,7304,1,0,0:0:0:0:
293,3,7589,6,0,P|311:43|303:87,1,90,2|0,0:0|0:0,0:0:0:0:
112,180,8161,2,0,P|128:132|119:91,1,90,2|0,0:0|0:0,0:0:0:0:
0,132,8732,1,0,0:0:0:0:
184,64,9018,1,0,0:0:0:0:
88,216,9304,2,0,B|60:296|128:352|60:364,1,135
144,328,9875,6,0,P|67:298|29:371,1,180,4|0,0:0|0:0,0:0:0:0:
208,256,10637,1,4,0:0:0:0:
312,296,10827,1,0,0:0:0:0:
384,184,11018,2,0,P|420:172|472:180,1,90,4|8,0:0|0:0,0:0:0:0:
500,176,11232,1,0,0:0:0:0:
500,176,11303,2,0,P|492:136|496:72,1,80.9999975280763,8|0,0:0|0:0,0:0:0:0:
404,92,11518,1,8,0:0:0:0:
360,88,11589,1,8,0:0:0:0:
320,104,11660,1,8,0:0:0:0:
288,84,11732,2,0,P|280:28|292:-28,2,80.9999975280763,8|8|0,0:0|0:0|0:0,0:0:0:0:
372,208,12160,6,0,P|300:252|196:196,1,180,12|8,0:0|0:0,0:0:0:0:
164,128,12589,2,0,P|112:116|40:176,1,135,4|0,0:0|0:0,0:0:0:0:
16,228,12875,2,0,L|-4:124,1,90,4|12,0:0|0:0,0:0:0:0:
156,32,13160,1,0,0:0:0:0:
156,32,13232,1,0,0:0:0:0:
156,32,13303,5,4,0:0:0:0:
116,192,13446,1,0,0:0:0:0:
248,116,13589,2,0,P|296:104|360:128,1,90,12|0,0:0|0:0,0:0:0:0:
384,280,13875,1,0,0:0:0:0:
472,140,14018,1,4,0:0:0:0:
308,216,14160,2,0,P|256:228|200:204,1,90,8|8,0:0|0:0,0:0:0:0:
160,168,14375,1,8,0:0:0:0:
160,168,14446,6,0,P|168:224|152:288,1,90,4|0,0:0|0:0,0:0:0:0:
48,320,14732,1,8,0:0:0:0:
76,96,14875,2,0,P|152:60|248:116,1,180,4|0,0:0|0:0,0:0:0:0:
340,208,15303,2,0,P|392:216|460:192,1,90,12|0,0:0|0:0,0:0:0:0:
328,324,15589,2,0,P|280:332|232:322,1,90,4|0,0:0|0:0,0:0:0:0:
96,196,15875,5,12,0:0:0:0:
284,248,16018,1,4,0:0:0:0:
284,248,16089,1,0,0:0:0:0:
284,248,16160,1,8,0:0:0:0:
128,368,16303,1,4,0:0:0:0:
240,192,16446,1,12,0:0:0:0:
208,168,16518,1,8,0:0:0:0:
168,160,16589,1,8,0:0:0:0:
128,176,16660,1,8,0:0:0:0:
96,196,16732,6,8,B|48:128|64:72|64:72|104:64|120:40,1,180
268,76,17160,2,0,P|320:88|380:68,1,90,4|0,0:0|0:0,0:0:0:0:
208,168,17446,2,0,B|196:200|196:200|200:220|200:220|200:272,2,90,4|12|0,0:0|0:0|0:0,0:0:0:0:
304,12,17875,6,0,P|388:0|452:92,1,180,4|12,0:0|0:0,0:0:0:0:
336,160,18303,1,4,0:0:0:0:
204,88,18446,2,0,L|100:88,1,90,0|4,0:0|0:0,0:0:0:0:
412,140,18732,1,12,0:0:0:0:
392,100,18803,1,8,0:0:0:0:
352,84,18875,1,8,0:0:0:0:
308,88,18946,1,8,0:0:0:0:
272,116,19018,6,0,L|264:244,1,90,12|0,0:0|0:0,0:0:0:0:
328,380,19303,1,12,0:0:0:0:
200,276,19446,2,0,P|124:232|32:288,1,180,4|4,0:0|0:0,0:0:0:0:
104,348,19875,2,0,L|124:228,1,90,12|0,0:0|0:0,0:0:0:0:
68,80,20160,1,4,0:0:0:0:
164,156,20303,1,4,0:0:0:0:
252,52,20446,2,0,L|348:40,1,90,8|0,0:0|0:0,0:0:0:0:
448,180,20732,5,12,0:0:0:0:
428,188,20803,1,0,0:0:0:0:
404,192,20875,1,4,0:0:0:0:
380,184,20946,1,0,0:0:0:0:
356,168,21018,5,8,0:0:0:0:
360,212,21089,1,8,0:0:0:0:
392,248,21160,1,8,0:0:0:0:
436,260,21232,1,8,0:0:0:0:
488,248,21303,2,0,P|504:200|484:132,1,90,12|0,0:0|0:0,0:0:0:0:
372,72,21589,5,12,0:0:0:0:
288,212,21732,2,0,P|208:240|140:196,1,135,4|0,0:0|0:0,0:0:0:0:
104,176,22018,2,0,L|76:300,1,90,4|12,0:0|0:0,0:0:0:0:
208,352,22303,1,0,0:0:0:0:
208,352,22375,1,0,0:0:0:0:
208,352,22446,1,4,0:0:0:0:
324,252,22589,1,0,0:0:0:0:
232,132,22732,6,0,P|180:144|116:120,1,90,12|0,0:0|0:0,0:0:0:0:
228,268,23018,1,0,0:0:0:0:
340,164,23160,1,4,0:0:0:0:
213,36,23303,2,0,P|152:24|109:44,1,90,12|8,0:0|0:0,0:0:0:0:
126,32,23518,1,8,0:0:0:0:
126,32,23589,1,12,0:0:0:0:
188,184,23732,1,0,0:0:0:0:
312,84,23875,6,0,P|383:63|471:127,1,180,12|4,0:0|0:0,0:0:0:0:
436,268,24303,1,0,0:0:0:0:
466,117,24446,2,0,B|464:44|464:44|428:24,1,90,12|0,0:0|0:0,0:0:0:0:
242,134,24732,6,0,P|280:144|332:136,1,90,4|0,0:0|0:0,0:0:0:0:
112,84,25018,1,12,0:0:0:0:
112,84,25089,1,0,0:0:0:0:
112,84,25160,2,0,P|100:132|116:180,1,90,8|0,0:0|0:0,0:0:0:0:
168,308,25446,1,0,0:0:0:0:
32,168,25589,5,8,0:0:0:0:
28,128,25660,1,8,0:0:0:0:
32,88,25732,1,8,0:0:0:0:
44,48,25803,1,8,0:0:0:0:
68,16,25875,2,0,P|128:24|184:16,1,90,12|0,0:0|0:0,0:0:0:0:
332,60,26160,5,8,0:0:0:0:
172,140,26303,2,0,P|144:208|176:272,1,135,4|0,0:0|0:0,0:0:0:0:
196,332,26589,2,0,L|72:328,1,90,0|12,0:0|0:0,0:0:0:0:
224,204,26875,1,0,0:0:0:0:
352,300,27018,1,4,0:0:0:0:
452,140,27160,2,0,L|432:20,1,90,4|8,0:0|0:0,0:0:0:0:
280,184,27446,1,0,0:0:0:0:
448,136,27589,5,12,0:0:0:0:
352,300,27732,1,4,0:0:0:0:
512,248,27875,1,4,0:0:0:0:
360,112,28018,1,0,0:0:0:0:
360,112,28089,1,0,0:0:0:0:
360,112,28160,5,12,0:0:0:0:
300,296,28303,1,0,0:0:0:0:
448,136,28446,1,8,0:0:0:0:
216,120,28589,1,0,0:0:0:0:
364,228,28732,1,8,0:0:0:0:
240,28,28875,1,4,0:0:0:0:
248,240,29018,1,8,0:0:0:0:
392,64,29160,1,0,0:0:0:0:
200,316,29303,5,12,0:0:0:0:
168,284,29375,1,0,0:0:0:0:
160,242,29446,1,4,0:0:0:0:
171,197,29518,1,0,0:0:0:0:
211,174,29589,1,8,0:0:0:0:
244,144,29660,1,0,0:0:0:0:
268,104,29732,1,0,0:0:0:0:
260,60,29803,1,0,0:0:0:0:
228,28,29875,6,0,L|108:36,1,90,12|0,0:0|0:0,0:0:0:0:
236,248,30160,1,12,0:0:0:0:
272,276,30232,1,8,0:0:0:0:
316,272,30303,1,8,0:0:0:0:
356,252,30375,1,8,0:0:0:0:
392,236,30446,6,0,P|436:236|480:261,2,76.5000014591217,12|0|0,0:0|0:0|0:0,0:0:0:0:
304,336,30875,1,0,0:0:0:0:
192,336,31018,2,0,L|124:336,2,62.9999980773926
304,340,31446,1,0,0:0:0:0:
164,232,31589,6,0,L|164:168,1,62.9999980773926,12|8,0:0|0:0,0:0:0:0:
48,96,31875,2,0,B|40:132|40:132|48:184,2,62.9999980773926,2|0|0,0:0|0:0|0:0,0:0:0:0:
144,40,32303,2,0,L|232:32,1,62.9999980773926,2|2,0:0|0:0,0:0:0:0:
304,120,32589,1,0,0:0:0:0:
400,32,32732,6,0,L|408:108,1,62.9999980773926,12|8,0:0|0:0,0:0:0:0:
468,184,33018,2,0,P|492:156|504:112,1,62.9999980773926,10|0,0:0|0:0,0:0:0:0:
384,184,33303,2,0,L|384:248,2,62.9999980773926,12|2|2,0:0|0:0|0:0,0:0:0:0:
328,72,33732,1,12,0:0:0:0:
272,204,33875,5,12,0:0:0:0:
456,108,34018,1,4,0:0:0:0:
384,248,34160,1,0,0:0:0:0:
256,84,34303,1,4,0:0:0:0:
292,304,34446,1,0,0:0:0:0:
376,100,34589,1,4,0:0:0:0:
200,232,34732,1,4,0:0:0:0:
424,200,34875,1,0,0:0:0:0:
184,351,35018,6,0,P|177:283|200:231,1,125.999996154785,6|4,0:0|0:0,0:0:0:0:
216,144,35446,2,0,P|184:144|157:158,1,62.9999980773926,4|0,0:0|0:0,0:0:0:0:
100,272,35732,1,2,0:0:0:0:
16,192,35875,2,0,L|-4:108,1,62.9999980773926,6|2,0:0|0:0,0:0:0:0:
44,64,36089,1,0,0:0:0:0:
52,76,36160,2,0,L|104:76,2,31.4999990386963
100,200,36446,2,0,B|180:200|180:200|200:188|200:188|240:188,1,125.999996154785,6|6,0:0|0:0,0:0:0:0:
312,104,36875,2,0,P|276:96|236:103,1,62.9999980773926,2|4,0:0|0:0,0:0:0:0:
222,188,37160,1,2,0:0:0:0:
320,319,37303,6,0,L|320:256,1,62.9999980773926,4|0,0:0|0:0,0:0:0:0:
222,188,37589,1,6,0:0:0:0:
180,292,37732,2,0,L|180:356,1,62.9999980773926,0|4,0:0|0:0,0:0:0:0:
172,152,38018,1,2,0:0:0:0:
48,252,38160,1,4,0:0:0:0:
84,112,38303,1,2,0:0:0:0:
84,112,38375,1,0,0:0:0:0:
84,112,38446,6,0,L|104:64,2,31.4999990386963,6|0|0,0:0|0:0|0:0,0:0:0:0:
32,252,38732,1,6,0:0:0:0:
148,136,38875,1,0,0:0:0:0:
0,164,39018,1,4,0:0:0:0:
148,248,39160,1,2,0:0:0:0:
84,112,39303,1,4,0:0:0:0:
32,252,39446,1,0,0:0:0:0:
140,64,39589,6,0,P|200:84|216:160,1,125.999996154785,6|4,0:0|0:0,0:0:0:0:
288,200,40018,2,0,L|312:120,2,62.9999980773926,2|4|0,0:0|0:0|0:0,0:0:0:0:
232,272,40446,1,6,0:0:0:0:
209,134,40589,1,0,0:0:0:0:
352,228,40732,6,0,P|408:176|400:112,1,125.999996154785,6|6,0:0|0:0,0:0:0:0:
340,44,41160,1,2,0:0:0:0:
344,160,41303,2,0,P|400:184|468:164,1,125.999996154785,4|6,0:0|0:0,0:0:0:0:
480,76,41732,1,0,0:0:0:0:
492,236,41875,6,0,L|492:304,1,62.9999980773926,6|0,0:0|0:0,0:0:0:0:
364,232,42160,2,0,L|340:312,1,62.9999980773926,6|0,0:0|0:0,0:0:0:0:
504,180,42446,2,0,L|512:260,1,62.9999980773926,4|2,0:0|0:0,0:0:0:0:
352,180,42732,2,0,L|328:248,1,62.9999980773926,4|0,0:0|0:0,0:0:0:0:
420,104,43018,1,6,0:0:0:0:
416,264,43160,1,2,0:0:0:0:
416,264,43232,1,0,0:0:0:0:
416,264,43303,5,6,0:0:0:0:
292,152,43446,1,0,0:0:0:0:
420,104,43589,2,0,P|460:100|512:112,1,67.5000025749208,6|8,0:0|0:0,0:0:0:0:
284,56,43875,1,12,0:0:0:0:
416,24,44018,1,8,0:0:0:0:
352,200,44160,6,0,P|292:224|232:200,1,108,14|0,0:0|0:0,0:0:0:0:
196,168,44446,2,0,P|160:164|120:180,1,67.5000025749208,6|0,0:0|0:0,0:0:0:0:
36,236,44732,1,4,0:0:0:0:
152,292,44875,1,2,0:0:0:0:
152,292,44946,1,0,0:0:0:0:
152,292,45018,1,6,0:0:0:0:
72,136,45160,1,0,0:0:0:0:
232,240,45303,2,0,L|264:250,2,33.7500012874604,2|0|0,0:0|0:0|0:0,0:0:0:0:
132,56,45589,6,0,P|188:40|240:52,1,101.250003862381,6|0,0:0|0:0,0:0:0:0:
312,44,45875,2,0,L|245:31,1,67.5000025749208,4|0,0:0|0:0,0:0:0:0:
184,132,46160,1,6,0:0:0:0:
52,56,46303,1,0,0:0:0:0:
0,216,46446,6,0,P|80:220|128:184,1,135.000005149842,6|4,0:0|0:0,0:0:0:0:
232,224,46875,1,2,0:0:0:0:
169,75,47018,2,0,P|127:119|127:203,1,135.000005149842,4|6,0:0|0:0,0:0:0:0:
144,328,47446,1,0,0:0:0:0:
144,328,47589,1,0,0:0:0:0:
232,224,47732,1,0,0:0:0:0:
340,288,47875,6,0,L|432:280,1,67.5000025749208,6|0,0:0|0:0,0:0:0:0:
472,300,48089,1,0,0:0:0:0:
472,300,48160,2,0,L|480:372,1,67.5000025749208,6|0,0:0|0:0,0:0:0:0:
344,216,48446,1,6,0:0:0:0:
468,132,48589,1,0,0:0:0:0:
436,336,48732,6,0,P|364:356|300:336,1,135.000005149842,6|4,0:0|0:0,0:0:0:0:
344,216,49160,2,0,L|340:132,2,67.5000025749208,0|4|2,0:0|0:0|0:0,0:0:0:0:
307,340,49589,1,6,0:0:0:0:
340,220,49732,1,2,0:0:0:0:
192,384,49875,2,0,P|185:318|225:266,1,135.000005149842,6|4,0:0|0:0,0:0:0:0:
148,260,50303,2,0,L|60:264,1,67.5000025749208,0|4,0:0|0:0,0:0:0:0:
200,176,50589,1,0,0:0:0:0:
36,140,50732,1,12,0:0:0:0:
80,263,50875,1,8,0:0:0:0:
168,96,51018,6,0,P|236:96|284:176,1,144,12|8,0:0|0:0,0:0:0:0:
284,276,51446,2,0,B|328:256|368:268|368:268|404:256|404:256|444:264,1,144,4|0,0:0|0:0,0:0:0:0:
408,128,51875,1,12,0:0:0:0:
408,128,52018,1,0,0:0:0:0:
388,328,52160,2,0,P|348:332|292:324,1,72
210,159,52446,2,0,P|246:151|301:153,1,72,8|0,0:0|0:0,0:0:0:0:
112,344,52732,6,0,L|125:274,1,72,0|8,0:0|0:0,0:0:0:0:
224,216,52946,1,0,0:0:0:0:
258,197,53018,1,12,0:0:0:0:
274,161,53089,1,8,0:0:0:0:
266,121,53160,1,0,0:0:0:0:
234,97,53232,1,0,0:0:0:0:
186,105,53303,6,0,P|150:117|78:105,1,80.9999975280763,12|0,0:0|0:0,0:0:0:0:
16,196,53589,1,12,0:0:0:0:
40,32,53732,2,0,B|88:8|128:24|128:24|168:12|168:12|197:18,1,161.999995056153,4|4,0:0|0:0,0:0:0:0:
384,144,54160,2,0,B|348:160|312:140|312:140|284:148|284:148|268:144,1,121.499996292114,8|0,0:0|0:0,0:0:0:0:
172,92,54446,1,4,0:0:0:0:
168,236,54589,1,0,0:0:0:0:
311,303,54732,6,0,P|351:291|411:311,1,80.9999975280763,12|0,0:0|0:0,0:0:0:0:
498,255,55018,2,0,L|508:336,1,80.9999975280763
384,144,55303,1,8,0:0:0:0:
389,298,55446,2,0,P|324:332|232:296,1,161.999995056153,12|0,0:0|0:0,0:0:0:0:
136,164,55875,2,0,P|128:208|144:268,1,80.9999975280763,12|0,0:0|0:0,0:0:0:0:
80,320,56160,1,4,0:0:0:0:
216,204,56303,1,0,0:0:0:0:
52,116,56446,1,8,0:0:0:0:
133,243,56589,1,4,0:0:0:0:
256,120,56732,6,0,B|328:104|328:104|404:136,1,121.499996292114
412,128,57018,2,0,P|403:88|415:50,1,80.9999975280763,12|0,0:0|0:0,0:0:0:0:
312,188,57303,1,0,0:0:0:0:
480,96,57446,1,12,0:0:0:0:
480,96,57518,1,0,0:0:0:0:
480,96,57589,1,8,0:0:0:0:
404,268,57732,1,0,0:0:0:0:
232,156,57875,6,0,P|284:112|394:135,1,161.999995056153,12|12,0:0|0:0,0:0:0:0:
404,268,58303,1,4,0:0:0:0:
300,316,58446,1,0,0:0:0:0:
184,280,58589,1,4,0:0:0:0:
232,156,58732,2,0,B|280:144|280:144|344:164,1,80.9999975280763,12|0,0:0|0:0,0:0:0:0:
112,84,59018,6,0,B|88:140|116:188|116:188|108:216|108:216|124:248,1,161.999995056153,4|8,0:0|0:0,0:0:0:0:
228,156,59446,2,0,P|216:91|208:160,1,180,4|0,0:0|0:0,0:0:0:0:
118,237,59875,2,0,P|72:240|24:224,1,80.9999975280763,12|0,0:0|0:0,0:0:0:0:
8,216,60089,1,0,0:0:0:0:
16,200,60160,2,0,P|24:156|16:104,1,80.9999975280763,12|0,0:0|0:0,0:0:0:0:
180,324,60446,2,0,P|172:280|184:224,1,80.9999975280763,12|0,0:0|0:0,0:0:0:0:
316,256,60732,1,4,0:0:0:0:
192,154,60875,1,4,0:0:0:0:
388,128,61018,6,0,P|380:60|404:-4,1,121.499996292114,12|0,0:0|0:0,0:0:0:0:
348,8,61303,2,0,P|304:8|264:8,2,80.9999975280763,4|0|12,0:0|0:0|0:0,0:0:0:0:
492,72,61732,1,4,0:0:0:0:
384,204,61875,1,0,0:0:0:0:
248,120,62018,1,12,0:0:0:0:
248,120,62089,1,0,0:0:0:0:
248,120,62160,2,0,L|236:212,1,80.9999975280763,12|0,0:0|0:0,0:0:0:0:
136,332,62446,6,0,P|84:320|24:344,1,80.9999975280763,12|0,0:0|0:0,0:0:0:0:
124,140,62732,2,0,P|132:176|128:228,1,80.9999975280763,12|0,0:0|0:0,0:0:0:0:
16,104,63018,1,4,0:0:0:0:
84,24,63160,1,4,0:0:0:0:
192,36,63303,5,12,0:0:0:0:
184,188,63446,1,12,0:0:0:0:
276,100,63589,1,4,0:0:0:0:
244,240,63732,1,0,0:0:0:0:
368,84,63875,5,12,0:0:0:0:
344,236,64018,1,0,0:0:0:0:
444,56,64160,1,4,0:0:0:0:
488,244,64303,1,4,0:0:0:0:
332,108,64446,1,12,0:0:0:0:
512,136,64589,1,8,0:0:0:0:
388,304,64732,6,0,P|364:220|416:144,1,161.999995056153,4|12,0:0|0:0,0:0:0:0:
476,64,65160,1,0,0:0:0:0:
332,108,65303,2,0,P|288:116|224:104,1,80.9999975280763
104,32,65589,2,0,P|84:64|120:32,1,161.999995056153,12|0,0:0|0:0,0:0:0:0:
345,19,66018,1,0,0:0:0:0:
345,19,66160,6,0,L|332:116,1,80.9999975280763,8|0,0:0|0:0,0:0:0:0:
192,320,66446,2,0,L|180:220,1,80.9999975280763,8|0,0:0|0:0,0:0:0:0:
384,148,66732,1,8,0:0:0:0:
348,172,66803,1,0,0:0:0:0:
304,180,66875,1,8,0:0:0:0:
268,164,66946,1,8,0:0:0:0:
228,144,67018,6,0,B|168:120|112:156|112:156|88:152|88:152|44:168,1,161.999995056153,12|8,0:0|0:0,0:0:0:0:
152,288,67446,1,0,0:0:0:0:
232,148,67589,1,0,0:0:0:0:
60,232,67732,1,0,0:0:0:0:
196,360,67875,1,8,0:0:0:0:
72,160,68018,1,0,0:0:0:0:
296,92,68160,2,0,P|236:76|168:112,1,121.499996292114,4|0,0:0|0:0,0:0:0:0:
72,238,68446,6,0,B|64:198|72:170|72:170|68:142,1,80.9999975280763,8|0,0:0|0:0,0:0:0:0:
40,24,68732,2,0,L|-16:32,2,40.4999987640381
228,136,69018,1,8,0:0:0:0:
228,188,69089,1,0,0:0:0:0:
188,208,69160,1,8,0:0:0:0:
172,244,69232,1,0,0:0:0:0:
168,288,69303,2,0,L|176:376,1,85.4999977169037,8|0,0:0|0:0,0:0:0:0:
416,180,69589,2,0,P|368:172|304:204,1,85.4999977169037,8|0,0:0|0:0,0:0:0:0:
172,296,69875,5,8,0:0:0:0:
376,268,70018,1,0,0:0:0:0:
176,152,70160,1,8,0:0:0:0:
296,344,70303,1,0,0:0:0:0:
452,124,70446,5,10,0:0:0:0:
332,264,70589,1,0,0:0:0:0:
476,360,70732,1,0,0:0:0:0:
260,176,70875,2,0,P|332:148|420:188,1,170.999995433807,8|0,0:0|0:0,0:0:0:0:
160,336,71303,1,8,0:0:0:0:
104,236,71446,1,8,0:0:0:0:
176,152,71589,6,0,B|156:112|164:84|164:84|137:65|136:24,1,135.000005149842,12|12,0:0|0:0,0:0:0:0:
244,112,72018,1,4,0:0:0:0:
244,112,72160,2,0,P|276:113|310:105,1,67.5000025749208
432,48,72446,2,0,L|432:132,1,67.5000025749208,12|0,0:0|0:0,0:0:0:0:
368,312,72732,2,0,P|388:244|352:168,1,135.000005149842,4|0,0:0|0:0,0:0:0:0:
260,248,73160,2,0,P|292:276|268:232,1,135.000005149842,4|0,0:0|0:0,0:0:0:0:
176,152,73589,1,8,0:0:0:0:
176,152,73732,1,0,0:0:0:0:
182,282,73875,6,0,P|164:197|183:137,1,135.000005149842,4|0,0:0|0:0,0:0:0:0:
136,216,74303,2,0,P|64:240|8:220,1,135.000005149842,4|0,0:0|0:0,0:0:0:0:
182,282,74732,1,8,0:0:0:0:
348,56,75018,1,0,0:0:0:0:
476,272,75303,5,0,0:0:0:0:
376,204,75446,1,8,0:0:0:0:
360,192,75589,1,8,0:0:0:0:
488,144,75732,1,8,0:0:0:0:
412,248,75875,1,0,0:0:0:0:
328,172,76018,1,8,0:0:0:0:
308,160,76160,6,0,P|280:224|308:304,1,135.000005149842,0|0,0:2|0:0,0:0:0:0:
348,332,76589,2,0,L|436:328,2,67.5000025749208,4|0|0,0:0|0:0|0:0,0:0:0:0:
252,360,77018,1,12,0:0:0:0:
368,236,77160,1,0,0:0:0:0:
304,136,77303,6,0,P|368:116|440:144,1,135.000005149842,4|0,0:0|0:0,0:0:0:0:
480,216,77732,2,0,B|472:184|484:144|484:144|476:112|476:112|480:72,1,135.000005149842,4|0,0:0|0:0,0:0:0:0:
384,32,78160,1,8,0:0:0:0:
280,96,78303,1,0,0:0:0:0:
166,125,78446,6,0,P|222:81|290:105,1,135.000005149842,4|0,0:0|0:0,0:0:0:0:
282,230,78875,2,0,L|278:74,1,135.000005149842,4|0,0:0|0:0,0:0:0:0:
156,220,79303,1,8,0:0:0:0:
440,96,79589,1,0,0:0:0:0:
460,216,79875,5,0,0:0:0:0:
360,272,80018,1,8,0:0:0:0:
464,328,80160,1,8,0:0:0:0:
352,192,80303,1,8,0:0:0:0:
508,188,80446,1,0,0:0:0:0:
396,328,80589,1,8,0:0:0:0:
280,152,80732,6,0,P|340:116|412:136,1,135.000005149842,12|0,0:0|0:0,0:0:0:0:
456,56,81160,1,4,0:0:0:0:
456,56,81303,2,0,B|416:60|416:60|364:52,1,67.5000025749208,8|0,0:0|0:0,0:0:0:0:
268,0,81589,2,0,L|284:92,1,67.5000025749208,4|0,0:0|0:0,0:0:0:0:
337,217,81875,6,0,P|273:235|216:204,1,135.000005149842,4|0,0:0|0:0,0:0:0:0:
337,217,82303,2,0,L|337:289,1,67.5000025749208,4|8,0:0|0:0,0:0:0:0:
204,304,82589,1,0,0:0:0:0:
337,284,82732,1,4,0:0:0:0:
204,304,82875,1,0,0:0:0:0:
404,340,83018,6,0,P|416:252|368:208,1,135.000005149842,4|0,0:0|0:0,0:0:0:0:
284,128,83446,1,4,0:0:0:0:
284,128,83589,2,0,B|324:132|348:156|348:156|372:140|428:148,1,135.000005149842,8|0,0:0|0:0,0:0:0:0:
504,96,84018,1,0,0:0:0:0:
508,211,84160,6,0,P|439:207|410:141,1,144,4|0,0:0|0:0,0:0:0:0:
344,64,84589,1,8,0:0:0:0:
416,24,84732,1,8,0:0:0:0:
308,116,84875,1,8,0:0:0:0:
476,92,85018,1,8,0:0:0:0:
352,0,85160,1,8,0:0:0:0:
248,180,85303,6,0,B|232:136|232:136|248:88|248:88|240:64|240:64|240:48,1,135,12|0,0:0|0:0,0:0:0:0:
320,280,85589,1,0,0:0:0:0:
172,180,85732,6,0,B|128:164|128:164|80:179|80:179|56:172|56:172|31:172,1,148.50000453186,12|0,0:0|0:0,0:0:0:0:
80,100,86018,1,0,0:0:0:0:
136,296,86160,1,12,0:0:0:0:
292,180,86303,1,0,0:0:0:0:
30,172,86446,1,8,0:0:0:0:
240,52,86589,1,8,0:0:0:0:
240,336,86732,1,14,0:0:0:0:
340,88,87446,6,0,B|376:136|343:195|343:195|360:232|360:232|347:287,1,198.000006042481,12|0,0:0|0:0,0:0:0:0:
148,144,87875,2,0,B|208:116|240:144|240:144|264:124|264:124|292:132,1,148.50000453186,12|0,0:0|0:0,0:0:0:0:
340,88,88160,1,4,0:0:0:0:
268,232,88303,1,4,0:0:0:0:
416,184,88446,1,12,0:0:0:0:
368,20,88589,1,0,0:0:0:0:
368,20,88660,1,0,0:0:0:0:
368,20,88732,6,0,P|428:8|484:28,1,99.0000030212403,4|0,0:0|0:0,0:0:0:0:
312,183,89018,2,0,L|348:59,1,99.0000030212403,12|0,0:0|0:0,0:0:0:0:
344,320,89303,2,0,P|284:324|228:304,1,99.0000030212403,4|0,0:0|0:0,0:0:0:0:
160,244,89589,1,12,0:0:0:0:
312,183,89732,1,0,0:0:0:0:
220,84,89875,6,0,P|296:36|396:76,1,198.000006042481,4|12,0:0|0:0,0:0:0:0:
460,228,90303,1,4,0:0:0:0:
460,228,90446,2,0,L|476:124,1,99.0000030212403,4|0,0:0|0:0,0:0:0:0:
304,148,90732,2,0,P|211:188|140:128,1,198.000006042481,12|0,0:0|0:0,0:0:0:0:
256,72,91160,1,0,0:0:0:0:
360,192,91303,6,0,L|376:320,1,99.0000030212403,12|0,0:0|0:0,0:0:0:0:
142,134,91589,2,0,L|124:28,1,99.0000030212403,12|0,0:0|0:0,0:0:0:0:
72,256,91875,1,8,0:0:0:0:
116,268,91946,1,0,0:0:0:0:
160,268,92018,1,8,0:0:0:0:
200,248,92089,1,0,0:0:0:0:
240,228,92160,6,0,P|232:284|244:336,1,99.0000030212403,12|0,0:0|0:0,0:0:0:0:
364,208,92446,2,0,P|372:156|348:84,1,99.0000030212403,12|0,0:0|0:0,0:0:0:0:
248,52,92732,1,0,0:0:0:0:
440,104,92875,1,4,0:0:0:0:
304,248,93018,2,0,L|300:136,1,99.0000030212403,12|0,0:0|0:0,0:0:0:0:
48,128,93303,6,0,B|88:156|152:136,1,99.0000030212403,4|0,0:0|0:0,0:0:0:0:
248,52,93589,1,12,0:0:0:0:
104,0,93732,1,0,0:0:0:0:
132,188,93875,2,0,P|68:188|16:160,1,99.0000030212403,8|4,0:0|0:0,0:0:0:0:
248,52,94160,2,0,B|256:100|256:100|240:132|240:132|273:201|228:248,1,198.000006042481,12|4,0:0|0:0,0:0:0:0:
300,348,94589,1,0,0:0:0:0:
300,348,94660,1,0,0:0:0:0:
300,348,94732,6,0,L|172:352,1,99.0000030212403,12|0,0:0|0:0,0:0:0:0:
148,288,94946,1,8,0:0:0:0:
157,281,95018,2,0,L|173:153,1,99.0000030212403,8|0,0:0|0:0,0:0:0:0:
160,44,95303,1,8,0:0:0:0:
312,184,95446,1,8,0:0:0:0:
312,184,95518,1,0,0:0:0:0:
312,184,95589,6,0,P|348:120|304:44,1,148.50000453186,12|0,0:0|0:0,0:0:0:0:
170,191,95875,2,0,B|210:175|254:191|254:191|286:175|286:175|322:187,1,148.50000453186,12|0,0:0|0:0,0:0:0:0:
308,288,96160,2,0,P|300:348|328:404,1,99.0000030212403,4|4,0:0|0:0,0:0:0:0:
452,316,96446,1,8,0:0:0:0:
472,276,96518,1,0,0:0:0:0:
468,232,96589,1,12,0:0:0:0:
448,192,96660,1,0,0:0:0:0:
456,148,96732,6,0,P|464:100|404:16,1,148.50000453186,8|0,0:0|0:0,0:0:0:0:
264,56,97018,2,0,B|312:68|312:68|368:52,1,99.0000030212403,8|0,0:0|0:0,0:0:0:0:
392,128,97303,1,4,0:0:0:0:
212,164,97446,1,0,0:0:0:0:
212,164,97518,1,0,0:0:0:0:
212,164,97589,1,8,0:0:0:0:
388,247,97732,1,0,0:0:0:0:
260,60,97875,2,0,L|264:-28,2,49.5000015106202,4|0|4,0:0|0:0|0:0,0:0:0:0:
152,232,98160,6,0,P|124:164|159:91,1,148.50000453186,8|0,0:0|0:0,0:0:0:0:
196,112,98446,2,0,P|245:114|294:110,1,99.0000030212403,4|4,0:0|0:0,0:0:0:0:
364,56,98732,1,12,0:0:0:0:
204,48,98875,1,0,0:0:0:0:
388,247,99018,2,0,B|388:179|388:179|364:135|364:135|364:51,1,198.000006042481,4|12,0:0|0:0,0:0:0:0:
460,48,99446,2,0,L|456:124,1,49.5000015106202,8|0,0:0|0:0,0:0:0:0:
452,204,99589,5,8,0:0:0:0:
300,148,99732,1,4,0:0:0:0:
400,8,99875,1,12,0:0:0:0:
204,48,100018,1,0,0:0:0:0:
204,48,100089,1,0,0:0:0:0:
204,48,100160,6,0,P|120:72|92:0,1,148.50000453186,12|0,0:0|0:0,0:0:0:0:
36,72,100446,2,0,P|48:144|32:204,1,99.0000030212403,8|0,0:0|0:0,0:0:0:0:
180,296,100732,2,0,P|180:240|168:176,1,99.0000030212403,8|8,0:0|0:0,0:0:0:0:
224,164,100946,1,0,0:0:0:0:
240,176,101018,2,0,L|320:168,1,49.5000015106202,8|0,0:0|0:0,0:0:0:0:
392,200,101160,2,0,L|412:112,1,49.5000015106202
348,28,101303,6,0,P|304:56|304:120,1,103.500001974106,12|0,0:0|0:0,0:0:0:0:
105,141,101589,2,0,P|157:185|253:165,1,155.250002961159,12|0,0:0|0:0,0:0:0:0:
348,28,101875,1,12,0:0:0:0:
239,175,102018,1,8,0:0:0:0:
420,168,102160,1,8,0:0:0:0:
216,68,102303,1,8,0:0:0:0:
169,296,102446,6,0,P|154:229|177:160,1,103.500001974106,12|0,0:0|0:0,0:0:0:0:
340,104,102732,2,0,B|283:110|283:110|212:88,1,103.500001974106,12|0,0:0|0:0,0:0:0:0:
96,40,103018,1,8,0:0:0:0:
160,196,103160,1,8,0:0:0:0:
292,24,103303,1,8,0:0:0:0:
80,136,103446,1,8,0:0:0:0:
280,272,103589,6,0,P|292:216|280:164,1,103.500001974106,12|0,0:0|0:0,0:0:0:0:
384,26,103875,2,0,P|334:18|288:40,1,103.500001974106,12|0,0:0|0:0,0:0:0:0:
436,284,104160,2,0,B|376:292|376:292|296:272,1,103.500001974106,8|0,0:0|0:0,0:0:0:0:
272,252,104375,1,0,0:0:0:0:
280,272,104446,2,0,L|271:375,1,103.500001974106,12|0,0:0|0:0,0:0:0:0:
88,248,104732,5,12,0:0:0:0:
283,171,104875,1,0,0:0:0:0:
112,96,105018,1,12,0:0:0:0:
200,296,105160,1,0,0:0:0:0:
296,88,105303,5,8,0:0:0:0:
248,88,105375,1,0,0:0:0:0:
208,112,105446,1,8,0:0:0:0:
188,156,105518,1,0,0:0:0:0:
192,204,105589,1,8,0:0:0:0:
220,240,105660,1,0,0:0:0:0:
252,284,105732,1,0,0:0:0:0:
252,336,105803,1,0,0:0:0:0:
212,376,105875,6,0,B|160:388|128:360|128:360|96:380|96:380|56:356|56:356|12:376,1,207.000003948212,12|12,0:0|0:0,0:0:0:0:
88,248,106303,2,0,P|100:188|80:136,2,103.500001974106,0|0|4,0:0|0:0|0:0,0:0:0:0:
200,304,106732,1,12,0:0:0:0:
312,160,106875,1,0,0:0:0:0:
312,160,106946,1,0,0:0:0:0:
312,160,107018,6,0,B|252:132|212:160|212:160|180:152|180:152|164:160,1,155.250002961159,4|0,0:0|0:0,0:0:0:0:
120,148,107303,2,0,P|124:92|104:44,1,103.500001974106,8|0,0:0|0:0,0:0:0:0:
304,160,107589,1,4,0:0:0:0:
184,68,107732,1,0,0:0:0:0:
128,224,107875,2,0,L|144:336,1,103.500001974106,12|0,0:0|0:0,0:0:0:0:
232,264,108089,1,0,0:0:0:0:
232,264,108160,6,0,P|332:276|328:384,1,207.000003948212,12|12,0:0|0:0,0:0:0:0:
440,348,108589,1,0,0:0:0:0:
492,236,108732,2,0,L|484:100,1,103.500001974106,0|4,0:0|0:0,0:0:0:0:
328,64,109018,1,12,0:0:0:0:
476,28,109160,1,0,0:0:0:0:
376,228,109303,2,0,L|368:108,1,103.500001974106,4|0,0:0|0:0,0:0:0:0:
160,32,109589,6,0,P|224:40|280:24,1,103.500001974106,12|0,0:0|0:0,0:0:0:0:
344,64,109803,1,0,0:0:0:0:
328,72,109875,2,0,P|300:120|336:204,1,103.500001974106,8|0,0:0|0:0,0:0:0:0:
440,224,110160,1,8,0:0:0:0:
424,180,110232,1,0,0:0:0:0:
432,136,110303,1,8,0:0:0:0:
452,92,110375,1,0,0:0:0:0:
476,48,110446,6,0,B|432:20|396:24|396:24|376:-12|324:-8,1,155.250002961159,12|0,0:0|0:0,0:0:0:0:
227,71,110732,2,0,B|284:83|284:83|332:70,1,103.500001974106,8|0,0:0|0:0,0:0:0:0:
352,252,111018,1,0,0:0:0:0:
352,252,111089,1,8,0:0:0:0:
352,252,111160,2,0,B|340:192|340:192|360:124,1,103.500001974106,8|0,0:0|0:0,0:0:0:0:
152,152,111446,1,8,0:0:0:0:
152,152,111518,1,0,0:0:0:0:
152,152,111589,6,0,P|208:168|252:152,1,103.500001974106,12|0,0:0|0:0,0:0:0:0:
236,312,111875,1,4,0:0:0:0:
72,224,112018,2,0,P|45:118|131:42,1,207.000003948212,12|4,0:0|0:0,0:0:0:0:
240,152,112446,1,8,0:0:0:0:
360,40,112589,1,0,0:0:0:0:
500,144,112732,6,0,P|428:209|320:192,1,207.000003948212,12|0,0:0|0:0,0:0:0:0:
288,352,113160,2,0,B|304:244|304:244|294:205|296:116,1,207.000003948212,12|0,0:0|0:0,0:0:0:0:
220,16,113589,1,12,0:0:0:0:
416,44,113732,1,0,0:0:0:0:
416,44,113803,1,0,0:0:0:0:
416,44,113875,6,0,B|360:64|360:64|280:48,1,103.500001974106,8|0,0:0|0:0,0:0:0:0:
132,32,114160,1,8,0:0:0:0:
176,220,114303,1,0,0:0:0:0:
296,116,114446,1,8,0:0:0:0:
344,100,114518,1,0,0:0:0:0:
392,112,114589,1,8,0:0:0:0:
420,156,114660,1,0,0:0:0:0:
404,204,114732,2,0,B|400:240|400:240|404:276,1,51.7500009870529,8|0,0:0|0:0,0:0:0:0:
340,344,114875,2,0,L|268:372,1,51.7500009870529
476,384,115018,6,0,B|516:328|484:272|484:272|504:232|504:232|480:184,1,207.000003948212,12|8,0:0|0:0,0:0:0:0:
452,80,115446,1,0,0:0:0:0:
348,176,115589,1,4,0:0:0:0:
248,76,115732,1,4,0:0:0:0:
420,132,115875,1,12,0:0:0:0:
260,240,116018,1,0,0:0:0:0:
192,16,116160,6,0,P|240:-8|308:20,1,103.500001974106,4|0,0:0|0:0,0:0:0:0:
444,196,116446,2,0,P|392:216|324:184,1,103.500001974106,12|0,0:0|0:0,0:0:0:0:
244,88,116732,1,0,0:0:0:0:
196,232,116875,1,4,0:0:0:0:
68,124,117018,1,8,0:0:0:0:
60,292,117160,1,0,0:0:0:0:
244,356,117303,6,0,B|252:312|240:288|240:288|284:260|276:184|228:164,1,207.000003948212,12|8,0:0|0:0,0:0:0:0:
348,40,117732,1,0,0:0:0:0:
348,40,117803,1,0,0:0:0:0:
348,40,117875,2,0,B|340:100|340:100|368:160,1,103.500001974106,4|4,0:0|0:0,0:0:0:0:
472,192,118160,1,12,0:0:0:0:
304,220,118303,1,0,0:0:0:0:
348,40,118446,6,0,B|294:53|294:53|258:37|258:37|219:51|219:51|182:37|182:37|151:46,1,207.000003948212,4|8,0:0|0:0,0:0:0:0:
134,189,118875,2,0,P|162:140|138:24,1,155.250002961159,4|0,0:0|0:0,0:0:0:0:
36,208,119160,2,0,B|73:188|73:188|133:188,1,103.500001974106,0|12,0:0|0:0,0:0:0:0:
232,288,119446,1,8,0:0:0:0:
232,288,119518,1,0,0:0:0:0:
232,288,119589,6,0,B|232:224|232:224|264:200|264:200|248:144|272:88,1,207.000003948212,12|0,0:0|0:0,0:0:0:0:
180,48,120018,1,12,0:0:0:0:
180,48,120089,1,0,0:0:0:0:
180,48,120160,1,12,0:0:0:0:
344,152,120303,1,0,0:0:0:0:
192,204,120446,2,0,B|128:216|128:216|72:196,1,103.500001974106,12|0,0:0|0:0,0:0:0:0:
63,202,120661,1,0,0:0:0:0:
72,220,120732,6,0,L|60:344,1,103.500001974106,4|0,0:0|0:0,0:0:0:0:
272,232,121018,2,0,L|280:100,1,103.500001974106,8|0,0:0|0:0,0:0:0:0:
104,32,121303,1,12,0:0:0:0:
136,64,121375,1,0,0:0:0:0:
180,76,121446,1,8,0:0:0:0:
228,76,121518,1,0,0:0:0:0:
264,48,121589,1,12,0:0:0:0:
308,36,121660,1,0,0:0:0:0:
360,32,121732,1,0,0:0:0:0:
400,64,121803,1,0,0:0:0:0:
408,116,121875,6,0,P|364:136|296:128,1,103.500001974106,12|0,0:0|0:0,0:0:0:0:
228,76,122160,2,0,P|216:136|256:196,1,103.500001974106,8|0,0:0|0:0,0:0:0:0:
496,68,122446,2,0,B|446:47|446:47|378:71,1,103.500001974106,12|0,0:0|0:0,0:0:0:0:
268,284,122732,2,0,L|404:280,1,103.500001974106,8|0,0:0|0:0,0:0:0:0:
305,122,123018,5,10,0:0:0:0:
424,152,123160,1,8,0:0:0:0:
336,208,123303,1,2,0:0:0:0:
361,46,123446,1,8,0:0:0:0:
404,248,123589,5,10,0:0:0:0:
460,56,123732,1,10,0:0:0:0:
252,196,123875,1,8,0:0:0:0:
301,2,124018,1,8,0:0:0:0:
404,244,124160,6,0,P|420:204|416:164,1,72,6|0,0:0|0:0,0:0:0:0:
361,46,124446,2,0,P|344:84|345:134,1,72
263,265,124732,2,0,P|251:225|255:177,2,72
304,356,125160,1,0,0:0:0:0:
403,244,125303,6,0,L|399:324,1,72,2|0,0:0|0:0,0:0:0:0:
263,265,125589,2,0,P|299:257|355:277,1,72
400,316,125875,2,0,L|372:396,2,72
448,200,126303,1,0,0:0:0:0:
348,116,126446,6,0,P|340:148|344:188,1,72,2|0,0:0|0:0,0:0:0:0:
220,260,126732,2,0,L|316:260,1,72
400,316,127018,2,0,L|496:316,2,72
292,360,127446,1,0,0:0:0:0:
220,260,127589,6,0,L|220:364,1,72,2|0,0:0|0:0,0:0:0:0:
343,186,127875,2,0,L|343:282,1,72
228,88,128160,2,0,L|224:168,2,72
120,28,128589,1,0,0:0:0:0:
224,159,128732,1,12,0:0:0:0:
72,184,128875,1,8,0:0:0:0:
320,168,129018,1,0,0:0:0:0:
184,252,129160,2,0,L|172:340,1,72,0|8,0:0|0:0,0:0:0:0:
228,88,129446,2,0,L|332:80,2,72,0|8|0,0:0|0:0|0:0,0:0:0:0:
168,236,129875,5,14,0:0:0:0:
52,120,130018,1,14,0:0:0:0:
0,272,130160,2,0,L|20:352,1,72,8|0,0:0|0:0,0:0:0:0:
172,332,130446,2,0,L|268:328,2,72,8|0|8,0:0|0:0|0:0,0:0:0:0:
108,332,130875,1,12,0:0:0:0:
256,240,131018,5,14,0:0:0:0:
96,152,131160,2,0,L|108:64,1,72,2|10,0:0|0:0,0:0:0:0:
248,36,131446,2,0,L|332:36,2,72,0|10|2,0:0|0:0|0:0,0:0:0:0:
256,168,131875,2,0,L|256:264,1,72,8|0,0:0|0:0,0:0:0:0:
116,344,132160,1,10,0:0:0:0:
60,252,132303,1,10,0:0:0:0:
184,244,132446,1,10,0:0:0:0:
128,132,132589,1,0,0:0:0:0:
264,268,132732,5,10,0:0:0:0:
40,152,132875,1,6,0:0:0:0:
232,92,133018,1,6,0:0:0:0:
116,264,133160,1,0,0:0:0:0:
120,32,133303,6,0,B|88:94|116:136|116:136|109:161|109:161|120:192|120:192,1,161.999995056153,12|8,0:0|0:0,0:0:0:0:
328,216,133732,2,0,P|254:192|192:240,1,161.999995056153,4|0,0:0|0:0,0:0:0:0:
424,328,134160,2,0,L|404:176,1,121.499996292114,12|0,0:0|0:0,0:0:0:0:
368,124,134446,1,4,0:0:0:0:
468,24,134589,1,4,0:0:0:0:
512,232,134732,6,0,L|496:136,1,80.9999975280763,8|0,0:0|0:0,0:0:0:0:
320,56,135018,2,0,P|369:41|416:56,1,80.9999975280763,4|0,0:0|0:0,0:0:0:0:
304,200,135303,1,8,0:0:0:0:
304,200,135375,1,0,0:0:0:0:
304,200,135446,2,0,P|286:109|332:47,1,161.999995056153,12|0,0:0|0:0,0:0:0:0:
448,120,135875,2,0,B|400:120|400:120|340:144,1,80.9999975280763,12|0,0:0|0:0,0:0:0:0:
276,264,136160,1,0,0:0:0:0:
184,144,136303,1,0,0:0:0:0:
80,248,136446,2,0,L|-32:240,1,80.9999975280763,12|0,0:0|0:0,0:0:0:0:
112,92,136732,5,4,0:0:0:0:
228,196,136875,1,0,0:0:0:0:
228,196,137018,1,12,0:0:0:0:
88,176,137160,1,0,0:0:0:0:
272,88,137303,1,0,0:0:0:0:
196,256,137446,1,0,0:0:0:0:
196,256,137518,1,0,0:0:0:0:
196,256,137589,1,12,0:0:0:0:
104,80,137732,1,0,0:0:0:0:
248,172,137875,6,0,P|328:176|404:112,1,161.999995056153,12|8,0:0|0:0,0:0:0:0:
470,242,138303,2,0,L|448:320,2,80.9999975280763,4|0|0,0:0|0:0|0:0,0:0:0:0:
488,132,138732,1,12,0:0:0:0:
376,228,138875,1,0,0:0:0:0:
264,152,139018,2,0,B|260:124|260:124|272:100|272:100|236:44|280:-16,1,161.999995056153,4|8,0:0|0:0,0:0:0:0:
380,88,139446,2,0,B|416:64|408:8|372:-8|372:-8|336:52,1,180,4|0,0:0|0:0,0:0:0:0:
216,216,139875,2,0,B|256:232|256:232|308:220,1,80.9999975280763,12|0,0:0|0:0,0:0:0:0:
440,284,140160,5,0,0:0:0:0:
404,204,140303,1,4,0:0:0:0:
216,216,140446,1,12,0:0:0:0:
244,300,140589,1,0,0:0:0:0:
404,204,140732,2,0,P|404:164|380:120,1,80.9999975280763,4|0,0:0|0:0,0:0:0:0:
200,44,141018,2,0,P|260:64|336:40,1,121.499996292114,12|0,0:0|0:0,0:0:0:0:
465,120,141303,6,0,P|421:116|385:128,1,80.9999975280763,4|0,0:0|0:0,0:0:0:0:
312,252,141589,1,0,0:0:0:0:
220,136,141732,1,0,0:0:0:0:
386,127,141875,1,4,0:0:0:0:
200,304,142017,1,0,0:0:0:0:
200,304,142089,1,0,0:0:0:0:
200,304,142160,2,0,P|192:256|200:216,1,80.9999975280763,8|8,0:0|0:0,0:0:0:0:
96,40,142446,6,0,B|52:32|52:32|0:44,1,80.9999975280763,12|0,0:0|0:0,0:0:0:0:
60,288,142732,2,0,L|64:192,1,80.9999975280763,12|0,0:0|0:0,0:0:0:0:
156,56,143018,1,4,0:0:0:0:
276,136,143160,1,0,0:0:0:0:
380,40,143303,1,12,0:0:0:0:
232,40,143446,1,12,0:0:0:0:
252,192,143589,5,12,0:0:0:0:
428,176,143732,1,0,0:0:0:0:
492,36,143875,1,12,0:0:0:0:
468,244,144018,1,0,0:0:0:0:
324,92,144160,1,4,0:0:0:0:
512,160,144303,1,4,0:0:0:0:
292,224,144446,1,12,0:0:0:0:
348,12,144589,1,8,0:0:0:0:
512,160,144732,6,0,B|480:172|456:152|456:152|416:184|344:156,1,161.999995056153,12|8,0:0|0:0,0:0:0:0:
160,100,145160,1,0,0:0:0:0:
101,230,145303,2,0,B|136:236|136:236|180:224,1,80.9999975280763,4|4,0:0|0:0,0:0:0:0:
337,324,145589,2,0,P|399:318|348:284,1,161.999995056153,12|0,0:0|0:0,0:0:0:0:
168,368,146018,1,0,0:0:0:0:
168,368,146160,2,0,B|172:272,1,80.9999975280763,12|0,0:0|0:0,0:0:0:0:
272,60,146446,2,0,B|272:172,1,80.9999975280763,12|0,0:0|0:0,0:0:0:0:
112,160,146732,5,8,0:0:0:0:
100,116,146803,1,0,0:0:0:0:
104,72,146875,1,8,0:0:0:0:
128,36,146946,1,0,0:0:0:0:
156,0,147018,2,0,B|200:-16|240:8|240:8|272:-16|344:20,1,161.999995056153,12|8,0:0|0:0,0:0:0:0:
268,168,147446,1,0,0:0:0:0:
424,104,147589,1,0,0:0:0:0:
300,248,147732,1,0,0:0:0:0:
311,22,147875,1,8,0:0:0:0:
464,168,148018,1,0,0:0:0:0:
200,112,148160,6,0,P|184:176|216:244,1,121.499996292114,12|0,0:0|0:0,0:0:0:0:
280,312,148446,2,0,B|319:307|319:307|359:315,1,80.9999975280763,8|0,0:0|0:0,0:0:0:0:
124,344,148732,2,0,L|124:384,2,40.4999987640381,4|0|0,0:0|0:0|0:0,0:0:0:0:
264,168,149018,1,8,0:0:0:0:
304,152,149089,1,0,0:0:0:0:
344,168,149160,1,8,0:0:0:0:
388,180,149232,1,0,0:0:0:0:
436,176,149303,6,0,B|448:136|448:136|448:88,1,85.4999977169037,12|0,0:0|0:0,0:0:0:0:
204,234,149589,2,0,L|204:319,1,85.4999977169037,12|0,0:0|0:0,0:0:0:0:
168,36,149875,1,12,0:0:0:0:
308,184,150018,1,4,0:0:0:0:
100,192,150160,1,12,0:0:0:0:
232,0,150303,1,0,0:0:0:0:
32,40,150446,5,12,0:0:0:0:
176,176,150589,1,0,0:0:0:0:
40,296,150732,1,0,0:0:0:0:
88,80,150875,2,0,P|172:56|272:104,1,170.999995433807,12|0,0:0|0:0,0:0:0:0:
368,148,151303,1,12,0:0:0:0:
276,220,151446,1,0,0:0:0:0:
464,180,151589,6,0,B|472:136|456:108|456:108|472:76|460:28,1,135.000005149842,12|0,0:0|0:0,0:0:0:0:
296,40,152018,1,4,0:0:0:0:
296,40,152160,2,0,B|328:48|328:48|388:44,1,67.5000025749208
276,220,152446,2,0,L|280:120,1,67.5000025749208,8|0,0:0|0:0,0:0:0:0:
388,268,152732,6,0,P|444:296|520:280,1,135.000005149842,4|0,0:0|0:0,0:0:0:0:
476,188,153160,2,0,P|460:152|464:200,1,135.000005149842,4|0,0:0|0:0,0:0:0:0:
388,268,153589,1,12,0:0:0:0:
304,188,153732,1,0,0:0:0:0:
224,308,153875,6,0,B|219:278|233:249|233:249|216:226|221:173,1,135.000005149842,4|0,0:0|0:0,0:0:0:0:
352,288,154303,2,0,P|340:348|276:352,1,135.000005149842,4|0,0:0|0:0,0:0:0:0:
144,320,154732,1,12,0:0:0:0:
408,148,155018,1,12,0:0:0:0:
224,252,155303,5,0,0:0:0:0:
312,172,155446,1,8,0:0:0:0:
312,172,155589,1,8,0:0:0:0:
188,180,155732,1,0,0:0:0:0:
308,280,155875,1,8,0:0:0:0:
288,84,156018,1,0,0:0:0:0:
312,104,156160,6,0,P|372:128|456:92,1,135.000005149842,12|0,0:0|0:0,0:0:0:0:
496,156,156589,2,0,L|496:244,2,67.5000025749208,4|0|0,0:0|0:0|0:0,0:0:0:0:
376,48,157018,1,12,0:0:0:0:
496,156,157160,1,0,0:0:0:0:
356,228,157303,6,0,P|304:172|232:192,1,135.000005149842,4|0,0:0|0:0,0:0:0:0:
176,284,157732,2,0,B|184:220|184:220|164:188|180:140,1,135.000005149842,4|0,0:0|0:0,0:0:0:0:
160,24,158160,1,12,0:0:0:0:
276,64,158303,1,0,0:0:0:0:
249,178,158446,6,0,P|329:170|377:122,1,135.000005149842,4|0,0:0|0:0,0:0:0:0:
472,126,158875,2,0,P|408:166|364:126,1,135.000005149842,4|0,0:0|0:0,0:0:0:0:
276,64,159303,1,12,0:0:0:0:
512,40,159589,1,12,0:0:0:0:
305,290,159875,5,0,0:0:0:0:
216,252,160018,1,8,0:0:0:0:
148,184,160160,1,12,0:0:0:0:
276,176,160303,1,4,0:0:0:0:
156,312,160446,1,8,0:0:0:0:
305,290,160589,1,4,0:0:0:0:
224,120,160732,6,0,P|256:104|348:140,1,135.000005149842,12|0,0:0|0:0,0:0:0:0:
384,244,161160,1,4,0:0:0:0:
384,244,161303,2,0,L|450:232,2,67.5000025749208,8|0|4,0:0|0:0|0:0,0:0:0:0:
248,196,161732,1,0,0:0:0:0:
420,168,161875,2,0,P|424:96|364:44,1,135.000005149842,4|0,0:0|0:0,0:0:0:0:
248,148,162303,1,4,0:0:0:0:
312,28,162446,1,8,0:0:0:0:
180,36,162589,1,0,0:0:0:0:
248,148,162732,2,0,L|248:228,1,67.5000025749208,4|0,0:0|0:0,0:0:0:0:
40,204,163018,6,0,B|56:168|96:164|96:164|108:124|164:120,1,135.000005149842,4|0,0:0|0:0,0:0:0:0:
164,272,163446,1,4,0:0:0:0:
244,339,163589,2,0,P|268:263|236:203,1,135.000005149842,8|4,0:0|0:0,0:0:0:0:
200,112,164018,1,0,0:0:0:0:
320,168,164160,2,0,P|392:176|428:120,1,144,4|0,0:0|0:0,0:0:0:0:
284,48,164589,1,0,0:0:0:0:
200,112,164732,1,12,0:0:0:0:
356,112,164875,1,8,0:0:0:0:
232,184,165018,1,4,0:0:0:0:
156,32,165160,1,12,0:0:0:0:
416,37,165303,6,0,B|364:28|364:28|296:36|296:36|276:44,1,135,12|0,0:0|0:0,0:0:0:0:
156,32,165589,1,0,0:0:0:0:
156,280,165732,6,0,B|165:228|165:228|152:183|152:183|157:160|157:160|152:136,1,148.50000453186,12|0,0:0|0:0,0:0:0:0:
156,32,166018,1,0,0:0:0:0:
60,248,166160,1,12,0:0:0:0:
240,180,166303,1,0,0:0:0:0:
24,132,166446,1,8,0:0:0:0:
232,8,166589,1,8,0:0:0:0:
232,300,166732,1,14,0:0:0:0:
288,144,167446,6,0,B|347:124|392:156|392:156|408:144|444:144|444:144|496:144,1,198.000006042481,6|0,0:0|0:0,0:0:0:0:
244,208,167875,2,0,P|207:152|272:64,1,155.250002961159,14|0,0:0|0:0,0:0:0:0:
324,20,168160,1,4,0:0:0:0:
332,220,168303,1,0,0:0:0:0:
241,76,168446,1,12,0:0:0:0:
408,192,168589,1,0,0:0:0:0:
408,192,168660,1,0,0:0:0:0:
408,192,168732,6,0,L|512:176,1,99.0000030212403,4|0,0:0|0:0,0:0:0:0:
344,264,169018,1,14,0:0:0:0:
168,228,169160,1,0,0:0:0:0:
344,128,169303,1,6,0:0:0:0:
264,320,169446,1,0,0:0:0:0:
160,144,169589,1,14,0:0:0:0:
160,144,169732,1,0,0:0:0:0:
296,256,169875,6,0,B|288:136|288:136|248:116|240:60,1,198.000006042481,14|8,0:0|0:0,0:0:0:0:
336,48,170303,1,2,0:0:0:0:
412,176,170446,2,0,P|464:176|524:152,1,99.0000030212403
416,312,170732,2,0,B|356:296|356:296|224:336,1,198.000006042481,10|0,0:0|0:0,0:0:0:0:
332,220,171160,1,0,0:0:0:0:
196,128,171303,6,0,P|144:128|97:144,1,99.0000030212403,10|0,0:0|0:0,0:0:0:0:
116,312,171589,2,0,L|180:304,2,49.5000015106202,10|0|0,0:0|0:0|0:0,0:0:0:0:
216,184,171875,1,8,0:0:0:0:
228,228,171946,1,0,0:0:0:0:
184,224,172018,1,8,0:0:0:0:
140,232,172089,1,0,0:0:0:0:
100,248,172160,6,0,L|-16:244,1,99.0000030212403,14|0,0:0|0:0,0:0:0:0:
148,300,172446,1,8,0:0:0:0:
276,168,172589,2,0,P|280:112|236:48,1,99.0000030212403,2|0,0:0|0:0,0:0:0:0:
148,300,172875,1,0,0:0:0:0:
88,120,173018,1,14,0:0:0:0:
232,248,173160,2,0,L|216:188,1,49.5000015106202
168,80,173303,1,14,0:0:0:0:
63,214,173446,2,0,L|115:262,1,49.5000015106202,2|0,0:0|0:0,0:0:0:0:
272,316,173589,2,0,P|304:276|284:200,1,99.0000030212403,8|0,0:0|0:0,0:0:0:0:
228,36,173875,2,0,P|264:56|320:56,1,99.0000030212403,2|0,0:0|0:0,0:0:0:0:
477,218,174160,6,0,B|425:254|425:254|385:222|385:222|345:238|281:226,1,198.000006042481,14|0,0:0|0:0,0:0:0:0:
63,214,174589,2,0,L|131:206,1,49.5000015106202
192,240,174732,2,0,L|200:120,1,99.0000030212403,8|0,0:0|0:0,0:0:0:0:
132,48,174946,1,0,0:0:0:0:
132,48,175018,2,8,B|108:92|108:92|104:152,1,99.0000030212403
148,292,175303,1,8,0:0:0:0:
272,164,175446,1,0,0:0:0:0:
272,164,175518,1,0,0:0:0:0:
272,164,175589,6,0,B|344:152|344:152|372:196|448:172,1,148.50000453186,8|0,0:0|0:0,0:0:0:0:
448,44,175875,2,0,P|380:32|328:88,1,148.50000453186,12|0,0:0|0:0,0:0:0:0:
272,164,176160,1,0,0:0:0:0:
400,104,176303,1,0,0:0:0:0:
328,280,176446,1,8,0:0:0:0:
288,256,176518,1,0,0:0:0:0:
244,248,176589,1,8,0:0:0:0:
200,264,176660,1,0,0:0:0:0:
156,280,176732,6,0,L|130:138,1,99.0000030212403,12|0,0:0|0:0,0:0:0:0:
360,128,177018,2,0,P|368:188|328:232,1,99.0000030212403,8|0,0:0|0:0,0:0:0:0:
200,344,177303,1,0,0:0:0:0:
296,176,177446,1,0,0:0:0:0:
296,176,177518,1,0,0:0:0:0:
296,176,177589,1,8,0:0:0:0:
348,348,177732,1,0,0:0:0:0:
184,212,177875,2,0,L|136:204,2,49.5000015106202
404,288,178160,2,0,B|380:204|380:204|392:108,1,148.50000453186,8|0,0:0|0:0,0:0:0:0:
304,48,178446,5,8,0:0:0:0:
448,24,178589,1,0,0:0:0:0:
256,184,178732,1,8,0:0:0:0:
416,224,178875,1,0,0:0:0:0:
304,48,179018,2,0,B|232:48|232:48|192:72|192:72|96:72,1,198.000006042481,12|0,0:0|0:0,0:0:0:0:
80,200,179446,1,8,0:0:0:0:
80,200,179518,1,0,0:0:0:0:
80,200,179589,1,8,0:0:0:0:
256,184,179732,1,0,0:0:0:0:
68,272,179875,1,8,0:0:0:0:
112,72,180018,2,0,L|120:136,1,49.5000015106202
204,244,180160,6,0,P|276:256|328:172,1,148.50000453186,8|0,0:0|0:0,0:0:0:0:
388,284,180446,2,0,L|492:272,1,99.0000030212403,8|0,0:0|0:0,0:0:0:0:
228,356,180732,1,12,0:0:0:0:
204,320,180803,1,0,0:0:0:0:
196,276,180875,1,8,0:0:0:0:
208,232,180946,1,0,0:0:0:0:
244,208,181018,2,0,L|312:204,1,49.5000015106202
364,52,181160,2,0,L|345:97,1,49.5000015106202,12|0,0:0|0:0,0:0:0:0:
184,32,181303,6,0,P|128:16|76:32,1,103.500001974106,12|0,0:0|0:0,0:0:0:0:
103,320,181589,2,0,B|155:332|155:332|219:316,1,103.500001974106,12|0,0:0|0:0,0:0:0:0:
272,144,181875,1,8,0:0:0:0:
132,100,182018,1,8,0:0:0:0:
189,232,182160,1,8,0:0:0:0:
332,96,182303,1,0,0:0:0:0:
132,100,182446,6,0,P|112:48|112:0,1,103.500001974106,12|0,0:0|0:0,0:0:0:0:
431,75,182732,2,0,P|379:95|331:95,1,103.500001974106,4|0,0:0|0:0,0:0:0:0:
204,16,183018,1,8,0:0:0:0:
196,216,183160,1,8,0:0:0:0:
331,95,183303,1,8,0:0:0:0:
128,168,183446,1,0,0:0:0:0:
280,320,183589,6,0,P|336:316|392:292,1,103.500001974106,12|0,0:0|0:0,0:0:0:0:
444,60,183875,2,0,P|449:113|436:180,1,103.500001974106,8|0,0:0|0:0,0:0:0:0:
280,320,184160,2,0,P|276:252|288:200,1,103.500001974106,8|0,0:0|0:0,0:0:0:0:
312,176,184375,1,0,0:0:0:0:
312,176,184446,2,0,L|208:179,1,103.500001974106,8|0,0:0|0:0,0:0:0:0:
284,40,184732,5,12,0:0:0:0:
384,248,184875,1,0,0:0:0:0:
208,179,185018,1,12,0:0:0:0:
448,80,185160,1,0,0:0:0:0:
328,308,185303,1,8,0:0:0:0:
280,316,185375,1,0,0:0:0:0:
232,316,185446,1,8,0:0:0:0:
188,300,185518,1,0,0:0:0:0:
156,268,185589,1,0,0:0:0:0:
196,236,185660,1,0,0:0:0:0:
216,188,185732,1,8,0:0:0:0:
204,140,185803,1,0,0:0:0:0:
172,100,185875,6,0,B|92:112|92:112|80:48|-8:40,1,207.000003948212,12|8,0:0|0:0,0:0:0:0:
36,196,186303,2,0,L|160:176,2,103.500001974106
16,332,186732,2,0,P|68:348|140:308,1,103.500001974106,8|0,0:0|0:0,0:0:0:0:
136,256,186946,1,0,0:0:0:0:
136,256,187018,2,0,P|128:176|156:68,1,155.250002961159
296,124,187303,2,0,P|248:136|180:112,1,103.500001974106,8|0,0:0|0:0,0:0:0:0:
248,4,187589,1,4,0:0:0:0:
141,102,187732,1,4,0:0:0:0:
240,232,187875,5,8,0:0:0:0:
384,116,188018,1,0,0:0:0:0:
384,116,188089,1,0,0:0:0:0:
384,116,188160,2,0,B|336:148|336:148|296:104|296:104|252:128|192:96,1,207.000003948212,12|12,0:0|0:0,0:0:0:0:
80,24,188589,1,0,0:0:0:0:
48,172,188732,2,0,P|100:176|152:160,2,103.500001974106,0|0|8,0:0|0:0|0:0,0:0:0:0:
212,0,189160,1,0,0:0:0:0:
212,0,189232,1,0,0:0:0:0:
212,0,189303,6,0,L|212:104,1,103.500001974106
176,264,189589,1,8,0:0:0:0:
48,172,189732,1,0,0:0:0:0:
212,176,189875,2,0,L|268:160,1,51.7500009870529,8|0,0:0|0:0,0:0:0:0:
344,100,190018,1,0,0:0:0:0:
372,252,190160,1,8,0:0:0:0:
324,272,190232,1,0,0:0:0:0:
272,268,190303,1,8,0:0:0:0:
224,248,190375,1,0,0:0:0:0:
176,264,190446,6,0,B|124:312|124:312|124:408,1,155.250002961159,12|0,0:0|0:0,0:0:0:0:
32,280,190732,2,0,P|28:224|56:168,1,103.500001974106,8|0,0:0|0:0,0:0:0:0:
220,104,191018,1,0,0:0:0:0:
220,104,191089,1,0,0:0:0:0:
220,104,191160,2,0,B|168:120|168:120|104:116,1,103.500001974106,12|0,0:0|0:0,0:0:0:0:
24,24,191446,2,0,L|32:88,1,51.7500009870529
220,260,191589,6,0,P|250:219|247:168,1,103.500001974106,8|0,0:0|0:0,0:0:0:0:
296,16,191875,1,0,0:0:0:0:
468,16,192018,2,0,P|500:80|448:200,1,207.000003948212,12|0,0:0|0:0,0:0:0:0:
320,316,192446,1,8,0:0:0:0:
312,144,192589,1,0,0:0:0:0:
200,236,192732,2,0,B|160:256|160:256|120:244|120:244|92:280|92:280|48:256|4:296,1,207.000003948212,12|0,0:0|0:0,0:0:0:0:
160,184,193160,2,0,P|188:92|96:28,1,207.000003948212,12|0,0:0|0:0,0:0:0:0:
56,168,193589,1,8,0:0:0:0:
128,280,193732,2,0,L|152:224,1,51.7500009870529
216,156,193875,6,0,P|276:136|348:152,1,103.500001974106,12|0,0:0|0:0,0:0:0:0:
456,260,194160,1,8,0:0:0:0:
280,240,194303,1,0,0:0:0:0:
432,140,194446,1,8,0:0:0:0:
396,108,194518,1,0,0:0:0:0:
348,104,194589,1,8,0:0:0:0:
304,116,194660,1,0,0:0:0:0:
256,120,194732,2,0,L|212:56,1,51.7500009870529
112,131,194875,2,0,L|80:172,1,51.7500009870529,8|0,0:0|0:0,0:0:0:0:
168,296,195018,6,0,P|245:336|358:299,1,207.000003948212,8|8,0:0|0:0,0:0:0:0:
308,64,195446,1,0,0:0:0:0:
420,152,195589,1,0,0:0:0:0:
468,16,195732,1,0,0:0:0:0:
320,152,195875,1,8,0:0:0:0:
504,212,196018,1,0,0:0:0:0:
468,16,196160,6,0,P|416:0|336:0,1,103.500001974106
139,49,196446,2,0,L|151:161,1,103.500001974106,8|0,0:0|0:0,0:0:0:0:
308,300,196732,1,4,0:0:0:0:
144,244,196875,1,0,0:0:0:0:
320,152,197018,1,8,0:0:0:0:
144,56,197160,1,0,0:0:0:0:
260,220,197303,6,0,B|316:240|316:240|376:216|376:216|472:224,1,207.000003948212,4|0,0:0|0:0,0:0:0:0:
404,384,197732,1,8,0:0:0:0:
404,384,197803,1,0,0:0:0:0:
404,384,197875,2,0,P|388:320|388:264,1,103.500001974106,8|0,0:0|0:0,0:0:0:0:
468,128,198160,1,0,0:0:0:0:
320,196,198303,1,0,0:0:0:0:
240,52,198446,6,0,B|188:76|188:76|164:48|148:48|148:48|76:88|28:40,1,207.000003948212,8|0,0:0|0:0,0:0:0:0:
97,181,198875,2,0,P|108:107|52:57,1,155.250002961159,8|0,0:0|0:0,0:0:0:0:
97,181,199160,2,0,B|133:197|133:197|205:197,1,103.500001974106
360,144,199446,2,0,L|296:144,1,51.7500009870529
197,197,199589,2,0,B|145:277|199:340|199:340|228:340|228:340|281:357,1,207.000003948212,12|0,0:0|0:0,0:0:0:0:
424,284,200018,1,0,0:0:0:0:
424,284,200089,1,0,0:0:0:0:
424,284,200160,5,8,0:0:0:0:
260,264,200303,1,0,0:0:0:0:
412,148,200446,1,8,0:0:0:0:
488,344,200589,1,0,0:0:0:0:
488,344,200660,1,0,0:0:0:0:
488,344,200732,2,0,P|504:288|476:228,1,103.500001974106,8|0,0:0|0:0,0:0:0:0:
212,376,201018,2,0,P|260:388|324:372,1,103.500001974106,8|0,0:0|0:0,0:0:0:0:
312,156,201303,1,8,0:0:0:0:
284,120,201375,1,0,0:0:0:0:
240,104,201446,1,8,0:0:0:0:
196,116,201518,1,0,0:0:0:0:
168,152,201589,1,0,0:0:0:0:
176,196,201660,1,0,0:0:0:0:
200,236,201732,1,8,0:0:0:0:
192,280,201803,1,0,0:0:0:0:
156,312,201875,6,0,L|52:308,1,103.500001974106,12|0,0:0|0:0,0:0:0:0:
296,280,202160,2,0,L|416:284,1,103.500001974106,12|0,0:0|0:0,0:0:0:0:
104,128,202446,2,0,P|96:184|104:236,1,103.500001974106,8|0,0:0|0:0,0:0:0:0:
304,384,202732,2,0,P|310:332|302:281,1,103.500001974106,12|0,0:0|0:0,0:0:0:0:
252,132,203018,1,8,0:0:0:0:
192,216,203160,1,8,0:0:0:0:
332,140,203303,1,8,0:0:0:0:
302,281,203446,1,0,0:0:0:0:
184,144,203589,1,8,0:0:0:0:
384,196,203732,1,0,0:0:0:0:
160,280,203875,1,0,0:0:0:0:
264,64,204018,1,8,0:0:0:0:
384,196,204160,6,0,L|292:208,1,80.9999975280763
184,144,204446,2,0,P|128:84|40:92,1,144
136,216,204875,2,0,B|208:224|208:224|292:168,1,144
264,64,205303,5,0,0:3:0:0:
352,156,205589,2,0,B|356:192|356:192|340:220|340:220|372:252|372:252|348:272|348:272|376:312|344:356,1,216,2|0,0:3|0:3,0:3:0:0:
216,264,206160,1,0,0:0:0:0:
268,184,206303,1,0,0:3:0:0:
356,280,206446,2,0,P|440:300|508:272,1,144,0|0,0:3|0:3,0:3:0:0:
440,188,207160,5,0,0:3:0:0:
340,128,207303,1,0,0:3:0:0:
280,216,207446,1,0,0:3:0:0:
172,144,207589,2,0,B|116:148|116:148|72:184|12:164,1,144,0|0,0:3|0:3,0:3:0:0:
172,144,208018,2,0,L|172:228,1,80.9999975280763,0|0,0:3|0:3,0:3:0:0:
60,88,208303,2,0,L|60:8,1,80.9999975280763,0|0,0:3|0:3,0:3:0:0:
100,216,208589,1,0,0:3:0:0:
172,144,208732,6,0,P|244:112|308:152,2,144,4|0|0,0:3|0:3|0:3,0:3:0:0:
204,252,209446,2,0,P|252:252|308:264,2,72,0|0|0,0:3|0:3|0:3,0:3:0:0:
117,367,209875,2,0,P|132:297|88:212,1,144,4|0,0:3|0:3,0:3:0:0:
232,180,210446,1,0,0:0:0:0:
284,252,210589,2,0,L|364:256,1,80.9999975280763,0|0,0:3|0:3,0:3:0:0:
448,200,210875,1,0,0:3:0:0:
435,370,211018,6,0,B|439:330|411:310|411:310|363:294|363:238,1,144,4|0,0:3|0:3,0:3:0:0:
336,72,211589,1,0,0:0:0:0:
256,144,211732,1,0,0:0:0:0:
152,144,211875,1,0,0:3:0:0:
76,68,212018,1,0,0:3:0:0:
160,4,212160,2,0,L|212:8,4,40.4999987640381,4|4|0|0|2,0:3|0:3|0:3|0:3|0:3,0:3:0:0:
40,136,212589,2,0,L|124:136,1,72,0|0,0:3|0:3,0:3:0:0:
216,136,212875,1,0,0:3:0:0:
104,68,213018,5,0,0:3:0:0:
112,208,213160,1,0,0:3:0:0:
216,136,213303,6,0,P|296:140|336:180,1,135.000005149842,4|0,0:3|0:3,0:3:0:0:
216,300,213732,2,0,P|168:248|192:176,1,135.000005149842
333,175,214160,2,0,P|393:203|469:183,1,135.000005149842
464,324,214589,2,0,L|476:247,1,67.5000025749208,0|4,0:3|0:3,0:3:0:0:
340,242,214875,2,0,L|332:166,1,67.5000025749208,4|4,0:3|0:3,0:3:0:0:
408,112,215160,2,0,L|420:44,1,67.5000025749208,2|4,0:3|0:3,0:3:0:0:
305,82,215446,1,2,0:3:0:0:
340,240,215589,6,0,P|420:232|440:160,1,135.000005149842,4|0,0:3|0:3,0:3:0:0:
305,82,216160,2,0,B|272:120|272:120|240:100|196:96|152:124|148:200,1,202.500007724762
84,208,216732,2,0,P|132:248|220:220,1,135.000005149842
68,96,217303,5,4,0:3:0:0:
152,168,217446,1,0,0:3:0:0:
56,244,217589,1,4,0:3:0:0:
192,288,217732,1,0,0:3:0:0:
152,168,217875,6,0,L|156:12,1,144,4|0,0:3|0:3,0:3:0:0:
300,168,218589,5,4,0:3:0:0:
220,228,218732,1,0,0:3:0:0:
124,200,218875,1,0,0:3:0:0:
28,164,219018,2,0,P|16:224|40:320,2,144,4|0|4,0:3|0:3|0:3,0:3:0:0:
128,220,219732,2,0,L|136:308,1,72,0|0,0:3|0:3,0:3:0:0:
236,328,220018,1,0,0:3:0:0:
328,256,220160,6,0,P|328:176|256:144,1,144,4|4,0:3|0:3,0:3:0:0:
156,88,220589,2,0,B|200:88|200:88|260:72,1,72
279,144,220875,1,0,0:3:0:0:
360,60,221018,1,4,0:3:0:0:
416,208,221160,1,0,0:3:0:0:
500,92,221303,2,0,L|528:24,2,40.4999987640381,8|0|0,0:3|0:3|0:3,0:3:0:0:
448,280,221589,1,0,0:0:0:0:
320,152,221732,1,0,0:3:0:0:
512,172,221875,5,12,0:0:0:0:
400,64,222018,1,0,0:0:0:0:
360,48,222089,1,0,0:0:0:0:
316,44,222160,1,0,0:0:0:0:
276,60,222232,1,0,0:0:0:0:
248,92,222303,2,0,L|216:156,1,40.4999987640381
352,276,222446,6,0,P|368:232|352:160,1,90,12|0,0:0|0:0,0:0:0:0:
156,68,222732,1,0,0:0:0:0:
80,232,222875,2,0,P|164:256|256:216,1,180,12|0,0:0|0:0,0:0:0:0:
320,104,223303,1,12,0:0:0:0:
408,232,223446,1,4,0:0:0:0:
247,223,223589,1,0,0:0:0:0:
400,124,223732,1,0,0:0:0:0:
320,272,223875,6,0,P|308:320|312:376,1,90,12|0,0:0|0:0,0:0:0:0:
486,137,224160,2,0,P|442:121|390:126,1,90
320,272,224446,1,8,0:0:0:0:
216,136,224589,1,0,0:0:0:0:
216,136,224660,1,0,0:0:0:0:
216,136,224732,6,0,B|188:72|244:28|244:28|296:100,1,180,4|8,0:0|0:0,0:0:0:0:
208,232,225160,2,0,P|160:193|36:220,1,180,4|0,0:0|0:0,0:0:0:0:
132,280,225589,1,8,0:0:0:0:
288,348,225732,1,0,0:0:0:0:
208,232,225875,2,0,L|228:144,1,90,4|0,0:0|0:0,0:0:0:0:
316,16,226160,1,8,0:0:0:0:
384,196,226303,1,4,0:0:0:0:
232,148,226446,1,0,0:0:0:0:
384,76,226589,1,4,0:0:0:0:
160,68,226732,2,0,L|220:72,1,45,12|0,0:0|0:0,0:0:0:0:
288,208,226875,2,0,L|336:176,1,45
360,0,227018,6,0,P|424:4|436:136,1,180,12|8,0:0|0:0,0:0:0:0:
436,228,227446,1,4,0:0:0:0:
336,148,227589,2,0,L|216:136,2,90,0|4|12,0:0|0:0|0:0,0:0:0:0:
469,105,228018,1,0,0:0:0:0:
488,288,228160,2,0,P|420:304|352:220,1,180,4|8,0:0|0:0,0:0:0:0:
246,139,228589,2,0,L|226:323,1,180,4|4,0:0|0:0,0:0:0:0:
96,172,229018,2,0,P|108:112|172:80,1,135,12|0,0:0|0:0,0:0:0:0:
246,139,229303,5,4,0:0:0:0:
96,164,229446,1,4,0:0:0:0:
48,16,229589,2,0,L|152:12,1,90,8|0,0:0|0:0,0:0:0:0:
144,232,229875,2,0,L|32:236,1,90,4|0,0:0|0:0,0:0:0:0:
240,72,230160,2,0,B|268:64|268:64|288:72|288:72|308:64|308:64|328:72|328:72|352:64|352:64|376:72|376:72|400:64|400:64|424:72|424:72|456:68|456:68|504:100|516:148|456:188,1,360,14|8,0:0|0:0,0:0:0:0:
368,300,230875,2,0,L|352:248,1,45
320,160,231018,5,0,0:0:0:0:
436,208,231160,1,0,0:0:0:0:
284,280,231303,1,8,0:0:0:0:
320,160,231446,1,0,0:0:0:0:
412,368,231589,2,0,L|312:372,1,90,4|0,0:0|0:0,0:0:0:0:
192,316,231803,1,0,0:0:0:0:
192,316,231875,2,0,P|196:268|176:204,1,90,8|0,0:0|0:0,0:0:0:0:
32,40,232160,1,4,0:0:0:0:
28,80,232232,1,0,0:0:0:0:
48,116,232303,1,4,0:0:0:0:
88,128,232375,1,0,0:0:0:0:
128,128,232446,2,0,P|180:116|248:128,1,90,8|0,0:0|0:0,0:0:0:0:
356,224,232732,5,4,0:0:0:0:
252,40,232875,1,0,0:0:0:0:
416,88,233018,1,12,0:0:0:0:
236,216,233160,1,4,0:0:0:0:
404,168,233303,2,0,P|372:152|308:164,1,90
236,324,233518,1,0,0:0:0:0:
240,328,233589,2,0,L|340:328,1,90,8|0,0:0|0:0,0:0:0:0:
252,160,233875,5,4,0:0:0:0:
248,120,233946,1,0,0:0:0:0:
264,84,234018,1,0,0:0:0:0:
300,64,234089,1,0,0:0:0:0:
340,72,234160,1,8,0:0:0:0:
380,88,234232,1,0,0:0:0:0:
420,80,234303,2,0,L|426:42,1,38.2500007295609
492,184,234446,2,0,L|508:140,1,45,4|0,0:0|0:0,0:0:0:0:
368,232,234589,2,0,L|360:188,1,45,4|0,0:0|0:0,0:0:0:0:
484,320,234732,2,0,L|502:273,1,45,8|0,0:0|0:0,0:0:0:0:
332,380,234875,2,0,L|319:336,1,45
260,144,235018,5,4,0:0:0:0:
224,124,235089,1,0,0:0:0:0:
184,116,235160,1,0,0:0:0:0:
144,120,235232,1,0,0:0:0:0:
108,140,235303,2,0,L|100:244,1,90,12|4,0:0|0:0,0:0:0:0:
36,336,235589,2,0,L|88:336,1,45
224,264,235732,2,0,L|148:256,1,45,4|0,0:0|0:0,0:0:0:0:
24,172,235875,1,12,0:0:0:0:
12,128,235946,1,0,0:0:0:0:
24,84,236018,1,0,0:0:0:0:
60,60,236089,1,0,0:0:0:0:
104,56,236160,6,0,B|152:80|152:80|284:76,1,180,12|8,0:2|0:0,0:0:0:0:
368,12,236589,1,0,0:0:0:0:
216,16,236732,1,0,0:0:0:0:
216,16,236875,1,0,0:0:0:0:
344,152,237018,2,0,P|292:164|232:156,1,90,8|0,0:0|0:0,0:0:0:0:
84,72,237303,5,4,0:0:0:0:
60,112,237375,1,0,0:0:0:0:
60,156,237446,1,0,0:0:0:0:
80,196,237518,1,0,0:0:0:0:
120,212,237589,1,8,0:0:0:0:
160,192,237660,1,0,0:0:0:0:
200,172,237732,1,4,0:0:0:0:
244,176,237803,1,0,0:0:0:0:
288,184,237875,1,0,0:0:0:0:
332,192,237946,1,0,0:0:0:0:
376,200,238018,1,12,0:0:0:0:
420,212,238089,1,0,0:0:0:0:
464,224,238160,5,0,0:0:0:0:
432,264,238232,1,8,0:0:0:0:
384,280,238303,1,0,0:0:0:0:
336,272,238375,1,0,0:0:0:0:
292,248,238446,2,0,P|284:196|300:136,1,99.0000030212403,12|0,0:0|0:0,0:0:0:0:
472,16,238732,2,0,L|476:132,1,99.0000030212403,12|0,0:0|0:0,0:0:0:0:
416,328,239018,1,12,0:0:0:0:
292,152,239160,1,0,0:0:0:0:
232,328,239303,1,12,0:0:0:0:
464,224,239446,1,0,0:0:0:0:
280,72,239589,5,14,0:0:0:0:
216,192,239732,1,0,0:0:0:0:
156,312,239875,1,0,0:0:0:0:
352,100,240018,2,0,P|344:28|228:16,1,198.000006042481,12|0,0:0|0:0,0:0:0:0:
160,136,240446,1,8,0:0:0:0:
296,232,240589,1,0,0:0:0:0:
156,312,240732,6,0,L|0:312,1,135.000005149842,6|0,0:0|0:0,0:0:0:0:
156,312,241160,1,4,0:0:0:0:
96,224,241303,2,0,L|104:140,1,67.5000025749208
184,96,241589,1,4,0:0:0:0:
252,200,241732,1,0,0:0:0:0:
348,124,241875,6,0,P|416:116|484:164,1,135.000005149842,4|0,0:0|0:0,0:0:0:0:
384,200,242303,2,0,P|391:249|409:202,1,135.000005149842,4|0,0:0|0:0,0:0:0:0:
296,108,242732,1,8,0:0:0:0:
276,232,242875,1,0,0:0:0:0:
176,144,243018,2,0,B|184:188|184:188|164:224|184:288,1,135.000005149842,4|0,0:0|0:0,0:0:0:0:
80,156,243446,2,0,P|96:92|168:60,1,135.000005149842,4|0,0:0|0:0,0:0:0:0:
180,276,243875,5,8,0:0:0:0:
4,160,244160,1,0,0:0:0:0:
236,64,244446,1,0,0:0:0:0:
332,136,244589,1,12,0:0:0:0:
332,136,244732,1,8,0:0:0:0:
444,80,244875,1,8,0:0:0:0:
352,212,245018,1,0,0:0:0:0:
328,48,245160,1,8,0:0:0:0:
332,52,245303,6,0,P|276:72|248:156,1,135.000005149842,4|0,0:0|0:0,0:0:0:0:
196,228,245732,1,0,0:0:0:0:
196,228,245875,2,0,L|112:232,2,67.5000025749208,0|0|8,0:0|0:0|0:0,0:0:0:0:
312,232,246303,1,0,0:0:0:0:
206,358,246446,2,0,P|186:294|198:222,1,135.000005149842,4|0,0:0|0:0,0:0:0:0:
300,132,246875,2,0,P|368:152|432:116,1,135.000005149842,4|0,0:0|0:0,0:0:0:0:
248,40,247303,2,0,L|232:136,1,67.5000025749208,8|0,0:0|0:0,0:0:0:0:
312,256,247589,6,0,P|368:228|444:240,1,135.000005149842
304,352,248018,2,0,L|292:212,1,135.000005149842
236,106,248446,1,0,0:0:0:0:
437,236,248732,1,0,0:0:0:0:
220,288,249018,5,0,0:0:0:0:
132,196,249160,1,0,0:0:0:0:
32,240,249303,1,0,0:0:0:0:
168,344,249446,1,0,0:0:0:0:
268,200,249589,1,0,0:0:0:0:
48,136,249732,1,0,0:0:0:0:
112,288,249875,6,0,P|176:276|212:200,1,144
188,80,250303,1,0,0:0:0:0:
272,160,250446,2,0,P|328:164|360:160,1,72
452,80,250732,1,0,0:0:0:0:
312,96,250875,1,0,0:0:0:0:
404,224,251018,2,0,P|316:248|276:216,1,144
188,80,251446,1,0,0:0:0:0:
144,180,251589,2,0,L|128:264,1,72
244,232,251875,1,0,0:0:0:0:
136,336,252018,1,0,0:0:0:0:
6,205,252160,6,0,P|74:177|162:185,1,144,4|0,0:0|0:0,0:0:0:0:
240,264,252589,1,4,0:0:0:0:
296,336,252732,2,8,P|328:252|288:184,1,144,0|4,0:0|0:0,0:0:0:0:
180,76,253160,1,0,0:0:0:0:
180,76,253303,2,0,P|276:88|344:60,1,144,4|0,0:0|0:0,0:0:0:0:
444,40,253732,1,0,0:0:0:0:
348,208,253875,1,8,0:0:0:0:
348,208,254018,1,8,0:0:0:0:
480,100,254160,1,0,0:0:0:0:
396,256,254303,1,8,0:0:0:0:
304,104,254446,6,0,P|236:112|156:132,1,148.50000453186,12|0,0:0|0:0,0:0:0:0:
88,216,254732,1,0,0:0:0:0:
416,160,254875,2,0,P|423:87|392:20,1,148.50000453186,12|0,0:0|0:0,0:0:0:0:
280,0,255160,1,0,0:0:0:0:
188,212,255303,1,12,0:0:0:0:
508,128,255446,1,0,0:0:0:0:
352,368,255589,1,8,0:0:0:0:
212,88,255732,1,8,0:0:0:0:
472,304,255875,1,14,0:0:0:0:
256,192,255946,12,0,257875,0:0:0:0:
296,276,267017,6,0,L|428:272,1,99.0000030212403
204,336,267589,1,0,0:0:0:0:
176,292,267732,2,0,L|172:208,1,49.5000015106202
224,136,268017,1,0,0:0:0:0:
132,188,268160,2,0,P|84:208|4:196,1,99.0000030212403
64,112,268589,1,0,0:0:0:0:
64,112,268732,2,0,L|156:92,1,49.5000015106202
224,136,269017,2,0,L|300:116,1,49.5000015106202
376,60,269303,6,0,P|396:101|384:196,1,99.0000030212403
300,248,269875,1,0,0:0:0:0:
224,196,270017,1,0,0:0:0:0:
132,216,270160,1,0,0:0:0:0:
60,164,270303,1,0,0:0:0:0:
224,196,270446,6,0,L|228:320,1,99.0000030212403
112,352,270875,1,0,0:0:0:0:
112,352,271017,2,0,L|116:272,1,49.5000015106202
227,294,271303,2,0,L|231:370,1,49.5000015106202
376,360,271589,2,0,P|416:324|420:252,1,99.0000030212403
312,80,272160,1,0,0:0:0:0:
248,144,272303,1,0,0:0:0:0:
168,100,272446,2,0,L|80:96,1,49.5000015106202
192,232,272732,6,0,P|239:243|288:237,1,99.0000030212403
392,184,273160,2,0,L|380:316,1,99.0000030212403
388,328,273589,1,0,0:0:0:0:
248,144,273875,1,0,0:0:0:0:
464,108,274160,1,0,0:0:0:0:
288,312,274446,1,0,0:0:0:0:
383,282,274589,1,0,0:0:0:0:
476,248,274732,1,0,0:0:0:0:
416,44,275017,6,0,P|396:96|396:184,1,99.0000030212403,8|0,0:0|0:0,0:0:0:0:
320,20,275446,2,0,L|288:108,1,49.5000015106202,8|0,0:0|0:0,0:0:0:0:
232,152,275732,1,0,0:0:0:0:
160,80,275875,1,8,0:0:0:0:
56,112,276017,1,8,0:0:0:0:
192,212,276160,6,0,P|248:220|308:184,1,107.999996704102,4|0,0:0|0:0,0:0:0:0:
400,148,276589,1,0,0:0:0:0:
400,148,276732,2,0,L|412:280,1,107.999996704102,8|0,0:0|0:0,0:0:0:0:
280,344,277303,2,0,P|288:268|344:232,1,107.999996704102
440,272,277732,1,0,0:0:0:0:
420,304,277875,2,0,L|344:328,1,53.9999983520508,8|0,0:0|0:0,0:0:0:0:
307,247,278160,2,0,L|220:244,1,53.9999983520508
136,296,278446,6,0,P|96:264|104:184,1,107.999996704102,4|0,0:0|0:0,0:0:0:0:
180,96,278875,1,0,0:0:0:0:
212,180,279017,1,8,0:0:0:0:
216,184,279160,1,0,0:0:0:0:
108,104,279303,1,0,0:0:0:0:
248,64,279446,1,0,0:0:0:0:
292,192,279589,6,0,L|308:276,1,53.9999983520508,4|0,0:0|0:0,0:0:0:0:
240,356,279875,2,0,L|232:276,1,53.9999983520508
292,192,280089,1,0,0:0:0:0:
292,192,280160,2,0,P|336:216|404:200,1,107.999996704102,8|0,0:0|0:0,0:0:0:0:
328,8,280589,1,0,0:0:0:0:
248,64,280732,6,0,L|136:72,1,107.999996704102,4|0,0:0|0:0,0:0:0:0:
80,168,281160,2,0,L|156:164,2,53.9999983520508,0|8|0,0:0|0:0|0:0,0:0:0:0:
52,272,281589,1,0,0:0:0:0:
4,192,281732,1,0,0:0:0:0:
128,224,281875,2,0,P|144:280|120:344,1,107.999996704102,4|0,0:0|0:0,0:0:0:0:
260,356,282303,1,0,0:0:0:0:
304,240,282446,2,0,P|252:224|200:236,1,107.999996704102,8|0,0:0|0:0,0:0:0:0:
368,268,283017,6,0,P|368:192|368:136,1,107.999996704102
320,48,283446,1,0,0:0:0:0:
236,104,283589,2,0,P|176:112|120:108,1,107.999996704102,8|0,0:0|0:0,0:0:0:0:
64,184,284017,2,0,L|24:188,2,26.9999991760254
132,236,284303,1,0,0:0:0:0:
196,164,284446,1,4,0:0:0:0:
228,296,284589,1,0,0:0:0:0:
228,296,284660,1,0,0:0:0:0:
228,296,284732,6,0,L|216:220,1,53.9999983520508
196,164,285017,1,0,0:0:0:0:
292,204,285160,1,0,0:0:0:0:
364,112,285303,2,0,P|404:92|480:108,1,116.999994644165
336,172,285875,2,0,P|276:160|240:184,1,87.749995983124,8|0,0:0|0:0,0:0:0:0:
192,232,286160,2,0,L|164:176,1,58.4999973220826
200,52,286446,6,0,L|232:44,2,29.2499986610413
80,88,286732,1,0,0:0:0:0:
165,179,286875,1,0,0:0:0:0:
248,108,287017,2,0,P|284:124|292:180,1,87.749995983124,8|0,0:0|0:0,0:0:0:0:
304,256,287303,2,0,L|376:260,1,58.4999973220826
300,356,287589,2,0,L|168:352,1,116.999994644165
24,224,288160,5,8,0:0:0:0:
104,152,288303,1,0,0:0:0:0:
104,152,288446,1,0,0:0:0:0:
136,260,288589,1,0,0:0:0:0:
28,168,288732,2,0,P|40:104|88:80,1,116.999994644165
188,140,289160,1,0,0:0:0:0:
236,224,289303,2,0,L|336:216,1,58.4999973220826,8|0,0:0|0:0,0:0:0:0:
404,236,289589,1,0,0:0:0:0:
312,72,289732,1,0,0:0:0:0:
312,72,289803,1,0,0:0:0:0:
312,72,289875,6,0,P|300:120|296:172,1,90,8|0,0:0|0:0,0:0:0:0:
481,270,290160,2,0,P|449:242|393:238,1,90,8|0,0:0|0:0,0:0:0:0:
216,276,290446,1,4,0:0:0:0:
400,156,290589,1,4,0:0:0:0:
344,320,290732,1,8,0:0:0:0:
216,120,290875,1,0,0:0:0:0:
168,352,291017,6,0,P|212:360|257:346,1,90,4|0,0:0|0:0,0:0:0:0:
328,248,291232,1,0,0:0:0:0:
328,248,291303,2,0,L|348:136,1,90,8|4,0:0|0:0,0:0:0:0:
120,56,291589,1,0,0:0:0:0:
88,92,291660,1,0,0:0:0:0:
88,140,291732,1,4,0:0:0:0:
112,184,291803,1,0,0:0:0:0:
160,200,291875,1,4,0:0:0:0:
208,184,291946,1,0,0:0:0:0:
256,176,292017,1,0,0:0:0:0:
288,212,292089,1,0,0:0:0:0:
276,260,292160,6,0,P|228:272|176:268,1,90,12|0,0:0|0:0,0:0:0:0:
396,324,292446,2,0,P|454:336|504:328,1,90,12|0,0:0|0:0,0:0:0:0:
208,85,292732,2,0,L|208:197,1,99.0000030212403,12|0,0:0|0:0,0:0:0:0:
484,333,293017,2,0,L|484:209,1,99.0000030212403,12|0,0:0|0:0,0:0:0:0:
345,166,293303,5,10,0:0:0:0:
208,184,293446,1,10,0:0:0:0:
281,287,293589,1,2,0:0:0:0:
296,87,293732,1,8,0:0:0:0:
97,252,293875,1,2,0:0:0:0:
373,223,294017,1,8,0:0:0:0:
117,97,294160,5,10,0:0:0:0:
286,291,294303,2,0,P|319:174|280:80,1,198.000006042481,12|0,0:0|0:0,0:0:0:0:
