osu file format v14

[General]
AudioFilename: audio.mp3
AudioLeadIn: 0
PreviewTime: 171022
Countdown: 0
SampleSet: Soft
StackLeniency: 0.7
Mode: 0
LetterboxInBreaks: 0
WidescreenStoryboard: 1

[Editor]
Bookmarks: 285678
DistanceSpacing: 0.8
BeatDivisor: 4
GridSize: 32
TimelineZoom: 1.2

[Metadata]
Title:Soukyuu no Rasen
TitleUnicode:双丘の螺旋
Artist:Ariabl'eyeS
ArtistUnicode:Ariabl'eyeS
Creator:-Aqua
Version:Easy
Source:osu!
Tags:2nd Single 愛憎悲哀カタルシス Featured Artist FA Mappers' Guild MPG Gothic Pop Rock Japanese J-pop Jpop J-rock Jrock AriableyeS newton- newqua aizou hiai catharsis
BeatmapID:2616377
BeatmapSetID:1252722

[Difficulty]
HPDrainRate:2.7
CircleSize:3.2
OverallDifficulty:2.4
ApproachRate:3.9
SliderMultiplier:1.1
SliderTickRate:1

[Events]
//Background and Video events
0,0,"78826616_p0.jpg",0,0
//Break Periods
//Storyboard Layer 0 (Background)
//Storyboard Layer 1 (Fail)
//Storyboard Layer 2 (Pass)
//Storyboard Layer 3 (Foreground)
//Storyboard Layer 4 (Overlay)
//Storyboard Sound Samples

[TimingPoints]
866,375,4,2,1,60,1,0
1897,-100,4,2,1,5,0,0
1991,-100,4,2,1,60,0,0
7147,-100,4,2,1,5,0,0
7241,-100,4,2,1,60,0,0
7616,-100,4,2,1,65,0,0
10897,-100,4,2,1,5,0,0
10991,-100,4,2,1,65,0,0
14834,-100,4,2,1,5,0,0
14928,-100,4,2,1,65,0,0
15678,-100,4,2,1,75,0,1
15772,-100,4,2,1,75,0,0
15959,-100,4,2,1,5,0,0
16053,-100,4,2,1,75,0,0
17459,-100,4,2,1,5,0,0
17553,-100,4,2,1,75,0,0
18959,-100,4,2,1,5,0,0
19053,-100,4,2,1,75,0,0
20459,-100,4,2,1,5,0,0
20553,-100,4,2,1,75,0,0
21959,-100,4,2,1,5,0,0
22053,-100,4,2,1,75,0,0
23459,-100,4,2,1,5,0,0
23553,-100,4,2,1,75,0,0
24959,-100,4,2,1,5,0,0
25053,-100,4,2,1,75,0,0
26459,-100,4,2,1,5,0,0
26553,-100,4,2,1,75,0,0
27678,-100,4,2,1,75,0,1
27772,-100,4,2,1,75,0,0
27959,-100,4,2,1,5,0,0
28053,-100,4,2,1,75,0,0
29459,-100,4,2,1,5,0,0
29553,-100,4,2,1,75,0,0
30959,-100,4,2,1,5,0,0
31053,-100,4,2,1,75,0,0
32459,-100,4,2,1,5,0,0
32553,-100,4,2,1,75,0,0
33959,-100,4,2,1,5,0,0
34053,-100,4,2,1,75,0,0
35459,-100,4,2,1,5,0,0
35553,-100,4,2,1,75,0,0
36959,-100,4,2,1,5,0,0
37053,-100,4,2,1,75,0,0
38459,-100,4,2,1,5,0,0
38553,-100,4,2,1,75,0,0
39866,-100,4,2,1,60,0,0
51866,-100,4,2,1,65,0,0
54772,-100,4,2,1,65,0,0
54866,-100,4,2,1,65,0,0
57772,-100,4,2,1,65,0,0
57866,-100,4,2,1,65,0,0
60772,-100,4,2,1,5,0,0
60866,-100,4,2,1,65,0,0
63866,-100,4,2,1,60,0,0
66866,-100,4,2,1,70,0,0
69866,-100,4,2,1,60,0,0
72866,-100,4,2,1,70,0,0
75866,-100,4,2,1,60,0,0
78866,-100,4,2,1,70,0,0
81866,-100,4,2,1,60,0,0
84866,-100,4,2,1,70,0,0
87678,-100,4,2,1,85,0,1
96772,-100,4,2,1,85,0,1
96866,-100,4,2,1,85,0,1
99584,-100,4,2,1,85,0,0
99678,-100,4,2,1,85,0,1
101647,-100,4,2,1,5,0,1
101741,-100,4,2,1,85,0,1
104459,-100,4,2,1,5,0,1
104553,-100,4,2,1,85,0,1
106147,-100,4,2,1,5,0,1
106241,-100,4,2,1,85,0,1
110459,-100,4,2,1,5,0,1
110553,-100,4,2,1,85,0,1
111584,-100,4,2,1,85,0,0
111678,-100,4,2,1,75,0,1
111772,-100,4,2,1,75,0,0
117678,-100,4,2,1,75,0,1
117772,-100,4,2,1,75,0,0
123866,-100,4,2,1,60,0,0
129772,-100,4,2,1,5,0,0
129866,-100,4,2,1,60,0,0
135866,-100,4,2,1,70,0,0
138772,-100,4,2,1,70,0,0
138866,-100,4,2,1,70,0,0
141772,-100,4,2,1,70,0,0
141866,-100,4,2,1,70,0,0
147866,-100,4,2,1,60,0,0
150866,-100,4,2,1,70,0,0
153866,-100,4,2,1,60,0,0
156866,-100,4,2,1,70,0,0
159866,-100,4,2,1,60,0,0
162866,-100,4,2,1,70,0,0
165866,-100,4,2,1,60,0,0
168866,-100,4,2,1,70,0,0
171678,-100,4,2,1,85,0,1
171959,-100,4,2,1,5,0,1
172053,-100,4,2,1,85,0,1
175147,-100,4,2,1,5,0,1
175241,-100,4,2,1,85,0,1
179459,-100,4,2,1,5,0,1
179553,-100,4,2,1,85,0,1
180772,-100,4,2,1,85,0,1
180866,-100,4,2,1,85,0,1
181147,-100,4,2,1,5,0,1
181241,-100,4,2,1,85,0,1
183584,-100,4,2,1,85,0,0
183678,-100,4,2,1,85,0,1
195584,-100,4,2,1,85,0,0
195678,-100,4,2,1,75,0,1
195772,-100,4,2,1,75,0,0
195959,-100,4,2,1,5,0,0
196053,-100,4,2,1,75,0,0
197459,-100,4,2,1,5,0,0
197553,-100,4,2,1,75,0,0
198959,-100,4,2,1,5,0,0
199053,-100,4,2,1,75,0,0
200459,-100,4,2,1,5,0,0
200553,-100,4,2,1,75,0,0
201678,-100,4,2,1,75,0,1
201772,-100,4,2,1,75,0,0
201959,-100,4,2,1,5,0,0
202053,-100,4,2,1,75,0,0
203459,-100,4,2,1,5,0,0
203553,-100,4,2,1,75,0,0
204959,-100,4,2,1,5,0,0
205053,-100,4,2,1,75,0,0
206459,-100,4,2,1,5,0,0
206553,-100,4,2,1,75,0,0
207678,-100,4,2,1,85,0,0
231678,-100,4,2,1,60,0,0
240866,-100,4,2,1,75,0,0
243678,-100,4,2,1,85,0,1
243959,-100,4,2,1,5,0,1
244053,-100,4,2,1,85,0,1
246959,-100,4,2,1,5,0,1
247053,-100,4,2,1,85,0,1
251459,-100,4,2,1,5,0,1
251553,-100,4,2,1,85,0,1
255584,-100,4,2,1,85,0,0
255678,-100,4,2,1,100,0,1
258772,-100,4,2,1,5,0,1
258866,-100,4,2,1,100,0,1
267584,-100,4,2,1,100,0,0
267678,-100,4,2,1,100,0,1
267959,-100,4,2,1,5,0,1
268053,-100,4,2,1,100,0,1
270959,-100,4,2,1,5,0,1
271053,-100,4,2,1,100,0,1
274147,-100,4,2,1,5,0,1
274241,-100,4,2,1,100,0,1
276959,-100,4,2,1,5,0,1
277053,-100,4,2,1,100,0,1
279866,-100,4,2,1,40,0,0

[Colours]
Combo1 : 158,62,255
Combo2 : 211,211,211
Combo3 : 211,168,255
Combo4 : 158,158,158

[HitObjects]
0,147,866,6,0,P|62:126|132:113,1,110,0|0,3:0|3:0,0:0:0:0:
144,37,1616,2,0,B|261:40|205:107|351:120,1,220,2|0,0:0|0:0,0:0:0:0:
390,192,2741,1,2,0:0:0:0:
457,135,3116,2,0,P|522:220|430:301,1,220,2|0,0:0|3:0,0:0:0:0:
385,255,4241,1,0,0:0:0:0:
331,324,4616,6,0,P|266:336|203:351,1,110,2|0,0:0|0:0,0:0:0:0:
142,314,5366,2,0,P|130:249|115:186,1,110,2|0,0:0|0:0,0:0:0:0:
177,139,6116,2,0,P|238:152|314:159,2,110,2|0|2,0:0|0:0|0:0,0:0:0:0:
107,84,7241,1,0,3:0:0:0:
107,84,7616,6,0,P|85:42|161:4,1,110,4|2,0:0|3:2,0:0:0:0:
197,39,8366,1,2,3:2:0:0:
278,5,8741,1,2,3:2:0:0:
343,63,9116,2,0,P|331:121|319:180,1,110,2|0,3:2|3:2,0:0:0:0:
246,217,9866,2,0,P|258:275|270:334,1,110,2|2,3:2|3:2,0:0:0:0:
348,360,10616,6,0,P|408:341|466:325,2,110,2|0|2,3:2|3:2|3:2,0:0:0:0:
268,324,11741,1,2,3:2:0:0:
187,288,12116,2,0,B|45:302|130:375|-6:381,1,220,2|2,3:2|3:2,0:0:0:0:
401,111,14928,6,0,P|356:72|286:89,1,110,2|2,0:0|0:0,0:0:0:0:
240,131,15678,6,0,P|165:112|70:91,1,165,6|10,1:2|0:0,0:0:0:0:
19,157,16616,1,8,0:0:0:0:
80,273,17178,2,0,B|173:283|128:338|258:346,1,165,6|10,1:2|0:0,0:0:0:0:
306,306,18116,1,8,0:0:0:0:
425,362,18678,6,0,P|481:327|453:234,1,165,6|8,1:2|0:0,0:0:0:0:
397,182,19616,2,0,P|321:211|214:238,1,165,8|6,0:0|1:2,0:0:0:0:
113,194,20741,2,0,P|59:157|82:86,1,110,10|8,0:0|0:0,0:0:0:0:
151,23,21678,6,0,B|208:0|208:0|309:39,1,165,6|10,1:2|0:0,0:0:0:0:
344,115,22616,1,8,0:0:0:0:
467,69,23178,2,0,P|510:115|478:209,1,165,6|10,1:2|0:0,0:0:0:0:
415,261,24116,2,0,P|344:243|250:223,1,165,8|6,0:0|1:2,0:0:0:0:
171,120,25241,5,8,0:0:0:0:
171,120,25616,1,8,0:0:0:0:
70,205,26179,2,0,P|92:284|112:364,1,165,6|10,1:2|0:0,0:0:0:0:
198,382,27116,1,8,0:0:0:0:
277,276,27678,6,0,P|352:295|447:316,1,165,6|10,1:2|0:0,0:0:0:0:
498,250,28616,1,8,0:0:0:0:
437,134,29178,2,0,B|370:115|370:115|353:89|353:89|259:61,1,165,6|10,1:2|0:0,0:0:0:0:
216,117,30116,1,8,0:0:0:0:
101,52,30678,6,0,B|54:94|54:94|85:195,1,165,6|8,1:2|0:0,0:0:0:0:
152,246,31616,2,0,P|228:217|335:190,1,165,8|6,0:0|1:2,0:0:0:0:
431,243,32741,2,0,P|485:280|462:351,1,110,10|8,0:0|0:0,0:0:0:0:
370,382,33678,6,0,B|296:369|189:361,1,165,6|10,1:2|0:0,0:0:0:0:
137,307,34616,1,8,0:0:0:0:
23,374,35178,2,0,P|-20:328|12:234,1,165,6|10,1:2|0:0,0:0:0:0:
68,175,36116,2,0,P|139:193|233:213,1,165,8|6,0:0|1:2,0:0:0:0:
330,305,37241,5,8,0:0:0:0:
330,305,37616,1,8,0:0:0:0:
422,210,38179,2,0,P|428:130|357:84,1,165,6|10,1:2|0:0,0:0:0:0:
294,136,39116,1,8,0:0:0:0:
229,75,39491,1,8,0:0:0:0:
177,146,39866,6,0,P|107:129|54:107,1,110,4|0,0:0|3:0,0:0:0:0:
10,178,40616,1,0,3:0:0:0:
68,243,40991,1,0,3:0:0:0:
52,329,41366,2,0,P|86:273|185:292,2,165,0|0|2,3:0|3:0|3:2,0:0:0:0:
122,381,42866,5,2,3:2:0:0:
122,381,43241,2,0,P|189:362|234:355,1,110,0|0,3:0|3:0,0:0:0:0:
272,279,43991,1,0,3:0:0:0:
321,206,44366,2,0,B|414:224|362:272|457:291,2,165,0|0|2,3:0|3:0|3:2,0:0:0:0:
254,262,45866,5,2,1:2:0:0:
254,262,46241,2,0,P|200:339|86:289,1,220,0|0,1:0|3:0,0:0:0:0:
23,252,47366,2,0,P|41:193|61:87,1,165,0|0,1:0|3:0,0:0:0:0:
174,25,48491,1,2,3:2:0:0:
239,84,48866,6,0,P|220:155|211:206,1,110,2|0,1:2|3:0,0:0:0:0:
274,254,49616,1,0,3:0:0:0:
204,308,49991,1,0,0:0:0:0:
270,365,50366,2,0,P|334:343|385:334,1,110,2|2,1:2|1:2,0:0:0:0:
408,253,51116,1,10,0:0:0:0:
408,253,51491,1,2,1:2:0:0:
491,280,51866,6,0,P|518:224|491:182,1,110,6|10,1:2|0:0,0:0:0:0:
433,125,52616,2,0,P|364:149|283:172,1,110,0|8,1:0|0:0,0:0:0:0:
295,241,53366,2,0,P|271:172|239:73,2,165,2|2|10,1:2|0:0|0:0,0:0:0:0:
239,309,54866,6,0,P|170:299|137:219,1,110,2|8,1:2|0:0,0:0:0:0:
134,183,55616,1,0,0:0:0:0:
58,228,55991,1,8,0:0:0:0:
1,160,56366,2,0,P|20:103|50:-16,2,165,0|2|8,1:0|0:0|0:0,0:0:0:0:
58,228,57866,6,0,P|78:311|87:336,1,110,2|8,1:2|0:0,0:0:0:0:
169,364,58616,2,0,P|228:337|298:315,1,110,0|8,1:0|0:0,0:0:0:0:
311,244,59366,2,0,B|401:266|344:317|439:350,2,165,2|2|8,1:2|0:0|0:0,0:0:0:0:
255,175,60866,5,0,1:0:0:0:
183,124,61241,2,0,P|127:142|74:156,1,110,10|0,0:0|1:0,0:0:0:0:
15,92,61991,1,8,0:0:0:0:
78,31,62366,2,0,P|131:16|183:0,1,110,10|8,0:0|0:0,0:0:0:0:
244,63,63116,2,0,P|296:79|349:94,1,110,8|8,0:0|0:0,0:0:0:0:
419,40,63866,6,0,B|466:94|466:94|434:202,1,165,6|2,1:2|3:2,0:0:0:0:
320,240,64991,1,8,0:0:0:0:
385,298,65366,2,0,P|331:281|236:348,1,165,2|2,1:2|1:2,0:0:0:0:
121,279,66491,1,8,0:0:0:0:
49,330,66866,6,0,P|4:284|19:235,1,110,12|10,0:0|0:0,0:0:0:0:
84,193,67616,2,0,P|129:147|114:98,1,110,10|10,0:0|0:0,0:0:0:0:
74,38,68366,1,10,0:0:0:0:
74,38,68741,1,8,0:0:0:0:
162,0,69116,2,0,P|215:22|271:39,1,110,8|8,0:0|0:0,0:0:0:0:
310,112,69866,6,0,B|199:112|261:163|145:176,1,165,6|2,1:2|3:2,0:0:0:0:
85,280,70991,1,8,0:0:0:0:
14,227,71366,2,0,P|31:281|69:402,1,165,2|2,1:2|1:2,0:0:0:0:
172,309,72491,1,8,0:0:0:0:
247,353,72866,6,0,P|305:338|356:333,1,110,12|10,0:0|0:0,0:0:0:0:
430,290,73616,2,0,P|424:235|410:182,1,110,8|10,0:0|0:0,0:0:0:0:
329,162,74366,1,8,0:0:0:0:
329,162,74741,1,10,0:0:0:0:
255,209,75116,2,0,P|202:187|146:170,1,110,8|8,0:0|0:0,0:0:0:0:
84,228,75866,6,0,P|23:174|69:66,1,165,6|2,1:2|3:2,0:0:0:0:
139,20,76991,1,8,0:0:0:0:
209,73,77366,2,0,P|263:90|396:133,1,165,2|2,1:2|1:2,0:0:0:0:
477,52,78491,1,8,0:0:0:0:
494,138,78866,6,0,P|506:209|513:261,1,110,10|10,0:0|0:0,0:0:0:0:
453,313,79616,2,0,P|400:319|341:331,1,110,10|10,0:0|0:0,0:0:0:0:
297,261,80366,1,10,0:0:0:0:
297,261,80741,1,10,0:0:0:0:
240,193,81116,2,0,P|187:176|136:155,1,110,8|8,0:0|0:0,0:0:0:0:
71,214,81866,5,6,1:2:0:0:
71,214,84116,2,0,P|21:173|46:116,1,110,8|8,0:0|0:0,0:0:0:0:
78,62,84866,6,0,P|133:42|188:23,1,110,14|8,0:0|0:0,0:0:0:0:
243,88,85616,1,8,0:0:0:0:
243,88,85991,1,8,0:0:0:0:
196,162,86366,2,0,B|180:215|180:215|204:264,1,110,8|8,0:0|0:0,0:0:0:0:
288,289,87116,1,8,0:0:0:0:
402,354,87678,6,0,B|435:309|435:309|399:202,1,165,6|8,1:2|0:0,0:0:0:0:
447,131,88616,2,0,P|393:116|336:94,1,110,2|8,1:2|0:0,0:0:0:0:
274,153,89366,2,0,B|184:177|216:224|131:237,1,165,2|2,1:2|0:0,0:0:0:0:
19,173,90491,1,8,0:0:0:0:
64,97,90866,6,0,B|103:63|103:63|186:83,1,110,2|10,1:2|0:0,0:0:0:0:
237,118,91616,2,0,B|296:82|411:26,1,165,2|6,1:2|1:2,0:0:0:0:
489,117,92741,1,8,0:0:0:0:
449,195,93116,2,0,P|473:251|492:302,1,110,2|8,1:2|0:0,0:0:0:0:
421,351,93866,6,0,P|368:366|315:383,1,110,6|8,1:2|0:0,0:0:0:0:
253,329,94616,1,0,1:0:0:0:
159,236,95178,2,0,P|171:126|214:115,1,165,2|10,1:2|0:0,0:0:0:0:
293,141,96116,2,0,P|297:86|302:24,1,110,2|8,1:2|0:0,0:0:0:0:
218,0,96866,6,0,P|149:14|98:27,1,110,2|8,1:2|0:0,0:0:0:0:
74,103,97616,1,0,1:0:0:0:
28,223,98178,2,0,B|119:233|72:288|191:297,1,165,2|8,1:2|0:0,0:0:0:0:
225,225,99116,1,4,3:0:0:0:
292,338,99678,6,0,P|369:312|453:293,1,165,6|10,1:2|0:0,0:0:0:0:
501,221,100616,2,0,P|504:169|448:125,1,110,2|10,1:2|0:0,0:0:0:0:
382,101,101366,1,2,1:2:0:0:
326,169,101741,1,8,0:0:0:0:
248,126,102116,1,2,1:2:0:0:
132,188,102678,6,0,B|103:137|103:137|132:33,1,165,6|10,1:2|0:0,0:0:0:0:
214,3,103616,2,0,B|316:11|250:72|366:76,1,165,0|2,1:0|1:2,0:0:0:0:
458,155,104741,1,8,0:0:0:0:
407,226,105116,2,0,P|341:203|282:192,1,110,0|8,1:0|0:0,0:0:0:0:
244,127,105866,6,0,P|191:147|143:189,1,110,6|8,1:2|0:0,0:0:0:0:
135,267,106616,1,0,1:2:0:0:
16,209,107178,2,0,B|-6:152|-6:152|34:45,1,165,2|8,1:2|0:0,0:0:0:0:
112,21,108116,1,2,1:2:0:0:
192,125,108678,6,0,B|214:182|214:182|174:289,1,165,2|8,1:2|0:0,0:0:0:0:
225,353,109616,2,0,P|284:370|361:273,1,165,0|6,1:0|1:2,0:0:0:0:
293,194,110741,1,8,0:0:0:0:
368,149,111116,1,2,1:2:0:0:
461,242,111678,6,0,P|480:167|501:72,1,165,6|10,1:2|0:0,0:0:0:0:
438,17,112616,1,8,0:0:0:0:
333,97,113178,2,0,B|239:113|293:170|184:175,1,165,6|10,1:2|0:0,0:0:0:0:
120,126,114116,1,8,0:0:0:0:
30,29,114678,6,0,B|-17:71|-17:71|14:172,1,165,6|8,1:2|0:0,0:0:0:0:
89,212,115616,2,0,B|183:228|129:285|238:290,1,165,10|6,0:0|1:2,0:0:0:0:
341,355,116741,2,0,P|387:337|449:324,1,110,10|8,0:0|0:0,0:0:0:0:
487,199,117678,6,0,P|517:122|424:69,1,165,6|10,1:2|0:0,0:0:0:0:
385,38,118616,1,8,0:0:0:0:
320,152,119178,2,0,P|337:232|359:319,1,165,6|10,1:2|0:0,0:0:0:0:
275,346,120116,2,0,P|194:363|114:383,1,165,8|6,0:0|1:2,0:0:0:0:
14,305,121241,5,8,0:0:0:0:
14,305,121616,1,10,0:0:0:0:
128,239,122179,2,0,B|134:159|134:159|82:84,1,165,6|8,1:2|0:0,0:0:0:0:
133,15,123116,1,8,0:0:0:0:
203,67,123491,1,8,0:0:0:0:
279,22,123866,6,0,P|349:39|402:61,1,110,4|0,0:0|3:0,0:0:0:0:
427,129,124616,1,0,3:0:0:0:
365,191,124991,1,0,3:0:0:0:
432,247,125366,2,0,P|447:323|384:370,2,165,0|0|2,3:0|3:0|3:2,0:0:0:0:
365,191,126866,5,0,3:0:0:0:
365,191,127241,2,0,P|298:210|253:217,1,110,0|0,3:0|3:0,0:0:0:0:
213,292,127991,1,0,3:0:0:0:
133,255,128366,2,0,P|117:178|180:131,2,165,0|0|0,3:0|3:0|3:0,0:0:0:0:
213,292,129866,5,2,1:2:0:0:
213,292,130241,2,0,B|349:285|274:355|441:348,1,220,0|0,1:0|3:0,0:0:0:0:
481,285,131366,2,0,P|466:203|443:124,1,165,0|0,1:0|3:0,0:0:0:0:
329,58,132491,1,2,3:2:0:0:
266,120,132866,6,0,P|195:101|144:92,1,110,2|0,1:2|1:0,0:0:0:0:
98,158,133616,1,0,3:0:0:0:
154,225,133991,1,0,3:0:0:0:
90,286,134366,2,0,P|68:350|93:381,1,110,2|2,1:2|1:2,0:0:0:0:
175,348,135116,1,8,0:0:0:0:
175,348,135491,1,0,1:0:0:0:
255,383,135866,6,0,P|302:378|382:380,1,110,6|10,1:2|0:0,0:0:0:0:
437,328,136616,2,0,P|432:281|434:201,1,110,0|8,1:0|0:0,0:0:0:0:
348,190,137366,2,0,B|252:188|291:246|180:246,2,165,2|2|8,1:2|0:0|0:0,0:0:0:0:
394,115,138866,6,0,P|384:46|304:13,1,110,2|8,1:2|0:0,0:0:0:0:
287,76,139616,1,0,1:2:0:0:
206,41,139991,1,8,0:0:0:0:
157,114,140366,2,0,P|76:134|-1:159,2,165,2|2|10,1:2|0:0|0:0,0:0:0:0:
190,195,141866,6,0,P|273:215|298:224,1,110,2|8,1:2|0:0,0:0:0:0:
326,140,142616,2,0,P|377:121|427:98,1,110,0|8,1:0|0:0,0:0:0:0:
485,164,143366,2,0,P|534:232|489:311,2,165,2|0|8,1:2|0:0|0:0,0:0:0:0:
427,98,144866,5,2,1:2:0:0:
356,150,145241,2,0,P|374:206|388:259,1,110,8|0,0:0|1:0,0:0:0:0:
354,337,145991,1,8,0:0:0:0:
270,308,146366,2,0,P|217:323|165:339,1,110,2|8,1:2|0:0,0:0:0:0:
86,298,147116,2,0,P|57:252|72:201,1,110,8|8,0:0|0:0,0:0:0:0:
126,132,147866,6,0,B|191:110|191:110|293:151,1,165,6|2,1:2|0:0,0:0:0:0:
355,254,148991,1,8,0:0:0:0:
438,225,149366,2,0,P|486:161|472:82,1,165,2|2,1:2|1:2,0:0:0:0:
360,12,150491,1,8,0:0:0:0:
312,86,150866,6,0,P|268:76|182:58,1,110,12|10,0:0|0:0,0:0:0:0:
138,3,151616,2,0,P|84:14|30:26,1,110,10|10,0:0|0:0,0:0:0:0:
16,113,152366,1,10,0:0:0:0:
16,113,152741,1,10,0:0:0:0:
95,149,153116,2,0,B|136:187|136:187|134:241,1,110,10|8,0:0|0:0,0:0:0:0:
52,274,153866,6,0,B|163:274|101:325|217:338,1,165,6|2,1:2|0:0,0:0:0:0:
311,266,154991,1,8,0:0:0:0:
380,320,155366,2,0,P|363:266|325:145,1,165,2|2,1:2|1:2,0:0:0:0:
207,114,156491,1,8,0:0:0:0:
246,37,156866,6,0,P|297:18|349:1,1,110,12|10,0:0|0:0,0:0:0:0:
425,46,157616,2,0,P|451:96|472:145,1,110,8|10,0:0|0:0,0:0:0:0:
432,225,158366,1,8,0:0:0:0:
432,225,158741,1,8,0:0:0:0:
348,198,159116,2,0,P|295:214|244:235,1,110,8|8,0:0|0:0,0:0:0:0:
195,162,159866,6,0,P|141:101|33:147,1,165,6|2,1:2|0:0,0:0:0:0:
6,228,160991,1,8,0:0:0:0:
44,307,161366,2,0,P|98:324|231:367,1,165,2|2,1:2|1:2,0:0:0:0:
281,253,162491,1,10,0:0:0:0:
281,253,162866,6,0,P|330:230|391:213,1,110,10|10,0:0|0:0,0:0:0:0:
466,245,163616,2,0,P|489:201|448:138,1,110,10|10,0:0|0:0,0:0:0:0:
396,95,164366,1,10,0:0:0:0:
324,146,164741,1,10,0:0:0:0:
265,79,165116,2,0,P|212:62|161:41,1,110,10|8,0:0|0:0,0:0:0:0:
96,100,165866,5,6,1:2:0:0:
96,100,168116,2,0,P|56:134|77:219,1,110,10|10,0:0|0:0,0:0:0:0:
99,263,168866,6,0,P|150:281|202:299,1,110,14|10,0:0|0:0,0:0:0:0:
271,245,169616,1,10,0:0:0:0:
337,302,169991,1,10,0:0:0:0:
416,264,170366,2,0,B|431:211|431:211|407:162,1,110,10|10,0:0|0:0,0:0:0:0:
319,149,171116,1,8,0:0:0:0:
407,50,171678,6,0,B|362:17|362:17|255:53,1,165,6|10,1:2|0:0,0:0:0:0:
228,134,172616,2,0,P|174:149|117:171,1,110,2|10,1:2|0:0,0:0:0:0:
43,130,173366,2,0,P|7:215|98:254,1,165,2|2,1:2|0:0,0:0:0:0:
158,179,174491,1,8,0:0:0:0:
223,237,174866,6,0,P|211:307|204:355,1,110,2|10,1:2|0:0,0:0:0:0:
286,379,175616,2,0,P|378:372|477:370,1,165,2|2,1:2|1:2,0:0:0:0:
497,246,176741,1,8,0:0:0:0:
447,173,177116,2,0,P|384:173|340:217,1,110,2|8,1:2|0:0,0:0:0:0:
306,278,177866,6,0,P|243:278|199:234,1,110,6|10,1:2|0:0,0:0:0:0:
170,170,178616,1,0,1:2:0:0:
69,255,179178,2,0,P|42:176|11:87,1,165,2|10,1:2|0:0,0:0:0:0:
84,43,180116,2,0,P|139:19|189:-4,1,110,0|10,1:2|0:0,0:0:0:0:
247,59,180866,6,0,P|297:81|347:103,1,110,2|8,1:2|0:0,0:0:0:0:
423,58,181616,1,2,1:2:0:0:
490,171,182178,2,0,B|521:228|521:228|482:329,1,165,2|10,1:2|0:0,0:0:0:0:
404,357,183116,1,2,1:2:0:0:
299,276,183678,6,0,B|201:273|246:323|138:321,1,165,6|10,1:2|0:0,0:0:0:0:
62,289,184616,2,0,P|21:256|33:205,1,110,2|10,1:2|0:0,0:0:0:0:
85,134,185366,1,2,1:2:0:0:
164,171,185741,1,8,0:0:0:0:
217,100,186116,1,2,1:2:0:0:
339,148,186678,6,0,B|368:199|368:199|339:303,1,165,2|10,1:2|0:0,0:0:0:0:
303,381,187616,2,0,P|361:330|448:360,1,165,0|2,1:0|1:2,0:0:0:0:
507,236,188741,1,8,0:0:0:0:
459,161,189116,2,0,P|406:151|334:127,1,110,0|8,1:0|0:0,0:0:0:0:
325,218,189866,6,0,P|272:228|200:252,1,110,6|10,1:2|0:0,0:0:0:0:
144,196,190616,1,0,1:0:0:0:
17,232,191178,2,0,B|-5:175|-5:175|35:68,1,165,2|8,1:2|0:0,0:0:0:0:
107,32,192116,1,2,1:2:0:0:
199,126,192678,6,0,B|280:139|367:160,1,165,2|8,1:2|0:0,0:0:0:0:
426,99,193616,2,0,P|483:154|470:232,1,165,0|2,1:0|1:2,0:0:0:0:
355,298,194741,1,8,0:0:0:0:
355,298,195116,1,2,1:2:0:0:
254,212,195678,6,0,P|273:137|294:42,1,165,6|10,1:2|0:0,0:0:0:0:
217,4,196616,1,8,0:0:0:0:
137,109,197178,2,0,B|43:125|97:182|-12:187,1,165,6|10,1:2|0:0,0:0:0:0:
48,259,198116,1,8,0:0:0:0:
162,324,198678,6,0,B|256:349|314:384,1,165,6|8,1:2|0:0,0:0:0:0:
388,336,199616,2,0,P|433:294|390:183,1,165,8|6,0:0|1:2,0:0:0:0:
344,88,200741,2,0,P|290:76|238:57,1,110,10|8,0:0|0:0,0:0:0:0:
215,187,201678,6,0,P|140:222|57:244,1,165,6|10,1:2|0:0,0:0:0:0:
0,178,202616,1,8,0:0:0:0:
78,72,203178,2,0,B|176:60|119:11|233:2,1,165,6|10,1:2|0:0,0:0:0:0:
267,78,204116,2,0,P|348:95|428:115,1,165,8|6,0:0|1:2,0:0:0:0:
496,234,205241,5,8,0:0:0:0:
496,234,205616,1,8,0:0:0:0:
401,326,206178,2,0,B|336:306|336:306|323:278|323:278|242:250,1,165,6|10,1:2|0:0,0:0:0:0:
196,195,207116,1,8,0:0:0:0:
116,89,207678,6,0,P|94:145|-1:159,2,165,6|8|2,1:2|0:0|1:2,0:0:0:0:
200,114,209178,2,0,P|264:85|316:75,1,110,2|0,0:0|0:0,0:0:0:0:
357,7,209928,2,0,B|442:24|517:82,1,165,2|8,0:0|0:0,0:0:0:0:
464,146,210866,6,0,B|379:163|304:221,1,165,2|2,1:2|0:0,0:0:0:0:
240,165,211803,1,2,1:2:0:0:
177,103,212178,2,0,B|78:124|133:171|26:193,1,165,2|8,1:2|0:0,0:0:0:0:
101,254,213116,1,0,1:0:0:0:
32,309,213491,1,8,0:0:0:0:
145,375,214053,5,0,0:0:0:0:
145,375,214428,2,0,P|202:354|288:330,1,110,2|0,0:0|1:0,0:0:0:0:
301,268,215178,2,0,P|306:214|183:178,1,165,2|8,1:2|0:0,0:0:0:0:
141,123,216116,2,0,P|150:65|159:4,1,110,2|10,1:2|0:0,0:0:0:0:
244,0,216866,6,0,P|302:9|363:18,1,110,2|10,1:2|0:0,0:0:0:0:
383,99,217616,1,0,1:0:0:0:
501,41,218178,2,0,B|527:100|527:100|492:207,1,165,2|8,1:2|0:0,0:0:0:0:
392,277,219303,1,2,1:2:0:0:
456,336,219678,6,0,P|396:311|329:378,1,165,6|8,1:2|0:0,0:0:0:0:
266,311,220616,2,0,P|183:296|140:286,1,110,2|8,1:2|0:0,0:0:0:0:
97,354,221366,1,2,1:2:0:0:
31,295,221741,1,8,0:0:0:0:
31,295,222116,2,0,P|49:222|61:123,1,165,2|2,1:2|1:2,0:0:0:0:
176,69,223241,5,10,0:0:0:0:
243,125,223616,1,2,1:2:0:0:
362,69,224178,2,0,P|427:114|398:210,1,165,2|10,1:2|0:0,0:0:0:0:
354,253,225116,2,0,P|293:234|244:224,1,110,2|8,1:2|0:0,0:0:0:0:
217,141,225866,6,0,P|156:160|107:170,1,110,6|8,1:2|0:0,0:0:0:0:
67,245,226616,1,2,1:2:0:0:
156,342,227178,2,0,B|213:322|213:322|258:340|258:340|326:321,1,165,2|10,1:2|0:0,0:0:0:0:
361,252,228116,1,2,1:2:0:0:
477,313,228678,6,0,B|514:270|514:270|468:158,1,165,2|10,1:2|0:0,0:0:0:0:
390,138,229616,1,2,1:2:0:0:
277,207,230178,2,0,B|180:230|235:272|124:292,1,165,2|8,0:0|0:0,0:0:0:0:
64,241,231116,1,2,1:2:0:0:
128,126,231678,5,6,1:2:0:0:
128,126,233366,2,0,P|66:132|37:31,1,165,2|2,1:2|1:2,0:0:0:0:
159,19,234491,1,8,0:0:0:0:
159,19,234866,5,2,1:2:0:0:
267,157,235616,2,0,P|323:141|447:126,1,165,0|2,1:0|1:2,0:0:0:0:
503,17,236741,1,0,3:0:0:0:
503,17,237116,2,0,P|437:-2|394:-7,1,110,0|8,0:0|0:0,0:0:0:0:
332,54,237866,5,6,1:2:0:0:
332,54,239178,2,0,B|310:116|310:116|360:204,1,165,2|0,1:2|3:0,0:0:0:0:
437,242,240116,2,0,P|426:298|412:360,1,110,0|8,0:0|0:0,0:0:0:0:
329,374,240866,6,0,P|278:352|226:333,1,110,6|8,1:2|0:0,0:0:0:0:
170,265,241616,1,0,1:0:0:0:
66,346,242178,2,0,P|10:305|37:209,1,165,2|8,1:2|0:0,0:0:0:0:
93,164,243116,1,0,1:0:0:0:
211,222,243678,6,0,B|267:216|398:206,1,165,6|10,1:2|0:0,0:0:0:0:
446,155,244616,2,0,P|462:98|409:44,1,110,2|8,1:2|0:0,0:0:0:0:
358,17,245366,2,0,B|303:9|303:9|236:41,1,110,2|8,1:2|0:0,0:0:0:0:
225,115,246116,1,0,1:0:0:0:
109,52,246678,6,0,P|53:85|64:184,1,165,2|10,1:2|0:0,0:0:0:0:
128,227,247616,1,0,1:0:0:0:
236,151,248178,2,0,B|325:164|281:223|393:253,1,165,2|10,1:2|0:0,0:0:0:0:
451,220,249116,2,0,P|441:287|433:352,1,110,0|8,1:0|0:0,0:0:0:0:
360,374,249866,6,0,P|293:364|228:356,1,110,6|8,1:2|0:0,0:0:0:0:
207,282,250616,1,2,1:2:0:0:
96,353,251178,2,0,B|59:319|59:319|85:173,1,165,2|10,1:2|0:0,0:0:0:0:
157,165,252116,1,0,1:0:0:0:
248,259,252678,6,0,P|298:237|415:202,1,165,2|8,1:2|0:0,0:0:0:0:
429,120,253616,1,2,1:2:0:0:
337,24,254178,2,0,B|228:31|295:89|168:109,1,165,6|8,1:2|0:0,0:0:0:0:
186,189,255116,1,8,0:0:0:0:
65,134,255678,6,0,B|26:187|26:187|74:293,1,165,6|8,1:2|0:0,0:0:0:0:
131,337,256616,2,0,P|187:313|248:300,1,110,10|10,0:0|0:0,0:0:0:0:
288,231,257366,1,10,0:0:0:0:
356,286,257741,1,10,0:0:0:0:
431,240,258116,2,0,P|436:187|397:151,1,110,10|10,0:0|0:0,0:0:0:0:
338,86,258866,6,0,P|275:109|227:121,1,110,10|10,0:0|0:0,0:0:0:0:
197,199,259616,2,0,P|116:182|22:144,1,165,10|10,0:0|0:2,0:0:0:0:
8,24,260741,1,10,0:0:0:0:
8,24,261116,2,0,P|75:54|129:72,1,110,10|8,0:0|0:0,3:3:0:0:
157,140,261866,6,0,P|224:110|278:92,1,110,6|8,1:2|0:0,0:0:0:0:
309,25,262616,1,10,0:0:0:0:
419,96,263178,2,0,B|469:143|469:143|434:261,1,165,10|10,0:0|0:0,0:0:0:0:
375,293,264116,2,0,P|309:266|263:254,1,110,10|10,0:0|0:0,0:0:0:0:
187,280,264866,5,10,0:0:0:0:
133,210,265241,1,10,0:0:0:0:
62,262,265616,2,0,P|28:313|94:379,1,165,10|10,0:0|0:2,0:0:0:0:
194,299,266741,1,10,0:0:0:0:
194,299,267116,1,8,0:0:0:0:
308,363,267678,6,0,B|383:359|487:379,1,165,6|10,1:2|0:0,0:0:0:0:
507,295,268616,2,0,P|516:250|471:191,1,110,10|10,0:0|0:0,0:0:0:0:
406,157,269366,1,10,0:0:0:0:
336,210,269741,1,10,0:0:0:0:
265,157,270116,2,0,B|163:152|212:201|100:204,1,165,10|10,0:0|0:0,0:0:0:0:
14,113,271241,5,10,0:0:0:0:
63,40,271616,2,0,P|106:-2|220:24,1,165,10|10,0:0|0:2,0:0:0:0:
280,116,272741,1,10,0:0:0:0:
327,41,273116,2,0,P|378:22|428:-1,1,110,10|8,0:0|0:0,0:0:0:0:
465,79,273866,6,0,P|515:131|479:201,1,110,6|10,1:2|0:0,0:0:0:0:
446,222,274616,1,10,0:0:0:0:
345,307,275178,2,0,B|287:293|287:293|254:263|254:263|188:244,1,165,10|10,0:0|0:0,0:0:0:0:
140,177,276116,1,10,0:0:0:0:
21,235,276678,6,0,B|-11:293|-11:293|38:405,1,165,10|10,0:0|0:0,0:0:0:0:
103,337,277616,2,0,B|207:323|161:379|269:368,1,165,10|10,0:0|0:0,0:0:0:0:
301,246,278741,1,10,0:0:0:0:
301,246,279116,2,0,P|362:249|414:248,1,110,10|2,0:0|1:2,0:0:0:0:
463,318,279866,5,14,0:0:0:0:
510,148,280616,2,0,B|524:84|524:84|464:-10,1,165,0|0,0:0|0:0,0:0:0:0:
392,106,281741,2,0,B|332:121|349:142|292:156,1,110,0|0,0:0|0:0,0:0:0:0:
187,79,282678,6,0,P|120:68|99:171,1,165,0|0,0:0|0:0,0:0:0:0:
140,213,283616,2,0,P|129:281|114:381,1,165,0|0,0:0|0:0,0:0:0:0:
256,192,284272,12,0,285678,0:0:0:0:
