osu file format v14

[General]
AudioFilename: audio.mp3
AudioLeadIn: 0
PreviewTime: 99590
Countdown: 0
SampleSet: Normal
StackLeniency: 0.7
Mode: 1
LetterboxInBreaks: 0
WidescreenStoryboard: 1

[Editor]
Bookmarks: 4116,9633,20667,34460,45495,56529,67564,78598,89633,100667,111702,122736,144805,166874,188943,211012,233081,244116,253771,255150,277219,282736,302047,304805
DistanceSpacing: 0.3
BeatDivisor: 4
GridSize: 16
TimelineZoom: 1.2

[Metadata]
Title:Ruri-iro Soiree
TitleUnicode:瑠璃色ソワレ
Artist:Ariabl'eyeS
ArtistUnicode:Ariabl'eyeS
Creator:iRedi
Version:2199's Oni
Source:
Tags:gaston_2199 soirée ariableyes featured artist fa mappers' guild mg mpg female vocals vocalist gothic metal symphonic rock japanese pop j-pop jpop j-rock jrock 2nd Full Album -Concept Series Ⅱ- 穢れなき瑠璃色のローゼンクロイツ rena lyse リゼ kegarenaki ruriiro ruri-iro no rosenkreuz
BeatmapID:4473599
BeatmapSetID:2124537

[Difficulty]
HPDrainRate:5.5
CircleSize:2
OverallDifficulty:5.5
ApproachRate:10
SliderMultiplier:1.4
SliderTickRate:1

[Events]
//Background and Video events
0,0,"72650801_p0 (1).jpg",0,40
//Break Periods
//Storyboard Layer 0 (Background)
//Storyboard Layer 1 (Fail)
//Storyboard Layer 2 (Pass)
//Storyboard Layer 3 (Foreground)
//Storyboard Layer 4 (Overlay)
//Storyboard Sound Samples

[TimingPoints]
1358,344.827586206897,4,1,0,30,1,0
1358,-111.111111111111,4,1,0,30,0,0
4029,-111.111111111111,4,1,0,65,0,0
4116,344.827586206897,4,1,0,65,1,0
4116,-111.111111111111,4,1,0,65,0,0
8938,-105.263157894737,4,1,0,65,0,0
9111,-102.556480380499,4,1,0,65,0,0
9283,-100,4,1,0,65,0,0
9369,-98.7689665044374,4,1,0,65,0,0
9455,-97.5678733031674,4,1,0,65,0,0
9542,-96.3821762816036,4,1,0,65,0,0
9628,-95.2380952380952,4,1,0,80,0,0
31696,-90.9090909090909,4,1,0,80,0,0
31869,-92.1022510492179,4,1,0,80,0,0
31955,-92.7106536600353,4,1,0,80,0,0
32214,-94.5924764890282,4,1,0,80,0,0
32386,-95.8849698125199,4,1,0,80,0,0
32559,-97.221103503826,4,1,0,80,0,0
32731,-98.5869476435514,4,1,0,80,0,0
32817,-99.2843629184832,4,1,0,80,0,0
32904,-100,4,1,0,80,0,0
33248,-90.9090909090909,4,1,0,80,0,0
33421,-92.1092796092796,4,1,0,80,0,0
33507,-92.7177753879244,4,1,0,80,0,0
33593,-93.3343643674606,4,1,0,80,0,0
33765,-90.95709,4,1,0,80,0,0
33766,-94.5998902735324,4,1,0,80,0,0
33938,-95.892587590371,4,1,0,80,0,0
34111,-97.2289350733043,4,1,0,80,0,0
34197,-97.9072031148605,4,1,0,80,0,0
34283,-98.59500081686,4,1,0,80,0,0
34369,-99.292530437644,4,1,0,80,0,0
34455,-100,4,1,0,70,0,0
51007,-99.4165931754969,4,1,0,70,0,0
51179,-98.8399541377217,4,1,0,70,0,0
51352,-98.2666711368894,4,1,0,70,0,0
51524,-97.7032567752258,4,1,0,70,0,0
51697,-97.1430465332096,4,1,0,70,0,0
51869,-96.5924070656472,4,1,0,70,0,0
52042,-96.0448274732117,4,1,0,70,0,0
52386,-94.9742393311947,4,1,0,70,0,0
52559,-94.4448024747052,4,1,0,70,0,0
52731,-93.9242453374351,4,1,0,70,0,0
52904,-93.406418305236,4,1,0,70,0,0
53076,-92.8972140344205,4,1,0,70,0,0
53248,-92.3935315071084,4,1,0,70,0,0
53421,-91.8924003009782,4,1,0,70,0,0
53593,-91.3995260072346,4,1,0,70,0,0
53766,-90.9090909090909,4,1,0,70,0,0
55662,-92.3049455454383,4,1,0,70,0,0
55748,-93.0190716084923,4,1,0,70,0,0
55835,-93.7528334391151,4,1,0,70,0,0
56007,-95.2380952380952,4,1,0,70,0,0
56093,-95.9985145297558,4,1,0,70,0,0
56179,-96.7711745437529,4,1,0,70,0,0
56266,-97.5655784110209,4,1,0,70,0,0
56352,-98.3637747336378,4,1,0,70,0,0
56524,-100,4,1,0,70,0,0
73076,-99.4165931754969,4,1,0,70,0,0
73248,-98.8399541377217,4,1,0,70,0,0
73421,-98.2666711368894,4,1,0,70,0,0
73593,-97.7032567752258,4,1,0,70,0,0
73766,-97.1430465332096,4,1,0,70,0,0
73938,-96.5924070656472,4,1,0,70,0,0
74111,-96.0448274732117,4,1,0,70,0,0
74455,-94.9742393311947,4,1,0,70,0,0
74628,-94.4448024747052,4,1,0,70,0,0
74800,-93.9242453374351,4,1,0,70,0,0
74973,-93.406418305236,4,1,0,70,0,0
75145,-92.8972140344205,4,1,0,70,0,0
75317,-92.3935315071084,4,1,0,70,0,0
75490,-91.8924003009782,4,1,0,70,0,0
75662,-91.3995260072346,4,1,0,70,0,0
75835,-90.9090909090909,4,1,0,70,0,0
77731,-92.3049455454383,4,1,0,70,0,0
77817,-93.0190716084923,4,1,0,70,0,0
77904,-93.7528334391151,4,1,0,70,0,0
78076,-95.2380952380952,4,1,0,70,0,0
78248,-96.7711745437529,4,1,0,70,0,0
78421,-98.3637747336378,4,1,0,70,0,0
78507,-99.1751390753884,4,1,0,70,0,0
78593,-100,4,1,0,70,0,0
95490,-99.16128,4,1,0,70,0,0
95835,-98.34819,4,1,0,70,0,0
96007,-97.947784,4,1,0,70,0,0
96179,-97.55062,4,1,0,70,0,0
96352,-97.154396,4,1,0,70,0,0
96438,-96.95861,4,1,0,70,0,0
96524,-96.76363,4,1,0,70,0,0
96869,-95.989235,4,1,0,70,0,0
97214,-95.227135,4,1,0,70,0,0
97386,-94.85169,4,1,0,70,0,0
97558,-94.4792,4,1,0,70,0,0
97731,-94.10748,4,1,0,70,0,0
97817,-93.92378,4,1,0,70,0,0
97903,-93.7408,4,1,0,70,0,0
98248,-93.01385,4,1,0,70,0,0
98593,-92.29808,4,1,0,70,0,0
98766,-91.94329,4,1,0,70,0,0
98938,-91.59325,4,1,0,70,0,0
99111,-91.24385,4,1,0,70,0,0
99197,-91.071144,4,1,0,70,0,0
99283,-90.93896,4,1,0,70,0,0
99628,-100,4,1,0,70,0,0
99973,-96.7711745437529,4,1,0,70,0,0
100145,-95.2380952380952,4,1,0,70,0,0
100317,-93.7528334391151,4,1,0,70,0,0
100490,-92.3049455454383,4,1,0,70,0,0
100667,-90.90909,4,1,0,85,0,1
122386,-92.3049455454383,4,1,0,85,0,1
122473,-93.0274403958614,4,1,0,85,0,1
122559,-93.7528334391151,4,1,0,85,0,1
122645,-94.4896280727406,4,1,0,85,0,1
122736,-95.2380952380952,4,1,0,80,0,0
144283,-96.383856753165,4,1,0,80,0,0
144369,-96.9671381324326,4,1,0,80,0,0
144455,-97.5575221238938,4,1,0,80,0,0
144542,-98.1621313577433,4,1,0,80,0,0
144628,-98.7672018348624,4,1,0,80,0,0
144800,-100,4,1,0,80,0,0
161346,-99.4165931754969,4,1,0,70,0,0
161518,-98.8399541377217,4,1,0,70,0,0
161691,-98.2666711368894,4,1,0,70,0,0
161863,-97.7032567752258,4,1,0,70,0,0
162036,-97.1430465332096,4,1,0,70,0,0
162208,-96.5924070656472,4,1,0,70,0,0
162381,-96.0448274732117,4,1,0,70,0,0
162725,-94.9742393311947,4,1,0,70,0,0
162898,-94.4448024747052,4,1,0,70,0,0
163070,-93.9242453374351,4,1,0,70,0,0
163243,-93.406418305236,4,1,0,70,0,0
163415,-92.8972140344205,4,1,0,70,0,0
163587,-92.3935315071084,4,1,0,70,0,0
163760,-91.8924003009782,4,1,0,70,0,0
163932,-91.3995260072346,4,1,0,70,0,0
164105,-90.9090909090909,4,1,0,70,0,0
166001,-92.3049455454383,4,1,0,70,0,0
166087,-93.0190716084923,4,1,0,70,0,0
166174,-93.7528334391151,4,1,0,70,0,0
166346,-95.2380952380952,4,1,0,70,0,0
166432,-95.9985145297558,4,1,0,70,0,0
166518,-96.7711745437529,4,1,0,70,0,0
166605,-97.5655784110209,4,1,0,70,0,0
166691,-98.3637747336378,4,1,0,70,0,0
166863,-100,4,1,0,70,0,0
183762,-99.16128,4,1,0,70,0,0
184107,-98.34819,4,1,0,70,0,0
184279,-97.947784,4,1,0,70,0,0
184451,-97.55062,4,1,0,70,0,0
184624,-97.154396,4,1,0,70,0,0
184710,-96.95861,4,1,0,70,0,0
184796,-96.76363,4,1,0,70,0,0
185141,-95.989235,4,1,0,70,0,0
185486,-95.227135,4,1,0,70,0,0
185658,-94.85169,4,1,0,70,0,0
185830,-94.4792,4,1,0,70,0,0
186003,-94.10748,4,1,0,70,0,0
186089,-93.92378,4,1,0,70,0,0
186175,-93.7408,4,1,0,70,0,0
186520,-93.01385,4,1,0,70,0,0
186865,-92.29808,4,1,0,70,0,0
187038,-91.94329,4,1,0,70,0,0
187210,-91.59325,4,1,0,70,0,0
187383,-91.24385,4,1,0,70,0,0
187469,-91.071144,4,1,0,70,0,0
187555,-90.93896,4,1,0,70,0,0
187900,-100,4,1,0,70,0,0
188245,-96.7711745437529,4,1,0,70,0,0
188417,-95.2380952380952,4,1,0,70,0,0
188589,-93.7528334391151,4,1,0,70,0,0
188762,-92.3049455454383,4,1,0,70,0,0
188943,-90.90909,4,1,0,85,0,1
210660,-92.3049455454383,4,1,0,85,0,1
210747,-93.0274403958614,4,1,0,85,0,1
210833,-93.7528334391151,4,1,0,85,0,1
210919,-94.4896280727406,4,1,0,85,0,1
211012,-95.2380952380952,4,1,0,85,0,0
230317,-94.7381272127945,4,1,0,85,0,0
230490,-94.2405197801864,4,1,0,85,0,0
230576,-93.9950943281955,4,1,0,85,0,0
230662,-93.7509438521248,4,1,0,85,0,0
230835,-93.2636259840154,4,1,0,85,0,0
231007,-92.7841214802415,4,1,0,85,0,0
231093,-92.546213476446,4,1,0,85,0,0
231179,-92.3095223933861,4,1,0,85,0,0
231266,-92.0713078041112,4,1,0,85,0,0
231352,-91.8370365987159,4,1,0,85,0,0
231524,-91.3720526331282,4,1,0,85,0,0
231697,-90.9090909090909,4,1,0,85,0,0
231788,-90.9090909090909,4,1,0,65,0,0
232047,-111.111111111111,4,1,0,65,0,0
233162,-111.111111111111,4,1,0,60,0,0
244111,-95.2380952380952,4,1,0,80,0,0
252386,-94.7381272127945,4,1,0,80,0,0
252559,-94.2405197801864,4,1,0,80,0,0
252731,-93.7509438521248,4,1,0,80,0,0
252904,-93.2636259840154,4,1,0,80,0,0
252990,-93.0232558139535,4,1,0,80,0,0
253076,-92.7841214802415,4,1,0,80,0,0
253248,-92.3095223933861,4,1,0,80,0,0
253421,-91.8370365987159,4,1,0,80,0,0
253507,-91.6039545521617,4,1,0,80,0,0
253593,-91.3720526331282,4,1,0,80,0,0
253766,-90.90909,4,1,0,80,0,0
254108,-100,4,1,0,70,0,0
254453,-96.7711745437529,4,1,0,70,0,0
254625,-95.2380952380952,4,1,0,70,0,0
254797,-93.7528334391151,4,1,0,70,0,0
254970,-92.3049455454383,4,1,0,70,0,0
255150,-90.90909,4,1,0,85,0,1
277219,-90.9090909090909,4,1,0,85,0,0
277300,-100,4,1,0,70,0,0
279978,-90.9090909090909,4,1,0,70,0,0
282376,-92.3049455454383,4,1,0,70,0,0
282463,-93.0274403958614,4,1,0,70,0,0
282549,-93.7528334391151,4,1,0,70,0,0
282635,-94.4896280727406,4,1,0,70,0,0
282731,-95.2380952380952,4,1,0,80,0,0
304800,-100,4,1,0,5,0,0

[HitObjects]
256,192,4116,5,0,0:0:0:0:
256,192,4288,1,0,0:0:0:0:
256,192,4460,1,8,0:0:0:0:
256,192,4633,1,0,0:0:0:0:
256,192,4978,1,0,0:0:0:0:
256,192,5150,1,8,0:0:0:0:
256,192,5495,1,8,0:0:0:0:
256,192,5667,1,8,0:0:0:0:
256,192,5840,1,0,0:0:0:0:
256,192,6012,1,8,0:0:0:0:
256,192,6357,1,8,0:0:0:0:
256,192,6529,1,0,0:0:0:0:
256,192,6874,8,0,8426,0:0:0:0:
256,176,8598,5,8,0:0:0:0:
256,192,8943,1,8,0:0:0:0:
256,192,9116,1,8,0:0:0:0:
256,192,9288,1,8,0:0:0:0:
256,192,9374,1,8,0:0:0:0:
256,192,9460,1,8,0:0:0:0:
256,192,9547,1,8,0:0:0:0:
256,192,9633,1,0,0:0:0:0:
256,192,9805,1,8,0:0:0:0:
256,192,10150,1,8,0:0:0:0:
256,192,10236,1,8,0:0:0:0:
256,192,10322,1,0,0:0:0:0:
256,192,10495,1,8,0:0:0:0:
256,192,10581,1,0,0:0:0:0:
256,192,10753,1,0,0:0:0:0:
256,192,10840,1,8,0:0:0:0:
256,192,11012,1,0,0:0:0:0:
256,192,11098,1,0,0:0:0:0:
256,192,11184,1,8,0:0:0:0:
256,192,11357,1,0,0:0:0:0:
256,192,11529,1,8,0:0:0:0:
256,176,11616,1,0,0:0:0:0:
256,192,11702,1,0,0:0:0:0:
256,192,11788,1,0,0:0:0:0:
256,192,11874,1,8,0:0:0:0:
256,192,12047,1,0,0:0:0:0:
256,192,12219,1,8,0:0:0:0:
256,192,12305,1,8,0:0:0:0:
256,192,12391,1,0,0:0:0:0:
256,192,12563,1,8,0:0:0:0:
256,192,12909,1,8,0:0:0:0:
256,192,13081,1,0,0:0:0:0:
256,192,13253,1,8,0:0:0:0:
256,192,13340,1,0,0:0:0:0:
256,192,13512,1,0,0:0:0:0:
256,192,13598,1,8,0:0:0:0:
512,0,13771,1,4,0:0:0:0:
256,192,13943,1,8,0:0:0:0:
256,192,14116,1,0,0:0:0:0:
256,192,14288,1,8,0:0:0:0:
256,192,14374,1,8,0:0:0:0:
256,192,14460,1,0,0:0:0:0:
256,192,14633,1,8,0:0:0:0:
256,192,14805,1,0,0:0:0:0:
256,192,14891,1,0,0:0:0:0:
256,192,14978,1,8,0:0:0:0:
256,192,15064,1,0,0:0:0:0:
256,192,15150,1,0,0:0:0:0:
256,192,15322,1,8,0:0:0:0:
256,192,15667,1,8,0:0:0:0:
256,192,15840,1,0,0:0:0:0:
256,192,16012,1,8,0:0:0:0:
256,192,16098,1,8,0:0:0:0:
256,192,16184,1,0,0:0:0:0:
256,192,16357,1,0,0:0:0:0:
256,192,16443,1,0,0:0:0:0:
256,192,16529,1,8,0:0:0:0:
256,192,16702,1,0,0:0:0:0:
256,192,16788,1,8,0:0:0:0:
256,192,16874,1,0,0:0:0:0:
256,192,17047,1,8,0:0:0:0:
256,192,17133,1,0,0:0:0:0:
256,192,17219,1,8,0:0:0:0:
256,192,17391,1,8,0:0:0:0:
256,176,17478,1,0,0:0:0:0:
256,192,17564,1,0,0:0:0:0:
256,192,17650,1,0,0:0:0:0:
256,192,17736,1,8,0:0:0:0:
256,192,17909,1,8,0:0:0:0:
256,176,18081,1,0,0:0:0:0:
256,192,18253,1,8,0:0:0:0:
256,192,18426,1,0,0:0:0:0:
256,192,18512,1,0,0:0:0:0:
256,192,18598,1,8,0:0:0:0:
256,176,18771,1,0,0:0:0:0:
256,192,18943,1,8,0:0:0:0:
256,192,19116,1,0,0:0:0:0:
256,192,19288,1,8,0:0:0:0:
256,192,19374,1,8,0:0:0:0:
256,192,19460,1,0,0:0:0:0:
256,192,19547,1,0,0:0:0:0:
256,192,19633,1,8,0:0:0:0:
256,192,19805,1,0,0:0:0:0:
256,192,19978,1,8,0:0:0:0:
256,192,20150,1,8,0:0:0:0:
256,192,20322,1,0,0:0:0:0:
256,192,20409,1,0,0:0:0:0:
256,192,20495,1,8,0:0:0:0:
256,192,20581,1,8,0:0:0:0:
256,192,20667,1,0,0:0:0:0:
256,192,20840,1,8,0:0:0:0:
256,192,21184,1,8,0:0:0:0:
256,192,21271,1,0,0:0:0:0:
256,192,21357,1,8,0:0:0:0:
256,192,21529,1,8,0:0:0:0:
256,192,21616,1,0,0:0:0:0:
256,192,21788,1,0,0:0:0:0:
256,192,21874,1,8,0:0:0:0:
256,192,22047,1,0,0:0:0:0:
256,192,22133,1,8,0:0:0:0:
256,192,22219,1,0,0:0:0:0:
256,192,22391,1,0,0:0:0:0:
256,192,22564,1,8,0:0:0:0:
256,192,22650,1,8,0:0:0:0:
256,192,22736,1,0,0:0:0:0:
256,176,22822,1,0,0:0:0:0:
256,192,22909,1,8,0:0:0:0:
256,192,23081,1,0,0:0:0:0:
256,192,23253,1,8,0:0:0:0:
256,192,23340,1,8,0:0:0:0:
256,192,23426,1,0,0:0:0:0:
256,192,23598,1,8,0:0:0:0:
256,192,23943,1,8,0:0:0:0:
256,192,24116,1,8,0:0:0:0:
256,192,24288,1,0,0:0:0:0:
256,192,24374,1,8,0:0:0:0:
256,192,24547,1,0,0:0:0:0:
256,192,24633,1,8,0:0:0:0:
512,0,24805,1,4,0:0:0:0:
256,192,24978,1,8,0:0:0:0:
256,192,25150,1,0,0:0:0:0:
256,192,25322,1,8,0:0:0:0:
256,192,25409,1,8,0:0:0:0:
256,192,25495,1,0,0:0:0:0:
256,192,25667,1,8,0:0:0:0:
256,192,25840,1,0,0:0:0:0:
256,192,25926,1,0,0:0:0:0:
256,192,26012,1,8,0:0:0:0:
256,192,26098,1,8,0:0:0:0:
256,192,26184,1,0,0:0:0:0:
256,192,26357,1,8,0:0:0:0:
256,192,26702,1,8,0:0:0:0:
256,192,26874,1,0,0:0:0:0:
256,176,26960,1,8,0:0:0:0:
256,192,27047,1,0,0:0:0:0:
256,192,27133,1,8,0:0:0:0:
256,192,27219,1,0,0:0:0:0:
256,192,27391,1,8,0:0:0:0:
256,192,27564,1,0,0:0:0:0:
256,192,27736,1,8,0:0:0:0:
256,192,27909,1,0,0:0:0:0:
256,192,27995,1,0,0:0:0:0:
256,192,28081,1,8,0:0:0:0:
256,192,28253,1,0,0:0:0:0:
256,192,28426,1,8,0:0:0:0:
256,192,28598,1,0,0:0:0:0:
256,192,28684,1,0,0:0:0:0:
256,192,28771,1,8,0:0:0:0:
256,192,28943,1,8,0:0:0:0:
256,192,29116,1,0,0:0:0:0:
256,192,29288,1,8,0:0:0:0:
256,192,29460,1,0,0:0:0:0:
256,192,29547,1,0,0:0:0:0:
256,192,29633,1,8,0:0:0:0:
256,192,29805,1,0,0:0:0:0:
256,192,29978,1,8,0:0:0:0:
256,192,30150,1,0,0:0:0:0:
256,192,30236,1,0,0:0:0:0:
256,192,30322,1,8,0:0:0:0:
256,192,30409,1,0,0:0:0:0:
256,192,30495,1,0,0:0:0:0:
256,192,30667,1,8,0:0:0:0:
256,192,30840,1,0,0:0:0:0:
256,192,30926,1,0,0:0:0:0:
256,192,31012,1,8,0:0:0:0:
256,192,31184,1,8,0:0:0:0:
256,192,31271,1,8,0:0:0:0:
256,192,31357,1,0,0:0:0:0:
256,192,31443,1,0,0:0:0:0:
256,192,31529,1,8,0:0:0:0:
512,0,31702,1,4,0:0:0:0:
256,192,31874,1,8,0:0:0:0:
256,192,31960,1,0,0:0:0:0:
256,192,32219,1,8,0:0:0:0:
256,192,32391,1,8,0:0:0:0:
256,192,32564,1,0,0:0:0:0:
256,192,32736,1,8,0:0:0:0:
256,192,32822,1,0,0:0:0:0:
256,192,32909,1,8,0:0:0:0:
256,192,33253,1,12,0:0:0:0:
256,192,33426,1,0,0:0:0:0:
256,192,33512,1,0,0:0:0:0:
256,192,33598,1,0,0:0:0:0:
256,192,33771,1,8,0:0:0:0:
256,192,33943,1,8,0:0:0:0:
256,192,34116,1,0,0:0:0:0:
256,192,34202,1,0,0:0:0:0:
256,192,34288,1,8,0:0:0:0:
256,192,34374,1,8,0:0:0:0:
256,192,34460,1,0,0:0:0:0:
256,192,34633,1,8,0:0:0:0:
256,192,34978,1,8,0:0:0:0:
260,190,35064,1,0,0:0:0:0:
256,192,35150,1,0,0:0:0:0:
256,192,35322,1,8,0:0:0:0:
256,192,35495,1,0,0:0:0:0:
256,192,35581,1,0,0:0:0:0:
256,192,35667,1,8,0:0:0:0:
256,192,35840,1,0,0:0:0:0:
240,176,36012,1,8,0:0:0:0:
256,192,36184,1,0,0:0:0:0:
256,192,36357,1,8,0:0:0:0:
256,192,36443,1,8,0:0:0:0:
256,192,36529,1,0,0:0:0:0:
256,192,36702,1,8,0:0:0:0:
256,192,36874,1,0,0:0:0:0:
256,192,36960,1,0,0:0:0:0:
256,192,37047,1,8,0:0:0:0:
256,192,37219,1,0,0:0:0:0:
256,192,37391,1,8,0:0:0:0:
256,192,37736,1,8,0:0:0:0:
256,192,37822,1,0,0:0:0:0:
256,192,37909,1,0,0:0:0:0:
256,192,38081,1,8,0:0:0:0:
256,192,38253,1,8,0:0:0:0:
256,192,38340,1,8,0:0:0:0:
256,192,38426,1,8,0:0:0:0:
256,192,38598,1,0,0:0:0:0:
256,192,38771,1,8,0:0:0:0:
256,176,38943,1,0,0:0:0:0:
256,192,39029,1,0,0:0:0:0:
256,192,39116,1,8,0:0:0:0:
256,192,39288,1,0,0:0:0:0:
256,192,39460,1,8,0:0:0:0:
256,176,39633,1,8,0:0:0:0:
256,192,39719,1,0,0:0:0:0:
256,192,39805,1,8,0:0:0:0:
256,192,39891,1,8,0:0:0:0:
256,192,39978,1,0,0:0:0:0:
256,192,40150,1,8,0:0:0:0:
256,192,40495,1,8,0:0:0:0:
256,176,40581,1,0,0:0:0:0:
256,192,40667,1,0,0:0:0:0:
256,192,40840,1,8,0:0:0:0:
256,192,41012,1,0,0:0:0:0:
256,192,41098,1,0,0:0:0:0:
256,192,41184,1,8,0:0:0:0:
256,192,41357,1,0,0:0:0:0:
256,192,41529,1,8,0:0:0:0:
256,192,41702,1,0,0:0:0:0:
256,192,41874,1,8,0:0:0:0:
253,185,41960,5,8,0:0:0:0:
256,192,42047,1,0,0:0:0:0:
256,192,42219,1,8,0:0:0:0:
256,192,42391,1,8,0:0:0:0:
256,192,42478,1,8,0:0:0:0:
256,192,42564,1,8,0:0:0:0:
256,192,42736,1,0,0:0:0:0:
256,176,42909,1,8,0:0:0:0:
256,192,43253,1,8,0:0:0:0:
256,192,43426,1,0,0:0:0:0:
256,192,43598,1,8,0:0:0:0:
256,192,43771,1,8,0:0:0:0:
256,192,43857,1,0,0:0:0:0:
256,192,43943,1,8,0:0:0:0:
256,192,44116,1,0,0:0:0:0:
256,192,44288,1,8,0:0:0:0:
256,192,44460,1,0,0:0:0:0:
256,192,44547,1,0,0:0:0:0:
256,192,44633,1,8,0:0:0:0:
256,192,44805,1,0,0:0:0:0:
256,192,44978,1,8,0:0:0:0:
256,192,45064,1,8,0:0:0:0:
256,192,45150,1,0,0:0:0:0:
256,192,45236,1,0,0:0:0:0:
256,192,45322,1,8,0:0:0:0:
256,192,45495,1,0,0:0:0:0:
256,192,45667,1,8,0:0:0:0:
256,192,46012,1,8,0:0:0:0:
257,186,46098,1,0,0:0:0:0:
256,192,46184,1,0,0:0:0:0:
256,192,46357,1,8,0:0:0:0:
256,192,46529,1,0,0:0:0:0:
256,192,46616,1,0,0:0:0:0:
256,192,46702,1,8,0:0:0:0:
256,192,46874,1,0,0:0:0:0:
256,192,47047,1,8,0:0:0:0:
256,192,47219,1,0,0:0:0:0:
256,192,47391,1,8,0:0:0:0:
256,192,47478,1,8,0:0:0:0:
256,192,47564,1,0,0:0:0:0:
256,192,47736,1,8,0:0:0:0:
256,192,47909,1,0,0:0:0:0:
256,192,47995,1,0,0:0:0:0:
256,192,48081,1,8,0:0:0:0:
256,192,48253,1,0,0:0:0:0:
256,192,48426,1,8,0:0:0:0:
256,192,48771,1,8,0:0:0:0:
256,192,48857,1,0,0:0:0:0:
256,192,48943,1,0,0:0:0:0:
256,192,49116,1,8,0:0:0:0:
256,192,49288,1,0,0:0:0:0:
256,192,49374,1,0,0:0:0:0:
256,192,49460,1,8,0:0:0:0:
256,192,49633,1,0,0:0:0:0:
256,192,49805,1,8,0:0:0:0:
256,192,49891,1,0,0:0:0:0:
256,192,49978,1,0,0:0:0:0:
256,192,50064,1,0,0:0:0:0:
256,192,50150,1,8,0:0:0:0:
256,192,50322,1,0,0:0:0:0:
256,192,50495,1,8,0:0:0:0:
256,192,50667,1,0,0:0:0:0:
249,186,50753,1,0,0:0:0:0:
256,192,50840,1,8,0:0:0:0:
256,192,51012,1,8,0:0:0:0:
256,192,51184,1,0,0:0:0:0:
256,192,51357,1,0,0:0:0:0:
256,192,51529,1,8,0:0:0:0:
256,192,51702,1,0,0:0:0:0:
256,192,51874,1,0,0:0:0:0:
256,192,52047,1,8,0:0:0:0:
256,192,52391,1,8,0:0:0:0:
256,192,52564,1,0,0:0:0:0:
256,192,52736,1,0,0:0:0:0:
256,192,52909,1,8,0:0:0:0:
256,192,53081,1,0,0:0:0:0:
256,192,53253,1,0,0:0:0:0:
256,192,53426,1,8,0:0:0:0:
256,192,53598,1,0,0:0:0:0:
256,192,53771,1,8,0:0:0:0:
256,192,54116,1,8,0:0:0:0:
256,192,54288,1,0,0:0:0:0:
256,192,54374,1,0,0:0:0:0:
256,192,54460,1,8,0:0:0:0:
256,192,54633,1,0,0:0:0:0:
256,192,54805,1,8,0:0:0:0:
256,192,54978,1,0,0:0:0:0:
256,192,55064,1,0,0:0:0:0:
256,192,55150,1,8,0:0:0:0:
256,192,55322,1,0,0:0:0:0:
256,192,55495,1,8,0:0:0:0:
256,192,55667,1,0,0:0:0:0:
256,192,55753,1,0,0:0:0:0:
256,192,55840,1,8,0:0:0:0:
256,192,56012,1,8,0:0:0:0:
256,192,56098,1,8,0:0:0:0:
256,192,56184,1,0,0:0:0:0:
256,192,56271,1,0,0:0:0:0:
256,192,56357,1,8,0:0:0:0:
256,192,56529,1,0,0:0:0:0:
256,192,56702,1,8,0:0:0:0:
256,192,57047,1,8,0:0:0:0:
260,190,57133,1,8,0:0:0:0:
256,192,57219,1,0,0:0:0:0:
256,192,57391,1,8,0:0:0:0:
250,173,57564,1,0,0:0:0:0:
256,192,57650,1,0,0:0:0:0:
256,192,57736,1,8,0:0:0:0:
256,192,57909,1,0,0:0:0:0:
240,176,58081,1,8,0:0:0:0:
256,192,58253,1,0,0:0:0:0:
256,192,58426,1,8,0:0:0:0:
256,192,58512,1,0,0:0:0:0:
256,192,58598,1,0,0:0:0:0:
256,192,58771,1,8,0:0:0:0:
256,192,58943,1,8,0:0:0:0:
256,192,59029,1,8,0:0:0:0:
256,192,59116,1,8,0:0:0:0:
256,192,59288,1,0,0:0:0:0:
256,192,59460,1,8,0:0:0:0:
256,192,59805,1,8,0:0:0:0:
256,192,59891,1,8,0:0:0:0:
256,192,59978,1,0,0:0:0:0:
256,192,60150,1,8,0:0:0:0:
256,192,60322,1,0,0:0:0:0:
256,192,60409,1,0,0:0:0:0:
256,192,60495,1,8,0:0:0:0:
256,192,60667,1,0,0:0:0:0:
256,192,60840,1,8,0:0:0:0:
256,176,61012,1,0,0:0:0:0:
256,192,61098,1,0,0:0:0:0:
256,192,61184,1,8,0:0:0:0:
256,192,61357,1,0,0:0:0:0:
256,192,61529,1,8,0:0:0:0:
256,176,61702,1,8,0:0:0:0:
256,192,61788,1,0,0:0:0:0:
256,192,61874,1,8,0:0:0:0:
256,192,61960,1,8,0:0:0:0:
256,192,62047,1,0,0:0:0:0:
256,192,62219,1,8,0:0:0:0:
256,192,62564,1,8,0:0:0:0:
256,176,62650,1,8,0:0:0:0:
256,192,62736,1,0,0:0:0:0:
256,192,62909,1,8,0:0:0:0:
256,192,63081,1,0,0:0:0:0:
256,192,63167,1,0,0:0:0:0:
256,192,63253,1,8,0:0:0:0:
256,192,63426,1,0,0:0:0:0:
256,192,63598,1,8,0:0:0:0:
253,185,63771,1,0,0:0:0:0:
256,192,63943,1,8,0:0:0:0:
253,185,64029,5,0,0:0:0:0:
256,192,64116,1,0,0:0:0:0:
256,192,64288,1,8,0:0:0:0:
256,192,64460,1,8,0:0:0:0:
256,192,64547,1,0,0:0:0:0:
256,192,64633,1,8,0:0:0:0:
256,192,64805,1,0,0:0:0:0:
256,176,64978,1,8,0:0:0:0:
256,192,65322,1,8,0:0:0:0:
256,192,65495,1,0,0:0:0:0:
256,192,65667,1,8,0:0:0:0:
256,192,65840,1,0,0:0:0:0:
256,192,65926,1,0,0:0:0:0:
256,192,66012,1,8,0:0:0:0:
256,192,66184,1,0,0:0:0:0:
256,192,66357,1,8,0:0:0:0:
256,192,66443,1,0,0:0:0:0:
256,192,66616,1,0,0:0:0:0:
256,192,66702,1,8,0:0:0:0:
256,192,66874,1,0,0:0:0:0:
256,192,67047,1,8,0:0:0:0:
256,192,67133,1,8,0:0:0:0:
256,192,67219,1,0,0:0:0:0:
256,192,67305,1,0,0:0:0:0:
256,192,67391,1,8,0:0:0:0:
256,192,67564,1,0,0:0:0:0:
256,192,67736,1,8,0:0:0:0:
256,192,68081,1,8,0:0:0:0:
257,186,68167,1,8,0:0:0:0:
256,192,68253,1,0,0:0:0:0:
256,192,68426,1,8,0:0:0:0:
256,192,68598,1,0,0:0:0:0:
256,192,68684,1,0,0:0:0:0:
256,192,68771,1,8,0:0:0:0:
256,192,68943,1,0,0:0:0:0:
256,192,69116,1,8,0:0:0:0:
256,192,69288,1,0,0:0:0:0:
256,192,69460,1,8,0:0:0:0:
256,192,69547,1,0,0:0:0:0:
256,192,69633,1,0,0:0:0:0:
256,192,69805,1,8,0:0:0:0:
256,192,69978,1,0,0:0:0:0:
256,192,70064,1,0,0:0:0:0:
256,192,70150,1,8,0:0:0:0:
256,192,70322,1,0,0:0:0:0:
256,192,70495,1,8,0:0:0:0:
256,192,70840,1,8,0:0:0:0:
256,192,70926,1,8,0:0:0:0:
256,192,71012,1,0,0:0:0:0:
256,192,71184,1,8,0:0:0:0:
256,192,71357,1,0,0:0:0:0:
256,192,71443,1,0,0:0:0:0:
256,192,71529,1,8,0:0:0:0:
256,192,71702,1,0,0:0:0:0:
256,192,71874,1,8,0:0:0:0:
256,192,71960,1,0,0:0:0:0:
256,192,72047,1,0,0:0:0:0:
256,192,72133,1,0,0:0:0:0:
256,192,72219,1,8,0:0:0:0:
256,192,72391,1,0,0:0:0:0:
256,192,72564,1,8,0:0:0:0:
256,192,72736,1,0,0:0:0:0:
249,186,72822,1,0,0:0:0:0:
256,192,72909,1,8,0:0:0:0:
256,192,73081,1,8,0:0:0:0:
256,192,73253,1,0,0:0:0:0:
256,192,73426,1,0,0:0:0:0:
256,192,73598,1,8,0:0:0:0:
256,192,73771,1,0,0:0:0:0:
256,192,73943,1,0,0:0:0:0:
256,192,74116,1,8,0:0:0:0:
256,192,74460,1,8,0:0:0:0:
256,192,74633,1,0,0:0:0:0:
256,192,74805,1,0,0:0:0:0:
256,192,74978,1,8,0:0:0:0:
256,192,75150,1,0,0:0:0:0:
256,192,75322,1,0,0:0:0:0:
256,192,75495,1,8,0:0:0:0:
256,192,75667,1,0,0:0:0:0:
256,192,75840,1,8,0:0:0:0:
256,192,76184,1,8,0:0:0:0:
256,192,76357,1,0,0:0:0:0:
256,192,76443,1,0,0:0:0:0:
256,192,76529,1,8,0:0:0:0:
256,192,76702,1,0,0:0:0:0:
256,192,76874,1,8,0:0:0:0:
256,192,77047,1,0,0:0:0:0:
256,192,77133,1,0,0:0:0:0:
256,192,77219,1,8,0:0:0:0:
256,192,77391,1,0,0:0:0:0:
256,192,77564,1,8,0:0:0:0:
256,192,77736,1,0,0:0:0:0:
256,192,77822,1,0,0:0:0:0:
256,192,77909,1,8,0:0:0:0:
256,192,78081,1,8,0:0:0:0:
256,192,78253,1,0,0:0:0:0:
256,192,78426,1,8,0:0:0:0:
256,192,78512,1,8,0:0:0:0:
256,192,78598,1,0,0:0:0:0:
256,192,78943,1,8,0:0:0:0:
256,192,79116,1,0,0:0:0:0:
256,192,79288,1,8,0:0:0:0:
256,192,79374,1,8,0:0:0:0:
256,192,79460,1,8,0:0:0:0:
256,192,79633,1,8,0:0:0:0:
256,192,79805,1,0,0:0:0:0:
256,192,80150,1,0,0:0:0:0:
256,192,80322,1,8,0:0:0:0:
253,184,80409,1,8,0:0:0:0:
256,192,80495,1,0,0:0:0:0:
256,192,80667,1,8,0:0:0:0:
256,192,80840,1,0,0:0:0:0:
256,192,80926,1,0,0:0:0:0:
256,192,81012,1,8,0:0:0:0:
256,192,81184,1,0,0:0:0:0:
256,192,81357,1,8,0:0:0:0:
256,192,81702,1,8,0:0:0:0:
256,192,81874,1,8,0:0:0:0:
256,192,82047,1,0,0:0:0:0:
256,192,82133,1,8,0:0:0:0:
256,192,82219,1,0,0:0:0:0:
256,192,82391,1,8,0:0:0:0:
256,192,82564,1,0,0:0:0:0:
256,192,82909,1,0,0:0:0:0:
256,192,83081,1,8,0:0:0:0:
256,192,83253,1,0,0:0:0:0:
256,192,83340,1,0,0:0:0:0:
256,192,83426,1,8,0:0:0:0:
256,192,83512,1,0,0:0:0:0:
256,192,83598,1,0,0:0:0:0:
256,192,83771,1,8,0:0:0:0:
256,192,83943,1,0,0:0:0:0:
512,0,84116,1,12,0:0:0:0:
256,192,84460,1,8,0:0:0:0:
256,192,84633,1,0,0:0:0:0:
256,192,84805,1,8,0:0:0:0:
256,192,84891,1,8,0:0:0:0:
256,192,84978,1,8,0:0:0:0:
256,192,85150,1,8,0:0:0:0:
256,192,85322,1,0,0:0:0:0:
256,192,85667,1,0,0:0:0:0:
256,192,85840,1,8,0:0:0:0:
256,192,86012,1,0,0:0:0:0:
256,192,86184,1,8,0:0:0:0:
256,192,86271,1,8,0:0:0:0:
256,192,86357,1,0,0:0:0:0:
256,192,86529,1,8,0:0:0:0:
256,192,86702,1,0,0:0:0:0:
256,192,86788,1,0,0:0:0:0:
256,192,86874,1,8,0:0:0:0:
256,192,87219,1,8,0:0:0:0:
256,192,87391,1,8,0:0:0:0:
256,192,87564,1,0,0:0:0:0:
256,192,87650,1,8,0:0:0:0:
256,192,87736,1,0,0:0:0:0:
256,192,87909,1,8,0:0:0:0:
256,192,88081,1,0,0:0:0:0:
256,192,88426,1,0,0:0:0:0:
256,192,88598,1,8,0:0:0:0:
256,192,88771,1,0,0:0:0:0:
256,192,88857,1,8,0:0:0:0:
256,192,88943,1,0,0:0:0:0:
256,192,89029,1,8,0:0:0:0:
256,192,89116,1,0,0:0:0:0:
256,192,89288,1,8,0:0:0:0:
256,192,89460,1,8,0:0:0:0:
256,192,89547,1,8,0:0:0:0:
256,192,89633,1,0,0:0:0:0:
256,192,89978,1,8,0:0:0:0:
256,192,90150,1,0,0:0:0:0:
256,192,90322,1,8,0:0:0:0:
256,192,90409,1,8,0:0:0:0:
256,192,90495,1,8,0:0:0:0:
256,192,90667,1,8,0:0:0:0:
256,192,90840,1,0,0:0:0:0:
256,192,91184,1,0,0:0:0:0:
256,192,91357,1,8,0:0:0:0:
256,192,91529,1,0,0:0:0:0:
256,192,91616,1,0,0:0:0:0:
256,192,91702,1,8,0:0:0:0:
256,192,91874,1,0,0:0:0:0:
256,192,92047,1,8,0:0:0:0:
256,192,92133,1,8,0:0:0:0:
256,192,92219,1,0,0:0:0:0:
256,192,92391,1,0,0:0:0:0:
256,192,92736,1,8,0:0:0:0:
256,192,92909,1,8,0:0:0:0:
256,192,93081,1,0,0:0:0:0:
256,192,93167,1,8,0:0:0:0:
256,192,93253,1,0,0:0:0:0:
256,192,93426,1,8,0:0:0:0:
256,192,93598,1,0,0:0:0:0:
256,192,93943,1,0,0:0:0:0:
256,192,94116,1,8,0:0:0:0:
256,192,94288,1,0,0:0:0:0:
256,192,94374,1,0,0:0:0:0:
256,192,94460,1,8,0:0:0:0:
256,192,94547,1,8,0:0:0:0:
256,192,94633,1,0,0:0:0:0:
256,192,94805,1,8,0:0:0:0:
256,192,94978,1,8,0:0:0:0:
512,0,95150,1,4,0:0:0:0:
256,192,95495,1,8,0:0:0:0:
256,192,95840,1,8,0:0:0:0:
256,192,96012,1,0,0:0:0:0:
256,192,96184,1,8,0:0:0:0:
256,192,96357,1,0,0:0:0:0:
256,192,96443,1,0,0:0:0:0:
256,192,96529,1,8,0:0:0:0:
256,192,96874,1,8,0:0:0:0:
256,192,97219,1,8,0:0:0:0:
256,192,97391,1,0,0:0:0:0:
256,192,97564,1,8,0:0:0:0:
256,192,97736,1,8,0:0:0:0:
256,192,97822,1,0,0:0:0:0:
256,192,97909,1,8,0:0:0:0:
256,192,98253,1,8,0:0:0:0:
256,192,98598,1,8,0:0:0:0:
256,192,98771,1,0,0:0:0:0:
256,192,98943,1,8,0:0:0:0:
256,192,99116,1,0,0:0:0:0:
256,192,99202,1,0,0:0:0:0:
256,192,99288,1,8,0:0:0:0:
256,192,99633,1,0,0:0:0:0:
256,192,99978,1,8,0:0:0:0:
256,192,100150,1,0,0:0:0:0:
256,192,100322,1,8,0:0:0:0:
256,192,100495,1,8,0:0:0:0:
256,192,100667,1,0,0:0:0:0:
256,192,100840,1,8,0:0:0:0:
256,192,101184,1,8,0:0:0:0:
256,192,101271,1,8,0:0:0:0:
256,192,101357,1,0,0:0:0:0:
256,192,101529,1,8,0:0:0:0:
256,192,101702,1,0,0:0:0:0:
256,192,101874,1,8,0:0:0:0:
256,192,101960,1,0,0:0:0:0:
256,192,102047,1,8,0:0:0:0:
256,192,102219,1,0,0:0:0:0:
256,192,102391,1,8,0:0:0:0:
256,192,102564,1,0,0:0:0:0:
256,192,102650,1,0,0:0:0:0:
256,192,102736,1,8,0:0:0:0:
256,192,102909,1,0,0:0:0:0:
256,192,103081,1,8,0:0:0:0:
249,186,103167,1,8,0:0:0:0:
256,192,103253,1,8,0:0:0:0:
256,192,103426,1,0,0:0:0:0:
256,192,103598,1,8,0:0:0:0:
256,192,103943,1,8,0:0:0:0:
256,192,104116,1,0,0:0:0:0:
256,192,104288,1,8,0:0:0:0:
256,192,104460,1,0,0:0:0:0:
256,192,104547,1,0,0:0:0:0:
256,192,104633,1,8,0:0:0:0:
512,0,104805,1,4,0:0:0:0:
256,192,104978,1,8,0:0:0:0:
256,192,105064,1,0,0:0:0:0:
256,192,105236,1,0,0:0:0:0:
256,192,105322,1,8,0:0:0:0:
256,192,105495,1,0,0:0:0:0:
256,192,105667,1,8,0:0:0:0:
256,192,105840,1,0,0:0:0:0:
256,192,105926,1,0,0:0:0:0:
256,192,106012,1,8,0:0:0:0:
256,192,106184,1,0,0:0:0:0:
256,192,106357,1,8,0:0:0:0:
256,192,106702,1,8,0:0:0:0:
256,192,106874,1,0,0:0:0:0:
256,192,106960,1,0,0:0:0:0:
256,192,107047,1,8,0:0:0:0:
256,192,107219,1,0,0:0:0:0:
256,192,107391,1,8,0:0:0:0:
256,181,107478,1,0,0:0:0:0:
256,192,107564,1,8,0:0:0:0:
256,192,107736,1,0,0:0:0:0:
256,192,107909,1,8,0:0:0:0:
256,192,108081,1,0,0:0:0:0:
256,192,108253,1,8,0:0:0:0:
256,192,108340,1,8,0:0:0:0:
256,192,108426,1,8,0:0:0:0:
256,192,108598,1,0,0:0:0:0:
256,192,108684,1,0,0:0:0:0:
256,192,108771,1,8,0:0:0:0:
256,192,108943,1,0,0:0:0:0:
256,192,109116,1,8,0:0:0:0:
256,192,109460,1,8,0:0:0:0:
256,192,109633,1,0,0:0:0:0:
247,185,109719,1,0,0:0:0:0:
256,192,109805,1,8,0:0:0:0:
256,192,109978,1,0,0:0:0:0:
256,192,110150,1,8,0:0:0:0:
256,192,110322,1,8,0:0:0:0:
256,192,110495,1,0,0:0:0:0:
256,192,110667,1,8,0:0:0:0:
256,192,110753,1,8,0:0:0:0:
256,192,110840,1,0,0:0:0:0:
256,192,111012,1,8,0:0:0:0:
256,192,111184,1,0,0:0:0:0:
256,192,111271,1,0,0:0:0:0:
256,192,111357,1,8,0:0:0:0:
256,192,111443,1,0,0:0:0:0:
256,192,111529,1,8,0:0:0:0:
256,192,111702,1,0,0:0:0:0:
256,192,111874,1,8,0:0:0:0:
256,192,112219,1,8,0:0:0:0:
256,192,112391,1,0,0:0:0:0:
256,192,112478,1,0,0:0:0:0:
256,192,112564,1,8,0:0:0:0:
256,192,112736,1,0,0:0:0:0:
256,192,112909,1,8,0:0:0:0:
252,180,112995,1,0,0:0:0:0:
256,192,113081,1,8,0:0:0:0:
256,192,113253,1,0,0:0:0:0:
256,192,113426,1,8,0:0:0:0:
256,192,113512,1,8,0:0:0:0:
256,192,113598,1,0,0:0:0:0:
256,192,113771,1,8,0:0:0:0:
256,192,113943,1,0,0:0:0:0:
256,192,114116,1,8,0:0:0:0:
256,192,114202,1,0,0:0:0:0:
256,192,114288,1,0,0:0:0:0:
512,0,114460,1,12,0:0:0:0:
512,0,114633,1,12,0:0:0:0:
256,192,114805,1,0,0:0:0:0:
256,192,114891,1,0,0:0:0:0:
256,192,114978,1,0,0:0:0:0:
512,0,115150,1,12,0:0:0:0:
512,0,115322,1,12,0:0:0:0:
256,192,115495,1,0,0:0:0:0:
256,192,115581,1,0,0:0:0:0:
256,192,115667,1,0,0:0:0:0:
512,0,115840,1,12,0:0:0:0:
512,0,116012,1,12,0:0:0:0:
256,192,116184,1,0,0:0:0:0:
256,192,116271,1,0,0:0:0:0:
256,192,116357,1,0,0:0:0:0:
512,0,116529,1,12,0:0:0:0:
512,0,116702,1,12,0:0:0:0:
256,192,116874,1,0,0:0:0:0:
256,192,116960,1,0,0:0:0:0:
256,192,117047,1,8,0:0:0:0:
256,192,117219,1,0,0:0:0:0:
256,192,117564,1,8,0:0:0:0:
256,192,117736,1,0,0:0:0:0:
256,192,117822,1,0,0:0:0:0:
256,192,117909,1,0,0:0:0:0:
256,192,118081,1,8,0:0:0:0:
256,192,118253,1,0,0:0:0:0:
256,192,118340,1,0,0:0:0:0:
256,192,118426,1,8,0:0:0:0:
256,192,118598,1,0,0:0:0:0:
256,192,118771,1,8,0:0:0:0:
256,192,118857,1,0,0:0:0:0:
256,192,119029,1,0,0:0:0:0:
256,192,119116,1,8,0:0:0:0:
256,192,119288,1,0,0:0:0:0:
256,192,119460,1,8,0:0:0:0:
256,192,119633,1,0,0:0:0:0:
252,180,119719,1,0,0:0:0:0:
256,192,119805,1,8,0:0:0:0:
256,192,119978,1,8,0:0:0:0:
256,192,120150,1,0,0:0:0:0:
256,192,120322,1,8,0:0:0:0:
256,192,120495,1,0,0:0:0:0:
256,192,120581,1,0,0:0:0:0:
256,192,120667,1,8,0:0:0:0:
256,192,120840,1,0,0:0:0:0:
256,192,121012,1,8,0:0:0:0:
256,192,121184,1,0,0:0:0:0:
256,192,121271,1,0,0:0:0:0:
256,192,121357,1,8,0:0:0:0:
256,192,121529,1,0,0:0:0:0:
256,192,121702,1,8,0:0:0:0:
256,192,121874,1,0,0:0:0:0:
256,192,121960,1,0,0:0:0:0:
256,192,122047,1,8,0:0:0:0:
256,192,122219,1,0,0:0:0:0:
256,192,122391,1,8,0:0:0:0:
256,192,122478,1,8,0:0:0:0:
256,192,122564,1,8,0:0:0:0:
256,192,122650,1,8,0:0:0:0:
256,192,122736,1,0,0:0:0:0:
256,192,122909,1,8,0:0:0:0:
256,192,123253,1,8,0:0:0:0:
256,192,123340,1,8,0:0:0:0:
256,192,123426,1,0,0:0:0:0:
256,192,123598,1,8,0:0:0:0:
256,192,123684,1,0,0:0:0:0:
256,192,123857,1,0,0:0:0:0:
256,192,123943,1,8,0:0:0:0:
256,192,124116,1,0,0:0:0:0:
256,192,124202,1,0,0:0:0:0:
256,192,124288,1,8,0:0:0:0:
256,192,124460,1,0,0:0:0:0:
256,192,124633,1,8,0:0:0:0:
256,176,124719,1,0,0:0:0:0:
256,192,124805,1,0,0:0:0:0:
256,192,124891,1,0,0:0:0:0:
256,192,124978,1,8,0:0:0:0:
256,192,125150,1,0,0:0:0:0:
256,192,125322,1,8,0:0:0:0:
256,192,125409,1,8,0:0:0:0:
256,192,125495,1,0,0:0:0:0:
256,192,125667,1,8,0:0:0:0:
256,192,126012,1,8,0:0:0:0:
256,192,126184,1,0,0:0:0:0:
256,192,126357,1,8,0:0:0:0:
256,192,126443,1,0,0:0:0:0:
256,192,126616,1,0,0:0:0:0:
256,192,126702,1,8,0:0:0:0:
512,0,126874,1,4,0:0:0:0:
256,192,127047,1,8,0:0:0:0:
256,192,127219,1,0,0:0:0:0:
256,192,127391,1,8,0:0:0:0:
256,192,127478,1,8,0:0:0:0:
256,192,127564,1,0,0:0:0:0:
256,192,127736,1,8,0:0:0:0:
256,192,127909,1,0,0:0:0:0:
256,192,127995,1,0,0:0:0:0:
256,192,128081,1,8,0:0:0:0:
256,192,128167,1,0,0:0:0:0:
256,192,128253,1,0,0:0:0:0:
256,192,128426,1,8,0:0:0:0:
256,192,128771,1,8,0:0:0:0:
256,192,128943,1,0,0:0:0:0:
256,192,129116,1,8,0:0:0:0:
256,192,129202,1,8,0:0:0:0:
256,192,129288,1,0,0:0:0:0:
256,192,129460,1,0,0:0:0:0:
256,192,129547,1,0,0:0:0:0:
256,192,129633,1,8,0:0:0:0:
256,192,129805,1,0,0:0:0:0:
256,192,129891,1,8,0:0:0:0:
256,192,129978,1,0,0:0:0:0:
256,192,130150,1,8,0:0:0:0:
256,192,130236,1,0,0:0:0:0:
256,192,130322,1,8,0:0:0:0:
256,192,130495,1,8,0:0:0:0:
256,176,130581,1,0,0:0:0:0:
256,192,130667,1,0,0:0:0:0:
256,192,130753,1,0,0:0:0:0:
256,192,130840,1,8,0:0:0:0:
256,192,131012,1,8,0:0:0:0:
256,176,131184,1,0,0:0:0:0:
256,192,131357,1,8,0:0:0:0:
256,192,131529,1,0,0:0:0:0:
256,192,131616,1,0,0:0:0:0:
256,192,131702,1,8,0:0:0:0:
256,176,131874,1,0,0:0:0:0:
256,192,132047,1,8,0:0:0:0:
256,192,132219,1,0,0:0:0:0:
256,192,132391,1,8,0:0:0:0:
256,192,132478,1,8,0:0:0:0:
256,192,132564,1,0,0:0:0:0:
256,192,132650,1,0,0:0:0:0:
256,192,132736,1,8,0:0:0:0:
256,192,132909,1,0,0:0:0:0:
256,192,133081,1,8,0:0:0:0:
256,192,133253,1,8,0:0:0:0:
256,192,133426,1,0,0:0:0:0:
256,192,133512,1,0,0:0:0:0:
256,192,133598,1,8,0:0:0:0:
256,192,133684,1,8,0:0:0:0:
256,192,133771,1,0,0:0:0:0:
256,192,133943,1,8,0:0:0:0:
256,192,134288,1,8,0:0:0:0:
256,192,134374,1,0,0:0:0:0:
256,192,134460,1,8,0:0:0:0:
256,192,134633,1,8,0:0:0:0:
256,192,134719,1,0,0:0:0:0:
256,192,134891,1,0,0:0:0:0:
256,192,134978,1,8,0:0:0:0:
256,192,135150,1,0,0:0:0:0:
256,192,135236,1,8,0:0:0:0:
256,192,135322,1,0,0:0:0:0:
256,192,135495,1,0,0:0:0:0:
256,192,135667,1,8,0:0:0:0:
256,192,135753,1,8,0:0:0:0:
256,192,135840,1,0,0:0:0:0:
256,176,135926,1,0,0:0:0:0:
256,192,136012,1,8,0:0:0:0:
256,192,136184,1,0,0:0:0:0:
256,192,136357,1,8,0:0:0:0:
256,192,136443,1,8,0:0:0:0:
256,192,136529,1,0,0:0:0:0:
256,192,136702,1,8,0:0:0:0:
256,192,137047,1,8,0:0:0:0:
256,192,137219,1,8,0:0:0:0:
256,192,137391,1,0,0:0:0:0:
256,192,137478,1,8,0:0:0:0:
256,192,137650,1,0,0:0:0:0:
256,192,137736,1,8,0:0:0:0:
512,0,137909,1,4,0:0:0:0:
256,192,138081,1,8,0:0:0:0:
256,192,138253,1,0,0:0:0:0:
256,192,138426,1,8,0:0:0:0:
256,192,138512,1,8,0:0:0:0:
256,192,138598,1,0,0:0:0:0:
256,192,138771,1,8,0:0:0:0:
256,192,138943,1,0,0:0:0:0:
256,192,139029,1,0,0:0:0:0:
256,192,139116,1,8,0:0:0:0:
256,192,139202,1,8,0:0:0:0:
256,192,139288,1,0,0:0:0:0:
256,192,139460,1,8,0:0:0:0:
256,192,139805,1,8,0:0:0:0:
256,192,139978,1,0,0:0:0:0:
256,176,140064,1,8,0:0:0:0:
256,192,140150,1,0,0:0:0:0:
256,192,140236,1,8,0:0:0:0:
256,192,140322,1,0,0:0:0:0:
256,192,140495,1,8,0:0:0:0:
256,192,140667,1,0,0:0:0:0:
256,192,140840,1,8,0:0:0:0:
256,192,141012,1,0,0:0:0:0:
256,192,141098,1,0,0:0:0:0:
256,192,141184,1,8,0:0:0:0:
256,192,141357,1,0,0:0:0:0:
256,192,141529,1,8,0:0:0:0:
256,192,141702,1,0,0:0:0:0:
256,192,141788,1,0,0:0:0:0:
256,192,141874,1,8,0:0:0:0:
256,192,142047,1,8,0:0:0:0:
256,192,142219,1,0,0:0:0:0:
256,192,142391,1,8,0:0:0:0:
256,192,142564,1,0,0:0:0:0:
256,192,142650,1,0,0:0:0:0:
256,192,142736,1,8,0:0:0:0:
256,192,142909,1,0,0:0:0:0:
256,192,143081,1,8,0:0:0:0:
256,192,143253,1,0,0:0:0:0:
256,192,143340,1,0,0:0:0:0:
256,192,143426,1,8,0:0:0:0:
256,192,143512,1,0,0:0:0:0:
256,192,143598,1,0,0:0:0:0:
256,192,143771,1,8,0:0:0:0:
256,192,143943,1,0,0:0:0:0:
256,192,144029,1,0,0:0:0:0:
256,192,144116,1,8,0:0:0:0:
256,192,144288,1,8,0:0:0:0:
256,192,144374,1,8,0:0:0:0:
256,192,144460,1,0,0:0:0:0:
256,192,144547,1,0,0:0:0:0:
256,192,144633,1,8,0:0:0:0:
249,172,144805,1,0,0:0:0:0:
256,192,144978,1,8,0:0:0:0:
256,192,145322,1,8,0:0:0:0:
260,190,145409,1,0,0:0:0:0:
256,192,145495,1,0,0:0:0:0:
256,192,145667,1,8,0:0:0:0:
256,192,145840,1,0,0:0:0:0:
256,192,145926,1,0,0:0:0:0:
256,192,146012,1,8,0:0:0:0:
256,192,146184,1,0,0:0:0:0:
240,176,146357,1,8,0:0:0:0:
256,192,146529,1,0,0:0:0:0:
256,192,146702,1,8,0:0:0:0:
256,192,146788,1,8,0:0:0:0:
256,192,146874,1,0,0:0:0:0:
256,192,147047,1,8,0:0:0:0:
256,192,147219,1,0,0:0:0:0:
256,192,147305,1,0,0:0:0:0:
256,192,147391,1,8,0:0:0:0:
256,192,147564,1,0,0:0:0:0:
256,192,147736,1,8,0:0:0:0:
256,192,148081,1,8,0:0:0:0:
256,192,148167,1,0,0:0:0:0:
256,192,148253,1,0,0:0:0:0:
256,192,148426,1,8,0:0:0:0:
256,192,148598,1,8,0:0:0:0:
256,192,148684,1,8,0:0:0:0:
256,192,148771,1,8,0:0:0:0:
256,192,148943,1,0,0:0:0:0:
256,192,149116,1,8,0:0:0:0:
256,176,149288,1,0,0:0:0:0:
256,192,149374,1,0,0:0:0:0:
256,192,149460,1,8,0:0:0:0:
256,192,149633,1,0,0:0:0:0:
256,192,149805,1,8,0:0:0:0:
256,176,149978,1,8,0:0:0:0:
256,192,150064,1,0,0:0:0:0:
256,192,150150,1,8,0:0:0:0:
256,192,150236,1,8,0:0:0:0:
256,192,150322,1,0,0:0:0:0:
256,192,150495,1,8,0:0:0:0:
256,192,150840,1,8,0:0:0:0:
256,176,150926,1,0,0:0:0:0:
256,192,151012,1,0,0:0:0:0:
256,192,151184,1,8,0:0:0:0:
256,192,151357,1,0,0:0:0:0:
256,192,151443,1,0,0:0:0:0:
256,192,151529,1,8,0:0:0:0:
256,192,151702,1,0,0:0:0:0:
256,192,151874,1,8,0:0:0:0:
256,192,152047,1,0,0:0:0:0:
256,192,152219,1,8,0:0:0:0:
253,185,152305,5,8,0:0:0:0:
256,192,152391,1,0,0:0:0:0:
256,192,152564,1,8,0:0:0:0:
256,192,152736,1,8,0:0:0:0:
256,192,152822,1,8,0:0:0:0:
256,192,152909,1,8,0:0:0:0:
256,192,153081,1,0,0:0:0:0:
256,176,153253,1,8,0:0:0:0:
256,192,153598,1,8,0:0:0:0:
256,192,153771,1,0,0:0:0:0:
256,192,153943,1,8,0:0:0:0:
256,192,154116,1,8,0:0:0:0:
256,192,154202,1,0,0:0:0:0:
256,192,154288,1,8,0:0:0:0:
256,192,154460,1,0,0:0:0:0:
256,192,154633,1,8,0:0:0:0:
256,192,154805,1,0,0:0:0:0:
256,192,154891,1,0,0:0:0:0:
256,192,154978,1,8,0:0:0:0:
256,192,155150,1,0,0:0:0:0:
256,192,155322,1,8,0:0:0:0:
256,192,155409,1,8,0:0:0:0:
256,192,155495,1,0,0:0:0:0:
256,192,155581,1,0,0:0:0:0:
256,192,155667,1,8,0:0:0:0:
256,192,155840,1,0,0:0:0:0:
256,192,156012,1,8,0:0:0:0:
256,192,156357,1,8,0:0:0:0:
257,186,156443,1,0,0:0:0:0:
256,192,156529,1,0,0:0:0:0:
256,192,156702,1,8,0:0:0:0:
256,192,156874,1,0,0:0:0:0:
256,192,156960,1,0,0:0:0:0:
256,192,157047,1,8,0:0:0:0:
256,192,157219,1,0,0:0:0:0:
256,192,157391,1,8,0:0:0:0:
256,192,157564,1,0,0:0:0:0:
256,192,157736,1,8,0:0:0:0:
256,192,157822,1,8,0:0:0:0:
256,192,157909,1,0,0:0:0:0:
256,192,158081,1,8,0:0:0:0:
256,192,158253,1,0,0:0:0:0:
256,192,158340,1,0,0:0:0:0:
256,192,158426,1,8,0:0:0:0:
256,192,158598,1,0,0:0:0:0:
256,192,158771,1,8,0:0:0:0:
256,192,159116,1,8,0:0:0:0:
256,192,159202,1,0,0:0:0:0:
256,192,159288,1,0,0:0:0:0:
256,192,159460,1,8,0:0:0:0:
256,192,159633,1,0,0:0:0:0:
256,192,159719,1,0,0:0:0:0:
256,192,159805,1,8,0:0:0:0:
256,192,159978,1,0,0:0:0:0:
256,192,160150,1,8,0:0:0:0:
256,192,160236,1,0,0:0:0:0:
256,192,160322,1,0,0:0:0:0:
256,192,160409,1,0,0:0:0:0:
256,192,160495,1,8,0:0:0:0:
256,192,160667,1,0,0:0:0:0:
256,192,160840,1,8,0:0:0:0:
256,192,161012,1,0,0:0:0:0:
249,186,161098,1,0,0:0:0:0:
256,192,161184,1,8,0:0:0:0:
256,192,161357,1,8,0:0:0:0:
256,192,161529,1,0,0:0:0:0:
256,192,161702,1,0,0:0:0:0:
256,192,161874,1,8,0:0:0:0:
256,192,162047,1,0,0:0:0:0:
256,192,162219,1,0,0:0:0:0:
256,192,162391,1,8,0:0:0:0:
256,192,162736,1,8,0:0:0:0:
256,192,162909,1,0,0:0:0:0:
256,192,163081,1,0,0:0:0:0:
256,192,163253,1,8,0:0:0:0:
256,192,163426,1,0,0:0:0:0:
256,192,163598,1,0,0:0:0:0:
256,192,163771,1,8,0:0:0:0:
256,192,163943,1,0,0:0:0:0:
256,192,164116,1,8,0:0:0:0:
256,192,164460,1,8,0:0:0:0:
256,192,164633,1,0,0:0:0:0:
256,192,164719,1,0,0:0:0:0:
256,192,164805,1,8,0:0:0:0:
256,192,164978,1,0,0:0:0:0:
256,192,165150,1,8,0:0:0:0:
256,192,165322,1,0,0:0:0:0:
256,192,165409,1,0,0:0:0:0:
256,192,165495,1,8,0:0:0:0:
256,192,165667,1,0,0:0:0:0:
256,192,165840,1,8,0:0:0:0:
256,192,166012,1,0,0:0:0:0:
256,192,166098,1,0,0:0:0:0:
256,192,166184,1,8,0:0:0:0:
256,192,166357,1,8,0:0:0:0:
256,192,166443,1,8,0:0:0:0:
256,192,166529,1,0,0:0:0:0:
256,192,166616,1,0,0:0:0:0:
256,192,166702,1,8,0:0:0:0:
256,192,166874,1,0,0:0:0:0:
256,192,167219,1,8,0:0:0:0:
256,192,167391,1,0,0:0:0:0:
256,192,167564,1,8,0:0:0:0:
256,192,167650,1,8,0:0:0:0:
256,192,167736,1,8,0:0:0:0:
256,192,167909,1,8,0:0:0:0:
256,192,168081,1,0,0:0:0:0:
256,192,168426,1,0,0:0:0:0:
256,192,168598,1,8,0:0:0:0:
253,184,168684,1,8,0:0:0:0:
256,192,168771,1,0,0:0:0:0:
256,192,168943,1,8,0:0:0:0:
256,192,169116,1,0,0:0:0:0:
256,192,169202,1,0,0:0:0:0:
256,192,169288,1,8,0:0:0:0:
256,192,169460,1,0,0:0:0:0:
256,192,169633,1,8,0:0:0:0:
256,192,169978,1,8,0:0:0:0:
256,192,170150,1,8,0:0:0:0:
256,192,170322,1,0,0:0:0:0:
256,192,170409,1,8,0:0:0:0:
256,192,170495,1,0,0:0:0:0:
256,192,170667,1,8,0:0:0:0:
256,192,170840,1,0,0:0:0:0:
256,192,171184,1,0,0:0:0:0:
256,192,171357,1,8,0:0:0:0:
256,192,171529,1,0,0:0:0:0:
256,192,171616,1,0,0:0:0:0:
256,192,171702,1,8,0:0:0:0:
256,192,171788,1,0,0:0:0:0:
256,192,171874,1,0,0:0:0:0:
256,192,172047,1,8,0:0:0:0:
256,192,172219,1,0,0:0:0:0:
512,0,172391,1,12,0:0:0:0:
256,192,172736,1,8,0:0:0:0:
256,192,172909,1,0,0:0:0:0:
256,192,173081,1,8,0:0:0:0:
256,192,173167,1,8,0:0:0:0:
256,192,173253,1,8,0:0:0:0:
256,192,173426,1,8,0:0:0:0:
256,192,173598,1,0,0:0:0:0:
256,192,173943,1,0,0:0:0:0:
256,192,174116,1,8,0:0:0:0:
256,192,174288,1,0,0:0:0:0:
256,192,174460,1,8,0:0:0:0:
256,192,174547,1,8,0:0:0:0:
256,192,174633,1,0,0:0:0:0:
256,192,174805,1,8,0:0:0:0:
256,192,174978,1,0,0:0:0:0:
256,192,175064,1,0,0:0:0:0:
256,192,175150,1,8,0:0:0:0:
256,192,175495,1,8,0:0:0:0:
256,192,175667,1,8,0:0:0:0:
256,192,175840,1,0,0:0:0:0:
256,192,175926,1,8,0:0:0:0:
256,192,176012,1,0,0:0:0:0:
256,192,176184,1,8,0:0:0:0:
256,192,176357,1,0,0:0:0:0:
256,192,176702,1,0,0:0:0:0:
256,192,176874,1,8,0:0:0:0:
256,192,177047,1,0,0:0:0:0:
256,192,177133,1,8,0:0:0:0:
256,192,177219,1,0,0:0:0:0:
256,192,177305,1,8,0:0:0:0:
256,192,177391,1,0,0:0:0:0:
256,192,177564,1,8,0:0:0:0:
256,192,177736,1,8,0:0:0:0:
256,192,177822,1,8,0:0:0:0:
256,192,177909,1,0,0:0:0:0:
256,192,178253,1,8,0:0:0:0:
256,192,178426,1,0,0:0:0:0:
256,192,178598,1,8,0:0:0:0:
256,192,178684,1,8,0:0:0:0:
256,192,178771,1,8,0:0:0:0:
256,192,178943,1,8,0:0:0:0:
256,192,179116,1,0,0:0:0:0:
256,192,179460,1,0,0:0:0:0:
256,192,179633,1,8,0:0:0:0:
256,192,179805,1,0,0:0:0:0:
256,192,179891,1,0,0:0:0:0:
256,192,179978,1,8,0:0:0:0:
256,192,180150,1,0,0:0:0:0:
256,192,180322,1,8,0:0:0:0:
256,192,180409,1,8,0:0:0:0:
256,192,180495,1,0,0:0:0:0:
256,192,180667,1,0,0:0:0:0:
256,192,181012,1,8,0:0:0:0:
256,192,181184,1,8,0:0:0:0:
256,192,181357,1,0,0:0:0:0:
256,192,181443,1,8,0:0:0:0:
256,192,181529,1,0,0:0:0:0:
256,192,181702,1,8,0:0:0:0:
256,192,181874,1,0,0:0:0:0:
256,192,182219,1,0,0:0:0:0:
256,192,182391,1,8,0:0:0:0:
256,192,182564,1,0,0:0:0:0:
256,192,182650,1,0,0:0:0:0:
256,192,182736,1,8,0:0:0:0:
256,192,182822,1,8,0:0:0:0:
256,192,182909,1,0,0:0:0:0:
256,192,183081,1,8,0:0:0:0:
256,192,183253,1,8,0:0:0:0:
512,0,183426,1,4,0:0:0:0:
256,192,183771,1,8,0:0:0:0:
256,192,184116,1,8,0:0:0:0:
256,192,184288,1,0,0:0:0:0:
256,192,184460,1,8,0:0:0:0:
256,192,184633,1,0,0:0:0:0:
256,192,184719,1,0,0:0:0:0:
256,192,184805,1,8,0:0:0:0:
256,192,185150,1,8,0:0:0:0:
256,192,185495,1,8,0:0:0:0:
256,192,185667,1,0,0:0:0:0:
256,192,185840,1,8,0:0:0:0:
256,192,186012,1,8,0:0:0:0:
256,192,186098,1,0,0:0:0:0:
256,192,186184,1,8,0:0:0:0:
256,192,186529,1,8,0:0:0:0:
256,192,186874,1,8,0:0:0:0:
256,192,187047,1,0,0:0:0:0:
256,192,187219,1,8,0:0:0:0:
256,192,187391,1,0,0:0:0:0:
256,192,187478,1,0,0:0:0:0:
256,192,187564,1,8,0:0:0:0:
256,192,187909,1,0,0:0:0:0:
256,192,188253,1,8,0:0:0:0:
256,192,188426,1,0,0:0:0:0:
256,192,188598,1,8,0:0:0:0:
256,192,188771,1,8,0:0:0:0:
256,192,188943,1,0,0:0:0:0:
256,192,189116,1,8,0:0:0:0:
256,192,189460,1,0,0:0:0:0:
256,192,189547,1,8,0:0:0:0:
256,192,189633,1,0,0:0:0:0:
256,192,189805,1,8,0:0:0:0:
256,192,189978,1,0,0:0:0:0:
256,192,190150,1,8,0:0:0:0:
256,192,190236,1,0,0:0:0:0:
256,192,190322,1,8,0:0:0:0:
256,192,190495,1,0,0:0:0:0:
256,192,190667,1,8,0:0:0:0:
256,192,190840,1,0,0:0:0:0:
256,192,190926,1,0,0:0:0:0:
256,192,191012,1,8,0:0:0:0:
256,192,191184,1,0,0:0:0:0:
256,192,191357,1,8,0:0:0:0:
249,186,191443,1,8,0:0:0:0:
256,192,191529,1,8,0:0:0:0:
256,192,191702,1,0,0:0:0:0:
256,192,191874,1,8,0:0:0:0:
256,192,192219,1,8,0:0:0:0:
256,192,192391,1,0,0:0:0:0:
256,192,192564,1,8,0:0:0:0:
256,192,192736,1,8,0:0:0:0:
256,192,192822,1,0,0:0:0:0:
256,192,192909,1,8,0:0:0:0:
512,0,193081,1,4,0:0:0:0:
256,192,193253,1,8,0:0:0:0:
256,192,193340,1,0,0:0:0:0:
256,192,193512,1,0,0:0:0:0:
256,192,193598,1,8,0:0:0:0:
256,192,193771,1,0,0:0:0:0:
256,192,193943,1,8,0:0:0:0:
256,192,194116,1,0,0:0:0:0:
256,192,194202,1,0,0:0:0:0:
256,192,194288,1,8,0:0:0:0:
256,192,194460,1,0,0:0:0:0:
256,192,194633,1,8,0:0:0:0:
256,192,194978,1,8,0:0:0:0:
256,192,195064,1,8,0:0:0:0:
256,192,195150,1,0,0:0:0:0:
256,192,195322,1,8,0:0:0:0:
256,192,195495,1,0,0:0:0:0:
256,192,195667,1,8,0:0:0:0:
256,181,195753,1,0,0:0:0:0:
256,192,195840,1,8,0:0:0:0:
256,192,196012,1,0,0:0:0:0:
256,192,196184,1,8,0:0:0:0:
256,192,196357,1,0,0:0:0:0:
256,192,196529,1,8,0:0:0:0:
256,192,196616,1,8,0:0:0:0:
256,192,196702,1,8,0:0:0:0:
256,192,196874,1,0,0:0:0:0:
256,192,196960,1,0,0:0:0:0:
256,192,197047,1,8,0:0:0:0:
256,192,197219,1,0,0:0:0:0:
256,192,197391,1,8,0:0:0:0:
256,192,197736,1,8,0:0:0:0:
256,192,197909,1,0,0:0:0:0:
247,185,197995,1,0,0:0:0:0:
256,192,198081,1,8,0:0:0:0:
256,192,198253,1,0,0:0:0:0:
256,192,198426,1,8,0:0:0:0:
256,192,198598,1,8,0:0:0:0:
256,192,198771,1,0,0:0:0:0:
256,192,198943,1,8,0:0:0:0:
256,192,199029,1,8,0:0:0:0:
256,192,199116,1,0,0:0:0:0:
256,192,199288,1,8,0:0:0:0:
256,192,199460,1,0,0:0:0:0:
256,192,199547,1,0,0:0:0:0:
256,192,199633,1,8,0:0:0:0:
256,192,199719,1,0,0:0:0:0:
256,192,199805,1,8,0:0:0:0:
256,192,199978,1,0,0:0:0:0:
256,192,200150,1,8,0:0:0:0:
256,192,200495,1,8,0:0:0:0:
256,192,200581,1,8,0:0:0:0:
256,192,200667,1,0,0:0:0:0:
256,192,200840,1,8,0:0:0:0:
256,192,201012,1,0,0:0:0:0:
256,192,201184,1,8,0:0:0:0:
252,180,201271,1,0,0:0:0:0:
256,192,201357,1,8,0:0:0:0:
256,192,201529,1,0,0:0:0:0:
256,192,201702,1,8,0:0:0:0:
256,192,201874,1,0,0:0:0:0:
256,192,201960,1,0,0:0:0:0:
256,192,202047,1,8,0:0:0:0:
256,192,202219,1,0,0:0:0:0:
256,192,202391,1,8,0:0:0:0:
256,192,202478,1,0,0:0:0:0:
256,192,202564,1,0,0:0:0:0:
512,0,202736,1,12,0:0:0:0:
512,0,202909,1,12,0:0:0:0:
256,192,203081,1,0,0:0:0:0:
256,192,203167,1,0,0:0:0:0:
256,192,203253,1,0,0:0:0:0:
512,0,203426,1,12,0:0:0:0:
512,0,203598,1,12,0:0:0:0:
256,192,203771,1,0,0:0:0:0:
256,192,203857,1,0,0:0:0:0:
256,192,203943,1,0,0:0:0:0:
512,0,204116,1,12,0:0:0:0:
512,0,204288,1,12,0:0:0:0:
256,192,204460,1,0,0:0:0:0:
256,192,204547,1,0,0:0:0:0:
256,192,204633,1,0,0:0:0:0:
512,0,204805,1,12,0:0:0:0:
512,0,204978,1,12,0:0:0:0:
256,192,205150,1,0,0:0:0:0:
256,192,205236,1,0,0:0:0:0:
256,192,205322,1,8,0:0:0:0:
256,192,205495,1,0,0:0:0:0:
256,192,205840,1,8,0:0:0:0:
256,192,206012,1,0,0:0:0:0:
256,192,206098,1,0,0:0:0:0:
256,192,206184,1,0,0:0:0:0:
256,192,206357,1,8,0:0:0:0:
256,192,206529,1,0,0:0:0:0:
256,192,206616,1,0,0:0:0:0:
256,192,206702,1,8,0:0:0:0:
256,192,206874,1,0,0:0:0:0:
256,192,207047,1,8,0:0:0:0:
256,192,207133,1,0,0:0:0:0:
256,192,207305,1,0,0:0:0:0:
256,192,207391,1,8,0:0:0:0:
256,192,207564,1,0,0:0:0:0:
256,192,207736,1,8,0:0:0:0:
256,192,207909,1,0,0:0:0:0:
252,180,207995,1,0,0:0:0:0:
256,192,208081,1,8,0:0:0:0:
256,192,208253,1,8,0:0:0:0:
256,192,208426,1,0,0:0:0:0:
256,192,208598,1,8,0:0:0:0:
256,192,208771,1,0,0:0:0:0:
256,192,208857,1,0,0:0:0:0:
256,192,208943,1,8,0:0:0:0:
256,192,209116,1,0,0:0:0:0:
256,192,209288,1,8,0:0:0:0:
256,192,209460,1,0,0:0:0:0:
256,192,209547,1,0,0:0:0:0:
256,192,209633,1,8,0:0:0:0:
256,192,209805,1,0,0:0:0:0:
256,192,209978,1,8,0:0:0:0:
256,192,210150,1,0,0:0:0:0:
256,192,210236,1,0,0:0:0:0:
256,192,210322,1,8,0:0:0:0:
256,192,210495,1,0,0:0:0:0:
256,192,210667,1,8,0:0:0:0:
256,192,210753,1,8,0:0:0:0:
256,192,210840,1,8,0:0:0:0:
256,192,210926,1,8,0:0:0:0:
256,192,211012,1,0,0:0:0:0:
256,192,211184,1,8,0:0:0:0:
256,192,211529,1,8,0:0:0:0:
256,192,211702,1,8,0:0:0:0:
256,192,211874,1,0,0:0:0:0:
256,192,212047,1,8,0:0:0:0:
256,192,212219,1,0,0:0:0:0:
256,192,212305,1,0,0:0:0:0:
256,192,212391,1,8,0:0:0:0:
256,192,212564,1,8,0:0:0:0:
256,192,212736,1,0,0:0:0:0:
256,192,212909,1,8,0:0:0:0:
256,192,213081,1,0,0:0:0:0:
256,192,213253,1,8,0:0:0:0:
256,192,213426,1,0,0:0:0:0:
256,192,213512,1,0,0:0:0:0:
256,192,213598,1,8,0:0:0:0:
256,192,213684,1,8,0:0:0:0:
256,192,213771,1,0,0:0:0:0:
256,192,213943,1,8,0:0:0:0:
256,192,214288,1,8,0:0:0:0:
256,192,214460,1,0,0:0:0:0:
256,192,214633,1,8,0:0:0:0:
256,192,214805,1,0,0:0:0:0:
256,192,214891,1,0,0:0:0:0:
256,192,214978,1,8,0:0:0:0:
512,0,215150,1,4,0:0:0:0:
256,192,215322,1,8,0:0:0:0:
256,192,215409,1,8,0:0:0:0:
256,192,215581,1,0,0:0:0:0:
256,192,215667,1,8,0:0:0:0:
256,192,215840,1,0,0:0:0:0:
256,192,216012,1,8,0:0:0:0:
256,192,216184,1,0,0:0:0:0:
256,192,216271,1,0,0:0:0:0:
256,192,216357,1,8,0:0:0:0:
256,192,216443,1,8,0:0:0:0:
256,192,216529,1,0,0:0:0:0:
256,192,216702,1,8,0:0:0:0:
256,192,217047,1,8,0:0:0:0:
256,192,217219,1,0,0:0:0:0:
256,192,217391,1,0,0:0:0:0:
256,192,217564,1,8,0:0:0:0:
256,192,217650,1,8,0:0:0:0:
256,192,217736,1,0,0:0:0:0:
256,192,217909,1,8,0:0:0:0:
256,192,218081,1,8,0:0:0:0:
256,192,218253,1,0,0:0:0:0:
256,192,218426,1,0,0:0:0:0:
256,192,218598,1,8,0:0:0:0:
256,192,218771,1,0,0:0:0:0:
256,192,218943,1,8,0:0:0:0:
256,192,219029,1,8,0:0:0:0:
256,192,219116,1,0,0:0:0:0:
256,192,219288,1,8,0:0:0:0:
256,192,219633,1,8,0:0:0:0:
250,180,219748,1,0,0:0:0:0:
256,192,219863,1,0,0:0:0:0:
256,192,219978,1,8,0:0:0:0:
256,192,220207,1,0,0:0:0:0:
256,192,220322,1,8,0:0:0:0:
256,192,220437,1,0,0:0:0:0:
256,192,220552,1,0,0:0:0:0:
256,192,220667,1,8,0:0:0:0:
256,192,221012,1,8,0:0:0:0:
256,192,221184,1,0,0:0:0:0:
256,192,221271,1,0,0:0:0:0:
256,192,221357,1,8,0:0:0:0:
256,192,221529,1,8,0:0:0:0:
256,192,221616,1,8,0:0:0:0:
256,192,221702,1,0,0:0:0:0:
256,192,221788,1,0,0:0:0:0:
256,192,221874,1,8,0:0:0:0:
256,192,222047,1,0,0:0:0:0:
256,192,222219,1,8,0:0:0:0:
256,192,222564,1,8,0:0:0:0:
256,192,222650,1,0,0:0:0:0:
256,192,222736,1,8,0:0:0:0:
256,192,222909,1,0,0:0:0:0:
256,192,223081,1,8,0:0:0:0:
256,192,223167,1,8,0:0:0:0:
256,192,223253,1,0,0:0:0:0:
256,192,223426,1,8,0:0:0:0:
256,192,223598,1,0,0:0:0:0:
256,192,223684,1,8,0:0:0:0:
256,192,223857,1,0,0:0:0:0:
256,192,223943,1,0,0:0:0:0:
256,192,224116,1,8,0:0:0:0:
256,192,224288,1,8,0:0:0:0:
254,187,224374,1,8,0:0:0:0:
256,192,224460,1,0,0:0:0:0:
256,192,224633,1,8,0:0:0:0:
256,192,224805,1,0,0:0:0:0:
256,192,225150,1,0,0:0:0:0:
256,192,225236,1,0,0:0:0:0:
256,192,225322,1,8,0:0:0:0:
256,192,225495,1,8,0:0:0:0:
253,185,225581,1,8,0:0:0:0:
256,192,225667,1,0,0:0:0:0:
256,192,225753,1,0,0:0:0:0:
256,192,225840,1,8,0:0:0:0:
256,192,226012,1,0,0:0:0:0:
512,0,226184,1,12,0:0:0:0:
256,192,226357,1,0,0:0:0:0:
256,192,226529,1,8,0:0:0:0:
256,192,226616,1,8,0:0:0:0:
256,192,226702,1,8,0:0:0:0:
256,192,226788,1,8,0:0:0:0:
256,192,226874,1,0,0:0:0:0:
256,192,227047,1,8,0:0:0:0:
256,192,227219,1,0,0:0:0:0:
256,192,227391,1,8,0:0:0:0:
256,192,227478,1,8,0:0:0:0:
256,192,227564,1,0,0:0:0:0:
256,192,227736,1,8,0:0:0:0:
256,192,228081,1,8,0:0:0:0:
256,192,228253,1,8,0:0:0:0:
256,192,228426,1,0,0:0:0:0:
256,192,228598,1,0,0:0:0:0:
256,192,228684,1,0,0:0:0:0:
256,192,228771,1,8,0:0:0:0:
256,192,228943,1,0,0:0:0:0:
256,192,229116,1,8,0:0:0:0:
256,192,229202,1,0,0:0:0:0:
256,192,229374,1,0,0:0:0:0:
256,192,229460,1,8,0:0:0:0:
256,192,229633,1,0,0:0:0:0:
256,192,229805,1,8,0:0:0:0:
256,192,229978,1,0,0:0:0:0:
256,192,230064,1,0,0:0:0:0:
256,192,230150,1,8,0:0:0:0:
256,192,230322,1,8,0:0:0:0:
256,192,230495,1,0,0:0:0:0:
256,192,230581,1,0,0:0:0:0:
256,192,230667,1,8,0:0:0:0:
256,192,230840,1,0,0:0:0:0:
256,192,231012,1,8,0:0:0:0:
256,192,231098,1,8,0:0:0:0:
256,192,231184,1,0,0:0:0:0:
256,192,231271,1,0,0:0:0:0:
256,192,231357,1,8,0:0:0:0:
256,192,231529,1,0,0:0:0:0:
512,0,231702,1,12,0:0:0:0:
256,192,231874,12,0,232909,0:0:0:0:
256,192,233081,5,0,0:0:0:0:
256,192,233426,5,0,0:0:0:0:
256,192,233771,1,0,0:0:0:0:
256,192,234116,1,0,0:0:0:0:
256,192,234460,1,0,0:0:0:0:
256,192,234805,1,0,0:0:0:0:
256,192,235150,1,0,0:0:0:0:
256,192,235495,1,0,0:0:0:0:
256,192,235840,1,0,0:0:0:0:
256,192,236184,1,0,0:0:0:0:
256,192,236529,1,0,0:0:0:0:
256,192,236874,1,0,0:0:0:0:
256,192,237219,1,0,0:0:0:0:
256,192,237564,1,0,0:0:0:0:
256,192,237909,1,0,0:0:0:0:
256,192,238253,1,0,0:0:0:0:
256,192,238598,1,0,0:0:0:0:
256,192,238943,1,0,0:0:0:0:
256,192,239288,1,0,0:0:0:0:
256,192,239633,1,0,0:0:0:0:
256,192,239978,1,0,0:0:0:0:
256,192,240322,1,0,0:0:0:0:
256,192,240667,1,0,0:0:0:0:
256,192,241012,1,0,0:0:0:0:
256,192,241357,1,0,0:0:0:0:
256,192,241702,1,0,0:0:0:0:
256,192,242047,1,0,0:0:0:0:
256,192,242391,1,0,0:0:0:0:
256,192,242736,1,0,0:0:0:0:
256,192,243081,1,0,0:0:0:0:
256,192,243426,1,0,0:0:0:0:
256,192,243771,1,0,0:0:0:0:
512,0,244116,1,12,0:0:0:0:
256,192,244288,1,8,0:0:0:0:
256,192,244460,1,0,0:0:0:0:
256,192,244547,1,0,0:0:0:0:
256,192,244633,1,8,0:0:0:0:
256,192,244805,1,0,0:0:0:0:
256,192,244978,1,8,0:0:0:0:
256,192,245064,1,8,0:0:0:0:
256,192,245150,1,0,0:0:0:0:
256,192,245322,1,8,0:0:0:0:
256,192,245409,1,8,0:0:0:0:
256,192,245495,1,0,0:0:0:0:
256,192,245667,1,8,0:0:0:0:
256,192,245840,1,0,0:0:0:0:
252,185,245926,1,0,0:0:0:0:
256,192,246012,1,8,0:0:0:0:
256,192,246184,1,0,0:0:0:0:
256,192,246357,1,8,0:0:0:0:
256,192,246443,1,8,0:0:0:0:
256,192,246529,1,0,0:0:0:0:
256,192,246702,1,8,0:0:0:0:
256,192,246874,1,0,0:0:0:0:
256,192,247219,1,8,0:0:0:0:
256,192,247305,1,0,0:0:0:0:
256,192,247391,1,8,0:0:0:0:
256,192,247564,1,0,0:0:0:0:
256,192,247736,1,8,0:0:0:0:
256,192,247909,1,0,0:0:0:0:
256,192,248024,1,0,0:0:0:0:
256,192,248138,1,0,0:0:0:0:
256,192,248253,1,8,0:0:0:0:
256,192,248598,1,8,0:0:0:0:
256,192,248684,1,8,0:0:0:0:
256,192,248771,1,0,0:0:0:0:
256,192,248943,1,8,0:0:0:0:
256,192,249116,1,0,0:0:0:0:
256,192,249202,1,0,0:0:0:0:
256,192,249288,1,8,0:0:0:0:
256,192,249460,1,8,0:0:0:0:
512,0,249633,1,4,0:0:0:0:
256,192,249978,1,8,0:0:0:0:
256,192,250064,1,0,0:0:0:0:
256,192,250150,1,8,0:0:0:0:
256,192,250322,1,0,0:0:0:0:
256,192,250495,1,0,0:0:0:0:
256,192,250581,1,0,0:0:0:0:
256,192,250667,1,8,0:0:0:0:
256,192,250840,1,0,0:0:0:0:
256,192,251012,1,8,0:0:0:0:
256,192,251357,1,0,0:0:0:0:
256,192,251443,1,0,0:0:0:0:
256,192,251529,1,8,0:0:0:0:
256,192,251702,1,0,0:0:0:0:
256,192,251874,1,8,0:0:0:0:
256,192,251960,1,8,0:0:0:0:
256,192,252047,1,0,0:0:0:0:
256,192,252219,1,0,0:0:0:0:
256,192,252391,1,8,0:0:0:0:
256,192,252564,1,0,0:0:0:0:
256,192,252736,1,8,0:0:0:0:
256,192,252909,1,0,0:0:0:0:
256,192,252995,1,0,0:0:0:0:
256,192,253081,1,8,0:0:0:0:
256,192,253253,1,0,0:0:0:0:
256,192,253426,1,8,0:0:0:0:
256,192,253512,1,0,0:0:0:0:
256,192,253598,1,8,0:0:0:0:
512,0,253771,1,4,0:0:0:0:
475,19,254116,1,0,0:0:0:0:
256,192,254460,1,8,0:0:0:0:
256,171,254633,1,8,0:0:0:0:
256,192,254805,1,0,0:0:0:0:
256,192,254978,1,8,0:0:0:0:
256,192,255150,1,0,0:0:0:0:
256,192,255322,1,8,0:0:0:0:
256,192,255667,1,8,0:0:0:0:
256,192,255753,1,8,0:0:0:0:
256,192,255840,1,0,0:0:0:0:
256,192,256012,1,8,0:0:0:0:
256,192,256184,1,0,0:0:0:0:
256,192,256357,1,8,0:0:0:0:
256,192,256443,1,0,0:0:0:0:
256,192,256529,1,8,0:0:0:0:
256,192,256702,1,0,0:0:0:0:
256,192,256874,1,8,0:0:0:0:
256,192,257047,1,0,0:0:0:0:
256,192,257133,1,0,0:0:0:0:
256,192,257219,1,8,0:0:0:0:
256,192,257391,1,0,0:0:0:0:
256,192,257564,1,8,0:0:0:0:
249,186,257650,1,8,0:0:0:0:
256,192,257736,1,8,0:0:0:0:
256,192,257909,1,0,0:0:0:0:
256,192,258081,1,8,0:0:0:0:
256,192,258426,1,8,0:0:0:0:
256,192,258598,1,0,0:0:0:0:
256,192,258771,1,8,0:0:0:0:
256,192,258943,1,0,0:0:0:0:
256,192,259029,1,0,0:0:0:0:
256,192,259116,1,8,0:0:0:0:
512,0,259288,1,4,0:0:0:0:
256,192,259460,1,8,0:0:0:0:
256,192,259547,1,0,0:0:0:0:
256,192,259719,1,0,0:0:0:0:
256,192,259805,1,8,0:0:0:0:
256,192,259978,1,0,0:0:0:0:
256,192,260150,1,8,0:0:0:0:
256,192,260322,1,0,0:0:0:0:
256,192,260409,1,0,0:0:0:0:
256,192,260495,1,8,0:0:0:0:
256,192,260667,1,0,0:0:0:0:
256,192,260840,1,8,0:0:0:0:
256,192,261184,1,8,0:0:0:0:
256,192,261357,1,0,0:0:0:0:
256,192,261443,1,0,0:0:0:0:
256,192,261529,1,8,0:0:0:0:
256,192,261702,1,0,0:0:0:0:
256,192,261874,1,8,0:0:0:0:
256,181,261960,1,0,0:0:0:0:
256,192,262047,1,8,0:0:0:0:
256,192,262219,1,0,0:0:0:0:
256,192,262391,1,8,0:0:0:0:
256,192,262564,1,0,0:0:0:0:
256,192,262736,1,8,0:0:0:0:
256,192,262822,1,8,0:0:0:0:
256,192,262909,1,8,0:0:0:0:
256,192,263081,1,0,0:0:0:0:
256,192,263167,1,0,0:0:0:0:
256,192,263253,1,8,0:0:0:0:
256,192,263426,1,0,0:0:0:0:
256,192,263598,1,8,0:0:0:0:
256,192,263943,1,8,0:0:0:0:
256,192,264116,1,0,0:0:0:0:
247,185,264202,1,0,0:0:0:0:
256,192,264288,1,8,0:0:0:0:
256,192,264460,1,0,0:0:0:0:
256,192,264633,1,8,0:0:0:0:
256,192,264805,1,8,0:0:0:0:
256,192,264978,1,0,0:0:0:0:
256,192,265150,1,8,0:0:0:0:
256,192,265236,1,8,0:0:0:0:
256,192,265322,1,0,0:0:0:0:
256,192,265495,1,8,0:0:0:0:
256,192,265667,1,0,0:0:0:0:
256,192,265753,1,0,0:0:0:0:
256,192,265840,1,8,0:0:0:0:
256,192,265926,1,0,0:0:0:0:
256,192,266012,1,8,0:0:0:0:
256,192,266184,1,0,0:0:0:0:
256,192,266357,1,8,0:0:0:0:
256,192,266702,1,8,0:0:0:0:
256,192,266874,1,0,0:0:0:0:
256,192,266960,1,0,0:0:0:0:
256,192,267047,1,8,0:0:0:0:
256,192,267219,1,0,0:0:0:0:
256,192,267391,1,8,0:0:0:0:
252,180,267478,1,0,0:0:0:0:
256,192,267564,1,8,0:0:0:0:
256,192,267736,1,0,0:0:0:0:
256,192,267909,1,8,0:0:0:0:
256,192,267995,1,8,0:0:0:0:
256,192,268081,1,0,0:0:0:0:
256,192,268253,1,8,0:0:0:0:
256,192,268426,1,0,0:0:0:0:
256,192,268598,1,8,0:0:0:0:
256,192,268684,1,0,0:0:0:0:
256,192,268771,1,0,0:0:0:0:
512,0,268943,1,12,0:0:0:0:
512,0,269116,1,12,0:0:0:0:
256,192,269288,1,0,0:0:0:0:
256,192,269374,1,0,0:0:0:0:
256,192,269460,1,0,0:0:0:0:
512,0,269633,1,12,0:0:0:0:
512,0,269805,1,12,0:0:0:0:
256,192,269978,1,0,0:0:0:0:
256,192,270064,1,0,0:0:0:0:
256,192,270150,1,0,0:0:0:0:
512,0,270322,1,12,0:0:0:0:
512,0,270495,1,12,0:0:0:0:
256,192,270667,1,0,0:0:0:0:
256,192,270753,1,0,0:0:0:0:
256,192,270840,1,0,0:0:0:0:
512,0,271012,1,12,0:0:0:0:
512,0,271184,1,12,0:0:0:0:
256,192,271357,1,0,0:0:0:0:
256,192,271443,1,0,0:0:0:0:
256,192,271529,1,8,0:0:0:0:
256,192,271702,1,0,0:0:0:0:
256,192,272047,1,8,0:0:0:0:
256,192,272219,1,0,0:0:0:0:
256,192,272305,1,0,0:0:0:0:
256,192,272391,1,0,0:0:0:0:
256,192,272564,1,8,0:0:0:0:
256,192,272736,1,0,0:0:0:0:
256,192,272822,1,0,0:0:0:0:
256,192,272909,1,8,0:0:0:0:
256,192,273081,1,0,0:0:0:0:
256,192,273253,1,8,0:0:0:0:
256,192,273340,1,0,0:0:0:0:
256,192,273512,1,0,0:0:0:0:
256,192,273598,1,8,0:0:0:0:
256,192,273771,1,0,0:0:0:0:
256,192,273943,1,8,0:0:0:0:
256,192,274116,1,0,0:0:0:0:
252,180,274202,1,0,0:0:0:0:
256,192,274288,1,8,0:0:0:0:
256,192,274460,1,8,0:0:0:0:
256,192,274633,1,0,0:0:0:0:
256,192,274805,1,8,0:0:0:0:
256,192,274978,1,0,0:0:0:0:
256,192,275064,1,0,0:0:0:0:
256,192,275150,1,8,0:0:0:0:
256,192,275322,1,0,0:0:0:0:
256,192,275495,1,8,0:0:0:0:
256,192,275667,1,0,0:0:0:0:
256,192,275753,1,0,0:0:0:0:
256,192,275840,1,8,0:0:0:0:
256,192,276012,1,0,0:0:0:0:
256,192,276184,1,8,0:0:0:0:
256,192,276357,1,0,0:0:0:0:
256,192,276443,1,0,0:0:0:0:
256,192,276529,1,8,0:0:0:0:
256,192,276702,1,0,0:0:0:0:
256,192,276874,1,8,0:0:0:0:
256,192,276960,1,8,0:0:0:0:
256,192,277047,1,8,0:0:0:0:
256,192,277219,1,4,0:0:0:0:
256,192,278598,5,0,0:0:0:0:
256,192,279978,1,8,0:0:0:0:
256,192,280150,1,0,0:0:0:0:
256,192,280322,1,8,0:0:0:0:
256,192,280495,1,0,0:0:0:0:
256,192,280581,1,0,0:0:0:0:
256,192,280667,1,8,0:0:0:0:
256,192,280840,1,0,0:0:0:0:
256,192,281012,1,8,0:0:0:0:
256,192,281184,1,0,0:0:0:0:
256,192,281271,1,0,0:0:0:0:
256,192,281357,1,8,0:0:0:0:
256,192,281529,1,0,0:0:0:0:
256,192,281702,1,8,0:0:0:0:
256,192,281874,1,0,0:0:0:0:
256,192,281960,1,0,0:0:0:0:
256,192,282047,1,8,0:0:0:0:
256,192,282219,1,0,0:0:0:0:
256,192,282391,1,8,0:0:0:0:
256,192,282478,1,8,0:0:0:0:
256,192,282564,1,8,0:0:0:0:
256,192,282650,1,8,0:0:0:0:
256,192,282736,1,0,0:0:0:0:
256,192,282909,1,8,0:0:0:0:
256,192,283253,1,8,0:0:0:0:
256,192,283340,1,8,0:0:0:0:
256,192,283426,1,0,0:0:0:0:
256,192,283598,1,8,0:0:0:0:
256,192,283684,1,0,0:0:0:0:
256,192,283857,1,0,0:0:0:0:
256,192,283943,1,8,0:0:0:0:
256,192,284116,1,0,0:0:0:0:
256,192,284202,1,0,0:0:0:0:
256,192,284288,1,8,0:0:0:0:
256,192,284460,1,0,0:0:0:0:
256,192,284633,1,8,0:0:0:0:
256,176,284719,1,0,0:0:0:0:
256,192,284805,1,0,0:0:0:0:
256,192,284891,1,0,0:0:0:0:
256,192,284978,1,8,0:0:0:0:
256,192,285150,1,0,0:0:0:0:
256,192,285322,1,8,0:0:0:0:
256,192,285409,1,8,0:0:0:0:
256,192,285495,1,0,0:0:0:0:
256,192,285667,1,8,0:0:0:0:
256,192,286012,1,8,0:0:0:0:
256,192,286184,1,0,0:0:0:0:
256,192,286357,1,8,0:0:0:0:
256,192,286443,1,0,0:0:0:0:
256,192,286616,1,0,0:0:0:0:
256,192,286702,1,8,0:0:0:0:
512,0,286874,1,4,0:0:0:0:
256,192,287047,1,8,0:0:0:0:
256,192,287219,1,0,0:0:0:0:
256,192,287391,1,8,0:0:0:0:
256,192,287478,1,8,0:0:0:0:
256,192,287564,1,0,0:0:0:0:
256,192,287736,1,8,0:0:0:0:
256,192,287909,1,0,0:0:0:0:
256,192,287995,1,0,0:0:0:0:
256,192,288081,1,8,0:0:0:0:
256,192,288167,1,0,0:0:0:0:
256,192,288253,1,0,0:0:0:0:
256,192,288426,1,8,0:0:0:0:
256,192,288771,1,8,0:0:0:0:
256,192,288943,1,0,0:0:0:0:
256,192,289116,1,8,0:0:0:0:
256,192,289202,1,8,0:0:0:0:
256,192,289288,1,0,0:0:0:0:
256,192,289460,1,0,0:0:0:0:
256,192,289547,1,0,0:0:0:0:
256,192,289633,1,8,0:0:0:0:
256,192,289805,1,0,0:0:0:0:
256,192,289891,1,8,0:0:0:0:
256,192,289978,1,0,0:0:0:0:
256,192,290150,1,8,0:0:0:0:
256,192,290236,1,0,0:0:0:0:
256,192,290322,1,8,0:0:0:0:
256,192,290495,1,8,0:0:0:0:
256,176,290581,1,0,0:0:0:0:
256,192,290667,1,0,0:0:0:0:
256,192,290753,1,0,0:0:0:0:
256,192,290840,1,8,0:0:0:0:
256,192,291012,1,8,0:0:0:0:
256,176,291184,1,0,0:0:0:0:
256,192,291357,1,8,0:0:0:0:
256,192,291529,1,0,0:0:0:0:
256,192,291616,1,0,0:0:0:0:
256,192,291702,1,8,0:0:0:0:
256,176,291874,1,0,0:0:0:0:
256,192,292047,1,8,0:0:0:0:
256,192,292219,1,0,0:0:0:0:
256,192,292391,1,8,0:0:0:0:
256,192,292478,1,8,0:0:0:0:
256,192,292564,1,0,0:0:0:0:
256,192,292650,1,0,0:0:0:0:
256,192,292736,1,8,0:0:0:0:
256,192,292909,1,0,0:0:0:0:
256,192,293081,1,8,0:0:0:0:
256,192,293253,1,8,0:0:0:0:
256,192,293426,1,0,0:0:0:0:
256,192,293512,1,0,0:0:0:0:
256,192,293598,1,8,0:0:0:0:
256,192,293684,1,8,0:0:0:0:
256,192,293771,1,0,0:0:0:0:
256,192,293943,1,8,0:0:0:0:
256,192,294288,1,8,0:0:0:0:
256,192,294374,1,0,0:0:0:0:
256,192,294460,1,8,0:0:0:0:
256,192,294633,1,8,0:0:0:0:
256,192,294719,1,0,0:0:0:0:
256,192,294891,1,0,0:0:0:0:
256,192,294978,1,8,0:0:0:0:
256,192,295150,1,0,0:0:0:0:
256,192,295236,1,8,0:0:0:0:
256,192,295322,1,0,0:0:0:0:
256,192,295495,1,0,0:0:0:0:
256,192,295667,1,8,0:0:0:0:
256,192,295753,1,8,0:0:0:0:
256,192,295840,1,0,0:0:0:0:
256,176,295926,1,0,0:0:0:0:
256,192,296012,1,8,0:0:0:0:
256,192,296184,1,0,0:0:0:0:
256,192,296357,1,8,0:0:0:0:
256,192,296443,1,8,0:0:0:0:
256,192,296529,1,0,0:0:0:0:
256,192,296702,1,8,0:0:0:0:
256,192,297047,1,8,0:0:0:0:
256,192,297219,1,8,0:0:0:0:
256,192,297391,1,0,0:0:0:0:
256,192,297478,1,8,0:0:0:0:
256,192,297650,1,0,0:0:0:0:
256,192,297736,1,8,0:0:0:0:
512,0,297909,1,4,0:0:0:0:
256,192,298081,1,8,0:0:0:0:
256,192,298253,1,0,0:0:0:0:
256,192,298426,1,8,0:0:0:0:
256,192,298512,1,8,0:0:0:0:
256,192,298598,1,0,0:0:0:0:
256,192,298771,1,8,0:0:0:0:
256,192,298943,1,0,0:0:0:0:
256,192,299029,1,0,0:0:0:0:
256,192,299116,1,8,0:0:0:0:
256,192,299202,1,8,0:0:0:0:
256,192,299288,1,0,0:0:0:0:
256,192,299460,1,8,0:0:0:0:
256,192,299805,1,8,0:0:0:0:
256,192,299978,1,0,0:0:0:0:
256,176,300064,1,8,0:0:0:0:
256,192,300150,1,0,0:0:0:0:
256,192,300236,1,8,0:0:0:0:
256,192,300322,1,0,0:0:0:0:
256,192,300495,1,8,0:0:0:0:
256,192,300667,1,8,0:0:0:0:
256,192,300840,1,0,0:0:0:0:
256,192,301012,1,8,0:0:0:0:
256,192,301098,1,8,0:0:0:0:
256,192,301184,1,0,0:0:0:0:
256,192,301357,1,8,0:0:0:0:
256,192,301529,1,0,0:0:0:0:
256,192,301702,1,8,0:0:0:0:
256,192,301788,5,8,0:0:0:0:
256,192,301874,1,8,0:0:0:0:
256,192,301960,1,8,0:0:0:0:
256,192,302047,1,0,0:0:0:0:
256,192,302219,12,0,303253,0:0:0:0:
256,192,303426,12,0,304805,0:0:0:0:
