osu file format v14

[General]
AudioFilename: audio.mp3
AudioLeadIn: 0
PreviewTime: 88292
Countdown: 0
SampleSet: Normal
StackLeniency: 0.7
Mode: 1
LetterboxInBreaks: 0
WidescreenStoryboard: 0

[Editor]
DistanceSpacing: 0.3
BeatDivisor: 4
GridSize: 32
TimelineZoom: 2.899999

[Metadata]
Title:Lament
TitleUnicode:Lament
Artist:Ariabl'eyeS
ArtistUnicode:Ariabl'eyeS
Creator:Greenshell
Version:Regret
Source:
Tags:mg mpg mappers guild fa featured artist gothic metal japanese 3rd third Album 蒼月ラメント sougetsu ramento リゼ lyse luna
BeatmapID:2583183
BeatmapSetID:1242538

[Difficulty]
HPDrainRate:6
CircleSize:3
OverallDifficulty:6
ApproachRate:10
SliderMultiplier:1.4
SliderTickRate:1

[Events]
//Background and Video events
0,0,"like-a-doll.jpg",0,70
//Break Periods
//Storyboard Layer 0 (Background)
//Storyboard Layer 1 (Fail)
//Storyboard Layer 2 (Pass)
//Storyboard Layer 3 (Foreground)
//Storyboard Layer 4 (Overlay)
//Storyboard Sound Samples

[TimingPoints]
473,348.837209302326,4,1,0,85,1,0
34048,-125,4,1,0,65,0,0
45036,-100,4,1,0,85,0,0
78612,348.837209302326,3,1,0,85,1,0
78699,-111.111111111111,3,1,0,75,0,0
82710,-100,3,1,0,85,0,0
87681,-100,3,1,0,25,0,0
88292,-100,3,1,0,65,0,0
89077,348.837209302326,4,1,0,85,1,0
89077,-100,4,1,0,85,0,1
133728,-100,4,1,0,85,0,0
167216,348.837209302326,3,1,0,85,1,0
167390,-111.111111111111,3,1,0,85,0,0
171314,-100,3,1,0,85,0,0
176634,348.837209302326,4,1,0,85,1,8
176983,348.837209302326,4,1,0,85,1,0
176983,-100,4,1,0,85,0,1
221634,-100,4,1,0,85,0,0
244046,-166.666666666667,4,1,0,50,0,0
255035,-142.857142857143,4,1,0,50,0,0
260616,-125,4,1,0,65,0,0
262012,-111.111111111111,4,1,0,65,0,0
263407,-100,4,1,0,65,0,0
264933,-99.7506234413965,4,1,0,65,0,0
265020,-99.502487562189,4,1,0,65,0,0
265108,-99.2555831265509,4,1,0,65,0,0
265195,-99.009900990099,4,1,0,65,0,0
265282,-98.7654320987654,4,1,0,65,0,0
265369,-98.5221674876847,4,1,0,65,0,0
265456,-98.2800982800983,4,1,0,65,0,0
265544,-98.0392156862745,4,1,0,65,0,0
265631,-97.0873786407767,4,1,0,85,0,0
265718,-96.1538461538461,4,1,0,85,0,0
265805,-95.2380952380952,4,1,0,85,0,0
265892,-94.3396226415094,4,1,0,85,0,0
265980,-93.4579439252336,4,1,0,85,0,0
266067,-92.5925925925926,4,1,0,85,0,0
266154,-91.743119266055,4,1,0,85,0,0
266285,-90.9090909090909,4,1,0,85,0,1
288610,-90.9090909090909,4,1,0,85,0,0

[HitObjects]
288,160,473,5,8,0:0:0:0:
288,160,647,1,8,0:0:0:0:
288,160,1170,1,8,0:0:0:0:
288,160,1345,1,8,0:0:0:0:
224,160,1868,1,0,0:0:0:0:
224,160,2042,1,0,0:0:0:0:
288,160,2566,1,8,0:0:0:0:
288,160,2740,1,8,0:0:0:0:
224,160,3263,1,0,0:0:0:0:
224,160,3350,1,0,0:0:0:0:
224,160,3438,1,0,0:0:0:0:
288,224,3612,1,12,0:0:0:0:
224,160,3961,1,0,0:0:0:0:
288,160,4048,1,8,0:0:0:0:
224,160,4135,1,0,0:0:0:0:
288,224,4310,1,12,0:0:0:0:
288,160,4659,1,8,0:0:0:0:
288,160,4746,1,8,0:0:0:0:
224,160,4833,1,0,0:0:0:0:
288,224,5007,1,12,0:0:0:0:
288,160,5356,1,8,0:0:0:0:
288,160,5443,1,8,0:0:0:0:
288,160,5531,1,8,0:0:0:0:
288,224,5705,1,12,0:0:0:0:
288,160,6054,1,8,0:0:0:0:
288,160,6228,1,8,0:0:0:0:
224,160,6403,1,0,0:0:0:0:
224,160,6752,1,0,0:0:0:0:
224,160,6926,1,0,0:0:0:0:
288,224,7100,1,12,0:0:0:0:
224,160,7449,1,0,0:0:0:0:
224,160,7624,1,0,0:0:0:0:
288,160,7798,1,8,0:0:0:0:
288,160,7885,1,8,0:0:0:0:
224,160,7973,1,0,0:0:0:0:
224,160,8060,1,0,0:0:0:0:
288,160,8147,1,8,0:0:0:0:
288,160,8321,1,8,0:0:0:0:
224,160,8496,1,0,0:0:0:0:
288,160,8845,1,8,0:0:0:0:
288,160,9019,1,8,0:0:0:0:
288,224,9193,1,12,0:0:0:0:
224,160,9542,1,0,0:0:0:0:
224,160,9717,1,0,0:0:0:0:
288,224,9891,1,12,0:0:0:0:
288,160,10240,1,8,0:0:0:0:
224,160,10327,1,0,0:0:0:0:
288,160,10414,1,8,0:0:0:0:
224,160,10589,1,0,0:0:0:0:
224,160,10676,1,0,0:0:0:0:
224,160,10763,1,0,0:0:0:0:
224,160,10850,1,0,0:0:0:0:
288,160,10938,1,8,0:0:0:0:
288,160,11025,1,8,0:0:0:0:
224,160,11112,1,0,0:0:0:0:
224,160,11199,1,0,0:0:0:0:
288,160,11286,1,8,0:0:0:0:
288,160,11374,1,8,0:0:0:0:
288,160,11461,1,8,0:0:0:0:
288,160,11548,1,8,0:0:0:0:
288,160,11635,1,8,0:0:0:0:
224,160,11810,1,0,0:0:0:0:
288,160,11984,1,8,0:0:0:0:
224,160,12159,1,0,0:0:0:0:
288,160,12333,1,8,0:0:0:0:
288,160,12507,1,8,0:0:0:0:
288,160,12595,1,8,0:0:0:0:
224,160,12682,1,0,0:0:0:0:
288,160,12856,1,8,0:0:0:0:
224,224,13031,1,4,0:0:0:0:
288,160,13205,1,8,0:0:0:0:
224,160,13379,1,0,0:0:0:0:
224,160,13467,1,0,0:0:0:0:
288,160,13554,1,8,0:0:0:0:
224,160,13728,1,0,0:0:0:0:
288,160,13903,1,8,0:0:0:0:
224,160,14077,1,0,0:0:0:0:
288,160,14252,1,8,0:0:0:0:
288,224,14426,1,12,0:0:0:0:
224,160,14600,1,0,0:0:0:0:
288,160,14775,1,8,0:0:0:0:
288,160,14949,1,8,0:0:0:0:
288,160,15036,1,8,0:0:0:0:
224,160,15124,1,0,0:0:0:0:
288,160,15298,1,8,0:0:0:0:
288,160,15473,1,8,0:0:0:0:
288,160,15647,1,8,0:0:0:0:
224,224,15821,1,4,0:0:0:0:
288,160,15996,1,8,0:0:0:0:
224,160,16170,1,0,0:0:0:0:
224,160,16257,1,0,0:0:0:0:
288,160,16345,1,8,0:0:0:0:
224,160,16519,1,0,0:0:0:0:
288,160,16693,1,8,0:0:0:0:
224,160,16868,1,0,0:0:0:0:
288,160,17042,1,8,0:0:0:0:
288,160,17129,1,8,0:0:0:0:
288,160,17217,1,8,0:0:0:0:
224,160,17391,1,0,0:0:0:0:
288,160,17566,1,8,0:0:0:0:
224,160,17740,1,0,0:0:0:0:
288,160,17914,1,8,0:0:0:0:
288,160,18089,1,8,0:0:0:0:
288,160,18176,1,8,0:0:0:0:
224,160,18263,1,0,0:0:0:0:
288,160,18438,1,8,0:0:0:0:
224,224,18612,1,4,0:0:0:0:
288,160,18786,1,8,0:0:0:0:
224,160,18961,1,0,0:0:0:0:
224,160,19048,1,0,0:0:0:0:
288,160,19135,1,8,0:0:0:0:
224,160,19310,1,0,0:0:0:0:
288,160,19484,1,8,0:0:0:0:
224,160,19659,1,0,0:0:0:0:
288,160,19833,1,8,0:0:0:0:
288,224,20007,1,12,0:0:0:0:
224,160,20182,1,0,0:0:0:0:
288,160,20356,1,8,0:0:0:0:
288,160,20531,1,8,0:0:0:0:
288,160,20618,1,8,0:0:0:0:
224,160,20705,1,0,0:0:0:0:
288,160,20879,1,8,0:0:0:0:
224,160,21054,1,0,0:0:0:0:
288,160,21228,1,8,0:0:0:0:
224,224,21403,1,4,0:0:0:0:
288,160,21577,1,8,0:0:0:0:
224,160,21752,1,0,0:0:0:0:
224,160,21839,1,0,0:0:0:0:
288,160,21926,1,8,0:0:0:0:
224,160,22100,1,0,0:0:0:0:
288,160,22188,1,8,0:0:0:0:
288,160,22275,1,8,0:0:0:0:
288,160,22362,1,8,0:0:0:0:
224,160,22449,1,0,0:0:0:0:
288,160,22624,1,8,0:0:0:0:
288,160,22711,1,8,0:0:0:0:
224,160,22798,1,0,0:0:0:0:
288,160,22885,1,8,0:0:0:0:
288,160,22973,1,8,0:0:0:0:
224,160,23147,1,0,0:0:0:0:
288,160,23321,1,8,0:0:0:0:
288,160,23409,1,8,0:0:0:0:
224,160,23496,1,0,0:0:0:0:
288,160,23670,1,8,0:0:0:0:
288,160,23845,1,8,0:0:0:0:
288,160,23932,1,8,0:0:0:0:
224,160,24019,1,0,0:0:0:0:
224,160,24193,1,0,0:0:0:0:
288,160,24281,1,8,0:0:0:0:
224,160,24368,1,0,0:0:0:0:
288,160,24542,1,8,0:0:0:0:
288,160,24717,1,8,0:0:0:0:
224,160,24804,1,0,0:0:0:0:
224,160,24891,1,0,0:0:0:0:
288,160,25066,1,8,0:0:0:0:
288,160,25240,1,8,0:0:0:0:
224,160,25327,1,0,0:0:0:0:
224,160,25414,1,0,0:0:0:0:
224,224,25589,1,4,0:0:0:0:
288,160,25763,1,8,0:0:0:0:
224,160,25850,1,0,0:0:0:0:
224,160,25938,1,0,0:0:0:0:
288,224,26112,1,12,0:0:0:0:
224,160,26286,1,0,0:0:0:0:
224,160,26374,1,0,0:0:0:0:
288,160,26461,1,8,0:0:0:0:
224,160,26548,1,0,0:0:0:0:
224,160,26635,1,0,0:0:0:0:
288,160,26810,1,8,0:0:0:0:
288,224,26984,1,12,0:0:0:0:
288,160,27159,1,8,0:0:0:0:
288,160,27246,1,8,0:0:0:0:
224,160,27333,1,0,0:0:0:0:
288,224,27507,1,12,0:0:0:0:
224,160,27682,1,0,0:0:0:0:
224,160,27769,1,0,0:0:0:0:
288,160,27856,1,8,0:0:0:0:
288,160,27943,1,8,0:0:0:0:
224,160,28031,1,0,0:0:0:0:
288,160,28205,1,8,0:0:0:0:
288,160,28292,1,8,0:0:0:0:
224,160,28379,1,0,0:0:0:0:
288,160,28467,1,8,0:0:0:0:
288,160,28554,1,8,0:0:0:0:
224,160,28728,1,0,0:0:0:0:
288,160,28903,1,8,0:0:0:0:
288,160,28990,1,8,0:0:0:0:
224,160,29077,1,0,0:0:0:0:
288,160,29252,1,8,0:0:0:0:
288,160,29426,1,8,0:0:0:0:
288,160,29513,1,8,0:0:0:0:
224,160,29600,1,0,0:0:0:0:
224,160,29775,1,0,0:0:0:0:
224,160,29862,1,0,0:0:0:0:
288,160,29949,1,8,0:0:0:0:
224,160,30124,1,0,0:0:0:0:
288,160,30298,1,8,0:0:0:0:
224,160,30385,1,0,0:0:0:0:
224,160,30473,1,0,0:0:0:0:
288,160,30647,1,8,0:0:0:0:
288,160,30821,1,8,0:0:0:0:
224,160,30909,1,0,0:0:0:0:
224,160,30996,1,0,0:0:0:0:
288,224,31170,1,12,0:0:0:0:
224,160,31345,1,0,0:0:0:0:
224,160,31432,1,0,0:0:0:0:
288,160,31519,1,8,0:0:0:0:
224,224,31693,1,4,0:0:0:0:
288,160,31868,1,8,0:0:0:0:
224,160,31955,1,0,0:0:0:0:
224,160,32042,1,0,0:0:0:0:
224,160,32129,1,0,0:0:0:0:
288,160,32217,1,8,0:0:0:0:
224,160,32391,1,0,0:0:0:0:
288,224,32566,1,12,0:0:0:0:
224,160,32740,1,0,0:0:0:0:
224,160,32827,1,0,0:0:0:0:
224,160,32914,1,0,0:0:0:0:
288,224,33089,1,12,0:0:0:0:
224,160,33263,1,0,0:0:0:0:
224,160,33350,1,0,0:0:0:0:
288,160,33438,1,8,0:0:0:0:
288,160,33612,1,8,0:0:0:0:
288,160,33699,1,8,0:0:0:0:
288,160,33786,1,8,0:0:0:0:
224,224,33961,1,4,0:0:0:0:
288,160,34659,1,8,0:0:0:0:
288,160,35007,1,8,0:0:0:0:
288,160,36054,1,8,0:0:0:0:
288,160,36403,1,8,0:0:0:0:
288,160,37449,1,8,0:0:0:0:
288,160,37798,1,8,0:0:0:0:
288,160,38147,1,8,0:0:0:0:
288,160,38496,1,8,0:0:0:0:
288,160,38845,1,8,0:0:0:0:
288,160,39193,1,8,0:0:0:0:
288,160,40240,1,8,0:0:0:0:
288,160,40589,1,8,0:0:0:0:
288,160,41286,1,8,0:0:0:0:
288,160,41635,1,8,0:0:0:0:
288,160,41984,1,8,0:0:0:0:
288,160,42682,1,8,0:0:0:0:
288,160,43031,1,8,0:0:0:0:
288,160,43379,1,8,0:0:0:0:
288,160,43728,1,8,0:0:0:0:
288,160,44077,1,8,0:0:0:0:
288,160,44426,1,8,0:0:0:0:
288,160,44775,1,8,0:0:0:0:
288,224,45124,1,12,0:0:0:0:
224,160,45298,1,0,0:0:0:0:
288,160,45473,1,8,0:0:0:0:
224,160,45647,1,0,0:0:0:0:
288,160,45821,1,8,0:0:0:0:
288,160,45996,1,8,0:0:0:0:
288,160,46083,1,8,0:0:0:0:
224,160,46170,1,0,0:0:0:0:
288,160,46345,1,8,0:0:0:0:
224,224,46519,1,4,0:0:0:0:
288,160,46693,1,8,0:0:0:0:
224,160,46868,1,0,0:0:0:0:
224,160,46955,1,0,0:0:0:0:
288,160,47042,1,8,0:0:0:0:
224,160,47129,1,0,0:0:0:0:
224,160,47217,1,0,0:0:0:0:
288,160,47391,1,8,0:0:0:0:
224,160,47566,1,0,0:0:0:0:
288,160,47740,1,8,0:0:0:0:
288,224,47914,1,12,0:0:0:0:
224,160,48089,1,0,0:0:0:0:
288,160,48263,1,8,0:0:0:0:
288,160,48438,1,8,0:0:0:0:
288,160,48525,1,8,0:0:0:0:
224,160,48612,1,0,0:0:0:0:
288,160,48786,1,8,0:0:0:0:
288,160,48961,1,8,0:0:0:0:
288,160,49135,1,8,0:0:0:0:
224,224,49310,1,4,0:0:0:0:
288,160,49484,1,8,0:0:0:0:
224,160,49659,1,0,0:0:0:0:
224,160,49746,1,0,0:0:0:0:
288,160,49833,1,8,0:0:0:0:
288,160,49920,1,8,0:0:0:0:
224,160,50007,1,0,0:0:0:0:
288,160,50182,1,8,0:0:0:0:
224,160,50356,1,0,0:0:0:0:
288,160,50531,1,8,0:0:0:0:
288,160,50618,1,8,0:0:0:0:
288,160,50705,1,8,0:0:0:0:
224,160,50879,1,0,0:0:0:0:
288,160,51054,1,8,0:0:0:0:
224,160,51228,1,0,0:0:0:0:
288,160,51403,1,8,0:0:0:0:
288,160,51577,1,8,0:0:0:0:
288,160,51664,1,8,0:0:0:0:
224,160,51752,1,0,0:0:0:0:
288,160,51926,1,8,0:0:0:0:
224,224,52100,1,4,0:0:0:0:
288,160,52275,1,8,0:0:0:0:
224,160,52449,1,0,0:0:0:0:
224,160,52536,1,0,0:0:0:0:
288,160,52624,1,8,0:0:0:0:
224,160,52711,1,0,0:0:0:0:
224,160,52798,1,0,0:0:0:0:
288,160,52973,1,8,0:0:0:0:
224,160,53147,1,0,0:0:0:0:
288,160,53321,1,8,0:0:0:0:
288,224,53496,1,12,0:0:0:0:
224,160,53670,1,0,0:0:0:0:
288,160,53845,1,8,0:0:0:0:
288,160,54019,1,8,0:0:0:0:
288,160,54106,1,8,0:0:0:0:
224,160,54193,1,0,0:0:0:0:
288,160,54368,1,8,0:0:0:0:
224,160,54542,1,0,0:0:0:0:
288,160,54717,1,8,0:0:0:0:
224,224,54891,1,4,0:0:0:0:
288,160,55066,1,8,0:0:0:0:
224,160,55240,1,0,0:0:0:0:
224,160,55327,1,0,0:0:0:0:
288,160,55414,1,8,0:0:0:0:
224,160,55589,1,0,0:0:0:0:
288,160,55676,1,8,0:0:0:0:
288,160,55763,1,8,0:0:0:0:
288,160,55850,1,8,0:0:0:0:
224,160,55938,1,0,0:0:0:0:
288,160,56112,1,8,0:0:0:0:
288,160,56199,1,8,0:0:0:0:
224,160,56286,1,0,0:0:0:0:
288,160,56374,1,8,0:0:0:0:
288,160,56461,1,8,0:0:0:0:
288,160,56548,1,8,0:0:0:0:
224,160,56635,1,0,0:0:0:0:
288,160,56810,1,8,0:0:0:0:
288,160,56897,1,8,0:0:0:0:
224,160,56984,1,0,0:0:0:0:
288,160,57159,1,8,0:0:0:0:
288,160,57333,1,8,0:0:0:0:
288,160,57420,1,8,0:0:0:0:
224,160,57507,1,0,0:0:0:0:
224,160,57682,1,0,0:0:0:0:
288,160,57769,1,8,0:0:0:0:
224,160,57856,1,0,0:0:0:0:
224,160,57943,1,0,0:0:0:0:
288,160,58031,1,8,0:0:0:0:
288,160,58205,1,8,0:0:0:0:
224,160,58292,1,0,0:0:0:0:
224,160,58379,1,0,0:0:0:0:
288,160,58554,1,8,0:0:0:0:
288,160,58728,1,8,0:0:0:0:
224,160,58816,1,0,0:0:0:0:
224,160,58903,1,0,0:0:0:0:
224,224,59077,1,4,0:0:0:0:
288,160,59252,1,8,0:0:0:0:
224,160,59339,1,0,0:0:0:0:
224,160,59426,1,0,0:0:0:0:
288,224,59600,1,12,0:0:0:0:
224,160,59775,1,0,0:0:0:0:
224,160,59862,1,0,0:0:0:0:
288,160,59949,1,8,0:0:0:0:
224,160,60036,1,0,0:0:0:0:
224,160,60124,1,0,0:0:0:0:
288,160,60298,1,8,0:0:0:0:
288,224,60473,1,12,0:0:0:0:
288,160,60647,1,8,0:0:0:0:
288,160,60734,1,8,0:0:0:0:
224,160,60821,1,0,0:0:0:0:
288,224,60996,1,12,0:0:0:0:
224,160,61170,1,0,0:0:0:0:
224,160,61257,1,0,0:0:0:0:
288,160,61345,1,8,0:0:0:0:
288,160,61432,1,8,0:0:0:0:
224,160,61519,1,0,0:0:0:0:
288,160,61693,1,8,0:0:0:0:
288,160,61781,1,8,0:0:0:0:
224,160,61868,1,0,0:0:0:0:
288,160,61955,1,8,0:0:0:0:
288,160,62042,1,8,0:0:0:0:
288,160,62129,1,8,0:0:0:0:
224,160,62217,1,0,0:0:0:0:
288,160,62391,1,8,0:0:0:0:
288,160,62478,1,8,0:0:0:0:
224,160,62566,1,0,0:0:0:0:
288,160,62740,1,8,0:0:0:0:
288,160,62914,1,8,0:0:0:0:
288,160,63002,1,8,0:0:0:0:
224,160,63089,1,0,0:0:0:0:
224,160,63263,1,0,0:0:0:0:
224,160,63350,1,0,0:0:0:0:
288,160,63438,1,8,0:0:0:0:
288,160,63525,1,8,0:0:0:0:
224,160,63612,1,0,0:0:0:0:
288,160,63786,1,8,0:0:0:0:
224,160,63874,1,0,0:0:0:0:
224,160,63961,1,0,0:0:0:0:
288,160,64135,1,8,0:0:0:0:
288,160,64310,1,8,0:0:0:0:
224,160,64397,1,0,0:0:0:0:
224,160,64484,1,0,0:0:0:0:
288,224,64659,1,12,0:0:0:0:
224,160,64833,1,0,0:0:0:0:
224,160,64920,1,0,0:0:0:0:
288,160,65007,1,8,0:0:0:0:
224,224,65182,1,4,0:0:0:0:
288,160,65356,1,8,0:0:0:0:
224,160,65443,1,0,0:0:0:0:
224,160,65531,1,0,0:0:0:0:
224,160,65618,1,0,0:0:0:0:
288,160,65705,1,8,0:0:0:0:
224,160,65879,1,0,0:0:0:0:
288,224,66054,1,12,0:0:0:0:
224,160,66228,1,0,0:0:0:0:
224,160,66316,1,0,0:0:0:0:
224,160,66403,1,0,0:0:0:0:
288,224,66577,1,12,0:0:0:0:
224,160,66752,1,0,0:0:0:0:
224,160,66839,1,0,0:0:0:0:
288,160,66926,1,8,0:0:0:0:
288,160,67100,1,8,0:0:0:0:
288,160,67188,1,8,0:0:0:0:
288,160,67275,1,8,0:0:0:0:
224,224,67449,1,4,0:0:0:0:
288,160,67973,1,8,0:0:0:0:
224,160,68496,1,0,0:0:0:0:
224,160,69019,1,0,0:0:0:0:
224,160,69193,1,0,0:0:0:0:
288,160,69542,1,8,0:0:0:0:
288,160,69891,1,8,0:0:0:0:
288,160,69978,1,8,0:0:0:0:
288,160,70066,1,8,0:0:0:0:
288,160,70153,1,8,0:0:0:0:
288,160,70240,1,8,0:0:0:0:
224,160,70414,1,0,0:0:0:0:
224,160,70589,1,0,0:0:0:0:
288,160,70763,1,8,0:0:0:0:
224,160,70938,1,0,0:0:0:0:
224,160,71112,1,0,0:0:0:0:
288,160,71286,1,8,0:0:0:0:
224,160,71635,1,0,0:0:0:0:
288,160,71810,1,8,0:0:0:0:
224,160,71984,1,0,0:0:0:0:
224,160,72159,1,0,0:0:0:0:
288,160,72333,1,8,0:0:0:0:
224,160,72507,1,0,0:0:0:0:
288,160,72595,1,8,0:0:0:0:
224,160,72769,1,0,0:0:0:0:
288,160,72856,1,8,0:0:0:0:
288,160,73031,1,8,0:0:0:0:
224,160,73205,1,0,0:0:0:0:
224,160,73379,1,0,0:0:0:0:
288,160,73554,1,8,0:0:0:0:
224,160,73728,1,0,0:0:0:0:
224,160,73903,1,0,0:0:0:0:
288,160,74077,1,8,0:0:0:0:
224,160,74426,1,0,0:0:0:0:
288,160,74600,1,8,0:0:0:0:
224,160,74775,1,0,0:0:0:0:
224,160,74949,1,0,0:0:0:0:
288,160,75124,1,8,0:0:0:0:
288,160,75473,1,8,0:0:0:0:
288,160,75560,1,8,0:0:0:0:
288,160,75647,1,8,0:0:0:0:
288,160,75734,1,8,0:0:0:0:
288,160,75821,1,8,0:0:0:0:
224,160,75996,1,0,0:0:0:0:
224,160,76170,1,0,0:0:0:0:
288,160,76345,1,8,0:0:0:0:
224,160,76519,1,0,0:0:0:0:
224,160,76693,1,0,0:0:0:0:
288,160,76868,1,8,0:0:0:0:
224,160,77217,1,0,0:0:0:0:
288,160,77391,1,8,0:0:0:0:
224,160,77566,1,0,0:0:0:0:
224,160,77740,1,0,0:0:0:0:
288,160,77914,1,8,0:0:0:0:
224,160,78089,1,0,0:0:0:0:
288,160,78176,1,8,0:0:0:0:
224,160,78350,1,0,0:0:0:0:
288,160,78438,1,8,0:0:0:0:
288,160,78525,1,8,0:0:0:0:
224,160,78612,1,0,0:0:0:0:
224,160,78960,1,0,0:0:0:0:
288,160,79135,1,8,0:0:0:0:
224,160,79309,1,0,0:0:0:0:
224,160,79658,1,0,0:0:0:0:
288,160,79832,1,8,0:0:0:0:
224,160,80007,1,0,0:0:0:0:
224,160,80181,1,0,0:0:0:0:
288,160,80356,1,8,0:0:0:0:
224,160,80705,1,0,0:0:0:0:
224,160,81053,1,0,0:0:0:0:
288,160,81228,1,8,0:0:0:0:
224,160,81402,1,0,0:0:0:0:
224,160,81751,1,0,0:0:0:0:
288,160,81925,1,8,0:0:0:0:
224,160,82100,1,0,0:0:0:0:
224,160,82274,1,0,0:0:0:0:
288,160,82449,1,8,0:0:0:0:
224,224,82798,1,4,0:0:0:0:
224,160,83146,1,0,0:0:0:0:
288,160,83321,1,8,0:0:0:0:
288,160,83495,1,8,0:0:0:0:
224,160,83844,1,0,0:0:0:0:
288,160,84018,1,8,0:0:0:0:
288,160,84193,1,8,0:0:0:0:
224,160,84367,1,0,0:0:0:0:
288,160,84542,1,8,0:0:0:0:
224,224,84891,1,4,0:0:0:0:
224,160,85239,1,0,0:0:0:0:
288,160,85414,1,8,0:0:0:0:
224,160,85588,1,0,0:0:0:0:
288,160,85763,1,8,0:0:0:0:
224,160,85937,1,0,0:0:0:0:
224,160,86112,1,0,0:0:0:0:
288,160,86286,1,8,0:0:0:0:
224,160,86460,1,0,0:0:0:0:
288,160,86635,1,8,0:0:0:0:
224,160,86809,1,0,0:0:0:0:
224,160,86896,1,0,0:0:0:0:
288,160,86984,1,8,0:0:0:0:
224,160,87158,1,0,0:0:0:0:
288,160,87332,1,8,0:0:0:0:
288,160,87420,1,8,0:0:0:0:
288,160,87507,1,8,0:0:0:0:
288,160,87594,1,8,0:0:0:0:
224,160,88728,1,0,0:0:0:0:
224,160,88815,1,0,0:0:0:0:
288,160,88902,1,8,0:0:0:0:
288,160,88989,1,8,0:0:0:0:
224,160,89077,1,0,0:0:0:0:
288,160,89251,1,8,0:0:0:0:
224,160,89425,1,0,0:0:0:0:
224,160,89513,1,0,0:0:0:0:
288,160,89600,1,8,0:0:0:0:
224,160,89774,1,0,0:0:0:0:
288,160,89949,1,8,0:0:0:0:
288,160,90036,1,8,0:0:0:0:
224,160,90123,1,0,0:0:0:0:
288,160,90297,1,8,0:0:0:0:
224,160,90472,1,0,0:0:0:0:
288,160,90559,1,8,0:0:0:0:
224,160,90646,1,0,0:0:0:0:
288,160,90821,1,8,0:0:0:0:
288,160,90995,1,8,0:0:0:0:
288,160,91082,1,8,0:0:0:0:
224,160,91170,1,0,0:0:0:0:
224,160,91257,1,0,0:0:0:0:
288,160,91344,1,8,0:0:0:0:
288,160,91518,1,8,0:0:0:0:
224,160,91867,1,0,0:0:0:0:
288,160,92042,1,8,0:0:0:0:
224,160,92216,1,0,0:0:0:0:
224,160,92303,1,0,0:0:0:0:
288,160,92390,1,8,0:0:0:0:
224,160,92565,1,0,0:0:0:0:
224,160,92652,1,0,0:0:0:0:
288,160,92739,1,8,0:0:0:0:
288,160,92827,1,8,0:0:0:0:
224,160,92914,1,0,0:0:0:0:
288,160,93088,1,8,0:0:0:0:
224,160,93263,1,0,0:0:0:0:
288,160,93437,1,8,0:0:0:0:
224,160,93611,1,0,0:0:0:0:
224,160,93699,1,0,0:0:0:0:
288,160,93786,1,8,0:0:0:0:
224,160,93960,1,0,0:0:0:0:
224,160,94047,1,0,0:0:0:0:
224,160,94135,1,0,0:0:0:0:
224,160,94222,1,0,0:0:0:0:
288,160,94309,1,8,0:0:0:0:
224,160,94396,1,0,0:0:0:0:
288,160,94483,1,8,0:0:0:0:
288,160,94571,1,8,0:0:0:0:
224,160,94658,1,0,0:0:0:0:
288,160,94832,1,8,0:0:0:0:
224,160,95007,1,0,0:0:0:0:
224,160,95094,1,0,0:0:0:0:
288,160,95181,1,8,0:0:0:0:
224,160,95356,1,0,0:0:0:0:
288,160,95530,1,8,0:0:0:0:
288,160,95617,1,8,0:0:0:0:
224,160,95704,1,0,0:0:0:0:
224,160,95792,1,0,0:0:0:0:
288,160,95879,1,8,0:0:0:0:
224,160,96053,1,0,0:0:0:0:
288,160,96228,1,8,0:0:0:0:
224,160,96402,1,0,0:0:0:0:
224,160,96489,1,0,0:0:0:0:
288,160,96577,1,8,0:0:0:0:
224,160,96751,1,0,0:0:0:0:
288,160,96925,1,8,0:0:0:0:
288,160,97013,1,8,0:0:0:0:
224,160,97100,1,0,0:0:0:0:
224,160,97449,1,0,0:0:0:0:
288,160,97536,1,8,0:0:0:0:
224,160,97623,1,0,0:0:0:0:
288,160,97797,1,8,0:0:0:0:
288,160,97972,1,8,0:0:0:0:
288,160,98059,1,8,0:0:0:0:
224,160,98146,1,0,0:0:0:0:
288,160,98321,1,8,0:0:0:0:
224,160,98495,1,0,0:0:0:0:
288,160,98582,1,8,0:0:0:0:
288,160,98670,1,8,0:0:0:0:
288,160,98757,1,8,0:0:0:0:
224,160,98844,1,0,0:0:0:0:
288,160,99018,1,8,0:0:0:0:
224,160,99193,1,0,0:0:0:0:
224,160,99280,1,0,0:0:0:0:
288,160,99367,1,8,0:0:0:0:
224,160,99542,1,0,0:0:0:0:
288,160,99716,1,8,0:0:0:0:
288,160,99890,1,8,0:0:0:0:
224,160,99978,1,0,0:0:0:0:
288,160,100065,1,8,0:0:0:0:
288,160,100152,1,8,0:0:0:0:
224,160,100239,1,0,0:0:0:0:
288,160,100414,1,8,0:0:0:0:
224,160,100588,1,0,0:0:0:0:
224,160,100675,1,0,0:0:0:0:
288,160,100763,1,8,0:0:0:0:
224,160,100937,1,0,0:0:0:0:
288,160,101111,1,8,0:0:0:0:
288,160,101286,1,8,0:0:0:0:
224,160,101373,1,0,0:0:0:0:
288,160,101460,1,8,0:0:0:0:
224,160,101547,1,0,0:0:0:0:
224,160,101635,1,0,0:0:0:0:
224,160,101983,1,0,0:0:0:0:
224,160,102071,1,0,0:0:0:0:
288,160,102158,1,8,0:0:0:0:
224,160,102332,1,0,0:0:0:0:
288,160,102507,1,8,0:0:0:0:
224,160,102681,1,0,0:0:0:0:
288,160,102856,1,8,0:0:0:0:
288,160,102943,1,8,0:0:0:0:
224,160,103030,1,0,0:0:0:0:
288,160,103204,1,8,0:0:0:0:
224,160,103379,1,0,0:0:0:0:
224,160,103466,1,0,0:0:0:0:
288,160,103553,1,8,0:0:0:0:
288,160,103640,1,8,0:0:0:0:
224,160,103728,1,0,0:0:0:0:
288,160,103902,1,8,0:0:0:0:
288,160,104077,1,8,0:0:0:0:
224,160,104164,1,0,0:0:0:0:
288,160,104251,1,8,0:0:0:0:
288,160,104338,1,8,0:0:0:0:
224,160,104425,1,0,0:0:0:0:
224,160,104774,1,0,0:0:0:0:
224,160,104861,1,0,0:0:0:0:
288,160,104949,1,8,0:0:0:0:
224,160,105123,1,0,0:0:0:0:
288,160,105297,1,8,0:0:0:0:
224,160,105385,1,0,0:0:0:0:
224,160,105472,1,0,0:0:0:0:
288,160,105646,1,8,0:0:0:0:
288,160,105733,1,8,0:0:0:0:
224,160,105821,1,0,0:0:0:0:
288,160,105995,1,8,0:0:0:0:
224,160,106170,1,0,0:0:0:0:
224,160,106257,1,0,0:0:0:0:
288,160,106344,1,8,0:0:0:0:
224,160,106518,1,0,0:0:0:0:
288,160,106693,1,8,0:0:0:0:
288,160,106867,1,8,0:0:0:0:
288,160,106954,1,8,0:0:0:0:
224,160,107042,1,0,0:0:0:0:
224,160,107216,1,0,0:0:0:0:
288,160,107303,1,8,0:0:0:0:
224,160,107390,1,0,0:0:0:0:
288,160,107565,1,8,0:0:0:0:
288,160,107739,1,8,0:0:0:0:
288,160,107827,1,8,0:0:0:0:
224,160,107914,1,0,0:0:0:0:
288,160,108088,1,8,0:0:0:0:
224,160,108175,1,0,0:0:0:0:
224,160,108263,1,0,0:0:0:0:
224,160,108350,1,0,0:0:0:0:
288,160,108437,1,8,0:0:0:0:
288,224,108611,1,12,0:0:0:0:
224,160,108786,1,0,0:0:0:0:
288,160,108960,1,8,0:0:0:0:
224,160,109135,1,0,0:0:0:0:
288,160,109309,1,8,0:0:0:0:
288,160,109658,1,8,0:0:0:0:
224,160,109832,1,0,0:0:0:0:
288,160,110007,1,8,0:0:0:0:
224,160,110094,1,0,0:0:0:0:
224,160,110181,1,0,0:0:0:0:
288,160,110356,1,8,0:0:0:0:
224,160,110704,1,0,0:0:0:0:
288,160,110792,1,8,0:0:0:0:
288,160,110879,1,8,0:0:0:0:
288,160,110966,1,8,0:0:0:0:
224,160,111053,1,0,0:0:0:0:
224,160,111140,1,0,0:0:0:0:
224,160,111228,1,0,0:0:0:0:
224,224,111402,1,4,0:0:0:0:
288,160,111577,1,8,0:0:0:0:
224,160,111751,1,0,0:0:0:0:
224,160,111838,1,0,0:0:0:0:
288,160,111925,1,8,0:0:0:0:
224,160,112100,1,0,0:0:0:0:
288,160,112274,1,8,0:0:0:0:
288,160,112361,1,8,0:0:0:0:
224,160,112449,1,0,0:0:0:0:
288,160,112623,1,8,0:0:0:0:
224,160,112797,1,0,0:0:0:0:
288,160,112885,1,8,0:0:0:0:
224,160,112972,1,0,0:0:0:0:
288,160,113146,1,8,0:0:0:0:
288,160,113321,1,8,0:0:0:0:
288,160,113408,1,8,0:0:0:0:
224,160,113495,1,0,0:0:0:0:
224,160,113582,1,0,0:0:0:0:
288,160,113670,1,8,0:0:0:0:
288,160,113844,1,8,0:0:0:0:
224,160,114193,1,0,0:0:0:0:
288,160,114367,1,8,0:0:0:0:
288,160,114542,1,8,0:0:0:0:
224,160,114629,1,0,0:0:0:0:
288,160,114716,1,8,0:0:0:0:
288,160,114803,1,8,0:0:0:0:
224,160,114890,1,0,0:0:0:0:
288,160,115065,1,8,0:0:0:0:
224,160,115239,1,0,0:0:0:0:
224,160,115327,1,0,0:0:0:0:
288,160,115414,1,8,0:0:0:0:
288,160,115501,1,8,0:0:0:0:
224,160,115588,1,0,0:0:0:0:
288,160,115763,1,8,0:0:0:0:
224,160,115937,1,0,0:0:0:0:
224,160,116024,1,0,0:0:0:0:
288,160,116111,1,8,0:0:0:0:
224,160,116286,1,0,0:0:0:0:
288,160,116373,1,8,0:0:0:0:
224,160,116460,1,0,0:0:0:0:
224,160,116547,1,0,0:0:0:0:
288,160,116635,1,8,0:0:0:0:
224,160,116722,1,0,0:0:0:0:
288,160,116809,1,8,0:0:0:0:
288,160,116896,1,8,0:0:0:0:
224,160,116983,1,0,0:0:0:0:
288,160,117158,1,8,0:0:0:0:
224,160,117332,1,0,0:0:0:0:
224,160,117420,1,0,0:0:0:0:
288,160,117507,1,8,0:0:0:0:
224,160,117681,1,0,0:0:0:0:
288,160,117856,1,8,0:0:0:0:
288,160,117943,1,8,0:0:0:0:
224,160,118030,1,0,0:0:0:0:
224,160,118117,1,0,0:0:0:0:
288,160,118204,1,8,0:0:0:0:
224,160,118379,1,0,0:0:0:0:
288,160,118553,1,8,0:0:0:0:
224,160,118728,1,0,0:0:0:0:
224,160,118815,1,0,0:0:0:0:
288,160,118902,1,8,0:0:0:0:
224,160,119077,1,0,0:0:0:0:
288,160,119251,1,8,0:0:0:0:
288,160,119338,1,8,0:0:0:0:
224,160,119425,1,0,0:0:0:0:
224,160,119774,1,0,0:0:0:0:
224,160,119861,1,0,0:0:0:0:
224,160,119949,1,0,0:0:0:0:
288,160,120123,1,8,0:0:0:0:
224,160,120297,1,0,0:0:0:0:
288,160,120385,1,8,0:0:0:0:
224,160,120472,1,0,0:0:0:0:
288,160,120646,1,8,0:0:0:0:
224,160,120821,1,0,0:0:0:0:
224,160,120908,1,0,0:0:0:0:
288,160,120995,1,8,0:0:0:0:
288,160,121082,1,8,0:0:0:0:
224,160,121170,1,0,0:0:0:0:
288,160,121344,1,8,0:0:0:0:
224,160,121518,1,0,0:0:0:0:
224,160,121606,1,0,0:0:0:0:
288,160,121693,1,8,0:0:0:0:
224,160,121867,1,0,0:0:0:0:
288,160,122042,1,8,0:0:0:0:
288,160,122216,1,8,0:0:0:0:
224,160,122303,1,0,0:0:0:0:
288,160,122390,1,8,0:0:0:0:
288,160,122478,1,8,0:0:0:0:
224,160,122565,1,0,0:0:0:0:
288,160,122739,1,8,0:0:0:0:
224,160,122914,1,0,0:0:0:0:
224,160,123001,1,0,0:0:0:0:
288,160,123088,1,8,0:0:0:0:
224,160,123263,1,0,0:0:0:0:
288,160,123437,1,8,0:0:0:0:
288,160,123611,1,8,0:0:0:0:
224,160,123699,1,0,0:0:0:0:
288,160,123786,1,8,0:0:0:0:
224,160,123873,1,0,0:0:0:0:
224,160,123960,1,0,0:0:0:0:
224,160,124309,1,0,0:0:0:0:
224,160,124396,1,0,0:0:0:0:
288,160,124483,1,8,0:0:0:0:
224,160,124658,1,0,0:0:0:0:
288,160,124832,1,8,0:0:0:0:
224,160,125007,1,0,0:0:0:0:
288,160,125181,1,8,0:0:0:0:
288,160,125268,1,8,0:0:0:0:
224,160,125356,1,0,0:0:0:0:
288,160,125530,1,8,0:0:0:0:
224,160,125704,1,0,0:0:0:0:
224,160,125792,1,0,0:0:0:0:
288,160,125879,1,8,0:0:0:0:
288,160,125966,1,8,0:0:0:0:
224,160,126053,1,0,0:0:0:0:
288,160,126228,1,8,0:0:0:0:
288,160,126402,1,8,0:0:0:0:
224,160,126489,1,0,0:0:0:0:
288,160,126577,1,8,0:0:0:0:
288,160,126664,1,8,0:0:0:0:
224,160,126751,1,0,0:0:0:0:
224,160,127100,1,0,0:0:0:0:
224,160,127187,1,0,0:0:0:0:
288,160,127274,1,8,0:0:0:0:
224,160,127449,1,0,0:0:0:0:
288,160,127623,1,8,0:0:0:0:
224,160,127710,1,0,0:0:0:0:
224,160,127797,1,0,0:0:0:0:
288,160,127972,1,8,0:0:0:0:
288,160,128059,1,8,0:0:0:0:
224,160,128146,1,0,0:0:0:0:
288,160,128321,1,8,0:0:0:0:
224,160,128495,1,0,0:0:0:0:
224,160,128582,1,0,0:0:0:0:
288,160,128670,1,8,0:0:0:0:
224,160,128844,1,0,0:0:0:0:
288,160,129018,1,8,0:0:0:0:
288,160,129193,1,8,0:0:0:0:
288,160,129280,1,8,0:0:0:0:
224,160,129367,1,0,0:0:0:0:
224,160,129542,1,0,0:0:0:0:
288,160,129629,1,8,0:0:0:0:
224,160,129716,1,0,0:0:0:0:
288,160,129890,1,8,0:0:0:0:
288,160,130065,1,8,0:0:0:0:
288,160,130152,1,8,0:0:0:0:
224,160,130239,1,0,0:0:0:0:
288,160,130414,1,8,0:0:0:0:
224,160,130501,1,0,0:0:0:0:
224,160,130588,1,0,0:0:0:0:
224,160,130675,1,0,0:0:0:0:
288,160,130763,1,8,0:0:0:0:
288,224,130937,1,12,0:0:0:0:
224,160,131111,1,0,0:0:0:0:
288,160,131286,1,8,0:0:0:0:
224,160,131460,1,0,0:0:0:0:
288,160,131635,1,8,0:0:0:0:
288,160,131983,1,8,0:0:0:0:
224,160,132158,1,0,0:0:0:0:
288,160,132332,1,8,0:0:0:0:
224,160,132420,1,0,0:0:0:0:
224,160,132507,1,0,0:0:0:0:
288,160,132681,1,8,0:0:0:0:
224,160,133030,1,0,0:0:0:0:
288,160,133117,1,8,0:0:0:0:
288,160,133204,1,8,0:0:0:0:
288,160,133292,1,8,0:0:0:0:
224,160,133379,1,0,0:0:0:0:
224,160,133466,1,0,0:0:0:0:
224,160,133553,1,0,0:0:0:0:
288,224,133728,1,12,0:0:0:0:
224,160,133902,1,0,0:0:0:0:
224,160,133989,1,0,0:0:0:0:
288,160,134077,1,8,0:0:0:0:
224,160,134251,1,0,0:0:0:0:
288,160,134425,1,8,0:0:0:0:
288,160,134600,1,8,0:0:0:0:
288,160,134687,1,8,0:0:0:0:
224,160,134774,1,0,0:0:0:0:
288,160,134949,1,8,0:0:0:0:
224,224,135123,1,4,0:0:0:0:
288,160,135297,1,8,0:0:0:0:
224,160,135472,1,0,0:0:0:0:
224,160,135559,1,0,0:0:0:0:
288,160,135646,1,8,0:0:0:0:
224,160,135733,1,0,0:0:0:0:
224,160,135821,1,0,0:0:0:0:
288,160,135995,1,8,0:0:0:0:
224,160,136170,1,0,0:0:0:0:
288,160,136344,1,8,0:0:0:0:
288,224,136518,1,12,0:0:0:0:
224,160,136693,1,0,0:0:0:0:
288,160,136867,1,8,0:0:0:0:
224,160,136954,1,0,0:0:0:0:
288,160,137042,1,8,0:0:0:0:
288,160,137129,1,8,0:0:0:0:
224,160,137216,1,0,0:0:0:0:
288,160,137390,1,8,0:0:0:0:
288,160,137565,1,8,0:0:0:0:
288,160,137739,1,8,0:0:0:0:
224,224,137914,1,4,0:0:0:0:
288,160,138088,1,8,0:0:0:0:
224,160,138263,1,0,0:0:0:0:
224,160,138350,1,0,0:0:0:0:
288,160,138437,1,8,0:0:0:0:
288,160,138524,1,8,0:0:0:0:
224,160,138611,1,0,0:0:0:0:
288,160,138786,1,8,0:0:0:0:
224,160,138960,1,0,0:0:0:0:
288,160,139135,1,8,0:0:0:0:
288,160,139222,1,8,0:0:0:0:
288,160,139309,1,8,0:0:0:0:
224,160,139483,1,0,0:0:0:0:
224,160,139571,1,0,0:0:0:0:
288,160,139658,1,8,0:0:0:0:
224,160,139832,1,0,0:0:0:0:
288,160,140007,1,8,0:0:0:0:
288,160,140181,1,8,0:0:0:0:
288,160,140268,1,8,0:0:0:0:
224,160,140356,1,0,0:0:0:0:
288,160,140530,1,8,0:0:0:0:
224,224,140704,1,4,0:0:0:0:
288,160,140879,1,8,0:0:0:0:
224,160,141053,1,0,0:0:0:0:
224,160,141140,1,0,0:0:0:0:
288,160,141228,1,8,0:0:0:0:
224,160,141315,1,0,0:0:0:0:
224,160,141402,1,0,0:0:0:0:
288,160,141577,1,8,0:0:0:0:
224,160,141751,1,0,0:0:0:0:
288,160,141925,1,8,0:0:0:0:
288,224,142100,1,12,0:0:0:0:
224,160,142274,1,0,0:0:0:0:
288,160,142449,1,8,0:0:0:0:
224,160,142536,1,0,0:0:0:0:
288,160,142623,1,8,0:0:0:0:
288,160,142710,1,8,0:0:0:0:
224,160,142797,1,0,0:0:0:0:
288,160,142972,1,8,0:0:0:0:
224,160,143146,1,0,0:0:0:0:
288,160,143321,1,8,0:0:0:0:
224,224,143495,1,4,0:0:0:0:
288,160,143670,1,8,0:0:0:0:
224,160,143844,1,0,0:0:0:0:
224,160,143931,1,0,0:0:0:0:
288,160,144018,1,8,0:0:0:0:
224,160,144193,1,0,0:0:0:0:
288,160,144280,1,8,0:0:0:0:
288,160,144367,1,8,0:0:0:0:
288,160,144454,1,8,0:0:0:0:
224,160,144542,1,0,0:0:0:0:
288,160,144716,1,8,0:0:0:0:
288,160,144803,1,8,0:0:0:0:
224,160,144890,1,0,0:0:0:0:
288,160,144978,1,8,0:0:0:0:
288,160,145065,1,8,0:0:0:0:
288,160,145152,1,8,0:0:0:0:
224,160,145239,1,0,0:0:0:0:
288,160,145414,1,8,0:0:0:0:
288,160,145501,1,8,0:0:0:0:
224,160,145588,1,0,0:0:0:0:
224,160,145675,1,0,0:0:0:0:
288,160,145763,1,8,0:0:0:0:
288,160,145937,1,8,0:0:0:0:
288,160,146024,1,8,0:0:0:0:
224,160,146111,1,0,0:0:0:0:
224,160,146286,1,0,0:0:0:0:
288,160,146373,1,8,0:0:0:0:
224,160,146460,1,0,0:0:0:0:
224,160,146547,1,0,0:0:0:0:
288,160,146635,1,8,0:0:0:0:
288,160,146809,1,8,0:0:0:0:
224,160,146896,1,0,0:0:0:0:
224,160,146983,1,0,0:0:0:0:
224,160,147071,1,0,0:0:0:0:
288,160,147158,1,8,0:0:0:0:
288,160,147332,1,8,0:0:0:0:
224,160,147420,1,0,0:0:0:0:
224,160,147507,1,0,0:0:0:0:
224,224,147681,1,4,0:0:0:0:
288,160,147856,1,8,0:0:0:0:
224,160,147943,1,0,0:0:0:0:
224,160,148030,1,0,0:0:0:0:
288,224,148204,1,12,0:0:0:0:
224,160,148379,1,0,0:0:0:0:
224,160,148466,1,0,0:0:0:0:
288,160,148553,1,8,0:0:0:0:
224,160,148640,1,0,0:0:0:0:
224,160,148728,1,0,0:0:0:0:
224,160,148815,1,0,0:0:0:0:
288,160,148902,1,8,0:0:0:0:
288,224,149077,1,12,0:0:0:0:
288,160,149251,1,8,0:0:0:0:
288,160,149338,1,8,0:0:0:0:
224,160,149425,1,0,0:0:0:0:
288,224,149600,1,12,0:0:0:0:
224,160,149774,1,0,0:0:0:0:
224,160,149861,1,0,0:0:0:0:
288,160,149949,1,8,0:0:0:0:
288,160,150036,1,8,0:0:0:0:
224,160,150123,1,0,0:0:0:0:
288,160,150297,1,8,0:0:0:0:
288,160,150385,1,8,0:0:0:0:
224,160,150472,1,0,0:0:0:0:
288,160,150559,1,8,0:0:0:0:
288,160,150646,1,8,0:0:0:0:
288,160,150733,1,8,0:0:0:0:
224,160,150821,1,0,0:0:0:0:
288,160,150995,1,8,0:0:0:0:
288,160,151082,1,8,0:0:0:0:
224,160,151170,1,0,0:0:0:0:
224,160,151257,1,0,0:0:0:0:
288,160,151344,1,8,0:0:0:0:
288,160,151518,1,8,0:0:0:0:
288,160,151606,1,8,0:0:0:0:
224,160,151693,1,0,0:0:0:0:
224,160,151867,1,0,0:0:0:0:
224,160,151954,1,0,0:0:0:0:
288,160,152042,1,8,0:0:0:0:
288,160,152129,1,8,0:0:0:0:
224,160,152216,1,0,0:0:0:0:
288,160,152390,1,8,0:0:0:0:
224,160,152478,1,0,0:0:0:0:
224,160,152565,1,0,0:0:0:0:
224,160,152652,1,0,0:0:0:0:
288,160,152739,1,8,0:0:0:0:
288,160,152914,1,8,0:0:0:0:
224,160,153001,1,0,0:0:0:0:
224,160,153088,1,0,0:0:0:0:
288,224,153263,1,12,0:0:0:0:
224,160,153437,1,0,0:0:0:0:
224,160,153524,1,0,0:0:0:0:
288,160,153611,1,8,0:0:0:0:
224,224,153786,1,4,0:0:0:0:
288,160,153960,1,8,0:0:0:0:
224,160,154047,1,0,0:0:0:0:
224,160,154135,1,0,0:0:0:0:
224,160,154222,1,0,0:0:0:0:
288,160,154309,1,8,0:0:0:0:
224,160,154483,1,0,0:0:0:0:
288,224,154658,1,12,0:0:0:0:
224,160,154832,1,0,0:0:0:0:
224,160,154920,1,0,0:0:0:0:
224,160,155007,1,0,0:0:0:0:
288,224,155181,1,12,0:0:0:0:
224,160,155356,1,0,0:0:0:0:
224,160,155443,1,0,0:0:0:0:
288,160,155530,1,8,0:0:0:0:
288,160,155704,1,8,0:0:0:0:
288,160,155792,1,8,0:0:0:0:
288,160,155879,1,8,0:0:0:0:
224,224,156053,1,4,0:0:0:0:
288,160,156577,1,8,0:0:0:0:
224,160,156751,1,0,0:0:0:0:
288,160,157100,1,8,0:0:0:0:
224,160,157623,1,0,0:0:0:0:
224,160,157797,1,0,0:0:0:0:
288,160,158146,1,8,0:0:0:0:
224,160,158321,1,0,0:0:0:0:
288,160,158495,1,8,0:0:0:0:
288,160,158582,1,8,0:0:0:0:
288,160,158670,1,8,0:0:0:0:
288,160,158757,1,8,0:0:0:0:
288,160,158844,1,8,0:0:0:0:
224,160,159018,1,0,0:0:0:0:
224,160,159193,1,0,0:0:0:0:
288,160,159367,1,8,0:0:0:0:
224,160,159542,1,0,0:0:0:0:
224,160,159716,1,0,0:0:0:0:
288,160,159890,1,8,0:0:0:0:
224,160,160239,1,0,0:0:0:0:
288,160,160414,1,8,0:0:0:0:
224,160,160588,1,0,0:0:0:0:
224,160,160763,1,0,0:0:0:0:
288,160,160937,1,8,0:0:0:0:
224,160,161111,1,0,0:0:0:0:
288,160,161199,1,8,0:0:0:0:
224,160,161373,1,0,0:0:0:0:
288,160,161460,1,8,0:0:0:0:
288,160,161635,1,8,0:0:0:0:
224,160,161809,1,0,0:0:0:0:
224,160,161983,1,0,0:0:0:0:
288,160,162158,1,8,0:0:0:0:
224,160,162332,1,0,0:0:0:0:
224,160,162507,1,0,0:0:0:0:
288,160,162681,1,8,0:0:0:0:
224,160,163030,1,0,0:0:0:0:
288,160,163204,1,8,0:0:0:0:
224,160,163379,1,0,0:0:0:0:
224,160,163553,1,0,0:0:0:0:
288,160,163728,1,8,0:0:0:0:
224,160,163902,1,0,0:0:0:0:
288,160,164077,1,8,0:0:0:0:
288,160,164164,1,8,0:0:0:0:
288,160,164251,1,8,0:0:0:0:
288,160,164338,1,8,0:0:0:0:
288,160,164425,1,8,0:0:0:0:
224,160,164600,1,0,0:0:0:0:
224,160,164774,1,0,0:0:0:0:
288,160,164949,1,8,0:0:0:0:
224,160,165123,1,0,0:0:0:0:
224,160,165297,1,0,0:0:0:0:
288,160,165472,1,8,0:0:0:0:
224,160,165821,1,0,0:0:0:0:
288,160,165995,1,8,0:0:0:0:
224,160,166170,1,0,0:0:0:0:
224,160,166344,1,0,0:0:0:0:
288,160,166518,1,8,0:0:0:0:
224,160,166693,1,0,0:0:0:0:
288,160,166780,1,8,0:0:0:0:
224,160,166954,1,0,0:0:0:0:
288,160,167042,1,8,0:0:0:0:
288,160,167129,1,8,0:0:0:0:
224,160,167216,1,0,0:0:0:0:
224,160,167564,1,0,0:0:0:0:
288,160,167739,1,8,0:0:0:0:
224,160,167913,1,0,0:0:0:0:
224,160,168262,1,0,0:0:0:0:
288,160,168436,1,8,0:0:0:0:
224,160,168611,1,0,0:0:0:0:
224,160,168785,1,0,0:0:0:0:
288,160,168960,1,8,0:0:0:0:
224,160,169134,1,0,0:0:0:0:
224,160,169309,1,0,0:0:0:0:
224,160,169657,1,0,0:0:0:0:
288,160,169832,1,8,0:0:0:0:
224,160,170006,1,0,0:0:0:0:
224,160,170355,1,0,0:0:0:0:
288,160,170529,1,8,0:0:0:0:
224,160,170704,1,0,0:0:0:0:
224,160,170878,1,0,0:0:0:0:
288,160,171053,1,8,0:0:0:0:
224,160,171227,1,0,0:0:0:0:
224,224,171402,1,4,0:0:0:0:
224,160,171750,1,0,0:0:0:0:
288,160,171925,1,8,0:0:0:0:
288,160,172099,1,8,0:0:0:0:
224,160,172448,1,0,0:0:0:0:
288,160,172622,1,8,0:0:0:0:
288,160,172797,1,8,0:0:0:0:
224,160,172971,1,0,0:0:0:0:
288,160,173146,1,8,0:0:0:0:
288,160,173320,1,8,0:0:0:0:
224,224,173495,1,4,0:0:0:0:
224,160,173843,1,0,0:0:0:0:
288,160,174018,1,8,0:0:0:0:
224,160,174192,1,0,0:0:0:0:
288,160,174367,1,8,0:0:0:0:
224,160,174541,1,0,0:0:0:0:
224,160,174716,1,0,0:0:0:0:
288,160,174890,1,8,0:0:0:0:
224,160,175064,1,0,0:0:0:0:
288,160,175239,1,8,0:0:0:0:
224,160,175413,1,0,0:0:0:0:
224,160,175500,1,0,0:0:0:0:
288,160,175588,1,8,0:0:0:0:
224,160,175762,1,0,0:0:0:0:
288,160,175936,1,8,0:0:0:0:
288,160,176024,1,8,0:0:0:0:
288,160,176111,1,8,0:0:0:0:
288,160,176198,1,8,0:0:0:0:
224,160,176634,1,0,0:0:0:0:
224,160,176721,1,0,0:0:0:0:
288,160,176808,1,8,0:0:0:0:
288,160,176895,1,8,0:0:0:0:
224,160,176982,1,0,0:0:0:0:
288,160,177157,1,8,0:0:0:0:
224,160,177331,1,0,0:0:0:0:
224,160,177419,1,0,0:0:0:0:
288,160,177506,1,8,0:0:0:0:
224,160,177680,1,0,0:0:0:0:
288,160,177855,1,8,0:0:0:0:
224,160,177942,1,0,0:0:0:0:
224,160,178029,1,0,0:0:0:0:
288,160,178203,1,8,0:0:0:0:
288,160,178378,1,8,0:0:0:0:
288,160,178465,1,8,0:0:0:0:
224,160,178552,1,0,0:0:0:0:
288,160,178727,1,8,0:0:0:0:
224,160,178814,1,0,0:0:0:0:
288,160,178901,1,8,0:0:0:0:
288,160,178988,1,8,0:0:0:0:
224,160,179076,1,0,0:0:0:0:
224,160,179163,1,0,0:0:0:0:
288,160,179250,1,8,0:0:0:0:
288,160,179424,1,8,0:0:0:0:
288,160,179512,1,8,0:0:0:0:
224,160,179599,1,0,0:0:0:0:
224,160,179773,1,0,0:0:0:0:
288,160,179948,1,8,0:0:0:0:
224,160,180122,1,0,0:0:0:0:
224,160,180209,1,0,0:0:0:0:
288,160,180296,1,8,0:0:0:0:
288,160,180471,1,8,0:0:0:0:
224,160,180645,1,0,0:0:0:0:
224,160,180733,1,0,0:0:0:0:
288,160,180820,1,8,0:0:0:0:
224,160,180907,1,0,0:0:0:0:
288,160,180994,1,8,0:0:0:0:
288,160,181081,1,8,0:0:0:0:
224,160,181169,1,0,0:0:0:0:
288,160,181343,1,8,0:0:0:0:
224,160,181517,1,0,0:0:0:0:
224,160,181605,1,0,0:0:0:0:
288,160,181692,1,8,0:0:0:0:
224,160,181866,1,0,0:0:0:0:
224,160,181953,1,0,0:0:0:0:
224,160,182041,1,0,0:0:0:0:
224,160,182128,1,0,0:0:0:0:
288,160,182215,1,8,0:0:0:0:
224,160,182302,1,0,0:0:0:0:
288,160,182389,1,8,0:0:0:0:
288,160,182477,1,8,0:0:0:0:
224,160,182564,1,0,0:0:0:0:
288,160,182738,1,8,0:0:0:0:
224,160,182913,1,0,0:0:0:0:
224,160,183000,1,0,0:0:0:0:
288,160,183087,1,8,0:0:0:0:
224,160,183262,1,0,0:0:0:0:
288,160,183436,1,8,0:0:0:0:
288,160,183523,1,8,0:0:0:0:
224,160,183610,1,0,0:0:0:0:
224,160,183698,1,0,0:0:0:0:
288,160,183785,1,8,0:0:0:0:
224,160,183959,1,0,0:0:0:0:
288,160,184134,1,8,0:0:0:0:
224,160,184308,1,0,0:0:0:0:
224,160,184395,1,0,0:0:0:0:
288,160,184483,1,8,0:0:0:0:
224,160,184657,1,0,0:0:0:0:
224,160,184744,1,0,0:0:0:0:
288,160,184831,1,8,0:0:0:0:
288,160,184919,1,8,0:0:0:0:
224,160,185006,1,0,0:0:0:0:
288,160,185355,1,8,0:0:0:0:
288,160,185442,1,8,0:0:0:0:
224,160,185529,1,0,0:0:0:0:
288,160,185703,1,8,0:0:0:0:
224,160,185878,1,0,0:0:0:0:
288,160,185965,1,8,0:0:0:0:
224,160,186052,1,0,0:0:0:0:
288,160,186227,1,8,0:0:0:0:
224,160,186401,1,0,0:0:0:0:
288,160,186488,1,8,0:0:0:0:
288,160,186576,1,8,0:0:0:0:
288,160,186663,1,8,0:0:0:0:
224,160,186750,1,0,0:0:0:0:
288,160,186924,1,8,0:0:0:0:
224,160,187099,1,0,0:0:0:0:
224,160,187186,1,0,0:0:0:0:
288,160,187273,1,8,0:0:0:0:
224,160,187448,1,0,0:0:0:0:
288,160,187622,1,8,0:0:0:0:
224,160,187709,1,0,0:0:0:0:
288,160,187796,1,8,0:0:0:0:
224,160,187884,1,0,0:0:0:0:
288,160,187971,1,8,0:0:0:0:
288,160,188058,1,8,0:0:0:0:
224,160,188145,1,0,0:0:0:0:
288,160,188320,1,8,0:0:0:0:
224,160,188494,1,0,0:0:0:0:
224,160,188581,1,0,0:0:0:0:
288,160,188669,1,8,0:0:0:0:
224,160,188843,1,0,0:0:0:0:
288,160,189017,1,8,0:0:0:0:
288,160,189192,1,8,0:0:0:0:
224,160,189279,1,0,0:0:0:0:
288,160,189366,1,8,0:0:0:0:
224,160,189453,1,0,0:0:0:0:
224,160,189541,1,0,0:0:0:0:
288,160,189715,1,8,0:0:0:0:
224,160,189889,1,0,0:0:0:0:
224,160,189977,1,0,0:0:0:0:
288,160,190064,1,8,0:0:0:0:
224,160,190151,1,0,0:0:0:0:
224,160,190238,1,0,0:0:0:0:
288,160,190413,1,8,0:0:0:0:
224,160,190587,1,0,0:0:0:0:
288,160,190762,1,8,0:0:0:0:
288,160,190849,1,8,0:0:0:0:
224,160,190936,1,0,0:0:0:0:
288,160,191110,1,8,0:0:0:0:
224,160,191285,1,0,0:0:0:0:
224,160,191372,1,0,0:0:0:0:
288,160,191459,1,8,0:0:0:0:
288,160,191546,1,8,0:0:0:0:
224,160,191634,1,0,0:0:0:0:
288,160,191808,1,8,0:0:0:0:
288,160,191983,1,8,0:0:0:0:
224,160,192070,1,0,0:0:0:0:
288,160,192157,1,8,0:0:0:0:
288,160,192244,1,8,0:0:0:0:
224,160,192331,1,0,0:0:0:0:
288,160,192506,1,8,0:0:0:0:
224,160,192680,1,0,0:0:0:0:
224,160,192767,1,0,0:0:0:0:
288,160,192855,1,8,0:0:0:0:
288,160,192942,1,8,0:0:0:0:
224,160,193029,1,0,0:0:0:0:
288,160,193203,1,8,0:0:0:0:
224,160,193291,1,0,0:0:0:0:
288,160,193378,1,8,0:0:0:0:
288,160,193552,1,8,0:0:0:0:
288,160,193639,1,8,0:0:0:0:
224,160,193727,1,0,0:0:0:0:
288,160,193901,1,8,0:0:0:0:
224,160,194076,1,0,0:0:0:0:
224,160,194163,1,0,0:0:0:0:
288,160,194250,1,8,0:0:0:0:
224,160,194424,1,0,0:0:0:0:
288,160,194599,1,8,0:0:0:0:
288,160,194773,1,8,0:0:0:0:
288,160,194860,1,8,0:0:0:0:
224,160,194948,1,0,0:0:0:0:
224,160,195122,1,0,0:0:0:0:
288,160,195209,1,8,0:0:0:0:
224,160,195296,1,0,0:0:0:0:
224,160,195384,1,0,0:0:0:0:
288,160,195471,1,8,0:0:0:0:
288,160,195645,1,8,0:0:0:0:
288,160,195733,1,8,0:0:0:0:
224,160,195820,1,0,0:0:0:0:
288,160,195994,1,8,0:0:0:0:
224,160,196081,1,0,0:0:0:0:
224,160,196169,1,0,0:0:0:0:
224,160,196256,1,0,0:0:0:0:
288,160,196343,1,8,0:0:0:0:
288,224,196517,1,12,0:0:0:0:
224,160,196692,1,0,0:0:0:0:
288,160,196866,1,8,0:0:0:0:
224,160,196953,1,0,0:0:0:0:
224,160,197041,1,0,0:0:0:0:
288,160,197215,1,8,0:0:0:0:
288,160,197564,1,8,0:0:0:0:
224,160,197738,1,0,0:0:0:0:
288,160,197913,1,8,0:0:0:0:
224,160,198000,1,0,0:0:0:0:
224,160,198087,1,0,0:0:0:0:
288,160,198262,1,8,0:0:0:0:
224,160,198436,1,0,0:0:0:0:
224,160,198610,1,0,0:0:0:0:
288,160,198698,1,8,0:0:0:0:
288,160,198785,1,8,0:0:0:0:
288,160,198872,1,8,0:0:0:0:
224,160,198959,1,0,0:0:0:0:
224,160,199046,1,0,0:0:0:0:
224,160,199134,1,0,0:0:0:0:
224,224,199308,1,4,0:0:0:0:
288,160,199483,1,8,0:0:0:0:
224,160,199657,1,0,0:0:0:0:
224,160,199744,1,0,0:0:0:0:
288,160,199831,1,8,0:0:0:0:
224,160,200006,1,0,0:0:0:0:
288,160,200180,1,8,0:0:0:0:
288,160,200267,1,8,0:0:0:0:
224,160,200355,1,0,0:0:0:0:
288,160,200529,1,8,0:0:0:0:
224,160,200703,1,0,0:0:0:0:
288,160,200791,1,8,0:0:0:0:
224,160,200878,1,0,0:0:0:0:
288,160,201052,1,8,0:0:0:0:
288,160,201227,1,8,0:0:0:0:
288,160,201314,1,8,0:0:0:0:
224,160,201401,1,0,0:0:0:0:
224,160,201488,1,0,0:0:0:0:
288,160,201576,1,8,0:0:0:0:
288,160,201750,1,8,0:0:0:0:
288,160,201837,1,8,0:0:0:0:
224,160,201924,1,0,0:0:0:0:
224,160,202099,1,0,0:0:0:0:
288,160,202273,1,8,0:0:0:0:
288,160,202448,1,8,0:0:0:0:
288,160,202535,1,8,0:0:0:0:
224,160,202622,1,0,0:0:0:0:
288,160,202709,1,8,0:0:0:0:
224,160,202796,1,0,0:0:0:0:
288,160,202971,1,8,0:0:0:0:
224,160,203145,1,0,0:0:0:0:
224,160,203233,1,0,0:0:0:0:
288,160,203320,1,8,0:0:0:0:
288,160,203407,1,8,0:0:0:0:
224,160,203494,1,0,0:0:0:0:
288,160,203669,1,8,0:0:0:0:
224,160,203843,1,0,0:0:0:0:
224,160,203930,1,0,0:0:0:0:
288,160,204017,1,8,0:0:0:0:
224,160,204192,1,0,0:0:0:0:
288,160,204279,1,8,0:0:0:0:
224,160,204366,1,0,0:0:0:0:
224,160,204453,1,0,0:0:0:0:
288,160,204541,1,8,0:0:0:0:
224,160,204628,1,0,0:0:0:0:
288,160,204715,1,8,0:0:0:0:
288,160,204802,1,8,0:0:0:0:
224,160,204889,1,0,0:0:0:0:
288,160,205064,1,8,0:0:0:0:
224,160,205238,1,0,0:0:0:0:
224,160,205326,1,0,0:0:0:0:
288,160,205413,1,8,0:0:0:0:
224,160,205587,1,0,0:0:0:0:
288,160,205762,1,8,0:0:0:0:
288,160,205849,1,8,0:0:0:0:
224,160,205936,1,0,0:0:0:0:
224,160,206023,1,0,0:0:0:0:
288,160,206110,1,8,0:0:0:0:
224,160,206285,1,0,0:0:0:0:
288,160,206459,1,8,0:0:0:0:
224,160,206634,1,0,0:0:0:0:
224,160,206721,1,0,0:0:0:0:
288,160,206808,1,8,0:0:0:0:
224,160,206983,1,0,0:0:0:0:
224,160,207070,1,0,0:0:0:0:
288,160,207157,1,8,0:0:0:0:
288,160,207244,1,8,0:0:0:0:
224,160,207331,1,0,0:0:0:0:
224,160,207680,1,0,0:0:0:0:
224,160,207767,1,0,0:0:0:0:
224,160,207855,1,0,0:0:0:0:
288,160,208029,1,8,0:0:0:0:
224,160,208203,1,0,0:0:0:0:
288,160,208291,1,8,0:0:0:0:
224,160,208378,1,0,0:0:0:0:
288,160,208552,1,8,0:0:0:0:
224,160,208727,1,0,0:0:0:0:
224,160,208814,1,0,0:0:0:0:
288,160,208901,1,8,0:0:0:0:
288,160,208988,1,8,0:0:0:0:
224,160,209076,1,0,0:0:0:0:
288,160,209250,1,8,0:0:0:0:
224,160,209424,1,0,0:0:0:0:
224,160,209512,1,0,0:0:0:0:
288,160,209599,1,8,0:0:0:0:
224,160,209773,1,0,0:0:0:0:
288,160,209948,1,8,0:0:0:0:
288,160,210122,1,8,0:0:0:0:
224,160,210209,1,0,0:0:0:0:
288,160,210296,1,8,0:0:0:0:
288,160,210384,1,8,0:0:0:0:
224,160,210471,1,0,0:0:0:0:
288,160,210645,1,8,0:0:0:0:
224,160,210820,1,0,0:0:0:0:
224,160,210907,1,0,0:0:0:0:
288,160,210994,1,8,0:0:0:0:
224,160,211169,1,0,0:0:0:0:
288,160,211343,1,8,0:0:0:0:
288,160,211517,1,8,0:0:0:0:
224,160,211605,1,0,0:0:0:0:
288,160,211692,1,8,0:0:0:0:
224,160,211779,1,0,0:0:0:0:
224,160,211866,1,0,0:0:0:0:
288,160,212041,1,8,0:0:0:0:
224,160,212215,1,0,0:0:0:0:
224,160,212302,1,0,0:0:0:0:
288,160,212389,1,8,0:0:0:0:
224,160,212477,1,0,0:0:0:0:
224,160,212564,1,0,0:0:0:0:
288,160,212738,1,8,0:0:0:0:
224,160,212913,1,0,0:0:0:0:
288,160,213087,1,8,0:0:0:0:
288,160,213174,1,8,0:0:0:0:
224,160,213262,1,0,0:0:0:0:
288,160,213436,1,8,0:0:0:0:
224,160,213610,1,0,0:0:0:0:
224,160,213698,1,0,0:0:0:0:
288,160,213785,1,8,0:0:0:0:
224,160,213959,1,0,0:0:0:0:
288,160,214134,1,8,0:0:0:0:
288,160,214308,1,8,0:0:0:0:
224,160,214395,1,0,0:0:0:0:
288,160,214483,1,8,0:0:0:0:
288,160,214570,1,8,0:0:0:0:
224,160,214657,1,0,0:0:0:0:
288,160,214831,1,8,0:0:0:0:
224,160,215006,1,0,0:0:0:0:
224,160,215093,1,0,0:0:0:0:
288,160,215180,1,8,0:0:0:0:
288,160,215267,1,8,0:0:0:0:
224,160,215355,1,0,0:0:0:0:
288,160,215529,1,8,0:0:0:0:
224,160,215616,1,0,0:0:0:0:
288,160,215703,1,8,0:0:0:0:
288,160,215878,1,8,0:0:0:0:
288,160,215965,1,8,0:0:0:0:
224,160,216052,1,0,0:0:0:0:
288,160,216227,1,8,0:0:0:0:
224,160,216401,1,0,0:0:0:0:
224,160,216488,1,0,0:0:0:0:
288,160,216576,1,8,0:0:0:0:
224,160,216750,1,0,0:0:0:0:
288,160,216924,1,8,0:0:0:0:
288,160,217099,1,8,0:0:0:0:
288,160,217186,1,8,0:0:0:0:
224,160,217273,1,0,0:0:0:0:
224,160,217448,1,0,0:0:0:0:
288,160,217535,1,8,0:0:0:0:
224,160,217622,1,0,0:0:0:0:
224,160,217709,1,0,0:0:0:0:
288,160,217796,1,8,0:0:0:0:
288,160,217971,1,8,0:0:0:0:
288,160,218058,1,8,0:0:0:0:
224,160,218145,1,0,0:0:0:0:
288,160,218320,1,8,0:0:0:0:
224,160,218407,1,0,0:0:0:0:
224,160,218494,1,0,0:0:0:0:
224,160,218581,1,0,0:0:0:0:
288,160,218669,1,8,0:0:0:0:
288,224,218843,1,12,0:0:0:0:
224,160,219017,1,0,0:0:0:0:
288,160,219192,1,8,0:0:0:0:
224,160,219279,1,0,0:0:0:0:
224,160,219366,1,0,0:0:0:0:
288,160,219541,1,8,0:0:0:0:
288,160,219889,1,8,0:0:0:0:
224,160,220064,1,0,0:0:0:0:
288,160,220238,1,8,0:0:0:0:
224,160,220326,1,0,0:0:0:0:
224,160,220413,1,0,0:0:0:0:
288,160,220587,1,8,0:0:0:0:
224,160,220762,1,0,0:0:0:0:
224,160,220936,1,0,0:0:0:0:
288,160,221023,1,8,0:0:0:0:
288,160,221110,1,8,0:0:0:0:
288,160,221198,1,8,0:0:0:0:
224,160,221285,1,0,0:0:0:0:
224,160,221372,1,0,0:0:0:0:
224,160,221459,1,0,0:0:0:0:
288,224,221634,1,12,0:0:0:0:
224,160,221808,1,0,0:0:0:0:
288,160,221983,1,8,0:0:0:0:
288,160,222157,1,8,0:0:0:0:
288,160,222244,1,8,0:0:0:0:
224,160,222331,1,0,0:0:0:0:
224,160,222419,1,0,0:0:0:0:
288,160,222506,1,8,0:0:0:0:
288,160,222680,1,8,0:0:0:0:
288,160,222767,1,8,0:0:0:0:
224,160,222855,1,0,0:0:0:0:
224,224,223029,1,4,0:0:0:0:
288,160,223203,1,8,0:0:0:0:
224,160,223378,1,0,0:0:0:0:
288,160,223465,1,8,0:0:0:0:
224,160,223552,1,0,0:0:0:0:
224,160,223639,1,0,0:0:0:0:
288,160,223727,1,8,0:0:0:0:
288,160,223901,1,8,0:0:0:0:
224,160,224076,1,0,0:0:0:0:
288,160,224250,1,8,0:0:0:0:
288,224,224424,1,12,0:0:0:0:
224,160,224599,1,0,0:0:0:0:
224,160,224686,1,0,0:0:0:0:
288,160,224773,1,8,0:0:0:0:
288,160,224860,1,8,0:0:0:0:
224,160,225035,1,0,0:0:0:0:
288,160,225122,1,8,0:0:0:0:
224,160,225209,1,0,0:0:0:0:
224,160,225296,1,0,0:0:0:0:
288,160,225384,1,8,0:0:0:0:
224,160,225558,1,0,0:0:0:0:
288,160,225645,1,8,0:0:0:0:
224,224,225820,1,4,0:0:0:0:
288,160,225994,1,8,0:0:0:0:
224,160,226169,1,0,0:0:0:0:
224,160,226256,1,0,0:0:0:0:
288,160,226343,1,8,0:0:0:0:
224,160,226517,1,0,0:0:0:0:
288,160,226605,1,8,0:0:0:0:
288,160,226692,1,8,0:0:0:0:
288,160,226779,1,8,0:0:0:0:
224,160,226866,1,0,0:0:0:0:
288,160,227041,1,8,0:0:0:0:
288,160,227128,1,8,0:0:0:0:
288,160,227215,1,8,0:0:0:0:
224,160,227389,1,0,0:0:0:0:
288,160,227564,1,8,0:0:0:0:
224,160,227738,1,0,0:0:0:0:
224,160,227913,1,0,0:0:0:0:
224,160,228000,1,0,0:0:0:0:
288,160,228087,1,8,0:0:0:0:
288,160,228174,1,8,0:0:0:0:
224,160,228349,1,0,0:0:0:0:
288,160,228436,1,8,0:0:0:0:
224,224,228610,1,4,0:0:0:0:
288,160,228785,1,8,0:0:0:0:
224,160,228872,1,0,0:0:0:0:
224,160,229046,1,0,0:0:0:0:
288,160,229134,1,8,0:0:0:0:
224,160,229308,1,0,0:0:0:0:
288,160,229483,1,8,0:0:0:0:
288,160,229570,1,8,0:0:0:0:
224,160,229744,1,0,0:0:0:0:
288,160,229831,1,8,0:0:0:0:
288,224,230006,1,12,0:0:0:0:
224,160,230180,1,0,0:0:0:0:
288,160,230355,1,8,0:0:0:0:
288,160,230529,1,8,0:0:0:0:
224,160,230616,1,0,0:0:0:0:
224,160,230703,1,0,0:0:0:0:
288,160,230878,1,8,0:0:0:0:
224,160,231052,1,0,0:0:0:0:
288,160,231227,1,8,0:0:0:0:
224,224,231401,1,4,0:0:0:0:
288,160,231576,1,8,0:0:0:0:
288,160,231663,1,8,0:0:0:0:
224,160,231750,1,0,0:0:0:0:
224,160,231837,1,0,0:0:0:0:
288,160,231924,1,8,0:0:0:0:
224,160,232099,1,0,0:0:0:0:
288,160,232186,1,8,0:0:0:0:
288,160,232273,1,8,0:0:0:0:
288,160,232360,1,8,0:0:0:0:
224,160,232448,1,0,0:0:0:0:
224,160,232535,1,0,0:0:0:0:
288,160,232622,1,8,0:0:0:0:
288,160,232709,1,8,0:0:0:0:
224,160,232796,1,0,0:0:0:0:
224,160,232884,1,0,0:0:0:0:
288,160,232971,1,8,0:0:0:0:
224,160,233058,1,0,0:0:0:0:
288,160,233145,1,8,0:0:0:0:
288,160,233233,1,8,0:0:0:0:
224,160,233320,1,0,0:0:0:0:
224,160,233407,1,0,0:0:0:0:
288,160,233494,1,8,0:0:0:0:
224,160,233581,1,0,0:0:0:0:
288,160,233669,1,8,0:0:0:0:
288,160,233756,1,8,0:0:0:0:
224,160,233843,1,0,0:0:0:0:
224,160,233930,1,0,0:0:0:0:
288,160,234017,1,8,0:0:0:0:
288,160,234105,1,8,0:0:0:0:
224,160,234192,1,0,0:0:0:0:
224,160,234279,1,0,0:0:0:0:
288,160,234366,1,8,0:0:0:0:
224,160,234453,1,0,0:0:0:0:
224,160,234541,1,0,0:0:0:0:
224,160,234628,1,0,0:0:0:0:
288,160,234715,1,8,0:0:0:0:
224,160,234802,1,0,0:0:0:0:
288,160,234889,1,8,0:0:0:0:
288,160,234977,1,8,0:0:0:0:
224,160,235064,1,0,0:0:0:0:
224,160,235151,1,0,0:0:0:0:
288,160,235238,1,8,0:0:0:0:
224,160,235326,1,0,0:0:0:0:
288,160,235413,1,8,0:0:0:0:
288,160,235500,1,8,0:0:0:0:
224,160,235587,1,0,0:0:0:0:
224,160,235674,1,0,0:0:0:0:
288,160,235849,1,8,0:0:0:0:
224,160,235936,1,0,0:0:0:0:
288,224,236110,1,12,0:0:0:0:
224,160,236285,1,0,0:0:0:0:
224,160,236372,1,0,0:0:0:0:
288,160,236459,1,8,0:0:0:0:
224,160,236546,1,0,0:0:0:0:
224,160,236634,1,0,0:0:0:0:
224,160,236721,1,0,0:0:0:0:
288,160,236808,1,8,0:0:0:0:
288,160,236983,1,8,0:0:0:0:
224,160,237070,1,0,0:0:0:0:
288,160,237244,1,8,0:0:0:0:
224,160,237331,1,0,0:0:0:0:
288,224,237506,1,12,0:0:0:0:
224,160,237680,1,0,0:0:0:0:
224,160,237767,1,0,0:0:0:0:
288,160,237855,1,8,0:0:0:0:
224,160,237942,1,0,0:0:0:0:
224,160,238029,1,0,0:0:0:0:
224,160,238116,1,0,0:0:0:0:
288,160,238203,1,8,0:0:0:0:
288,160,238291,1,8,0:0:0:0:
224,160,238378,1,0,0:0:0:0:
224,160,238465,1,0,0:0:0:0:
288,160,238552,1,8,0:0:0:0:
224,160,238639,1,0,0:0:0:0:
288,160,238727,1,8,0:0:0:0:
288,160,238814,1,8,0:0:0:0:
224,160,238901,1,0,0:0:0:0:
288,160,238988,1,8,0:0:0:0:
224,160,239076,1,0,0:0:0:0:
224,160,239163,1,0,0:0:0:0:
288,160,239250,1,8,0:0:0:0:
224,160,239337,1,0,0:0:0:0:
288,160,239424,1,8,0:0:0:0:
288,160,239511,1,8,0:0:0:0:
224,160,239599,1,0,0:0:0:0:
224,160,239686,1,0,0:0:0:0:
288,160,239773,1,8,0:0:0:0:
224,160,239860,1,0,0:0:0:0:
224,160,239948,1,0,0:0:0:0:
256,160,240035,1,8,0:0:0:0:
224,160,240122,1,0,0:0:0:0:
224,160,240209,1,0,0:0:0:0:
288,160,240296,1,8,0:0:0:0:
288,160,240384,1,8,0:0:0:0:
224,160,240471,1,0,0:0:0:0:
224,160,240558,1,0,0:0:0:0:
288,160,240645,1,8,0:0:0:0:
224,160,240733,1,0,0:0:0:0:
288,160,240820,1,8,0:0:0:0:
288,160,240907,1,8,0:0:0:0:
224,160,240994,1,0,0:0:0:0:
288,224,241169,1,12,0:0:0:0:
224,160,241343,1,0,0:0:0:0:
224,160,241430,1,0,0:0:0:0:
288,160,241517,1,8,0:0:0:0:
288,160,241605,1,8,0:0:0:0:
224,160,241692,1,0,0:0:0:0:
224,160,241779,1,0,0:0:0:0:
288,160,241866,1,8,0:0:0:0:
224,160,241953,1,0,0:0:0:0:
224,160,242041,1,0,0:0:0:0:
288,160,242128,1,8,0:0:0:0:
224,160,242215,1,0,0:0:0:0:
224,160,242302,1,0,0:0:0:0:
288,160,242389,1,8,0:0:0:0:
288,224,242564,1,12,0:0:0:0:
224,160,242738,1,0,0:0:0:0:
224,160,242826,1,0,0:0:0:0:
224,160,242913,1,0,0:0:0:0:
288,224,243087,1,12,0:0:0:0:
224,160,243262,1,0,0:0:0:0:
288,160,243436,1,8,0:0:0:0:
288,160,243610,1,8,0:0:0:0:
288,160,243698,1,8,0:0:0:0:
288,160,243785,1,8,0:0:0:0:
288,160,243872,1,8,0:0:0:0:
224,160,243959,1,0,0:0:0:0:
288,160,245355,1,8,0:0:0:0:
288,160,246750,1,8,0:0:0:0:
288,160,248145,1,8,0:0:0:0:
288,160,249541,1,8,0:0:0:0:
288,160,250936,1,8,0:0:0:0:
288,160,251634,1,8,0:0:0:0:
288,160,252331,1,8,0:0:0:0:
288,160,253727,1,8,0:0:0:0:
288,160,254424,1,8,0:0:0:0:
224,160,255122,1,0,0:0:0:0:
288,160,256517,1,8,0:0:0:0:
224,160,257913,1,0,0:0:0:0:
288,160,259308,1,8,0:0:0:0:
288,160,260006,1,8,0:0:0:0:
224,224,260703,1,4,0:0:0:0:
224,160,261052,1,0,0:0:0:0:
224,160,261401,1,0,0:0:0:0:
224,160,261750,1,0,0:0:0:0:
288,224,262099,1,12,0:0:0:0:
224,160,262448,1,0,0:0:0:0:
224,160,262796,1,0,0:0:0:0:
224,160,263145,1,0,0:0:0:0:
288,224,263494,1,12,0:0:0:0:
224,160,263843,1,0,0:0:0:0:
224,160,264192,1,0,0:0:0:0:
224,160,264541,1,0,0:0:0:0:
224,160,264715,1,0,0:0:0:0:
288,160,264889,5,8,0:0:0:0:
288,160,264977,1,8,0:0:0:0:
288,160,265064,1,8,0:0:0:0:
288,160,265151,1,8,0:0:0:0:
224,160,265238,1,0,0:0:0:0:
224,160,265326,1,0,0:0:0:0:
288,160,265413,1,8,0:0:0:0:
288,160,265500,1,8,0:0:0:0:
224,160,265587,1,0,0:0:0:0:
224,160,265674,1,0,0:0:0:0:
224,160,265762,1,0,0:0:0:0:
224,160,265849,1,0,0:0:0:0:
288,160,265936,1,8,0:0:0:0:
288,160,266023,1,8,0:0:0:0:
288,160,266110,1,8,0:0:0:0:
288,160,266198,1,8,0:0:0:0:
224,160,266285,1,0,0:0:0:0:
288,160,266459,1,8,0:0:0:0:
224,160,266634,1,0,0:0:0:0:
224,160,266721,1,0,0:0:0:0:
288,160,266808,1,8,0:0:0:0:
224,160,266983,1,0,0:0:0:0:
288,160,267157,1,8,0:0:0:0:
224,160,267244,1,0,0:0:0:0:
224,160,267331,1,0,0:0:0:0:
288,160,267506,1,8,0:0:0:0:
224,160,267680,1,0,0:0:0:0:
288,160,267767,1,8,0:0:0:0:
224,160,267855,1,0,0:0:0:0:
224,160,267942,1,0,0:0:0:0:
288,160,268029,1,8,0:0:0:0:
288,160,268203,1,8,0:0:0:0:
288,160,268291,1,8,0:0:0:0:
224,160,268378,1,0,0:0:0:0:
224,160,268465,1,0,0:0:0:0:
288,160,268552,1,8,0:0:0:0:
224,160,268639,1,0,0:0:0:0:
288,160,268727,1,8,0:0:0:0:
288,160,268814,1,8,0:0:0:0:
224,160,268901,1,0,0:0:0:0:
224,160,269076,1,0,0:0:0:0:
288,160,269250,1,8,0:0:0:0:
224,160,269424,1,0,0:0:0:0:
224,160,269512,1,0,0:0:0:0:
288,160,269599,1,8,0:0:0:0:
288,160,269773,1,8,0:0:0:0:
224,160,269860,1,0,0:0:0:0:
288,160,269948,1,8,0:0:0:0:
288,160,270035,1,8,0:0:0:0:
224,160,270122,1,0,0:0:0:0:
224,160,270209,1,0,0:0:0:0:
288,160,270296,1,8,0:0:0:0:
224,160,270471,1,0,0:0:0:0:
288,160,270645,1,8,0:0:0:0:
224,160,270820,1,0,0:0:0:0:
224,160,270907,1,0,0:0:0:0:
288,160,270994,1,8,0:0:0:0:
224,160,271169,1,0,0:0:0:0:
224,160,271256,1,0,0:0:0:0:
224,160,271343,1,0,0:0:0:0:
224,160,271430,1,0,0:0:0:0:
288,160,271517,1,8,0:0:0:0:
224,160,271605,1,0,0:0:0:0:
288,160,271692,1,8,0:0:0:0:
288,160,271779,1,8,0:0:0:0:
224,160,271866,1,0,0:0:0:0:
288,160,272041,1,8,0:0:0:0:
224,160,272215,1,0,0:0:0:0:
224,160,272302,1,0,0:0:0:0:
288,160,272389,1,8,0:0:0:0:
224,160,272564,1,0,0:0:0:0:
288,160,272738,1,8,0:0:0:0:
288,160,272826,1,8,0:0:0:0:
224,160,272913,1,0,0:0:0:0:
224,160,273000,1,0,0:0:0:0:
288,160,273087,1,8,0:0:0:0:
224,160,273262,1,0,0:0:0:0:
288,160,273436,1,8,0:0:0:0:
224,160,273610,1,0,0:0:0:0:
224,160,273698,1,0,0:0:0:0:
288,160,273785,1,8,0:0:0:0:
224,160,273959,1,0,0:0:0:0:
224,160,274046,1,0,0:0:0:0:
288,160,274134,1,8,0:0:0:0:
288,160,274221,1,8,0:0:0:0:
224,160,274308,1,0,0:0:0:0:
224,160,274395,1,0,0:0:0:0:
288,160,274483,1,8,0:0:0:0:
288,160,274657,1,8,0:0:0:0:
288,160,274744,1,8,0:0:0:0:
224,160,274831,1,0,0:0:0:0:
224,160,274919,1,0,0:0:0:0:
288,160,275006,1,8,0:0:0:0:
224,160,275180,1,0,0:0:0:0:
288,160,275267,1,8,0:0:0:0:
224,160,275355,1,0,0:0:0:0:
224,160,275442,1,0,0:0:0:0:
288,160,275529,1,8,0:0:0:0:
288,160,275703,1,8,0:0:0:0:
288,160,275791,1,8,0:0:0:0:
288,160,275878,1,8,0:0:0:0:
288,160,275965,1,8,0:0:0:0:
224,160,276052,1,0,0:0:0:0:
288,160,276227,1,8,0:0:0:0:
224,160,276401,1,0,0:0:0:0:
224,160,276488,1,0,0:0:0:0:
288,160,276576,1,8,0:0:0:0:
224,160,276750,1,0,0:0:0:0:
288,160,276924,1,8,0:0:0:0:
224,160,277012,1,0,0:0:0:0:
288,160,277099,1,8,0:0:0:0:
224,160,277186,1,0,0:0:0:0:
288,160,277273,1,8,0:0:0:0:
288,160,277360,1,8,0:0:0:0:
224,160,277448,1,0,0:0:0:0:
288,160,277622,1,8,0:0:0:0:
224,160,277796,1,0,0:0:0:0:
224,160,277884,1,0,0:0:0:0:
288,160,277971,1,8,0:0:0:0:
224,160,278058,1,0,0:0:0:0:
224,160,278145,1,0,0:0:0:0:
288,160,278320,1,8,0:0:0:0:
288,160,278494,1,8,0:0:0:0:
224,160,278581,1,0,0:0:0:0:
288,160,278669,1,8,0:0:0:0:
224,160,278756,1,0,0:0:0:0:
224,160,278843,1,0,0:0:0:0:
288,160,279017,1,8,0:0:0:0:
224,160,279192,1,0,0:0:0:0:
224,160,279279,1,0,0:0:0:0:
288,160,279366,1,8,0:0:0:0:
224,160,279453,1,0,0:0:0:0:
224,160,279541,1,0,0:0:0:0:
224,160,279628,1,0,0:0:0:0:
288,160,279715,1,8,0:0:0:0:
224,160,279889,1,0,0:0:0:0:
288,160,280064,1,8,0:0:0:0:
288,160,280151,1,8,0:0:0:0:
224,160,280238,1,0,0:0:0:0:
288,160,280413,1,8,0:0:0:0:
224,160,280587,1,0,0:0:0:0:
224,160,280674,1,0,0:0:0:0:
288,160,280762,1,8,0:0:0:0:
288,160,280849,1,8,0:0:0:0:
224,160,280936,1,0,0:0:0:0:
288,160,281110,1,8,0:0:0:0:
288,160,281285,1,8,0:0:0:0:
224,160,281372,1,0,0:0:0:0:
288,160,281459,1,8,0:0:0:0:
288,160,281546,1,8,0:0:0:0:
224,160,281634,1,0,0:0:0:0:
288,160,281808,1,8,0:0:0:0:
224,160,281983,1,0,0:0:0:0:
224,160,282070,1,0,0:0:0:0:
288,160,282157,1,8,0:0:0:0:
224,160,282331,1,0,0:0:0:0:
224,160,282419,1,0,0:0:0:0:
288,160,282506,1,8,0:0:0:0:
224,160,282593,1,0,0:0:0:0:
288,160,282680,1,8,0:0:0:0:
224,160,282767,1,0,0:0:0:0:
288,160,282855,1,8,0:0:0:0:
288,160,282942,1,8,0:0:0:0:
224,160,283029,1,0,0:0:0:0:
288,160,283203,1,8,0:0:0:0:
224,160,283378,1,0,0:0:0:0:
224,160,283465,1,0,0:0:0:0:
288,160,283552,1,8,0:0:0:0:
224,160,283727,1,0,0:0:0:0:
288,160,283901,1,8,0:0:0:0:
288,160,284076,1,8,0:0:0:0:
288,160,284163,1,8,0:0:0:0:
224,160,284250,1,0,0:0:0:0:
224,160,284424,1,0,0:0:0:0:
288,160,284512,1,8,0:0:0:0:
224,160,284599,1,0,0:0:0:0:
224,160,284686,1,0,0:0:0:0:
288,160,284773,1,8,0:0:0:0:
224,160,284948,1,0,0:0:0:0:
224,160,285035,1,0,0:0:0:0:
288,160,285122,1,8,0:0:0:0:
224,160,285209,1,0,0:0:0:0:
288,160,285296,1,8,0:0:0:0:
288,160,285384,1,8,0:0:0:0:
224,160,285471,1,0,0:0:0:0:
224,160,285558,1,0,0:0:0:0:
288,160,285645,1,8,0:0:0:0:
288,224,285820,1,12,0:0:0:0:
224,160,285994,1,0,0:0:0:0:
288,160,286169,1,8,0:0:0:0:
224,160,286256,1,0,0:0:0:0:
224,160,286343,1,0,0:0:0:0:
224,160,286430,1,0,0:0:0:0:
288,160,286517,1,8,0:0:0:0:
224,160,286692,1,0,0:0:0:0:
288,160,286866,1,8,0:0:0:0:
224,160,286953,1,0,0:0:0:0:
224,160,287041,1,0,0:0:0:0:
288,160,287215,1,8,0:0:0:0:
224,160,287302,1,0,0:0:0:0:
224,160,287389,1,0,0:0:0:0:
224,160,287477,1,0,0:0:0:0:
288,160,287564,1,8,0:0:0:0:
224,160,287738,1,0,0:0:0:0:
224,160,287913,1,0,0:0:0:0:
288,160,288000,1,8,0:0:0:0:
288,160,288087,1,8,0:0:0:0:
288,160,288174,1,8,0:0:0:0:
224,160,288262,1,0,0:0:0:0:
224,160,288349,1,0,0:0:0:0:
224,160,288436,1,0,0:0:0:0:
288,224,288610,1,12,0:0:0:0:
224,160,288785,1,0,0:0:0:0:
224,160,288872,1,0,0:0:0:0:
288,160,288959,1,8,0:0:0:0:
224,160,289134,1,0,0:0:0:0:
288,160,289308,1,8,0:0:0:0:
224,160,289395,1,0,0:0:0:0:
288,160,289483,1,8,0:0:0:0:
288,160,289570,1,8,0:0:0:0:
224,160,289657,1,0,0:0:0:0:
288,160,289831,1,8,0:0:0:0:
224,224,290006,1,4,0:0:0:0:
288,160,290180,1,8,0:0:0:0:
224,160,290355,1,0,0:0:0:0:
224,160,290442,1,0,0:0:0:0:
288,160,290529,1,8,0:0:0:0:
224,160,290616,1,0,0:0:0:0:
224,160,290703,1,0,0:0:0:0:
224,160,290791,1,0,0:0:0:0:
288,160,290878,1,8,0:0:0:0:
224,160,291052,1,0,0:0:0:0:
288,160,291227,1,8,0:0:0:0:
288,224,291401,1,12,0:0:0:0:
224,160,291576,1,0,0:0:0:0:
224,160,291663,1,0,0:0:0:0:
288,160,291750,1,8,0:0:0:0:
224,160,291837,1,0,0:0:0:0:
288,160,291924,1,8,0:0:0:0:
288,160,292012,1,8,0:0:0:0:
224,160,292099,1,0,0:0:0:0:
288,160,292273,1,8,0:0:0:0:
288,160,292448,1,8,0:0:0:0:
288,160,292622,1,8,0:0:0:0:
224,224,292796,1,4,0:0:0:0:
288,160,292971,1,8,0:0:0:0:
224,160,293145,1,0,0:0:0:0:
224,160,293233,1,0,0:0:0:0:
288,160,293320,1,8,0:0:0:0:
288,160,293407,1,8,0:0:0:0:
224,160,293494,1,0,0:0:0:0:
224,160,293581,1,0,0:0:0:0:
288,160,293669,1,8,0:0:0:0:
224,160,293843,1,0,0:0:0:0:
288,160,294017,1,8,0:0:0:0:
288,160,294105,1,8,0:0:0:0:
288,160,294192,1,8,0:0:0:0:
224,160,294366,1,0,0:0:0:0:
224,160,294453,1,0,0:0:0:0:
288,160,294541,1,8,0:0:0:0:
224,160,294715,1,0,0:0:0:0:
288,160,294889,1,8,0:0:0:0:
224,160,294977,1,0,0:0:0:0:
288,160,295064,1,8,0:0:0:0:
288,160,295151,1,8,0:0:0:0:
224,160,295238,1,0,0:0:0:0:
288,160,295413,1,8,0:0:0:0:
224,224,295587,1,4,0:0:0:0:
288,160,295762,1,8,0:0:0:0:
224,160,295936,1,0,0:0:0:0:
224,160,296023,1,0,0:0:0:0:
288,160,296110,1,8,0:0:0:0:
224,160,296198,1,0,0:0:0:0:
224,160,296285,1,0,0:0:0:0:
224,160,296372,1,0,0:0:0:0:
288,160,296459,1,8,0:0:0:0:
224,160,296634,1,0,0:0:0:0:
288,160,296808,1,8,0:0:0:0:
288,224,296983,1,12,0:0:0:0:
224,160,297157,1,0,0:0:0:0:
224,160,297244,1,0,0:0:0:0:
288,160,297331,1,8,0:0:0:0:
224,160,297419,1,0,0:0:0:0:
288,160,297506,1,8,0:0:0:0:
288,160,297593,1,8,0:0:0:0:
224,160,297680,1,0,0:0:0:0:
288,160,297855,1,8,0:0:0:0:
224,160,298029,1,0,0:0:0:0:
288,160,298203,1,8,0:0:0:0:
224,224,298378,1,4,0:0:0:0:
288,160,298552,1,8,0:0:0:0:
224,160,298727,1,0,0:0:0:0:
224,160,298814,1,0,0:0:0:0:
288,160,298901,1,8,0:0:0:0:
224,160,299076,1,0,0:0:0:0:
288,160,299163,1,8,0:0:0:0:
288,160,299250,1,8,0:0:0:0:
288,160,299337,1,8,0:0:0:0:
224,160,299424,1,0,0:0:0:0:
288,160,299599,1,8,0:0:0:0:
288,160,299686,1,8,0:0:0:0:
224,160,299773,1,0,0:0:0:0:
288,160,299860,1,8,0:0:0:0:
288,160,299948,1,8,0:0:0:0:
288,160,300035,1,8,0:0:0:0:
224,160,300122,1,0,0:0:0:0:
224,160,300209,1,0,0:0:0:0:
288,160,300296,1,8,0:0:0:0:
288,160,300384,1,8,0:0:0:0:
224,160,300471,1,0,0:0:0:0:
224,160,300558,1,0,0:0:0:0:
288,160,300645,1,8,0:0:0:0:
224,160,300733,1,0,0:0:0:0:
288,160,300820,1,8,0:0:0:0:
288,160,300907,1,8,0:0:0:0:
224,160,300994,1,0,0:0:0:0:
224,160,301169,1,0,0:0:0:0:
288,160,301256,1,8,0:0:0:0:
224,160,301343,1,0,0:0:0:0:
224,160,301430,1,0,0:0:0:0:
288,160,301517,1,8,0:0:0:0:
224,160,301605,1,0,0:0:0:0:
288,160,301692,1,8,0:0:0:0:
224,160,301779,1,0,0:0:0:0:
224,160,301866,1,0,0:0:0:0:
224,160,301953,1,0,0:0:0:0:
288,160,302041,1,8,0:0:0:0:
224,160,302128,1,0,0:0:0:0:
288,160,302215,1,8,0:0:0:0:
224,160,302302,1,0,0:0:0:0:
224,160,302389,1,0,0:0:0:0:
224,224,302564,1,4,0:0:0:0:
288,160,302738,1,8,0:0:0:0:
224,160,302826,1,0,0:0:0:0:
224,160,302913,1,0,0:0:0:0:
288,224,303087,1,12,0:0:0:0:
224,160,303262,1,0,0:0:0:0:
224,160,303349,1,0,0:0:0:0:
288,160,303436,1,8,0:0:0:0:
288,160,303523,1,8,0:0:0:0:
224,160,303610,1,0,0:0:0:0:
224,160,303698,1,0,0:0:0:0:
288,160,303785,1,8,0:0:0:0:
288,224,303959,1,12,0:0:0:0:
288,160,304134,1,8,0:0:0:0:
288,160,304221,1,8,0:0:0:0:
224,160,304308,1,0,0:0:0:0:
288,224,304483,1,12,0:0:0:0:
288,160,304657,1,8,0:0:0:0:
224,160,304744,1,0,0:0:0:0:
288,160,304831,1,8,0:0:0:0:
288,160,304919,1,8,0:0:0:0:
224,160,305006,1,0,0:0:0:0:
224,160,305093,1,0,0:0:0:0:
288,160,305180,1,8,0:0:0:0:
288,160,305267,1,8,0:0:0:0:
224,160,305355,1,0,0:0:0:0:
288,160,305442,1,8,0:0:0:0:
288,160,305529,1,8,0:0:0:0:
288,160,305616,1,8,0:0:0:0:
224,160,305703,1,0,0:0:0:0:
224,160,305791,1,0,0:0:0:0:
288,160,305878,1,8,0:0:0:0:
288,160,305965,1,8,0:0:0:0:
224,160,306052,1,0,0:0:0:0:
224,160,306139,1,0,0:0:0:0:
288,160,306227,1,8,0:0:0:0:
224,160,306314,1,0,0:0:0:0:
288,160,306401,1,8,0:0:0:0:
288,160,306488,1,8,0:0:0:0:
224,160,306576,1,0,0:0:0:0:
224,160,306750,1,0,0:0:0:0:
224,160,306837,1,0,0:0:0:0:
288,160,306924,1,8,0:0:0:0:
288,160,307012,1,8,0:0:0:0:
224,160,307099,1,0,0:0:0:0:
224,160,307186,1,0,0:0:0:0:
288,160,307273,1,8,0:0:0:0:
224,160,307360,1,0,0:0:0:0:
224,160,307448,1,0,0:0:0:0:
224,160,307535,1,0,0:0:0:0:
288,160,307622,1,8,0:0:0:0:
224,160,307709,1,0,0:0:0:0:
288,160,307796,1,8,0:0:0:0:
224,160,307884,1,0,0:0:0:0:
224,160,307971,1,0,0:0:0:0:
288,224,308145,1,12,0:0:0:0:
224,160,308320,1,0,0:0:0:0:
224,160,308407,1,0,0:0:0:0:
288,160,308494,1,8,0:0:0:0:
224,224,308669,1,4,0:0:0:0:
288,160,308843,1,8,0:0:0:0:
224,160,308930,1,0,0:0:0:0:
224,160,309017,1,0,0:0:0:0:
224,160,309105,1,0,0:0:0:0:
288,160,309192,1,8,0:0:0:0:
224,160,309366,1,0,0:0:0:0:
288,224,309541,1,12,0:0:0:0:
224,160,309715,1,0,0:0:0:0:
224,160,309802,1,0,0:0:0:0:
224,160,309889,1,0,0:0:0:0:
288,224,310064,1,12,0:0:0:0:
224,160,310238,1,0,0:0:0:0:
224,160,310326,1,0,0:0:0:0:
288,160,310413,1,8,0:0:0:0:
224,160,310500,1,0,0:0:0:0:
288,160,310587,1,8,0:0:0:0:
288,160,310674,1,8,0:0:0:0:
288,160,310762,1,8,0:0:0:0:
288,160,310849,1,8,0:0:0:0:
288,160,310936,1,8,0:0:0:0:
288,160,311110,1,8,0:0:0:0:
288,160,311634,1,8,0:0:0:0:
288,160,311808,1,8,0:0:0:0:
224,160,312331,1,0,0:0:0:0:
224,160,312506,1,0,0:0:0:0:
288,160,313029,1,8,0:0:0:0:
288,160,313203,1,8,0:0:0:0:
224,160,313727,1,0,0:0:0:0:
224,160,313814,1,0,0:0:0:0:
224,160,313901,1,0,0:0:0:0:
288,224,314076,1,12,0:0:0:0:
224,160,314424,1,0,0:0:0:0:
288,160,314512,1,8,0:0:0:0:
224,160,314599,1,0,0:0:0:0:
288,224,314773,1,12,0:0:0:0:
288,160,315122,1,8,0:0:0:0:
288,160,315209,1,8,0:0:0:0:
224,160,315296,1,0,0:0:0:0:
288,224,315471,1,12,0:0:0:0:
288,160,315820,1,8,0:0:0:0:
288,160,315907,1,8,0:0:0:0:
288,160,315994,1,8,0:0:0:0:
288,224,316169,1,12,0:0:0:0:
288,160,316517,1,8,0:0:0:0:
288,160,316692,1,8,0:0:0:0:
224,160,316866,1,0,0:0:0:0:
224,160,317215,1,0,0:0:0:0:
224,160,317389,1,0,0:0:0:0:
288,224,317564,1,12,0:0:0:0:
224,160,317913,1,0,0:0:0:0:
224,160,318087,1,0,0:0:0:0:
288,160,318262,1,8,0:0:0:0:
288,160,318349,1,8,0:0:0:0:
224,160,318436,1,0,0:0:0:0:
224,160,318523,1,0,0:0:0:0:
288,160,318610,1,8,0:0:0:0:
288,160,318785,1,8,0:0:0:0:
224,160,318959,1,0,0:0:0:0:
288,160,319308,1,8,0:0:0:0:
288,160,319483,1,8,0:0:0:0:
288,224,319657,1,12,0:0:0:0:
224,160,320006,1,0,0:0:0:0:
224,160,320180,1,0,0:0:0:0:
288,224,320355,1,12,0:0:0:0:
288,160,320703,1,8,0:0:0:0:
224,160,320791,1,0,0:0:0:0:
288,160,320878,1,8,0:0:0:0:
224,160,321052,1,0,0:0:0:0:
224,160,321139,1,0,0:0:0:0:
224,160,321227,1,0,0:0:0:0:
224,160,321314,1,0,0:0:0:0:
288,160,321401,1,8,0:0:0:0:
288,160,321488,1,8,0:0:0:0:
224,160,321576,1,0,0:0:0:0:
224,160,321663,1,0,0:0:0:0:
288,160,321750,1,8,0:0:0:0:
288,160,321837,1,8,0:0:0:0:
288,160,321924,1,8,0:0:0:0:
288,160,322012,1,8,0:0:0:0:
