osu file format v14

[General]
AudioFilename: audio.ogg
AudioLeadIn: 0
PreviewTime: 121719
Countdown: 0
SampleSet: Drum
StackLeniency: 0.7
Mode: 3
LetterboxInBreaks: 0
SpecialStyle: 0
WidescreenStoryboard: 0

[Editor]
Bookmarks: 17719,32119,44919,70519,108919,121719,238519,251319,289719
DistanceSpacing: 0.3
BeatDivisor: 4
GridSize: 4
TimelineZoom: 2.999999

[Metadata]
Title:Keikan no Senritsu
TitleUnicode:荊冠の旋律
Artist:Ariabl'eyeS
ArtistUnicode:Ariabl'eyeS
Creator:Shad0wStar
Version:Thorned Crown
Source:
Tags:featured artist fa thorn melody rock japanese kegarenaki ruriiro no rosenkreuz 穢れなき瑠璃色のローゼンクロイツ 2nd album guitar strings drums female vocalist lyse luna rena concept series II リゼ gothic orchestral mg mappers' guild
BeatmapID:4210811
BeatmapSetID:2021898

[Difficulty]
HPDrainRate:8.5
CircleSize:4
OverallDifficulty:8.5
ApproachRate:5
SliderMultiplier:1.4
SliderTickRate:1

[Events]
//Background and Video events
0,0,"keikan_newbg.jpg",0,0
//Break Periods
//Storyboard Layer 0 (Background)
//Storyboard Layer 1 (Fail)
//Storyboard Layer 2 (Pass)
//Storyboard Layer 3 (Foreground)
//Storyboard Layer 4 (Overlay)
//Storyboard Sound Samples

[TimingPoints]
929,400,4,2,1,40,1,0
17729,400,4,2,1,40,1,0
19329,400,4,3,1,40,1,0
20929,-100,4,2,1,40,0,0
22529,-100,4,3,1,40,0,0
44929,-100,4,3,1,40,0,1
57729,-100,4,3,1,40,0,0
89729,-100,4,3,1,40,0,1
96129,-100,4,2,1,40,0,0
96529,-100,4,3,1,40,0,0
97729,-100,4,2,1,40,0,0
98129,-100,4,3,1,40,0,0
99329,-100,4,2,1,40,0,0
99829,-100,4,3,1,40,0,0
100929,-100,4,2,1,40,0,0
101329,-100,4,3,1,40,0,0
102529,-100,4,2,1,40,0,0
102929,-100,4,3,1,40,0,0
104129,-100,4,2,1,40,0,0
104529,-100,4,3,1,40,0,0
105729,-100,4,2,1,40,0,0
106129,-100,4,3,1,40,0,0
107329,-100,4,2,1,40,0,0
107729,-100,4,3,1,40,0,0
121729,-100,4,3,1,40,0,1
148129,-100,4,3,1,40,0,0
155329,-100,4,3,1,40,0,1
161729,-100,4,2,1,40,0,0
162129,-100,4,3,1,40,0,0
163329,-100,4,2,1,40,0,0
163729,-100,4,3,1,40,0,0
164929,-100,4,2,1,40,0,0
165429,-100,4,3,1,40,0,0
166529,-100,4,2,1,40,0,0
166929,-100,4,3,1,40,0,0
168129,-100,4,2,1,40,0,0
168529,-100,4,3,1,40,0,0
169729,-100,4,2,1,40,0,0
170129,-100,4,3,1,40,0,0
171329,-100,4,2,1,40,0,0
171729,-100,4,3,1,40,0,0
172929,-100,4,2,1,40,0,0
173329,-100,4,3,1,40,0,0
187329,-100,4,3,1,40,0,1
212929,-100,4,2,1,40,0,0
264129,-100,4,3,1,40,0,0
276929,-100,4,2,1,40,0,0
289729,-100,4,3,1,40,0,0
302529,-100,4,3,1,40,0,1
329729,-100,4,3,1,40,0,0
342529,-100,4,3,1,40,0,1
355329,-100,4,3,1,40,0,0

[HitObjects]
64,192,929,128,0,2529:0:0:0:0:
448,192,929,128,0,1329:0:0:0:0:
192,192,1329,128,0,1729:0:0:0:0:
320,192,1729,128,0,2129:0:0:0:0:
448,192,2129,128,0,2529:0:0:0:0:
192,192,2529,128,0,4129:0:0:0:0:
320,192,2529,128,0,2929:0:0:0:0:
64,192,2929,128,0,3329:0:0:0:0:
320,192,3329,128,0,3729:0:0:0:0:
448,192,3729,128,0,4129:0:0:0:0:
64,192,4129,128,0,4529:0:0:0:0:
320,192,4129,128,0,5729:0:0:0:0:
192,192,4529,128,0,4929:0:0:0:0:
448,192,4929,128,0,5329:0:0:0:0:
64,192,5329,128,0,5729:0:0:0:0:
192,192,5729,128,0,6129:0:0:0:0:
448,192,5729,128,0,7329:0:0:0:0:
64,192,6129,128,0,6529:0:0:0:0:
192,192,6529,128,0,6929:0:0:0:0:
320,192,6929,128,0,7329:0:0:0:0:
64,192,7329,128,0,7729:0:0:0:0:
192,192,7329,128,0,8929:0:0:0:0:
448,192,7729,128,0,8129:0:0:0:0:
320,192,8129,128,0,8529:0:0:0:0:
448,192,8529,128,0,8929:0:0:0:0:
64,192,8929,128,0,10529:0:0:0:0:
320,192,8929,128,0,9329:0:0:0:0:
448,192,9329,128,0,9729:0:0:0:0:
192,192,9729,128,0,10129:0:0:0:0:
320,192,10129,128,0,10529:0:0:0:0:
192,192,10529,128,0,10929:0:0:0:0:
448,192,10529,128,0,12129:0:0:0:0:
320,192,10929,128,0,11329:0:0:0:0:
64,192,11329,128,0,11729:0:0:0:0:
192,192,11729,128,0,12129:0:0:0:0:
64,192,12129,128,0,12529:0:0:0:0:
320,192,12129,128,0,13729:0:0:0:0:
448,192,12529,128,0,12929:0:0:0:0:
64,192,12929,128,0,13329:0:0:0:0:
192,192,13329,128,0,13729:0:0:0:0:
64,192,13729,128,0,16929:0:0:0:0:
448,192,13729,128,0,16929:0:0:0:0:
64,192,17729,1,0,0:0:0:0:
448,192,17729,1,0,0:0:0:0:
320,192,17829,1,0,0:0:0:0:
192,192,17929,1,0,0:0:0:0:
64,192,18029,1,0,0:0:0:0:
448,192,18129,1,0,0:0:0:0:
320,192,18229,1,0,0:0:0:0:
192,192,18329,1,0,0:0:0:0:
64,192,18429,1,0,0:0:0:0:
320,192,18529,1,0,0:0:0:0:
448,192,18529,1,0,0:0:0:0:
192,192,18629,1,0,0:0:0:0:
448,192,18729,1,0,0:0:0:0:
320,192,18829,1,0,0:0:0:0:
64,192,18929,1,0,0:0:0:0:
448,192,18929,1,0,0:0:0:0:
192,192,19029,1,0,0:0:0:0:
320,192,19129,1,0,0:0:0:0:
448,192,19229,1,0,0:0:0:0:
64,192,19329,1,0,0:0:0:45:hitclap.wav
192,192,19329,1,0,0:0:0:65:hitfinish.wav
320,192,19329,1,0,0:0:0:0:
320,192,19529,1,0,0:0:0:0:
448,192,19529,1,0,0:0:0:0:
320,192,19629,1,0,0:0:0:0:
448,192,19629,1,0,0:0:0:0:
64,192,19729,1,0,0:0:0:0:
192,192,19729,1,0,0:0:0:0:
64,192,19829,1,0,0:0:0:0:
192,192,19829,1,0,0:0:0:0:
64,192,19929,1,0,0:0:0:45:hitclap.wav
320,192,19929,1,0,0:0:0:65:hitfinish.wav
448,192,19929,1,0,0:0:0:0:
64,192,20129,1,0,0:0:0:0:
192,192,20129,1,0,0:0:0:0:
64,192,20229,1,0,0:0:0:0:
192,192,20229,1,0,0:0:0:0:
320,192,20329,1,0,0:0:0:0:
448,192,20329,1,0,0:0:0:0:
320,192,20429,1,0,0:0:0:0:
448,192,20429,1,0,0:0:0:0:
64,192,20529,1,0,0:0:0:45:hitclap.wav
192,192,20529,1,0,0:0:0:65:hitfinish.wav
448,192,20529,1,0,0:0:0:0:
64,192,20729,1,0,0:0:0:45:hitclap.wav
192,192,20729,1,0,0:0:0:65:hitfinish.wav
320,192,20729,1,0,0:0:0:0:
64,192,20929,128,0,21329:0:0:0:0:
448,192,20929,1,0,0:0:0:0:
320,192,21129,1,0,0:0:0:0:
448,192,21229,1,0,0:0:0:0:
192,192,21329,128,0,21729:0:0:0:0:
320,192,21429,1,0,0:0:0:0:
64,192,21529,1,0,0:0:0:0:
448,192,21629,1,0,0:0:0:0:
320,192,21729,128,0,22129:0:0:0:0:
448,192,21795,1,0,0:0:0:0:
64,192,21862,1,0,0:0:0:0:
192,192,21929,1,0,0:0:0:0:
64,192,22029,1,0,0:0:0:0:
192,192,22129,1,0,0:0:0:0:
448,192,22129,128,0,22529:0:0:0:0:
64,192,22529,1,0,0:0:0:45:hitclap.wav
192,192,22529,1,0,0:0:0:65:hitfinish.wav
320,192,22529,1,0,0:0:0:0:
320,192,22729,1,0,0:0:0:0:
448,192,22729,1,0,0:0:0:0:
320,192,22829,1,0,0:0:0:0:
448,192,22829,1,0,0:0:0:0:
64,192,22929,1,0,0:0:0:0:
192,192,22929,1,0,0:0:0:0:
64,192,23029,1,0,0:0:0:0:
192,192,23029,1,0,0:0:0:0:
192,192,23129,1,0,0:0:0:45:hitclap.wav
320,192,23129,1,0,0:0:0:65:hitfinish.wav
448,192,23129,1,0,0:0:0:0:
320,192,23329,1,0,0:0:0:0:
448,192,23329,1,0,0:0:0:0:
320,192,23429,1,0,0:0:0:0:
448,192,23429,1,0,0:0:0:0:
64,192,23529,1,0,0:0:0:0:
192,192,23529,1,0,0:0:0:0:
64,192,23629,1,0,0:0:0:0:
192,192,23629,1,0,0:0:0:0:
64,192,23729,1,0,0:0:0:45:hitclap.wav
192,192,23729,1,0,0:0:0:65:hitfinish.wav
320,192,23729,1,0,0:0:0:0:
192,192,23929,1,0,0:0:0:45:hitclap.wav
320,192,23929,1,0,0:0:0:65:hitfinish.wav
448,192,23929,1,0,0:0:0:0:
64,192,24129,1,0,0:0:0:0:
320,192,24129,1,0,0:0:0:0:
192,192,24262,1,0,0:0:0:45:hitclap.wav
320,192,24262,1,0,0:0:0:0:
448,192,24262,1,0,0:0:0:0:
64,192,24395,1,0,0:0:0:45:hitclap.wav
192,192,24395,1,0,0:0:0:0:
448,192,24395,1,0,0:0:0:0:
64,192,24529,1,0,0:0:0:45:hitclap.wav
192,192,24529,1,0,0:0:0:0:
320,192,24529,1,0,0:0:0:0:
64,192,24662,1,0,0:0:0:45:hitclap.wav
320,192,24662,1,0,0:0:0:0:
448,192,24662,1,0,0:0:0:0:
192,192,24795,1,0,0:0:0:45:hitclap.wav
320,192,24795,1,0,0:0:0:0:
448,192,24795,1,0,0:0:0:0:
64,192,24929,1,0,0:0:0:0:
192,192,24929,1,0,0:0:0:0:
64,192,25062,1,0,0:0:0:0:
192,192,25062,1,0,0:0:0:0:
320,192,25195,1,0,0:0:0:0:
448,192,25195,1,0,0:0:0:0:
320,192,25329,1,0,0:0:0:0:
448,192,25329,1,0,0:0:0:0:
192,192,25462,1,0,0:0:0:0:
320,192,25462,1,0,0:0:0:0:
64,192,25595,1,0,0:0:0:0:
192,192,25595,1,0,0:0:0:0:
64,192,25729,1,0,0:0:0:45:hitclap.wav
320,192,25729,1,0,0:0:0:0:
448,192,25729,1,0,0:0:0:0:
64,192,25929,1,0,0:0:0:45:hitclap.wav
320,192,25929,1,0,0:0:0:0:
448,192,25929,1,0,0:0:0:0:
192,192,26129,128,0,26429:0:0:0:70:soft-hitnormal.wav
448,192,26129,128,0,26429:0:0:0:0:
64,192,26529,1,0,0:0:0:45:hitclap.wav
320,192,26529,1,0,0:0:0:0:
448,192,26529,1,0,0:0:0:0:
64,192,26729,1,0,0:0:0:45:hitclap.wav
320,192,26729,1,0,0:0:0:0:
448,192,26729,1,0,0:0:0:0:
192,192,26929,128,0,27229:0:0:0:70:soft-hitnormal.wav
448,192,26929,128,0,27229:0:0:0:0:
64,192,27329,1,0,0:0:0:45:hitclap.wav
320,192,27329,1,0,0:0:0:0:
448,192,27329,1,0,0:0:0:0:
64,192,27629,1,0,0:0:0:45:hitclap.wav
192,192,27629,1,0,0:0:0:0:
320,192,27629,1,0,0:0:0:0:
192,192,27929,1,0,0:0:0:45:hitclap.wav
320,192,27929,1,0,0:0:0:0:
448,192,27929,1,0,0:0:0:0:
64,192,28129,1,0,0:0:0:45:hitclap.wav
192,192,28129,1,0,0:0:0:0:
448,192,28129,1,0,0:0:0:0:
64,192,28429,1,0,0:0:0:45:hitclap.wav
192,192,28429,1,0,0:0:0:0:
320,192,28429,1,0,0:0:0:0:
192,192,28729,1,0,0:0:0:45:hitclap.wav
320,192,28729,1,0,0:0:0:0:
448,192,28729,1,0,0:0:0:0:
64,192,28929,128,0,30329:0:0:0:45:hitclap.wav
192,192,28929,1,0,0:0:0:65:hitfinish.wav
448,192,28929,1,0,0:0:0:0:
320,192,29329,1,0,0:0:0:70:soft-hitnormal.wav
192,192,29729,128,0,30329:0:0:0:0:
320,192,29729,1,0,0:0:0:70:soft-hitnormal.wav
320,192,30129,1,0,0:0:0:70:soft-hitnormal.wav
448,192,30329,1,0,0:0:0:0:
64,192,30429,1,0,0:0:0:0:
320,192,30429,1,0,0:0:0:0:
192,192,30529,1,0,0:0:0:45:hitclap.wav
320,192,30529,1,0,0:0:0:0:
448,192,30529,1,0,0:0:0:0:
192,192,30629,1,0,0:0:0:45:hitclap.wav
320,192,30629,1,0,0:0:0:0:
448,192,30629,1,0,0:0:0:0:
64,192,30729,1,0,0:0:0:0:
448,192,30729,1,0,0:0:0:0:
64,192,30829,1,0,0:0:0:0:
320,192,30829,1,0,0:0:0:0:
320,192,30929,1,0,0:0:0:0:
448,192,30929,1,0,0:0:0:0:
64,192,31029,1,0,0:0:0:45:hitclap.wav
192,192,31029,1,0,0:0:0:0:
448,192,31029,1,0,0:0:0:0:
64,192,31129,1,0,0:0:0:45:hitclap.wav
192,192,31129,1,0,0:0:0:0:
320,192,31195,1,0,0:0:0:45:hitclap.wav
448,192,31195,1,0,0:0:0:0:
64,192,31262,1,0,0:0:0:45:hitclap.wav
192,192,31262,1,0,0:0:0:0:
320,192,31329,1,0,0:0:0:45:hitclap.wav
448,192,31329,1,0,0:0:0:0:
64,192,31429,1,0,0:0:0:45:hitclap.wav
192,192,31429,1,0,0:0:0:0:
448,192,31429,1,0,0:0:0:0:
192,192,31529,1,0,0:0:0:0:
320,192,31529,1,0,0:0:0:0:
64,192,31629,1,0,0:0:0:0:
448,192,31629,1,0,0:0:0:0:
192,192,31729,1,0,0:0:0:0:
448,192,31729,1,0,0:0:0:0:
64,192,31829,1,0,0:0:0:0:
320,192,31829,1,0,0:0:0:0:
192,192,31929,1,0,0:0:0:0:
448,192,31929,1,0,0:0:0:0:
64,192,32029,1,0,0:0:0:0:
320,192,32029,1,0,0:0:0:0:
64,192,32129,1,0,0:0:0:45:hitclap.wav
192,192,32129,1,0,0:0:0:65:hitfinish.wav
448,192,32129,1,0,0:0:0:0:
192,192,32329,1,0,0:0:0:45:hitclap.wav
320,192,32329,1,0,0:0:0:0:
448,192,32329,1,0,0:0:0:0:
64,192,32529,1,0,0:0:0:0:
192,192,32529,1,0,0:0:0:0:
64,192,32629,1,0,0:0:0:0:
192,192,32629,1,0,0:0:0:0:
64,192,32729,1,0,0:0:0:45:hitclap.wav
320,192,32729,1,0,0:0:0:0:
448,192,32729,1,0,0:0:0:0:
192,192,32829,1,0,0:0:0:0:
320,192,32929,1,0,0:0:0:0:
448,192,32929,1,0,0:0:0:0:
320,192,33029,1,0,0:0:0:0:
448,192,33029,1,0,0:0:0:0:
64,192,33129,1,0,0:0:0:45:hitclap.wav
192,192,33129,1,0,0:0:0:0:
448,192,33129,1,0,0:0:0:0:
64,192,33229,1,0,0:0:0:0:
320,192,33229,1,0,0:0:0:0:
448,192,33329,1,0,0:0:0:0:
192,192,33429,1,0,0:0:0:0:
320,192,33429,1,0,0:0:0:0:
64,192,33529,1,0,0:0:0:45:hitclap.wav
320,192,33529,1,0,0:0:0:0:
448,192,33529,1,0,0:0:0:0:
64,192,33729,1,0,0:0:0:0:
192,192,33729,1,0,0:0:0:0:
448,192,33829,1,0,0:0:0:0:
64,192,33929,1,0,0:0:0:45:hitclap.wav
192,192,33929,1,0,0:0:0:0:
320,192,33929,1,0,0:0:0:0:
448,192,34029,1,0,0:0:0:0:
64,192,34129,1,0,0:0:0:0:
320,192,34129,1,0,0:0:0:0:
64,192,34229,1,0,0:0:0:0:
320,192,34229,1,0,0:0:0:0:
64,192,34329,1,0,0:0:0:45:hitclap.wav
192,192,34329,1,0,0:0:0:0:
448,192,34329,1,0,0:0:0:0:
320,192,34529,1,0,0:0:0:0:
448,192,34529,1,0,0:0:0:0:
320,192,34629,1,0,0:0:0:0:
448,192,34629,1,0,0:0:0:0:
64,192,34729,1,0,0:0:0:45:hitclap.wav
192,192,34729,1,0,0:0:0:0:
448,192,34729,1,0,0:0:0:0:
64,192,34829,1,0,0:0:0:0:
192,192,34829,1,0,0:0:0:0:
320,192,34929,1,0,0:0:0:0:
192,192,35029,1,0,0:0:0:0:
448,192,35029,1,0,0:0:0:0:
64,192,35129,1,0,0:0:0:45:hitclap.wav
320,192,35129,1,0,0:0:0:0:
448,192,35129,1,0,0:0:0:0:
64,192,35329,1,0,0:0:0:65:hitfinish.wav
320,192,35329,1,0,0:0:0:0:
448,192,35329,1,0,0:0:0:0:
192,192,35462,1,0,0:0:0:0:
320,192,35462,1,0,0:0:0:0:
448,192,35462,1,0,0:0:0:0:
64,192,35529,1,0,0:0:0:45:hitclap.wav
192,192,35595,1,0,0:0:0:0:
320,192,35595,1,0,0:0:0:0:
448,192,35595,1,0,0:0:0:0:
64,192,35729,1,0,0:0:0:0:
192,192,35729,1,0,0:0:0:0:
448,192,35729,1,0,0:0:0:0:
64,192,35862,1,0,0:0:0:0:
192,192,35862,1,0,0:0:0:0:
320,192,35862,1,0,0:0:0:0:
448,192,35929,1,0,0:0:0:45:hitclap.wav
64,192,35995,1,0,0:0:0:0:
192,192,35995,1,0,0:0:0:0:
320,192,35995,1,0,0:0:0:0:
320,192,36129,1,0,0:0:0:0:
448,192,36129,1,0,0:0:0:0:
320,192,36229,1,0,0:0:0:0:
448,192,36229,1,0,0:0:0:0:
64,192,36329,1,0,0:0:0:45:hitclap.wav
192,192,36329,1,0,0:0:0:0:
448,192,36329,1,0,0:0:0:0:
192,192,36429,1,0,0:0:0:0:
320,192,36429,1,0,0:0:0:0:
64,192,36529,1,0,0:0:0:0:
192,192,36629,1,0,0:0:0:0:
320,192,36629,1,0,0:0:0:0:
64,192,36729,1,0,0:0:0:45:hitclap.wav
320,192,36729,1,0,0:0:0:0:
448,192,36729,1,0,0:0:0:0:
192,192,36829,1,0,0:0:0:0:
320,192,36929,1,0,0:0:0:0:
448,192,36929,1,0,0:0:0:0:
64,192,37129,1,0,0:0:0:45:hitclap.wav
192,192,37129,1,0,0:0:0:0:
448,192,37129,1,0,0:0:0:0:
320,192,37229,1,0,0:0:0:0:
64,192,37329,1,0,0:0:0:0:
192,192,37329,1,0,0:0:0:0:
320,192,37429,1,0,0:0:0:0:
448,192,37429,1,0,0:0:0:0:
64,192,37529,1,0,0:0:0:45:hitclap.wav
192,192,37529,1,0,0:0:0:0:
448,192,37529,1,0,0:0:0:0:
320,192,37629,1,0,0:0:0:0:
192,192,37729,1,0,0:0:0:0:
448,192,37729,1,0,0:0:0:0:
64,192,37829,1,0,0:0:0:0:
192,192,37829,1,0,0:0:0:0:
64,192,37929,1,0,0:0:0:45:hitclap.wav
320,192,37929,1,0,0:0:0:0:
448,192,37929,1,0,0:0:0:0:
192,192,38029,1,0,0:0:0:0:
448,192,38029,1,0,0:0:0:0:
320,192,38129,1,0,0:0:0:0:
64,192,38229,1,0,0:0:0:45:hitclap.wav
192,192,38229,1,0,0:0:0:0:
448,192,38229,1,0,0:0:0:0:
64,192,38329,1,0,0:0:0:45:hitclap.wav
192,192,38329,1,0,0:0:0:0:
448,192,38329,1,0,0:0:0:0:
64,192,38429,1,0,0:0:0:45:hitclap.wav
320,192,38429,1,0,0:0:0:0:
448,192,38429,1,0,0:0:0:0:
64,192,38529,1,0,0:0:0:45:hitclap.wav
320,192,38529,1,0,0:0:0:65:hitfinish.wav
448,192,38529,1,0,0:0:0:0:
192,192,38729,1,0,0:0:0:45:hitclap.wav
320,192,38729,1,0,0:0:0:0:
448,192,38729,1,0,0:0:0:0:
64,192,38929,1,0,0:0:0:0:
192,192,38929,1,0,0:0:0:0:
64,192,39029,1,0,0:0:0:0:
192,192,39029,1,0,0:0:0:0:
192,192,39129,1,0,0:0:0:45:hitclap.wav
320,192,39129,1,0,0:0:0:0:
448,192,39129,1,0,0:0:0:0:
64,192,39329,1,0,0:0:0:0:
448,192,39329,1,0,0:0:0:0:
64,192,39429,1,0,0:0:0:0:
192,192,39429,1,0,0:0:0:0:
192,192,39529,1,0,0:0:0:45:hitclap.wav
320,192,39529,1,0,0:0:0:0:
448,192,39529,1,0,0:0:0:0:
64,192,39629,1,0,0:0:0:0:
448,192,39629,1,0,0:0:0:0:
320,192,39729,1,0,0:0:0:0:
64,192,39829,1,0,0:0:0:0:
448,192,39829,1,0,0:0:0:0:
64,192,39929,1,0,0:0:0:45:hitclap.wav
192,192,39929,1,0,0:0:0:0:
320,192,39929,1,0,0:0:0:0:
320,192,40129,1,0,0:0:0:0:
448,192,40129,1,0,0:0:0:0:
64,192,40329,1,0,0:0:0:45:hitclap.wav
192,192,40329,1,0,0:0:0:0:
448,192,40329,1,0,0:0:0:0:
192,192,40529,1,0,0:0:0:0:
320,192,40529,1,0,0:0:0:0:
192,192,40629,1,0,0:0:0:0:
320,192,40629,1,0,0:0:0:0:
64,192,40729,1,0,0:0:0:45:hitclap.wav
192,192,40729,1,0,0:0:0:0:
448,192,40729,1,0,0:0:0:0:
64,192,40929,1,0,0:0:0:0:
320,192,40929,1,0,0:0:0:0:
448,192,40929,1,0,0:0:0:0:
64,192,41062,1,0,0:0:0:0:
192,192,41062,1,0,0:0:0:0:
448,192,41062,1,0,0:0:0:0:
320,192,41129,1,0,0:0:0:45:hitclap.wav
64,192,41195,1,0,0:0:0:0:
192,192,41195,1,0,0:0:0:0:
448,192,41195,1,0,0:0:0:0:
192,192,41329,1,0,0:0:0:0:
320,192,41329,1,0,0:0:0:0:
448,192,41329,1,0,0:0:0:0:
64,192,41462,1,0,0:0:0:0:
320,192,41462,1,0,0:0:0:0:
448,192,41462,1,0,0:0:0:0:
192,192,41529,1,0,0:0:0:45:hitclap.wav
64,192,41595,1,0,0:0:0:0:
320,192,41595,1,0,0:0:0:0:
448,192,41595,1,0,0:0:0:0:
64,192,41729,1,0,0:0:0:65:hitfinish.wav
192,192,41729,1,0,0:0:0:0:
320,192,41729,1,0,0:0:0:0:
320,192,41829,1,0,0:0:0:0:
64,192,41929,1,0,0:0:0:45:hitclap.wav
192,192,41929,1,0,0:0:0:0:
448,192,41929,1,0,0:0:0:0:
320,192,42029,1,0,0:0:0:0:
64,192,42129,1,0,0:0:0:0:
192,192,42129,1,0,0:0:0:0:
64,192,42229,1,0,0:0:0:0:
448,192,42229,1,0,0:0:0:0:
192,192,42329,1,0,0:0:0:45:hitclap.wav
320,192,42329,1,0,0:0:0:0:
448,192,42329,1,0,0:0:0:0:
64,192,42429,1,0,0:0:0:0:
320,192,42529,1,0,0:0:0:0:
448,192,42529,1,0,0:0:0:0:
192,192,42629,1,0,0:0:0:0:
320,192,42629,1,0,0:0:0:0:
64,192,42729,1,0,0:0:0:45:hitclap.wav
192,192,42729,1,0,0:0:0:0:
448,192,42729,1,0,0:0:0:0:
64,192,42829,1,0,0:0:0:0:
320,192,42829,1,0,0:0:0:0:
448,192,42929,1,0,0:0:0:0:
192,192,43029,1,0,0:0:0:0:
320,192,43029,1,0,0:0:0:0:
64,192,43129,1,0,0:0:0:45:hitclap.wav
320,192,43129,1,0,0:0:0:0:
448,192,43129,1,0,0:0:0:0:
192,192,43229,1,0,0:0:0:0:
320,192,43329,1,0,0:0:0:0:
448,192,43329,1,0,0:0:0:0:
64,192,43529,1,0,0:0:0:45:hitclap.wav
192,192,43529,1,0,0:0:0:0:
448,192,43529,1,0,0:0:0:0:
192,192,43729,1,0,0:0:0:0:
320,192,43729,1,0,0:0:0:0:
192,192,43829,1,0,0:0:0:0:
320,192,43829,1,0,0:0:0:0:
64,192,43929,1,0,0:0:0:45:hitclap.wav
320,192,43929,1,0,0:0:0:0:
448,192,43929,1,0,0:0:0:0:
64,192,44129,1,0,0:0:0:0:
192,192,44129,1,0,0:0:0:0:
64,192,44229,1,0,0:0:0:0:
448,192,44229,1,0,0:0:0:0:
192,192,44329,1,0,0:0:0:45:hitclap.wav
320,192,44329,1,0,0:0:0:0:
448,192,44329,1,0,0:0:0:0:
64,192,44429,1,0,0:0:0:45:hitclap.wav
192,192,44429,1,0,0:0:0:0:
320,192,44429,1,0,0:0:0:0:
320,192,44529,1,0,0:0:0:45:hitclap.wav
448,192,44529,1,0,0:0:0:0:
64,192,44629,1,0,0:0:0:45:hitclap.wav
192,192,44629,1,0,0:0:0:0:
320,192,44729,1,0,0:0:0:45:hitclap.wav
448,192,44729,1,0,0:0:0:0:
192,192,44829,1,0,0:0:0:45:hitclap.wav
320,192,44829,1,0,0:0:0:0:
64,192,44929,1,0,0:0:0:65:hitfinish.wav
448,192,44929,1,0,0:0:0:0:
64,192,45029,1,0,0:0:0:45:hitclap.wav
192,192,45029,1,0,0:0:0:0:
320,192,45029,1,0,0:0:0:0:
320,192,45129,1,0,0:0:0:0:
448,192,45129,1,0,0:0:0:0:
64,192,45229,1,0,0:0:0:45:hitclap.wav
192,192,45229,1,0,0:0:0:0:
448,192,45229,1,0,0:0:0:0:
192,192,45329,1,0,0:0:0:0:
320,192,45329,1,0,0:0:0:0:
64,192,45429,1,0,0:0:0:45:hitclap.wav
320,192,45429,1,0,0:0:0:0:
448,192,45429,1,0,0:0:0:0:
64,192,45529,1,0,0:0:0:0:
192,192,45529,1,0,0:0:0:0:
192,192,45629,1,0,0:0:0:45:hitclap.wav
320,192,45629,1,0,0:0:0:0:
448,192,45629,1,0,0:0:0:0:
64,192,45729,1,0,0:0:0:0:
448,192,45729,1,0,0:0:0:0:
64,192,45829,1,0,0:0:0:45:hitclap.wav
192,192,45829,1,0,0:0:0:0:
320,192,45829,1,0,0:0:0:0:
192,192,45929,1,0,0:0:0:0:
448,192,45929,1,0,0:0:0:0:
64,192,46029,1,0,0:0:0:45:hitclap.wav
320,192,46029,1,0,0:0:0:0:
448,192,46029,1,0,0:0:0:0:
64,192,46129,1,0,0:0:0:0:
192,192,46129,1,0,0:0:0:0:
192,192,46229,1,0,0:0:0:45:hitclap.wav
320,192,46229,1,0,0:0:0:0:
448,192,46229,1,0,0:0:0:0:
64,192,46329,1,0,0:0:0:0:
448,192,46329,1,0,0:0:0:0:
64,192,46429,1,0,0:0:0:45:hitclap.wav
192,192,46429,1,0,0:0:0:0:
320,192,46429,1,0,0:0:0:0:
320,192,46529,1,0,0:0:0:0:
448,192,46529,1,0,0:0:0:0:
64,192,46629,1,0,0:0:0:45:hitclap.wav
192,192,46629,1,0,0:0:0:0:
448,192,46629,1,0,0:0:0:0:
192,192,46729,1,0,0:0:0:0:
320,192,46729,1,0,0:0:0:0:
64,192,46829,1,0,0:0:0:45:hitclap.wav
320,192,46829,1,0,0:0:0:0:
448,192,46829,1,0,0:0:0:0:
192,192,46929,1,0,0:0:0:0:
448,192,46929,1,0,0:0:0:0:
64,192,47029,1,0,0:0:0:45:hitclap.wav
192,192,47029,1,0,0:0:0:0:
320,192,47029,1,0,0:0:0:0:
64,192,47129,1,0,0:0:0:0:
448,192,47129,1,0,0:0:0:0:
192,192,47229,1,0,0:0:0:45:hitclap.wav
320,192,47229,1,0,0:0:0:0:
448,192,47229,1,0,0:0:0:0:
64,192,47329,1,0,0:0:0:0:
192,192,47329,1,0,0:0:0:0:
64,192,47429,1,0,0:0:0:45:hitclap.wav
320,192,47429,1,0,0:0:0:0:
448,192,47429,1,0,0:0:0:0:
192,192,47529,1,0,0:0:0:0:
448,192,47529,1,0,0:0:0:0:
64,192,47629,1,0,0:0:0:45:hitclap.wav
192,192,47629,1,0,0:0:0:0:
320,192,47629,1,0,0:0:0:0:
64,192,47729,1,0,0:0:0:0:
448,192,47729,1,0,0:0:0:0:
192,192,47829,1,0,0:0:0:45:hitclap.wav
320,192,47829,1,0,0:0:0:0:
448,192,47829,1,0,0:0:0:0:
64,192,47929,1,0,0:0:0:0:
192,192,47929,1,0,0:0:0:0:
64,192,48029,1,0,0:0:0:45:hitclap.wav
320,192,48029,1,0,0:0:0:0:
448,192,48029,1,0,0:0:0:0:
192,192,48129,1,0,0:0:0:65:hitfinish.wav
448,192,48129,1,0,0:0:0:0:
64,192,48229,1,0,0:0:0:45:hitclap.wav
192,192,48229,1,0,0:0:0:0:
320,192,48229,1,0,0:0:0:0:
320,192,48329,1,0,0:0:0:0:
448,192,48329,1,0,0:0:0:0:
64,192,48429,1,0,0:0:0:45:hitclap.wav
192,192,48429,1,0,0:0:0:0:
448,192,48429,1,0,0:0:0:0:
192,192,48529,1,0,0:0:0:0:
320,192,48529,1,0,0:0:0:0:
64,192,48629,1,0,0:0:0:45:hitclap.wav
320,192,48629,1,0,0:0:0:0:
448,192,48629,1,0,0:0:0:0:
64,192,48729,1,0,0:0:0:0:
192,192,48729,1,0,0:0:0:0:
192,192,48829,1,0,0:0:0:45:hitclap.wav
320,192,48829,1,0,0:0:0:0:
448,192,48829,1,0,0:0:0:0:
64,192,48929,1,0,0:0:0:0:
320,192,48929,1,0,0:0:0:0:
64,192,49029,1,0,0:0:0:45:hitclap.wav
192,192,49029,1,0,0:0:0:0:
448,192,49029,1,0,0:0:0:0:
192,192,49129,1,0,0:0:0:0:
320,192,49129,1,0,0:0:0:0:
64,192,49229,1,0,0:0:0:45:hitclap.wav
320,192,49229,1,0,0:0:0:0:
448,192,49229,1,0,0:0:0:0:
192,192,49329,1,0,0:0:0:0:
448,192,49329,1,0,0:0:0:0:
64,192,49429,1,0,0:0:0:45:hitclap.wav
192,192,49429,1,0,0:0:0:0:
320,192,49429,1,0,0:0:0:0:
64,192,49529,1,0,0:0:0:0:
448,192,49529,1,0,0:0:0:0:
192,192,49629,1,0,0:0:0:45:hitclap.wav
320,192,49629,1,0,0:0:0:0:
448,192,49629,1,0,0:0:0:0:
64,192,49729,1,0,0:0:0:0:
192,192,49729,1,0,0:0:0:0:
64,192,49829,1,0,0:0:0:45:hitclap.wav
320,192,49829,1,0,0:0:0:0:
448,192,49829,1,0,0:0:0:0:
192,192,49929,1,0,0:0:0:0:
448,192,49929,1,0,0:0:0:0:
64,192,50029,1,0,0:0:0:45:hitclap.wav
192,192,50029,1,0,0:0:0:0:
320,192,50029,1,0,0:0:0:0:
320,192,50129,1,0,0:0:0:0:
448,192,50129,1,0,0:0:0:0:
64,192,50229,1,0,0:0:0:45:hitclap.wav
192,192,50229,1,0,0:0:0:0:
448,192,50229,1,0,0:0:0:0:
64,192,50329,1,0,0:0:0:0:
320,192,50329,1,0,0:0:0:0:
192,192,50429,1,0,0:0:0:45:hitclap.wav
320,192,50429,1,0,0:0:0:0:
448,192,50429,1,0,0:0:0:0:
64,192,50529,1,0,0:0:0:0:
192,192,50529,1,0,0:0:0:0:
64,192,50629,1,0,0:0:0:45:hitclap.wav
320,192,50629,1,0,0:0:0:0:
448,192,50629,1,0,0:0:0:0:
192,192,50729,1,0,0:0:0:0:
320,192,50729,1,0,0:0:0:0:
64,192,50829,1,0,0:0:0:45:hitclap.wav
192,192,50829,1,0,0:0:0:0:
448,192,50829,1,0,0:0:0:0:
320,192,50929,1,0,0:0:0:45:hitclap.wav
448,192,50929,1,0,0:0:0:0:
64,192,51029,1,0,0:0:0:45:hitclap.wav
192,192,51029,1,0,0:0:0:0:
320,192,51129,1,0,0:0:0:45:hitclap.wav
448,192,51129,1,0,0:0:0:0:
64,192,51229,1,0,0:0:0:45:hitclap.wav
192,192,51229,1,0,0:0:0:0:
64,192,51329,1,0,0:0:0:65:hitfinish.wav
320,192,51329,1,0,0:0:0:0:
448,192,51329,1,0,0:0:0:0:
192,192,51429,1,0,0:0:0:0:
320,192,51429,1,0,0:0:0:0:
64,192,51529,1,0,0:0:0:0:
192,192,51529,1,0,0:0:0:0:
320,192,51629,1,0,0:0:0:0:
448,192,51629,1,0,0:0:0:0:
64,192,51729,1,0,0:0:0:45:hitclap.wav
192,192,51729,1,0,0:0:0:0:
448,192,51729,1,0,0:0:0:0:
192,192,51829,1,0,0:0:0:0:
320,192,51829,1,0,0:0:0:0:
320,192,51929,1,0,0:0:0:0:
448,192,51929,1,0,0:0:0:0:
64,192,52029,1,0,0:0:0:0:
192,192,52029,1,0,0:0:0:0:
192,192,52129,1,0,0:0:0:45:hitclap.wav
320,192,52129,1,0,0:0:0:0:
448,192,52129,1,0,0:0:0:0:
64,192,52229,1,0,0:0:0:0:
320,192,52229,1,0,0:0:0:0:
64,192,52329,1,0,0:0:0:0:
192,192,52329,1,0,0:0:0:0:
320,192,52429,1,0,0:0:0:0:
448,192,52429,1,0,0:0:0:0:
64,192,52529,1,0,0:0:0:45:hitclap.wav
192,192,52529,1,0,0:0:0:0:
448,192,52529,1,0,0:0:0:0:
192,192,52629,1,0,0:0:0:0:
320,192,52629,1,0,0:0:0:0:
64,192,52729,1,0,0:0:0:0:
448,192,52729,1,0,0:0:0:0:
320,192,52829,1,0,0:0:0:0:
448,192,52829,1,0,0:0:0:0:
64,192,52929,1,0,0:0:0:45:hitclap.wav
192,192,52929,1,0,0:0:0:65:hitfinish.wav
320,192,52929,1,0,0:0:0:0:
192,192,53029,1,0,0:0:0:0:
448,192,53029,1,0,0:0:0:0:
64,192,53129,1,0,0:0:0:0:
320,192,53129,1,0,0:0:0:0:
64,192,53229,1,0,0:0:0:0:
448,192,53229,1,0,0:0:0:0:
192,192,53329,1,0,0:0:0:45:hitclap.wav
320,192,53329,1,0,0:0:0:0:
448,192,53329,1,0,0:0:0:0:
64,192,53429,1,0,0:0:0:0:
192,192,53429,1,0,0:0:0:0:
64,192,53529,1,0,0:0:0:0:
448,192,53529,1,0,0:0:0:0:
192,192,53629,1,0,0:0:0:0:
320,192,53629,1,0,0:0:0:0:
64,192,53729,1,0,0:0:0:45:hitclap.wav
320,192,53729,1,0,0:0:0:0:
448,192,53729,1,0,0:0:0:0:
64,192,53829,1,0,0:0:0:0:
192,192,53829,1,0,0:0:0:0:
320,192,53929,1,0,0:0:0:0:
448,192,53929,1,0,0:0:0:0:
192,192,54029,1,0,0:0:0:0:
448,192,54029,1,0,0:0:0:0:
64,192,54129,1,0,0:0:0:45:hitclap.wav
192,192,54129,1,0,0:0:0:0:
320,192,54129,1,0,0:0:0:0:
64,192,54229,1,0,0:0:0:0:
448,192,54229,1,0,0:0:0:0:
192,192,54329,1,0,0:0:0:0:
320,192,54329,1,0,0:0:0:0:
320,192,54429,1,0,0:0:0:0:
448,192,54429,1,0,0:0:0:0:
64,192,54529,1,0,0:0:0:45:hitclap.wav
192,192,54529,1,0,0:0:0:65:hitfinish.wav
448,192,54529,1,0,0:0:0:0:
192,192,54629,1,0,0:0:0:0:
320,192,54629,1,0,0:0:0:0:
64,192,54729,1,0,0:0:0:0:
320,192,54729,1,0,0:0:0:0:
192,192,54829,1,0,0:0:0:0:
448,192,54829,1,0,0:0:0:0:
64,192,54929,1,0,0:0:0:45:hitclap.wav
320,192,54929,1,0,0:0:0:0:
448,192,54929,1,0,0:0:0:0:
192,192,55029,1,0,0:0:0:0:
320,192,55029,1,0,0:0:0:0:
64,192,55129,1,0,0:0:0:0:
448,192,55129,1,0,0:0:0:0:
64,192,55229,1,0,0:0:0:0:
192,192,55229,1,0,0:0:0:0:
192,192,55329,1,0,0:0:0:45:hitclap.wav
320,192,55329,1,0,0:0:0:0:
448,192,55329,1,0,0:0:0:0:
64,192,55429,1,0,0:0:0:0:
320,192,55429,1,0,0:0:0:0:
64,192,55529,1,0,0:0:0:0:
448,192,55529,1,0,0:0:0:0:
320,192,55629,1,0,0:0:0:0:
448,192,55629,1,0,0:0:0:0:
64,192,55729,1,0,0:0:0:45:hitclap.wav
192,192,55729,1,0,0:0:0:0:
320,192,55729,1,0,0:0:0:0:
192,192,55829,1,0,0:0:0:0:
448,192,55829,1,0,0:0:0:0:
64,192,55929,1,0,0:0:0:0:
320,192,55929,1,0,0:0:0:0:
320,192,56029,1,0,0:0:0:0:
448,192,56029,1,0,0:0:0:0:
64,192,56129,1,0,0:0:0:45:hitclap.wav
192,192,56129,1,0,0:0:0:0:
448,192,56129,1,0,0:0:0:0:
192,192,56329,1,0,0:0:0:0:
64,192,56429,1,0,0:0:0:45:hitclap.wav
320,192,56429,1,0,0:0:0:0:
448,192,56429,1,0,0:0:0:0:
448,192,56529,1,0,0:0:0:0:
64,192,56729,1,0,0:0:0:45:hitclap.wav
192,192,56729,1,0,0:0:0:0:
448,192,56729,1,0,0:0:0:0:
64,192,56829,1,0,0:0:0:45:hitclap.wav
320,192,56829,1,0,0:0:0:0:
448,192,56829,1,0,0:0:0:0:
192,192,56929,1,0,0:0:0:0:
320,192,56929,1,0,0:0:0:0:
64,192,57029,1,0,0:0:0:0:
192,192,57029,1,0,0:0:0:0:
320,192,57129,1,0,0:0:0:0:
448,192,57129,1,0,0:0:0:0:
64,192,57229,1,0,0:0:0:0:
192,192,57229,1,0,0:0:0:0:
192,192,57329,128,0,57429:0:0:0:45:hitclap.wav
320,192,57329,1,0,0:0:0:0:
64,192,57429,1,0,0:0:0:45:hitclap.wav
448,192,57429,128,0,57529:0:0:0:0:
320,192,57529,128,0,57629:0:0:0:45:hitclap.wav
192,192,57629,128,0,57729:0:0:0:45:hitclap.wav
64,192,57729,1,0,0:0:0:65:hitfinish.wav
320,192,57729,1,0,0:0:0:0:
448,192,57729,1,0,0:0:0:0:
192,192,57929,1,0,0:0:0:45:hitclap.wav
320,192,57929,1,0,0:0:0:0:
448,192,57929,1,0,0:0:0:0:
64,192,58129,1,0,0:0:0:0:
192,192,58129,1,0,0:0:0:0:
192,192,58229,1,0,0:0:0:0:
320,192,58229,1,0,0:0:0:0:
64,192,58329,1,0,0:0:0:45:hitclap.wav
320,192,58329,1,0,0:0:0:0:
448,192,58329,1,0,0:0:0:0:
192,192,58529,1,0,0:0:0:0:
320,192,58529,1,0,0:0:0:0:
64,192,58729,1,0,0:0:0:45:hitclap.wav
320,192,58729,1,0,0:0:0:0:
448,192,58729,1,0,0:0:0:0:
192,192,58929,1,0,0:0:0:0:
320,192,58929,1,0,0:0:0:0:
64,192,59029,1,0,0:0:0:0:
448,192,59029,1,0,0:0:0:0:
64,192,59129,1,0,0:0:0:45:hitclap.wav
192,192,59129,1,0,0:0:0:0:
320,192,59129,1,0,0:0:0:0:
320,192,59329,1,0,0:0:0:0:
448,192,59329,1,0,0:0:0:0:
64,192,59529,1,0,0:0:0:45:hitclap.wav
192,192,59529,1,0,0:0:0:0:
448,192,59529,1,0,0:0:0:0:
320,192,59729,1,0,0:0:0:0:
64,192,59829,1,0,0:0:0:0:
192,192,59829,1,0,0:0:0:0:
64,192,59929,1,0,0:0:0:45:hitclap.wav
320,192,59929,1,0,0:0:0:0:
448,192,59929,1,0,0:0:0:0:
64,192,60129,1,0,0:0:0:0:
192,192,60129,1,0,0:0:0:0:
192,192,60329,1,0,0:0:0:45:hitclap.wav
320,192,60329,1,0,0:0:0:0:
448,192,60329,1,0,0:0:0:0:
64,192,60529,1,0,0:0:0:0:
448,192,60529,1,0,0:0:0:0:
64,192,60629,1,0,0:0:0:0:
320,192,60629,1,0,0:0:0:0:
192,192,60729,1,0,0:0:0:45:hitclap.wav
320,192,60729,1,0,0:0:0:0:
448,192,60729,1,0,0:0:0:0:
64,192,60929,1,0,0:0:0:0:
192,192,60929,1,0,0:0:0:0:
64,192,61129,1,0,0:0:0:45:hitclap.wav
320,192,61129,1,0,0:0:0:0:
448,192,61129,1,0,0:0:0:0:
192,192,61329,1,0,0:0:0:0:
320,192,61329,1,0,0:0:0:0:
320,192,61429,1,0,0:0:0:0:
448,192,61429,1,0,0:0:0:0:
64,192,61529,1,0,0:0:0:45:hitclap.wav
192,192,61529,1,0,0:0:0:0:
448,192,61529,1,0,0:0:0:0:
192,192,61729,1,0,0:0:0:0:
320,192,61729,1,0,0:0:0:0:
64,192,61929,1,0,0:0:0:45:hitclap.wav
192,192,61929,1,0,0:0:0:0:
448,192,61929,1,0,0:0:0:0:
320,192,62129,1,0,0:0:0:0:
448,192,62129,1,0,0:0:0:0:
64,192,62229,1,0,0:0:0:0:
192,192,62229,1,0,0:0:0:0:
192,192,62329,1,0,0:0:0:45:hitclap.wav
320,192,62329,1,0,0:0:0:0:
448,192,62329,1,0,0:0:0:0:
64,192,62529,1,0,0:0:0:0:
448,192,62529,1,0,0:0:0:0:
64,192,62729,1,0,0:0:0:45:hitclap.wav
192,192,62729,1,0,0:0:0:0:
320,192,62729,1,0,0:0:0:0:
448,192,62929,1,0,0:0:0:0:
192,192,63029,1,0,0:0:0:0:
320,192,63029,1,0,0:0:0:0:
64,192,63129,1,0,0:0:0:45:hitclap.wav
192,192,63129,1,0,0:0:0:0:
448,192,63129,1,0,0:0:0:0:
192,192,63329,1,0,0:0:0:0:
320,192,63329,1,0,0:0:0:0:
64,192,63529,1,0,0:0:0:45:hitclap.wav
320,192,63529,1,0,0:0:0:0:
448,192,63529,1,0,0:0:0:0:
64,192,63629,1,0,0:0:0:45:hitclap.wav
192,192,63629,1,0,0:0:0:0:
448,192,63629,1,0,0:0:0:0:
320,192,63729,1,0,0:0:0:0:
448,192,63729,1,0,0:0:0:0:
64,192,63829,1,0,0:0:0:0:
192,192,63829,1,0,0:0:0:0:
64,192,63929,1,0,0:0:0:45:hitclap.wav
320,192,63929,1,0,0:0:0:0:
448,192,63929,1,0,0:0:0:0:
192,192,64029,1,0,0:0:0:45:hitclap.wav
320,192,64029,1,0,0:0:0:0:
448,192,64029,1,0,0:0:0:0:
64,192,64129,1,0,0:0:0:65:hitfinish.wav
192,192,64129,1,0,0:0:0:0:
320,192,64129,1,0,0:0:0:0:
192,192,64329,1,0,0:0:0:45:hitclap.wav
320,192,64329,1,0,0:0:0:0:
448,192,64329,1,0,0:0:0:0:
64,192,64529,1,0,0:0:0:0:
192,192,64529,1,0,0:0:0:0:
192,192,64629,1,0,0:0:0:0:
320,192,64629,1,0,0:0:0:0:
64,192,64729,1,0,0:0:0:45:hitclap.wav
320,192,64729,1,0,0:0:0:0:
448,192,64729,1,0,0:0:0:0:
192,192,64929,1,0,0:0:0:0:
448,192,64929,1,0,0:0:0:0:
64,192,65129,1,0,0:0:0:45:hitclap.wav
192,192,65129,1,0,0:0:0:0:
320,192,65129,1,0,0:0:0:0:
320,192,65329,1,0,0:0:0:0:
448,192,65329,1,0,0:0:0:0:
64,192,65429,1,0,0:0:0:0:
448,192,65429,1,0,0:0:0:0:
64,192,65529,1,0,0:0:0:45:hitclap.wav
192,192,65529,1,0,0:0:0:0:
320,192,65529,1,0,0:0:0:0:
320,192,65729,1,0,0:0:0:0:
448,192,65729,1,0,0:0:0:0:
64,192,65929,1,0,0:0:0:45:hitclap.wav
192,192,65929,1,0,0:0:0:0:
448,192,65929,1,0,0:0:0:0:
320,192,66129,1,0,0:0:0:0:
64,192,66229,1,0,0:0:0:0:
192,192,66229,1,0,0:0:0:0:
64,192,66329,1,0,0:0:0:45:hitclap.wav
320,192,66329,1,0,0:0:0:0:
448,192,66329,1,0,0:0:0:0:
64,192,66529,1,0,0:0:0:0:
192,192,66529,1,0,0:0:0:0:
192,192,66729,1,0,0:0:0:45:hitclap.wav
320,192,66729,1,0,0:0:0:0:
448,192,66729,1,0,0:0:0:0:
64,192,66929,1,0,0:0:0:0:
448,192,66929,1,0,0:0:0:0:
64,192,67029,1,0,0:0:0:0:
320,192,67029,1,0,0:0:0:0:
192,192,67129,1,0,0:0:0:45:hitclap.wav
320,192,67129,1,0,0:0:0:0:
448,192,67129,1,0,0:0:0:0:
64,192,67329,1,0,0:0:0:0:
192,192,67329,1,0,0:0:0:0:
64,192,67529,1,0,0:0:0:45:hitclap.wav
320,192,67529,1,0,0:0:0:0:
448,192,67529,1,0,0:0:0:0:
192,192,67729,1,0,0:0:0:0:
320,192,67829,1,0,0:0:0:0:
448,192,67829,1,0,0:0:0:0:
64,192,67929,1,0,0:0:0:45:hitclap.wav
192,192,67929,1,0,0:0:0:0:
448,192,67929,1,0,0:0:0:0:
192,192,68129,1,0,0:0:0:0:
320,192,68129,1,0,0:0:0:0:
64,192,68329,1,0,0:0:0:45:hitclap.wav
192,192,68329,1,0,0:0:0:0:
448,192,68329,1,0,0:0:0:0:
320,192,68529,1,0,0:0:0:0:
448,192,68529,1,0,0:0:0:0:
64,192,68629,1,0,0:0:0:0:
192,192,68629,1,0,0:0:0:0:
192,192,68729,1,0,0:0:0:45:hitclap.wav
320,192,68729,1,0,0:0:0:0:
448,192,68729,1,0,0:0:0:0:
64,192,68929,1,0,0:0:0:0:
448,192,68929,1,0,0:0:0:0:
64,192,69129,1,0,0:0:0:45:hitclap.wav
192,192,69129,1,0,0:0:0:0:
320,192,69129,1,0,0:0:0:0:
448,192,69329,1,0,0:0:0:0:
192,192,69429,1,0,0:0:0:0:
320,192,69429,1,0,0:0:0:0:
64,192,69529,1,0,0:0:0:45:hitclap.wav
192,192,69529,1,0,0:0:0:0:
448,192,69529,1,0,0:0:0:0:
192,192,69729,1,0,0:0:0:0:
320,192,69729,1,0,0:0:0:0:
64,192,69929,1,0,0:0:0:45:hitclap.wav
320,192,69929,1,0,0:0:0:0:
448,192,69929,1,0,0:0:0:0:
64,192,70029,1,0,0:0:0:45:hitclap.wav
192,192,70029,1,0,0:0:0:0:
448,192,70029,1,0,0:0:0:0:
320,192,70129,1,0,0:0:0:0:
448,192,70129,1,0,0:0:0:0:
64,192,70229,1,0,0:0:0:0:
192,192,70229,1,0,0:0:0:0:
64,192,70329,1,0,0:0:0:45:hitclap.wav
320,192,70329,1,0,0:0:0:0:
448,192,70329,1,0,0:0:0:0:
64,192,70529,1,0,0:0:0:65:hitfinish.wav
192,192,70529,1,0,0:0:0:0:
448,192,70529,1,0,0:0:0:0:
64,192,70629,1,0,0:0:0:0:
192,192,70729,1,0,0:0:0:45:hitclap.wav
320,192,70729,1,0,0:0:0:0:
448,192,70729,1,0,0:0:0:0:
448,192,70829,1,0,0:0:0:0:
64,192,70929,1,0,0:0:0:0:
192,192,70929,1,0,0:0:0:0:
192,192,71029,1,0,0:0:0:0:
320,192,71029,1,0,0:0:0:0:
64,192,71129,1,0,0:0:0:45:hitclap.wav
320,192,71129,1,0,0:0:0:0:
448,192,71129,1,0,0:0:0:0:
192,192,71329,1,0,0:0:0:0:
320,192,71329,1,0,0:0:0:0:
64,192,71529,1,0,0:0:0:45:hitclap.wav
320,192,71529,1,0,0:0:0:0:
448,192,71529,1,0,0:0:0:0:
192,192,71729,1,0,0:0:0:0:
320,192,71729,1,0,0:0:0:0:
64,192,71829,1,0,0:0:0:0:
448,192,71829,1,0,0:0:0:0:
64,192,71929,1,0,0:0:0:45:hitclap.wav
192,192,71929,1,0,0:0:0:0:
320,192,71929,1,0,0:0:0:0:
192,192,72029,1,0,0:0:0:0:
320,192,72129,1,0,0:0:0:0:
448,192,72129,1,0,0:0:0:0:
320,192,72229,1,0,0:0:0:0:
64,192,72329,1,0,0:0:0:45:hitclap.wav
192,192,72329,1,0,0:0:0:0:
448,192,72329,1,0,0:0:0:0:
448,192,72429,1,0,0:0:0:0:
320,192,72529,1,0,0:0:0:0:
64,192,72629,1,0,0:0:0:0:
192,192,72629,1,0,0:0:0:0:
64,192,72729,1,0,0:0:0:45:hitclap.wav
320,192,72729,1,0,0:0:0:0:
448,192,72729,1,0,0:0:0:0:
64,192,72929,1,0,0:0:0:0:
192,192,72929,1,0,0:0:0:0:
192,192,73129,1,0,0:0:0:45:hitclap.wav
320,192,73129,1,0,0:0:0:0:
448,192,73129,1,0,0:0:0:0:
64,192,73329,1,0,0:0:0:0:
448,192,73329,1,0,0:0:0:0:
64,192,73429,1,0,0:0:0:0:
320,192,73429,1,0,0:0:0:0:
192,192,73529,1,0,0:0:0:45:hitclap.wav
320,192,73529,1,0,0:0:0:0:
448,192,73529,1,0,0:0:0:0:
64,192,73729,1,0,0:0:0:0:
192,192,73729,1,0,0:0:0:0:
192,192,73829,1,0,0:0:0:0:
64,192,73929,1,0,0:0:0:45:hitclap.wav
320,192,73929,1,0,0:0:0:0:
448,192,73929,1,0,0:0:0:0:
320,192,74029,1,0,0:0:0:0:
192,192,74129,1,0,0:0:0:0:
320,192,74229,1,0,0:0:0:0:
448,192,74229,1,0,0:0:0:0:
64,192,74329,1,0,0:0:0:45:hitclap.wav
192,192,74329,1,0,0:0:0:0:
448,192,74329,1,0,0:0:0:0:
192,192,74529,1,0,0:0:0:0:
320,192,74529,1,0,0:0:0:0:
64,192,74729,1,0,0:0:0:45:hitclap.wav
192,192,74729,1,0,0:0:0:0:
448,192,74729,1,0,0:0:0:0:
320,192,74929,1,0,0:0:0:0:
448,192,74929,1,0,0:0:0:0:
64,192,75029,1,0,0:0:0:0:
192,192,75029,1,0,0:0:0:0:
192,192,75129,1,0,0:0:0:45:hitclap.wav
320,192,75129,1,0,0:0:0:0:
448,192,75129,1,0,0:0:0:0:
64,192,75329,1,0,0:0:0:0:
448,192,75329,1,0,0:0:0:0:
448,192,75429,1,0,0:0:0:0:
64,192,75529,1,0,0:0:0:45:hitclap.wav
192,192,75529,1,0,0:0:0:0:
320,192,75529,1,0,0:0:0:0:
64,192,75629,1,0,0:0:0:0:
448,192,75729,1,0,0:0:0:0:
192,192,75829,1,0,0:0:0:0:
320,192,75829,1,0,0:0:0:0:
64,192,75929,1,0,0:0:0:45:hitclap.wav
192,192,75929,1,0,0:0:0:0:
448,192,75929,1,0,0:0:0:0:
192,192,76129,1,0,0:0:0:0:
320,192,76129,1,0,0:0:0:0:
64,192,76329,1,0,0:0:0:45:hitclap.wav
320,192,76329,1,0,0:0:0:0:
448,192,76329,1,0,0:0:0:0:
64,192,76429,1,0,0:0:0:45:hitclap.wav
192,192,76429,1,0,0:0:0:0:
448,192,76429,1,0,0:0:0:0:
320,192,76529,1,0,0:0:0:0:
448,192,76529,1,0,0:0:0:0:
64,192,76629,1,0,0:0:0:0:
192,192,76629,1,0,0:0:0:0:
64,192,76729,1,0,0:0:0:45:hitclap.wav
320,192,76729,1,0,0:0:0:0:
448,192,76729,1,0,0:0:0:0:
192,192,76829,1,0,0:0:0:45:hitclap.wav
320,192,76829,1,0,0:0:0:0:
448,192,76829,1,0,0:0:0:0:
64,192,76929,1,0,0:0:0:65:hitfinish.wav
192,192,76929,1,0,0:0:0:0:
320,192,76929,1,0,0:0:0:0:
64,192,77029,1,0,0:0:0:0:
192,192,77129,1,0,0:0:0:45:hitclap.wav
320,192,77129,1,0,0:0:0:0:
448,192,77129,1,0,0:0:0:0:
448,192,77229,1,0,0:0:0:0:
64,192,77329,1,0,0:0:0:0:
192,192,77329,1,0,0:0:0:0:
192,192,77429,1,0,0:0:0:0:
320,192,77429,1,0,0:0:0:0:
64,192,77529,1,0,0:0:0:45:hitclap.wav
320,192,77529,1,0,0:0:0:0:
448,192,77529,1,0,0:0:0:0:
192,192,77729,1,0,0:0:0:0:
448,192,77729,1,0,0:0:0:0:
64,192,77929,1,0,0:0:0:45:hitclap.wav
192,192,77929,1,0,0:0:0:0:
320,192,77929,1,0,0:0:0:0:
320,192,78129,1,0,0:0:0:0:
448,192,78129,1,0,0:0:0:0:
64,192,78229,1,0,0:0:0:0:
448,192,78229,1,0,0:0:0:0:
64,192,78329,1,0,0:0:0:45:hitclap.wav
192,192,78329,1,0,0:0:0:0:
320,192,78329,1,0,0:0:0:0:
192,192,78429,1,0,0:0:0:0:
320,192,78529,1,0,0:0:0:0:
448,192,78529,1,0,0:0:0:0:
320,192,78629,1,0,0:0:0:0:
64,192,78729,1,0,0:0:0:45:hitclap.wav
192,192,78729,1,0,0:0:0:0:
448,192,78729,1,0,0:0:0:0:
192,192,78829,1,0,0:0:0:0:
448,192,78929,1,0,0:0:0:0:
64,192,79029,1,0,0:0:0:0:
192,192,79029,1,0,0:0:0:0:
64,192,79129,1,0,0:0:0:45:hitclap.wav
320,192,79129,1,0,0:0:0:0:
448,192,79129,1,0,0:0:0:0:
64,192,79329,1,0,0:0:0:0:
192,192,79329,1,0,0:0:0:0:
192,192,79529,1,0,0:0:0:45:hitclap.wav
320,192,79529,1,0,0:0:0:0:
448,192,79529,1,0,0:0:0:0:
64,192,79729,1,0,0:0:0:0:
448,192,79729,1,0,0:0:0:0:
64,192,79829,1,0,0:0:0:0:
320,192,79829,1,0,0:0:0:0:
192,192,79929,1,0,0:0:0:45:hitclap.wav
320,192,79929,1,0,0:0:0:0:
448,192,79929,1,0,0:0:0:0:
448,192,80029,1,0,0:0:0:0:
64,192,80129,1,0,0:0:0:0:
192,192,80129,1,0,0:0:0:0:
192,192,80229,1,0,0:0:0:0:
64,192,80329,1,0,0:0:0:45:hitclap.wav
320,192,80329,1,0,0:0:0:0:
448,192,80329,1,0,0:0:0:0:
320,192,80429,1,0,0:0:0:0:
64,192,80529,1,0,0:0:0:0:
192,192,80529,1,0,0:0:0:0:
320,192,80629,1,0,0:0:0:0:
448,192,80629,1,0,0:0:0:0:
64,192,80729,1,0,0:0:0:45:hitclap.wav
192,192,80729,1,0,0:0:0:0:
448,192,80729,1,0,0:0:0:0:
192,192,80929,1,0,0:0:0:0:
320,192,80929,1,0,0:0:0:0:
64,192,81129,1,0,0:0:0:45:hitclap.wav
192,192,81129,1,0,0:0:0:0:
448,192,81129,1,0,0:0:0:0:
320,192,81329,1,0,0:0:0:0:
448,192,81329,1,0,0:0:0:0:
64,192,81429,1,0,0:0:0:0:
192,192,81429,1,0,0:0:0:0:
192,192,81529,1,0,0:0:0:45:hitclap.wav
320,192,81529,1,0,0:0:0:0:
448,192,81529,1,0,0:0:0:0:
64,192,81729,1,0,0:0:0:0:
448,192,81729,1,0,0:0:0:0:
448,192,81829,1,0,0:0:0:0:
64,192,81929,1,0,0:0:0:45:hitclap.wav
192,192,81929,1,0,0:0:0:0:
320,192,81929,1,0,0:0:0:0:
64,192,82029,1,0,0:0:0:0:
448,192,82129,1,0,0:0:0:0:
192,192,82229,1,0,0:0:0:0:
320,192,82229,1,0,0:0:0:0:
64,192,82329,1,0,0:0:0:45:hitclap.wav
192,192,82329,1,0,0:0:0:0:
448,192,82329,1,0,0:0:0:0:
192,192,82529,1,0,0:0:0:0:
320,192,82529,1,0,0:0:0:0:
64,192,82729,1,0,0:0:0:45:hitclap.wav
320,192,82729,1,0,0:0:0:0:
448,192,82729,1,0,0:0:0:0:
64,192,82829,1,0,0:0:0:45:hitclap.wav
192,192,82829,1,0,0:0:0:0:
448,192,82829,1,0,0:0:0:0:
320,192,82929,1,0,0:0:0:0:
448,192,82929,1,0,0:0:0:0:
64,192,83029,1,0,0:0:0:0:
192,192,83029,1,0,0:0:0:0:
64,192,83129,1,0,0:0:0:45:hitclap.wav
320,192,83129,1,0,0:0:0:0:
448,192,83129,1,0,0:0:0:0:
192,192,83229,1,0,0:0:0:0:
320,192,83229,1,0,0:0:0:0:
64,192,83329,1,0,0:0:0:65:hitfinish.wav
192,192,83329,1,0,0:0:0:0:
448,192,83329,1,0,0:0:0:0:
64,192,83529,1,0,0:0:0:45:hitclap.wav
320,192,83529,1,0,0:0:0:0:
448,192,83529,1,0,0:0:0:0:
64,192,83729,1,0,0:0:0:0:
192,192,83729,1,0,0:0:0:0:
64,192,83829,1,0,0:0:0:0:
192,192,83829,1,0,0:0:0:0:
64,192,83929,1,0,0:0:0:45:hitclap.wav
320,192,83929,1,0,0:0:0:0:
448,192,83929,1,0,0:0:0:0:
192,192,84029,1,0,0:0:0:0:
320,192,84129,1,0,0:0:0:0:
448,192,84129,1,0,0:0:0:0:
320,192,84229,1,0,0:0:0:0:
448,192,84229,1,0,0:0:0:0:
64,192,84329,1,0,0:0:0:45:hitclap.wav
192,192,84329,1,0,0:0:0:0:
448,192,84329,1,0,0:0:0:0:
64,192,84429,1,0,0:0:0:0:
320,192,84429,1,0,0:0:0:0:
192,192,84529,1,0,0:0:0:0:
320,192,84629,1,0,0:0:0:0:
448,192,84629,1,0,0:0:0:0:
64,192,84729,1,0,0:0:0:45:hitclap.wav
192,192,84729,1,0,0:0:0:0:
448,192,84729,1,0,0:0:0:0:
320,192,84829,1,0,0:0:0:0:
64,192,84929,1,0,0:0:0:0:
192,192,84929,1,0,0:0:0:0:
448,192,85029,1,0,0:0:0:0:
64,192,85129,1,0,0:0:0:45:hitclap.wav
192,192,85129,1,0,0:0:0:0:
320,192,85129,1,0,0:0:0:0:
448,192,85229,1,0,0:0:0:0:
64,192,85329,1,0,0:0:0:0:
320,192,85329,1,0,0:0:0:0:
64,192,85429,1,0,0:0:0:0:
320,192,85429,1,0,0:0:0:0:
64,192,85529,1,0,0:0:0:45:hitclap.wav
192,192,85529,1,0,0:0:0:0:
448,192,85529,1,0,0:0:0:0:
320,192,85729,1,0,0:0:0:0:
448,192,85729,1,0,0:0:0:0:
320,192,85829,1,0,0:0:0:0:
448,192,85829,1,0,0:0:0:0:
64,192,85929,1,0,0:0:0:45:hitclap.wav
192,192,85929,1,0,0:0:0:0:
448,192,85929,1,0,0:0:0:0:
64,192,86029,1,0,0:0:0:0:
192,192,86029,1,0,0:0:0:0:
448,192,86129,1,0,0:0:0:0:
64,192,86229,1,0,0:0:0:0:
320,192,86229,1,0,0:0:0:0:
64,192,86329,1,0,0:0:0:45:hitclap.wav
192,192,86329,1,0,0:0:0:0:
448,192,86329,1,0,0:0:0:0:
64,192,86529,1,0,0:0:0:65:hitfinish.wav
320,192,86529,1,0,0:0:0:0:
448,192,86529,1,0,0:0:0:0:
192,192,86662,1,0,0:0:0:0:
320,192,86662,1,0,0:0:0:0:
448,192,86662,1,0,0:0:0:0:
64,192,86729,1,0,0:0:0:45:hitclap.wav
192,192,86795,1,0,0:0:0:0:
320,192,86795,1,0,0:0:0:0:
448,192,86795,1,0,0:0:0:0:
64,192,86929,1,0,0:0:0:0:
192,192,86929,1,0,0:0:0:0:
448,192,86929,1,0,0:0:0:0:
64,192,87062,1,0,0:0:0:0:
192,192,87062,1,0,0:0:0:0:
320,192,87062,1,0,0:0:0:0:
448,192,87129,1,0,0:0:0:45:hitclap.wav
64,192,87195,1,0,0:0:0:0:
192,192,87195,1,0,0:0:0:0:
320,192,87195,1,0,0:0:0:0:
320,192,87329,1,0,0:0:0:0:
448,192,87329,1,0,0:0:0:0:
320,192,87429,1,0,0:0:0:0:
448,192,87429,1,0,0:0:0:0:
64,192,87529,1,0,0:0:0:45:hitclap.wav
192,192,87529,1,0,0:0:0:0:
448,192,87529,1,0,0:0:0:0:
192,192,87629,1,0,0:0:0:0:
320,192,87629,1,0,0:0:0:0:
64,192,87729,1,0,0:0:0:0:
192,192,87829,1,0,0:0:0:0:
320,192,87829,1,0,0:0:0:0:
64,192,87929,1,0,0:0:0:45:hitclap.wav
320,192,87929,1,0,0:0:0:0:
448,192,87929,1,0,0:0:0:0:
192,192,88029,1,0,0:0:0:0:
320,192,88129,1,0,0:0:0:0:
448,192,88129,1,0,0:0:0:0:
64,192,88329,1,0,0:0:0:45:hitclap.wav
192,192,88329,1,0,0:0:0:0:
448,192,88329,1,0,0:0:0:0:
320,192,88429,1,0,0:0:0:0:
64,192,88529,1,0,0:0:0:0:
192,192,88529,1,0,0:0:0:0:
320,192,88629,1,0,0:0:0:0:
448,192,88629,1,0,0:0:0:0:
64,192,88729,1,0,0:0:0:45:hitclap.wav
192,192,88729,1,0,0:0:0:0:
448,192,88729,1,0,0:0:0:0:
320,192,88829,1,0,0:0:0:0:
192,192,88929,1,0,0:0:0:0:
448,192,88929,1,0,0:0:0:0:
64,192,89029,1,0,0:0:0:0:
192,192,89029,1,0,0:0:0:0:
64,192,89129,1,0,0:0:0:45:hitclap.wav
320,192,89129,1,0,0:0:0:0:
448,192,89129,1,0,0:0:0:0:
192,192,89229,1,0,0:0:0:0:
448,192,89229,1,0,0:0:0:0:
320,192,89329,1,0,0:0:0:0:
64,192,89429,1,0,0:0:0:45:hitclap.wav
192,192,89429,1,0,0:0:0:0:
448,192,89429,1,0,0:0:0:0:
64,192,89529,1,0,0:0:0:45:hitclap.wav
320,192,89529,1,0,0:0:0:0:
192,192,89629,1,0,0:0:0:45:hitclap.wav
320,192,89629,1,0,0:0:0:0:
448,192,89629,1,0,0:0:0:0:
64,192,89729,1,0,0:0:0:65:hitfinish.wav
448,192,89729,1,0,0:0:0:0:
192,192,89829,1,0,0:0:0:0:
320,192,89829,1,0,0:0:0:0:
64,192,89929,1,0,0:0:0:0:
320,192,89929,1,0,0:0:0:0:
192,192,90029,1,0,0:0:0:0:
448,192,90029,1,0,0:0:0:0:
64,192,90129,1,0,0:0:0:45:hitclap.wav
320,192,90129,1,0,0:0:0:0:
448,192,90129,1,0,0:0:0:0:
64,192,90229,1,0,0:0:0:0:
192,192,90229,1,0,0:0:0:0:
320,192,90329,1,0,0:0:0:0:
448,192,90329,1,0,0:0:0:0:
64,192,90429,1,0,0:0:0:0:
448,192,90429,1,0,0:0:0:0:
64,192,90529,1,0,0:0:0:45:hitclap.wav
192,192,90529,1,0,0:0:0:0:
320,192,90529,1,0,0:0:0:0:
320,192,90629,1,0,0:0:0:0:
448,192,90629,1,0,0:0:0:0:
64,192,90729,1,0,0:0:0:0:
192,192,90729,1,0,0:0:0:0:
320,192,90829,1,0,0:0:0:0:
448,192,90829,1,0,0:0:0:0:
64,192,90929,1,0,0:0:0:45:hitclap.wav
192,192,90929,1,0,0:0:0:0:
448,192,90929,1,0,0:0:0:0:
192,192,91029,1,0,0:0:0:0:
320,192,91029,1,0,0:0:0:0:
64,192,91129,1,0,0:0:0:0:
448,192,91129,1,0,0:0:0:0:
320,192,91229,1,0,0:0:0:0:
448,192,91229,1,0,0:0:0:0:
64,192,91329,1,0,0:0:0:45:hitclap.wav
192,192,91329,1,0,0:0:0:65:hitfinish.wav
320,192,91329,1,0,0:0:0:0:
192,192,91429,1,0,0:0:0:0:
448,192,91429,1,0,0:0:0:0:
64,192,91529,1,0,0:0:0:0:
320,192,91529,1,0,0:0:0:0:
64,192,91629,1,0,0:0:0:0:
448,192,91629,1,0,0:0:0:0:
192,192,91729,1,0,0:0:0:45:hitclap.wav
320,192,91729,1,0,0:0:0:0:
448,192,91729,1,0,0:0:0:0:
64,192,91829,1,0,0:0:0:0:
192,192,91829,1,0,0:0:0:0:
64,192,91929,1,0,0:0:0:0:
448,192,91929,1,0,0:0:0:0:
192,192,92029,1,0,0:0:0:0:
320,192,92029,1,0,0:0:0:0:
64,192,92129,1,0,0:0:0:45:hitclap.wav
320,192,92129,1,0,0:0:0:0:
448,192,92129,1,0,0:0:0:0:
64,192,92229,1,0,0:0:0:0:
192,192,92229,1,0,0:0:0:0:
320,192,92329,1,0,0:0:0:0:
448,192,92329,1,0,0:0:0:0:
192,192,92429,1,0,0:0:0:0:
448,192,92429,1,0,0:0:0:0:
64,192,92529,1,0,0:0:0:45:hitclap.wav
192,192,92529,1,0,0:0:0:0:
320,192,92529,1,0,0:0:0:0:
64,192,92629,1,0,0:0:0:0:
448,192,92629,1,0,0:0:0:0:
192,192,92729,1,0,0:0:0:0:
320,192,92729,1,0,0:0:0:0:
320,192,92829,1,0,0:0:0:0:
448,192,92829,1,0,0:0:0:0:
64,192,92929,1,0,0:0:0:45:hitclap.wav
192,192,92929,1,0,0:0:0:65:hitfinish.wav
448,192,92929,1,0,0:0:0:0:
192,192,93029,1,0,0:0:0:0:
320,192,93029,1,0,0:0:0:0:
64,192,93129,1,0,0:0:0:0:
320,192,93129,1,0,0:0:0:0:
192,192,93229,1,0,0:0:0:0:
448,192,93229,1,0,0:0:0:0:
64,192,93329,1,0,0:0:0:45:hitclap.wav
320,192,93329,1,0,0:0:0:0:
448,192,93329,1,0,0:0:0:0:
192,192,93429,1,0,0:0:0:0:
320,192,93429,1,0,0:0:0:0:
64,192,93529,1,0,0:0:0:0:
448,192,93529,1,0,0:0:0:0:
64,192,93629,1,0,0:0:0:0:
192,192,93629,1,0,0:0:0:0:
192,192,93729,1,0,0:0:0:45:hitclap.wav
320,192,93729,1,0,0:0:0:0:
448,192,93729,1,0,0:0:0:0:
64,192,93829,1,0,0:0:0:0:
320,192,93829,1,0,0:0:0:0:
64,192,93929,1,0,0:0:0:0:
448,192,93929,1,0,0:0:0:0:
320,192,94029,1,0,0:0:0:0:
448,192,94029,1,0,0:0:0:0:
64,192,94129,1,0,0:0:0:45:hitclap.wav
192,192,94129,1,0,0:0:0:0:
320,192,94129,1,0,0:0:0:0:
192,192,94229,1,0,0:0:0:0:
448,192,94229,1,0,0:0:0:0:
64,192,94329,1,0,0:0:0:0:
320,192,94329,1,0,0:0:0:0:
320,192,94429,1,0,0:0:0:0:
448,192,94429,1,0,0:0:0:0:
64,192,94529,1,0,0:0:0:45:hitclap.wav
192,192,94529,1,0,0:0:0:0:
448,192,94529,1,0,0:0:0:0:
192,192,94729,1,0,0:0:0:0:
64,192,94829,1,0,0:0:0:45:hitclap.wav
320,192,94829,1,0,0:0:0:0:
448,192,94829,1,0,0:0:0:0:
448,192,94929,1,0,0:0:0:0:
64,192,95129,1,0,0:0:0:45:hitclap.wav
192,192,95129,1,0,0:0:0:0:
448,192,95129,1,0,0:0:0:0:
64,192,95229,1,0,0:0:0:45:hitclap.wav
320,192,95229,1,0,0:0:0:0:
448,192,95229,1,0,0:0:0:0:
192,192,95329,1,0,0:0:0:0:
320,192,95329,1,0,0:0:0:0:
64,192,95429,1,0,0:0:0:0:
320,192,95529,1,0,0:0:0:0:
448,192,95529,1,0,0:0:0:0:
64,192,95629,1,0,0:0:0:0:
192,192,95629,1,0,0:0:0:0:
192,192,95729,128,0,95829:0:0:0:45:hitclap.wav
320,192,95729,1,0,0:0:0:0:
64,192,95829,1,0,0:0:0:45:hitclap.wav
448,192,95829,128,0,95929:0:0:0:0:
320,192,95929,128,0,96029:0:0:0:45:hitclap.wav
192,192,96029,128,0,96129:0:0:0:45:hitclap.wav
64,192,96129,1,0,0:0:0:70:drum-hitnormal.wav
448,192,96129,1,0,0:0:0:65:hitfinish.wav
320,192,96179,1,0,0:0:0:0:
192,192,96229,1,0,0:0:0:0:
64,192,96279,1,0,0:0:0:0:
320,192,96329,1,0,0:0:0:45:hitclap.wav
448,192,96329,1,0,0:0:0:0:
192,192,96379,1,0,0:0:0:0:
320,192,96429,1,0,0:0:0:0:
448,192,96479,1,0,0:0:0:0:
64,192,96529,1,0,0:0:0:0:
192,192,96529,1,0,0:0:0:0:
192,192,96629,1,0,0:0:0:0:
320,192,96629,1,0,0:0:0:0:
64,192,96729,1,0,0:0:0:45:hitclap.wav
320,192,96729,1,0,0:0:0:0:
448,192,96729,1,0,0:0:0:0:
192,192,96929,1,0,0:0:0:0:
320,192,96929,1,0,0:0:0:0:
64,192,97129,1,0,0:0:0:45:hitclap.wav
320,192,97129,1,0,0:0:0:0:
448,192,97129,1,0,0:0:0:0:
192,192,97329,1,0,0:0:0:0:
320,192,97329,1,0,0:0:0:0:
64,192,97429,1,0,0:0:0:0:
448,192,97429,1,0,0:0:0:0:
64,192,97529,1,0,0:0:0:45:hitclap.wav
192,192,97529,1,0,0:0:0:0:
320,192,97529,1,0,0:0:0:0:
192,192,97629,1,0,0:0:0:0:
320,192,97729,1,0,0:0:0:70:drum-hitnormal.wav
448,192,97729,1,0,0:0:0:0:
192,192,97779,1,0,0:0:0:0:
64,192,97829,1,0,0:0:0:0:
320,192,97879,1,0,0:0:0:0:
192,192,97929,1,0,0:0:0:45:hitclap.wav
448,192,97929,1,0,0:0:0:0:
64,192,97979,1,0,0:0:0:0:
448,192,98029,1,0,0:0:0:0:
192,192,98079,1,0,0:0:0:0:
320,192,98129,1,0,0:0:0:0:
64,192,98229,1,0,0:0:0:0:
192,192,98229,1,0,0:0:0:0:
64,192,98329,1,0,0:0:0:45:hitclap.wav
320,192,98329,1,0,0:0:0:0:
448,192,98329,1,0,0:0:0:0:
64,192,98529,1,0,0:0:0:0:
192,192,98529,1,0,0:0:0:0:
192,192,98729,1,0,0:0:0:45:hitclap.wav
320,192,98729,1,0,0:0:0:0:
448,192,98729,1,0,0:0:0:0:
64,192,98929,1,0,0:0:0:0:
448,192,98929,1,0,0:0:0:0:
64,192,99029,1,0,0:0:0:0:
320,192,99029,1,0,0:0:0:0:
192,192,99129,1,0,0:0:0:45:hitclap.wav
320,192,99129,1,0,0:0:0:0:
448,192,99129,1,0,0:0:0:0:
64,192,99329,1,0,0:0:0:70:drum-hitnormal.wav
192,192,99329,1,0,0:0:0:0:
448,192,99379,1,0,0:0:0:0:
320,192,99429,1,0,0:0:0:0:
64,192,99479,1,0,0:0:0:0:
320,192,99529,1,0,0:0:0:45:hitclap.wav
448,192,99529,1,0,0:0:0:0:
192,192,99579,1,0,0:0:0:0:
64,192,99629,1,0,0:0:0:0:
448,192,99679,1,0,0:0:0:0:
192,192,99729,1,0,0:0:0:0:
320,192,99779,1,0,0:0:0:0:
64,192,99829,1,0,0:0:0:0:
448,192,99829,1,0,0:0:0:0:
64,192,99929,1,0,0:0:0:45:hitclap.wav
192,192,99929,1,0,0:0:0:0:
448,192,99929,1,0,0:0:0:0:
192,192,100129,1,0,0:0:0:0:
320,192,100129,1,0,0:0:0:0:
64,192,100329,1,0,0:0:0:45:hitclap.wav
192,192,100329,1,0,0:0:0:0:
448,192,100329,1,0,0:0:0:0:
320,192,100529,1,0,0:0:0:0:
448,192,100529,1,0,0:0:0:0:
64,192,100629,1,0,0:0:0:0:
192,192,100629,1,0,0:0:0:0:
192,192,100729,1,0,0:0:0:45:hitclap.wav
320,192,100729,1,0,0:0:0:0:
448,192,100729,1,0,0:0:0:0:
64,192,100929,1,0,0:0:0:70:drum-hitnormal.wav
448,192,100929,1,0,0:0:0:0:
320,192,100979,1,0,0:0:0:0:
192,192,101029,1,0,0:0:0:0:
448,192,101079,1,0,0:0:0:0:
64,192,101129,1,0,0:0:0:45:hitclap.wav
192,192,101129,1,0,0:0:0:0:
320,192,101179,1,0,0:0:0:0:
64,192,101229,1,0,0:0:0:0:
192,192,101279,1,0,0:0:0:0:
448,192,101329,1,0,0:0:0:0:
192,192,101429,1,0,0:0:0:0:
320,192,101429,1,0,0:0:0:0:
64,192,101529,1,0,0:0:0:45:hitclap.wav
192,192,101529,1,0,0:0:0:0:
448,192,101529,1,0,0:0:0:0:
192,192,101729,1,0,0:0:0:0:
320,192,101729,1,0,0:0:0:0:
64,192,101929,1,0,0:0:0:45:hitclap.wav
320,192,101929,1,0,0:0:0:0:
448,192,101929,1,0,0:0:0:0:
64,192,102029,1,0,0:0:0:45:hitclap.wav
192,192,102029,1,0,0:0:0:0:
448,192,102029,1,0,0:0:0:0:
320,192,102129,1,0,0:0:0:0:
448,192,102129,1,0,0:0:0:0:
64,192,102229,1,0,0:0:0:0:
192,192,102229,1,0,0:0:0:0:
64,192,102329,1,0,0:0:0:45:hitclap.wav
320,192,102329,1,0,0:0:0:0:
448,192,102329,1,0,0:0:0:0:
192,192,102429,1,0,0:0:0:45:hitclap.wav
320,192,102429,1,0,0:0:0:0:
448,192,102429,1,0,0:0:0:0:
64,192,102529,1,0,0:0:0:70:drum-hitnormal.wav
192,192,102529,1,0,0:0:0:65:hitfinish.wav
448,192,102579,1,0,0:0:0:0:
320,192,102629,1,0,0:0:0:0:
192,192,102679,1,0,0:0:0:0:
64,192,102729,1,0,0:0:0:45:hitclap.wav
448,192,102729,1,0,0:0:0:0:
320,192,102779,1,0,0:0:0:0:
192,192,102829,1,0,0:0:0:0:
448,192,102879,1,0,0:0:0:0:
64,192,102929,1,0,0:0:0:0:
320,192,102929,1,0,0:0:0:0:
192,192,103029,1,0,0:0:0:0:
320,192,103029,1,0,0:0:0:0:
64,192,103129,1,0,0:0:0:45:hitclap.wav
192,192,103129,1,0,0:0:0:0:
448,192,103129,1,0,0:0:0:0:
192,192,103329,1,0,0:0:0:0:
448,192,103329,1,0,0:0:0:0:
64,192,103529,1,0,0:0:0:45:hitclap.wav
192,192,103529,1,0,0:0:0:0:
320,192,103529,1,0,0:0:0:0:
320,192,103729,1,0,0:0:0:0:
448,192,103729,1,0,0:0:0:0:
64,192,103829,1,0,0:0:0:0:
448,192,103829,1,0,0:0:0:0:
64,192,103929,1,0,0:0:0:45:hitclap.wav
192,192,103929,1,0,0:0:0:0:
320,192,103929,1,0,0:0:0:0:
192,192,104029,1,0,0:0:0:0:
320,192,104129,1,0,0:0:0:70:drum-hitnormal.wav
448,192,104129,1,0,0:0:0:0:
192,192,104179,1,0,0:0:0:0:
64,192,104229,1,0,0:0:0:0:
320,192,104279,1,0,0:0:0:0:
192,192,104329,1,0,0:0:0:45:hitclap.wav
448,192,104329,1,0,0:0:0:0:
64,192,104379,1,0,0:0:0:0:
448,192,104429,1,0,0:0:0:0:
192,192,104479,1,0,0:0:0:0:
320,192,104529,1,0,0:0:0:0:
64,192,104629,1,0,0:0:0:0:
192,192,104629,1,0,0:0:0:0:
64,192,104729,1,0,0:0:0:45:hitclap.wav
320,192,104729,1,0,0:0:0:0:
448,192,104729,1,0,0:0:0:0:
64,192,104929,1,0,0:0:0:0:
192,192,104929,1,0,0:0:0:0:
192,192,105129,1,0,0:0:0:45:hitclap.wav
320,192,105129,1,0,0:0:0:0:
448,192,105129,1,0,0:0:0:0:
64,192,105329,1,0,0:0:0:0:
448,192,105329,1,0,0:0:0:0:
64,192,105429,1,0,0:0:0:0:
320,192,105429,1,0,0:0:0:0:
192,192,105529,1,0,0:0:0:45:hitclap.wav
320,192,105529,1,0,0:0:0:0:
448,192,105529,1,0,0:0:0:0:
192,192,105629,1,0,0:0:0:0:
64,192,105729,1,0,0:0:0:70:drum-hitnormal.wav
320,192,105729,1,0,0:0:0:0:
448,192,105729,1,0,0:0:0:0:
192,192,105779,1,0,0:0:0:0:
320,192,105829,1,0,0:0:0:0:
448,192,105879,1,0,0:0:0:0:
64,192,105929,1,0,0:0:0:45:hitclap.wav
192,192,105929,1,0,0:0:0:0:
448,192,105979,1,0,0:0:0:0:
64,192,106029,1,0,0:0:0:0:
192,192,106079,1,0,0:0:0:0:
320,192,106129,1,0,0:0:0:0:
448,192,106129,1,0,0:0:0:0:
192,192,106229,1,0,0:0:0:0:
448,192,106229,1,0,0:0:0:0:
64,192,106329,1,0,0:0:0:45:hitclap.wav
192,192,106329,1,0,0:0:0:0:
320,192,106329,1,0,0:0:0:0:
192,192,106529,1,0,0:0:0:0:
320,192,106529,1,0,0:0:0:0:
64,192,106729,1,0,0:0:0:45:hitclap.wav
192,192,106729,1,0,0:0:0:0:
448,192,106729,1,0,0:0:0:0:
320,192,106929,1,0,0:0:0:0:
448,192,106929,1,0,0:0:0:0:
64,192,107029,1,0,0:0:0:0:
192,192,107029,1,0,0:0:0:0:
192,192,107129,1,0,0:0:0:45:hitclap.wav
320,192,107129,1,0,0:0:0:0:
448,192,107129,1,0,0:0:0:0:
64,192,107329,1,0,0:0:0:70:drum-hitnormal.wav
448,192,107329,1,0,0:0:0:0:
320,192,107379,1,0,0:0:0:0:
192,192,107429,1,0,0:0:0:0:
448,192,107479,1,0,0:0:0:0:
64,192,107529,1,0,0:0:0:45:hitclap.wav
192,192,107529,1,0,0:0:0:0:
320,192,107579,1,0,0:0:0:0:
448,192,107629,1,0,0:0:0:0:
64,192,107679,1,0,0:0:0:0:
320,192,107729,1,0,0:0:0:0:
64,192,107829,1,0,0:0:0:0:
448,192,107829,1,0,0:0:0:0:
64,192,107929,1,0,0:0:0:45:hitclap.wav
192,192,107929,1,0,0:0:0:0:
320,192,107929,1,0,0:0:0:0:
192,192,108129,1,0,0:0:0:0:
448,192,108129,1,0,0:0:0:0:
64,192,108329,1,0,0:0:0:45:hitclap.wav
320,192,108329,1,0,0:0:0:0:
448,192,108329,1,0,0:0:0:0:
64,192,108429,1,0,0:0:0:45:hitclap.wav
192,192,108429,1,0,0:0:0:0:
448,192,108429,1,0,0:0:0:0:
320,192,108529,1,0,0:0:0:0:
448,192,108529,1,0,0:0:0:0:
64,192,108629,1,0,0:0:0:0:
192,192,108629,1,0,0:0:0:0:
64,192,108729,1,0,0:0:0:45:hitclap.wav
320,192,108729,1,0,0:0:0:0:
448,192,108729,1,0,0:0:0:0:
192,192,108829,1,0,0:0:0:0:
320,192,108829,1,0,0:0:0:0:
64,192,108929,1,0,0:0:0:45:hitclap.wav
192,192,108929,1,0,0:0:0:65:hitfinish.wav
320,192,108929,1,0,0:0:0:0:
448,192,108929,1,0,0:0:0:0:
64,192,109129,1,0,0:0:0:0:
192,192,109129,1,0,0:0:0:0:
64,192,109329,1,0,0:0:0:45:hitclap.wav
192,192,109329,1,0,0:0:0:0:
320,192,109329,1,0,0:0:0:0:
448,192,109329,1,0,0:0:0:0:
192,192,109429,1,0,0:0:0:0:
320,192,109429,1,0,0:0:0:0:
192,192,109629,1,0,0:0:0:0:
320,192,109629,1,0,0:0:0:0:
64,192,109729,1,0,0:0:0:45:hitclap.wav
192,192,109729,1,0,0:0:0:0:
320,192,109729,1,0,0:0:0:0:
448,192,109729,1,0,0:0:0:0:
64,192,109929,1,0,0:0:0:0:
448,192,109929,1,0,0:0:0:0:
64,192,110129,1,0,0:0:0:45:hitclap.wav
192,192,110129,1,0,0:0:0:0:
320,192,110129,1,0,0:0:0:0:
448,192,110129,1,0,0:0:0:0:
320,192,110329,1,0,0:0:0:0:
448,192,110329,1,0,0:0:0:0:
64,192,110529,1,0,0:0:0:45:hitclap.wav
192,192,110529,1,0,0:0:0:0:
320,192,110529,1,0,0:0:0:0:
448,192,110529,1,0,0:0:0:0:
192,192,110729,1,0,0:0:0:0:
320,192,110729,1,0,0:0:0:0:
64,192,110929,1,0,0:0:0:45:hitclap.wav
192,192,110929,1,0,0:0:0:0:
320,192,110929,1,0,0:0:0:0:
448,192,110929,1,0,0:0:0:0:
64,192,111029,1,0,0:0:0:0:
448,192,111029,1,0,0:0:0:0:
64,192,111229,1,0,0:0:0:0:
448,192,111229,1,0,0:0:0:0:
64,192,111329,1,0,0:0:0:45:hitclap.wav
192,192,111329,1,0,0:0:0:0:
320,192,111329,1,0,0:0:0:0:
448,192,111329,1,0,0:0:0:0:
192,192,111529,1,0,0:0:0:0:
320,192,111529,1,0,0:0:0:0:
64,192,111729,1,0,0:0:0:45:hitclap.wav
192,192,111729,1,0,0:0:0:0:
320,192,111729,1,0,0:0:0:0:
448,192,111729,1,0,0:0:0:0:
192,192,111929,1,0,0:0:0:0:
448,192,111929,1,0,0:0:0:0:
64,192,112129,1,0,0:0:0:45:hitclap.wav
192,192,112129,1,0,0:0:0:65:hitfinish.wav
320,192,112129,1,0,0:0:0:0:
448,192,112129,1,0,0:0:0:0:
64,192,112329,1,0,0:0:0:0:
320,192,112329,1,0,0:0:0:0:
64,192,112529,1,0,0:0:0:45:hitclap.wav
192,192,112529,1,0,0:0:0:0:
320,192,112529,1,0,0:0:0:0:
448,192,112529,1,0,0:0:0:0:
192,192,112629,1,0,0:0:0:0:
448,192,112629,1,0,0:0:0:0:
192,192,112829,1,0,0:0:0:0:
448,192,112829,1,0,0:0:0:0:
64,192,112929,1,0,0:0:0:45:hitclap.wav
192,192,112929,1,0,0:0:0:0:
320,192,112929,1,0,0:0:0:0:
448,192,112929,1,0,0:0:0:0:
64,192,113129,1,0,0:0:0:0:
192,192,113129,1,0,0:0:0:0:
64,192,113329,1,0,0:0:0:45:hitclap.wav
192,192,113329,1,0,0:0:0:0:
320,192,113329,1,0,0:0:0:0:
448,192,113329,1,0,0:0:0:0:
320,192,113529,1,0,0:0:0:0:
448,192,113529,1,0,0:0:0:0:
64,192,113729,1,0,0:0:0:45:hitclap.wav
192,192,113729,1,0,0:0:0:0:
320,192,113729,1,0,0:0:0:0:
448,192,113729,1,0,0:0:0:0:
192,192,113929,1,0,0:0:0:0:
448,192,113929,1,0,0:0:0:0:
64,192,114129,1,0,0:0:0:45:hitclap.wav
192,192,114129,1,0,0:0:0:0:
320,192,114129,1,0,0:0:0:0:
448,192,114129,1,0,0:0:0:0:
64,192,114229,1,0,0:0:0:0:
320,192,114229,1,0,0:0:0:0:
64,192,114429,1,0,0:0:0:0:
320,192,114429,1,0,0:0:0:0:
64,192,114529,1,0,0:0:0:45:hitclap.wav
192,192,114529,1,0,0:0:0:0:
320,192,114529,1,0,0:0:0:0:
448,192,114529,1,0,0:0:0:0:
192,192,114729,1,0,0:0:0:0:
320,192,114729,1,0,0:0:0:0:
64,192,114829,1,0,0:0:0:45:hitclap.wav
320,192,114829,1,0,0:0:0:0:
448,192,114829,1,0,0:0:0:0:
64,192,114929,1,0,0:0:0:45:hitclap.wav
192,192,114929,1,0,0:0:0:0:
448,192,114929,1,0,0:0:0:0:
192,192,115029,1,0,0:0:0:45:hitclap.wav
320,192,115029,1,0,0:0:0:0:
448,192,115029,1,0,0:0:0:0:
64,192,115129,1,0,0:0:0:0:
320,192,115129,1,0,0:0:0:0:
64,192,115229,1,0,0:0:0:45:hitclap.wav
192,192,115229,1,0,0:0:0:0:
448,192,115229,1,0,0:0:0:0:
192,192,115329,1,0,0:0:0:0:
320,192,115329,1,0,0:0:0:0:
64,192,115529,1,0,0:0:0:45:hitclap.wav
192,192,115529,1,0,0:0:0:65:hitfinish.wav
320,192,115529,1,0,0:0:0:0:
448,192,115529,1,0,0:0:0:0:
64,192,115729,1,0,0:0:0:0:
192,192,115729,1,0,0:0:0:0:
64,192,115829,1,0,0:0:0:0:
192,192,115829,1,0,0:0:0:0:
192,192,115929,1,0,0:0:0:45:hitclap.wav
320,192,115929,1,0,0:0:0:0:
448,192,115929,1,0,0:0:0:0:
64,192,116029,1,0,0:0:0:0:
448,192,116029,1,0,0:0:0:0:
320,192,116129,1,0,0:0:0:0:
64,192,116229,1,0,0:0:0:0:
192,192,116229,1,0,0:0:0:0:
64,192,116329,1,0,0:0:0:45:hitclap.wav
320,192,116329,1,0,0:0:0:0:
448,192,116329,1,0,0:0:0:0:
192,192,116529,1,0,0:0:0:0:
448,192,116529,1,0,0:0:0:0:
192,192,116629,1,0,0:0:0:0:
320,192,116629,1,0,0:0:0:0:
64,192,116729,1,0,0:0:0:45:hitclap.wav
320,192,116729,1,0,0:0:0:0:
448,192,116729,1,0,0:0:0:0:
192,192,116929,1,0,0:0:0:0:
448,192,116929,1,0,0:0:0:0:
64,192,117129,1,0,0:0:0:45:hitclap.wav
192,192,117129,1,0,0:0:0:0:
320,192,117129,1,0,0:0:0:0:
192,192,117329,1,0,0:0:0:0:
448,192,117329,1,0,0:0:0:0:
64,192,117429,1,0,0:0:0:0:
320,192,117429,1,0,0:0:0:0:
64,192,117529,1,0,0:0:0:45:hitclap.wav
192,192,117529,1,0,0:0:0:0:
448,192,117529,1,0,0:0:0:0:
320,192,117629,1,0,0:0:0:0:
448,192,117629,1,0,0:0:0:0:
192,192,117729,1,0,0:0:0:0:
64,192,117829,1,0,0:0:0:0:
320,192,117829,1,0,0:0:0:0:
192,192,117929,1,0,0:0:0:45:hitclap.wav
320,192,117929,1,0,0:0:0:0:
448,192,117929,1,0,0:0:0:0:
64,192,118129,1,0,0:0:0:0:
448,192,118129,1,0,0:0:0:0:
64,192,118229,1,0,0:0:0:0:
448,192,118229,1,0,0:0:0:0:
64,192,118329,1,0,0:0:0:45:hitclap.wav
192,192,118329,1,0,0:0:0:0:
320,192,118329,1,0,0:0:0:0:
320,192,118529,1,0,0:0:0:0:
448,192,118529,1,0,0:0:0:0:
64,192,118729,1,0,0:0:0:45:hitclap.wav
192,192,118729,1,0,0:0:0:65:hitfinish.wav
320,192,118729,1,0,0:0:0:0:
448,192,118729,1,0,0:0:0:0:
192,192,118929,1,0,0:0:0:0:
320,192,118929,1,0,0:0:0:0:
192,192,119029,1,0,0:0:0:0:
320,192,119029,1,0,0:0:0:0:
64,192,119129,1,0,0:0:0:45:hitclap.wav
320,192,119129,1,0,0:0:0:0:
448,192,119129,1,0,0:0:0:0:
64,192,119229,1,0,0:0:0:0:
192,192,119229,1,0,0:0:0:0:
320,192,119329,1,0,0:0:0:0:
192,192,119429,1,0,0:0:0:0:
448,192,119429,1,0,0:0:0:0:
64,192,119529,1,0,0:0:0:45:hitclap.wav
320,192,119529,1,0,0:0:0:0:
448,192,119529,1,0,0:0:0:0:
192,192,119729,1,0,0:0:0:0:
320,192,119729,1,0,0:0:0:0:
192,192,119829,1,0,0:0:0:0:
320,192,119829,1,0,0:0:0:0:
64,192,119929,1,0,0:0:0:45:hitclap.wav
192,192,119929,1,0,0:0:0:0:
448,192,119929,1,0,0:0:0:0:
64,192,120129,1,0,0:0:0:45:hitclap.wav
320,192,120129,1,0,0:0:0:0:
448,192,120129,1,0,0:0:0:0:
192,192,120329,1,0,0:0:0:0:
320,192,120329,1,0,0:0:0:0:
64,192,120429,1,0,0:0:0:45:hitclap.wav
192,192,120429,1,0,0:0:0:0:
448,192,120429,1,0,0:0:0:0:
192,192,120629,1,0,0:0:0:0:
320,192,120629,1,0,0:0:0:0:
64,192,120729,1,0,0:0:0:45:hitclap.wav
320,192,120729,1,0,0:0:0:0:
448,192,120729,1,0,0:0:0:0:
64,192,120929,1,0,0:0:0:45:hitclap.wav
192,192,120929,1,0,0:0:0:65:hitfinish.wav
320,192,120929,1,0,0:0:0:0:
448,192,120929,128,0,121329:0:0:0:0:
64,192,121329,128,0,121729:0:0:0:0:
320,192,121729,1,0,0:0:0:45:hitclap.wav
448,192,121729,1,0,0:0:0:65:hitfinish.wav
64,192,121829,1,0,0:0:0:0:
192,192,121829,1,0,0:0:0:0:
192,192,121929,1,0,0:0:0:0:
320,192,121929,1,0,0:0:0:0:
64,192,122029,1,0,0:0:0:0:
448,192,122029,1,0,0:0:0:0:
192,192,122129,1,0,0:0:0:45:hitclap.wav
320,192,122129,1,0,0:0:0:0:
448,192,122129,1,0,0:0:0:0:
64,192,122229,1,0,0:0:0:0:
320,192,122229,1,0,0:0:0:0:
64,192,122329,1,0,0:0:0:0:
192,192,122329,1,0,0:0:0:0:
320,192,122429,1,0,0:0:0:0:
448,192,122429,1,0,0:0:0:0:
64,192,122529,1,0,0:0:0:45:hitclap.wav
192,192,122529,1,0,0:0:0:0:
448,192,122529,1,0,0:0:0:0:
192,192,122629,1,0,0:0:0:0:
320,192,122629,1,0,0:0:0:0:
320,192,122729,1,0,0:0:0:0:
448,192,122729,1,0,0:0:0:0:
64,192,122829,1,0,0:0:0:0:
192,192,122829,1,0,0:0:0:0:
64,192,122929,1,0,0:0:0:45:hitclap.wav
320,192,122929,1,0,0:0:0:0:
448,192,122929,1,0,0:0:0:0:
192,192,123029,1,0,0:0:0:0:
320,192,123029,1,0,0:0:0:0:
192,192,123129,1,0,0:0:0:0:
448,192,123129,1,0,0:0:0:0:
64,192,123229,1,0,0:0:0:0:
320,192,123229,1,0,0:0:0:0:
192,192,123329,1,0,0:0:0:45:hitclap.wav
320,192,123329,1,0,0:0:0:65:hitfinish.wav
448,192,123329,1,0,0:0:0:0:
64,192,123429,1,0,0:0:0:0:
192,192,123429,1,0,0:0:0:0:
64,192,123529,1,0,0:0:0:0:
448,192,123529,1,0,0:0:0:0:
320,192,123629,1,0,0:0:0:0:
448,192,123629,1,0,0:0:0:0:
64,192,123729,1,0,0:0:0:45:hitclap.wav
192,192,123729,1,0,0:0:0:0:
320,192,123729,1,0,0:0:0:0:
64,192,123829,1,0,0:0:0:0:
448,192,123829,1,0,0:0:0:0:
192,192,123929,1,0,0:0:0:0:
448,192,123929,1,0,0:0:0:0:
64,192,124029,1,0,0:0:0:0:
320,192,124029,1,0,0:0:0:0:
64,192,124129,1,0,0:0:0:45:hitclap.wav
192,192,124129,1,0,0:0:0:0:
448,192,124129,1,0,0:0:0:0:
192,192,124229,1,0,0:0:0:0:
320,192,124229,1,0,0:0:0:0:
320,192,124329,1,0,0:0:0:0:
448,192,124329,1,0,0:0:0:0:
64,192,124429,1,0,0:0:0:0:
192,192,124429,1,0,0:0:0:0:
64,192,124529,1,0,0:0:0:45:hitclap.wav
320,192,124529,1,0,0:0:0:0:
448,192,124529,1,0,0:0:0:0:
192,192,124629,1,0,0:0:0:0:
448,192,124629,1,0,0:0:0:0:
64,192,124729,1,0,0:0:0:0:
192,192,124729,1,0,0:0:0:0:
320,192,124829,1,0,0:0:0:0:
448,192,124829,1,0,0:0:0:0:
64,192,124929,1,0,0:0:0:45:hitclap.wav
192,192,124929,1,0,0:0:0:65:hitfinish.wav
448,192,124929,1,0,0:0:0:0:
192,192,125029,1,0,0:0:0:0:
320,192,125029,1,0,0:0:0:0:
64,192,125129,1,0,0:0:0:0:
448,192,125129,1,0,0:0:0:0:
320,192,125229,1,0,0:0:0:0:
448,192,125229,1,0,0:0:0:0:
64,192,125329,1,0,0:0:0:45:hitclap.wav
192,192,125329,1,0,0:0:0:0:
320,192,125329,1,0,0:0:0:0:
192,192,125429,1,0,0:0:0:0:
448,192,125429,1,0,0:0:0:0:
320,192,125529,1,0,0:0:0:0:
448,192,125529,1,0,0:0:0:0:
64,192,125629,1,0,0:0:0:0:
192,192,125629,1,0,0:0:0:0:
64,192,125729,1,0,0:0:0:45:hitclap.wav
320,192,125729,1,0,0:0:0:0:
448,192,125729,1,0,0:0:0:0:
192,192,125829,1,0,0:0:0:0:
320,192,125829,1,0,0:0:0:0:
64,192,125929,1,0,0:0:0:0:
448,192,125929,1,0,0:0:0:0:
64,192,126029,1,0,0:0:0:0:
192,192,126029,1,0,0:0:0:0:
192,192,126129,1,0,0:0:0:45:hitclap.wav
320,192,126129,1,0,0:0:0:0:
448,192,126129,1,0,0:0:0:0:
64,192,126229,1,0,0:0:0:0:
448,192,126229,1,0,0:0:0:0:
64,192,126329,1,0,0:0:0:0:
192,192,126329,1,0,0:0:0:0:
320,192,126429,1,0,0:0:0:0:
448,192,126429,1,0,0:0:0:0:
64,192,126529,1,0,0:0:0:45:hitclap.wav
192,192,126529,1,0,0:0:0:65:hitfinish.wav
448,192,126529,1,0,0:0:0:0:
192,192,126629,1,0,0:0:0:0:
320,192,126629,1,0,0:0:0:0:
64,192,126729,1,0,0:0:0:0:
320,192,126729,1,0,0:0:0:0:
192,192,126829,1,0,0:0:0:0:
448,192,126829,1,0,0:0:0:0:
64,192,126929,1,0,0:0:0:45:hitclap.wav
192,192,126929,1,0,0:0:0:0:
320,192,126929,1,0,0:0:0:0:
320,192,127029,1,0,0:0:0:0:
448,192,127029,1,0,0:0:0:0:
192,192,127129,1,0,0:0:0:0:
448,192,127129,1,0,0:0:0:0:
64,192,127229,1,0,0:0:0:0:
320,192,127229,1,0,0:0:0:0:
64,192,127329,1,0,0:0:0:45:hitclap.wav
192,192,127329,1,0,0:0:0:0:
448,192,127329,1,0,0:0:0:0:
192,192,127429,1,0,0:0:0:0:
320,192,127429,1,0,0:0:0:0:
64,192,127529,1,0,0:0:0:45:hitclap.wav
320,192,127529,1,0,0:0:0:0:
448,192,127529,1,0,0:0:0:0:
64,192,127629,1,0,0:0:0:45:hitclap.wav
192,192,127629,1,0,0:0:0:0:
320,192,127729,1,0,0:0:0:45:hitclap.wav
448,192,127729,1,0,0:0:0:0:
64,192,127829,1,0,0:0:0:45:hitclap.wav
192,192,127829,1,0,0:0:0:0:
64,192,127929,1,0,0:0:0:0:
320,192,127929,1,0,0:0:0:0:
448,192,127929,1,0,0:0:0:0:
192,192,128029,1,0,0:0:0:0:
448,192,128029,1,0,0:0:0:0:
64,192,128129,128,0,128729:0:0:0:65:hitfinish.wav
320,192,128129,1,0,0:0:0:0:
192,192,128229,1,0,0:0:0:0:
448,192,128229,1,0,0:0:0:0:
320,192,128329,1,0,0:0:0:45:hitclap.wav
448,192,128329,1,0,0:0:0:0:
192,192,128529,1,0,0:0:0:0:
320,192,128529,1,0,0:0:0:0:
192,192,128729,1,0,0:0:0:45:hitclap.wav
320,192,128729,1,0,0:0:0:0:
448,192,128729,1,0,0:0:0:0:
192,192,128929,128,0,129429:0:0:0:0:
448,192,128929,1,0,0:0:0:0:
64,192,129029,1,0,0:0:0:0:
320,192,129029,1,0,0:0:0:0:
320,192,129129,1,0,0:0:0:45:hitclap.wav
448,192,129129,1,0,0:0:0:0:
64,192,129229,1,0,0:0:0:0:
448,192,129229,1,0,0:0:0:0:
320,192,129429,1,0,0:0:0:0:
448,192,129429,1,0,0:0:0:0:
64,192,129529,1,0,0:0:0:45:hitclap.wav
192,192,129529,1,0,0:0:0:0:
320,192,129529,1,0,0:0:0:0:
192,192,129729,1,0,0:0:0:0:
320,192,129729,128,0,130129:0:0:0:0:
64,192,129829,1,0,0:0:0:0:
192,192,129829,1,0,0:0:0:0:
64,192,129929,1,0,0:0:0:45:hitclap.wav
448,192,129929,1,0,0:0:0:0:
64,192,130129,1,0,0:0:0:0:
192,192,130129,1,0,0:0:0:0:
64,192,130229,1,0,0:0:0:0:
192,192,130229,1,0,0:0:0:0:
64,192,130329,1,0,0:0:0:45:hitclap.wav
320,192,130329,1,0,0:0:0:0:
448,192,130329,1,0,0:0:0:0:
320,192,130529,1,0,0:0:0:0:
448,192,130529,128,0,131129:0:0:0:0:
64,192,130629,1,0,0:0:0:0:
192,192,130629,1,0,0:0:0:0:
64,192,130729,1,0,0:0:0:45:hitclap.wav
320,192,130729,1,0,0:0:0:0:
192,192,130829,1,0,0:0:0:0:
320,192,130829,1,0,0:0:0:0:
64,192,131029,1,0,0:0:0:0:
192,192,131029,1,0,0:0:0:0:
64,192,131129,1,0,0:0:0:45:hitclap.wav
192,192,131129,1,0,0:0:0:0:
320,192,131129,1,0,0:0:0:0:
320,192,131229,1,0,0:0:0:45:hitclap.wav
448,192,131229,1,0,0:0:0:0:
64,192,131329,1,0,0:0:0:45:hitclap.wav
192,192,131329,1,0,0:0:0:65:hitfinish.wav
448,192,131329,1,0,0:0:0:0:
192,192,131429,1,0,0:0:0:0:
64,192,131529,1,0,0:0:0:45:hitclap.wav
320,192,131529,1,0,0:0:0:0:
448,192,131529,1,0,0:0:0:0:
64,192,131629,1,0,0:0:0:0:
192,192,131729,1,0,0:0:0:45:hitclap.wav
320,192,131729,1,0,0:0:0:0:
448,192,131729,1,0,0:0:0:0:
448,192,131829,1,0,0:0:0:0:
64,192,131929,1,0,0:0:0:45:hitclap.wav
192,192,131929,1,0,0:0:0:0:
320,192,131929,1,0,0:0:0:0:
64,192,132029,1,0,0:0:0:0:
192,192,132129,1,0,0:0:0:45:hitclap.wav
320,192,132129,1,0,0:0:0:0:
448,192,132129,1,0,0:0:0:0:
320,192,132229,1,0,0:0:0:0:
64,192,132329,1,0,0:0:0:45:hitclap.wav
192,192,132329,1,0,0:0:0:0:
448,192,132329,1,0,0:0:0:0:
64,192,132429,1,0,0:0:0:0:
192,192,132529,1,0,0:0:0:45:hitclap.wav
320,192,132529,1,0,0:0:0:0:
448,192,132529,1,0,0:0:0:0:
448,192,132629,1,0,0:0:0:0:
64,192,132729,1,0,0:0:0:45:hitclap.wav
192,192,132729,1,0,0:0:0:0:
320,192,132729,1,0,0:0:0:0:
192,192,132829,1,0,0:0:0:0:
64,192,132929,1,0,0:0:0:45:hitclap.wav
320,192,132929,1,0,0:0:0:0:
448,192,132929,1,0,0:0:0:0:
320,192,133029,1,0,0:0:0:0:
64,192,133129,1,0,0:0:0:45:hitclap.wav
192,192,133129,1,0,0:0:0:0:
448,192,133129,1,0,0:0:0:0:
448,192,133229,1,0,0:0:0:0:
64,192,133329,1,0,0:0:0:45:hitclap.wav
192,192,133329,1,0,0:0:0:0:
320,192,133329,1,0,0:0:0:0:
64,192,133429,1,0,0:0:0:0:
192,192,133529,1,0,0:0:0:45:hitclap.wav
320,192,133529,1,0,0:0:0:0:
448,192,133529,1,0,0:0:0:0:
192,192,133629,1,0,0:0:0:0:
64,192,133729,1,0,0:0:0:45:hitclap.wav
320,192,133729,1,0,0:0:0:0:
448,192,133729,1,0,0:0:0:0:
448,192,133829,1,0,0:0:0:0:
64,192,133929,1,0,0:0:0:45:hitclap.wav
192,192,133929,1,0,0:0:0:0:
320,192,133929,1,0,0:0:0:0:
320,192,134029,1,0,0:0:0:45:hitclap.wav
448,192,134029,1,0,0:0:0:0:
64,192,134129,1,0,0:0:0:45:hitclap.wav
192,192,134129,1,0,0:0:0:0:
320,192,134229,1,0,0:0:0:45:hitclap.wav
448,192,134229,1,0,0:0:0:0:
64,192,134329,1,0,0:0:0:45:hitclap.wav
192,192,134329,1,0,0:0:0:0:
320,192,134429,1,0,0:0:0:45:hitclap.wav
448,192,134429,1,0,0:0:0:0:
64,192,134529,1,0,0:0:0:45:hitclap.wav
192,192,134529,1,0,0:0:0:65:hitfinish.wav
448,192,134529,1,0,0:0:0:0:
64,192,134629,1,0,0:0:0:0:
320,192,134629,1,0,0:0:0:0:
192,192,134729,1,0,0:0:0:0:
320,192,134729,1,0,0:0:0:0:
64,192,134829,1,0,0:0:0:0:
448,192,134829,1,0,0:0:0:0:
64,192,134929,1,0,0:0:0:45:hitclap.wav
192,192,134929,1,0,0:0:0:0:
320,192,134929,1,0,0:0:0:0:
192,192,135029,1,0,0:0:0:0:
448,192,135029,1,0,0:0:0:0:
320,192,135129,1,0,0:0:0:0:
448,192,135129,1,0,0:0:0:0:
64,192,135229,1,0,0:0:0:0:
192,192,135229,1,0,0:0:0:0:
64,192,135329,1,0,0:0:0:45:hitclap.wav
320,192,135329,1,0,0:0:0:0:
448,192,135329,1,0,0:0:0:0:
192,192,135429,1,0,0:0:0:0:
320,192,135429,1,0,0:0:0:0:
64,192,135529,1,0,0:0:0:0:
192,192,135529,1,0,0:0:0:0:
320,192,135629,1,0,0:0:0:0:
448,192,135629,1,0,0:0:0:0:
64,192,135729,1,0,0:0:0:45:hitclap.wav
192,192,135729,1,0,0:0:0:0:
448,192,135729,1,0,0:0:0:0:
192,192,135829,1,0,0:0:0:0:
320,192,135829,1,0,0:0:0:0:
64,192,135929,1,0,0:0:0:0:
320,192,135929,1,0,0:0:0:0:
192,192,136029,1,0,0:0:0:0:
448,192,136029,1,0,0:0:0:0:
64,192,136129,1,0,0:0:0:45:hitclap.wav
192,192,136129,1,0,0:0:0:65:hitfinish.wav
320,192,136129,1,0,0:0:0:0:
320,192,136229,1,0,0:0:0:0:
448,192,136229,1,0,0:0:0:0:
64,192,136329,1,0,0:0:0:0:
448,192,136329,1,0,0:0:0:0:
64,192,136429,1,0,0:0:0:0:
192,192,136429,1,0,0:0:0:0:
192,192,136529,1,0,0:0:0:45:hitclap.wav
320,192,136529,1,0,0:0:0:0:
448,192,136529,1,0,0:0:0:0:
64,192,136629,1,0,0:0:0:0:
448,192,136629,1,0,0:0:0:0:
64,192,136729,1,0,0:0:0:0:
320,192,136729,1,0,0:0:0:0:
192,192,136829,1,0,0:0:0:0:
448,192,136829,1,0,0:0:0:0:
64,192,136929,1,0,0:0:0:45:hitclap.wav
320,192,136929,1,0,0:0:0:0:
448,192,136929,1,0,0:0:0:0:
192,192,137029,1,0,0:0:0:0:
320,192,137029,1,0,0:0:0:0:
64,192,137129,1,0,0:0:0:0:
192,192,137129,1,0,0:0:0:0:
320,192,137229,1,0,0:0:0:0:
448,192,137229,1,0,0:0:0:0:
64,192,137329,1,0,0:0:0:45:hitclap.wav
192,192,137329,1,0,0:0:0:0:
448,192,137329,1,0,0:0:0:0:
64,192,137429,1,0,0:0:0:0:
320,192,137429,1,0,0:0:0:0:
320,192,137529,1,0,0:0:0:0:
448,192,137529,1,0,0:0:0:0:
64,192,137629,1,0,0:0:0:0:
192,192,137629,1,0,0:0:0:0:
64,192,137729,1,0,0:0:0:45:hitclap.wav
320,192,137729,1,0,0:0:0:65:hitfinish.wav
448,192,137729,1,0,0:0:0:0:
192,192,137829,1,0,0:0:0:0:
320,192,137829,1,0,0:0:0:0:
64,192,137929,1,0,0:0:0:0:
448,192,137929,1,0,0:0:0:0:
64,192,138029,1,0,0:0:0:0:
192,192,138029,1,0,0:0:0:0:
192,192,138129,1,0,0:0:0:45:hitclap.wav
320,192,138129,1,0,0:0:0:0:
448,192,138129,1,0,0:0:0:0:
64,192,138229,1,0,0:0:0:0:
320,192,138229,1,0,0:0:0:0:
64,192,138329,1,0,0:0:0:0:
192,192,138329,1,0,0:0:0:0:
320,192,138429,1,0,0:0:0:0:
448,192,138429,1,0,0:0:0:0:
64,192,138529,1,0,0:0:0:45:hitclap.wav
192,192,138529,1,0,0:0:0:0:
448,192,138529,1,0,0:0:0:0:
192,192,138629,1,0,0:0:0:0:
320,192,138629,1,0,0:0:0:0:
64,192,138729,1,0,0:0:0:0:
448,192,138729,1,0,0:0:0:0:
320,192,138829,1,0,0:0:0:0:
448,192,138829,1,0,0:0:0:0:
64,192,138929,1,0,0:0:0:45:hitclap.wav
192,192,138929,1,0,0:0:0:0:
320,192,138929,1,0,0:0:0:0:
64,192,139029,1,0,0:0:0:0:
448,192,139029,1,0,0:0:0:0:
320,192,139129,1,0,0:0:0:0:
448,192,139129,1,0,0:0:0:0:
64,192,139229,1,0,0:0:0:0:
192,192,139229,1,0,0:0:0:0:
64,192,139329,1,0,0:0:0:45:hitclap.wav
320,192,139329,1,0,0:0:0:65:hitfinish.wav
448,192,139329,1,0,0:0:0:0:
192,192,139429,1,0,0:0:0:0:
320,192,139429,1,0,0:0:0:0:
192,192,139529,1,0,0:0:0:0:
448,192,139529,1,0,0:0:0:0:
64,192,139629,1,0,0:0:0:0:
320,192,139629,1,0,0:0:0:0:
192,192,139729,1,0,0:0:0:45:hitclap.wav
320,192,139729,1,0,0:0:0:0:
448,192,139729,1,0,0:0:0:0:
64,192,139829,1,0,0:0:0:0:
192,192,139829,1,0,0:0:0:0:
64,192,139929,1,0,0:0:0:0:
320,192,139929,1,0,0:0:0:0:
192,192,140029,1,0,0:0:0:0:
448,192,140029,1,0,0:0:0:0:
64,192,140129,1,0,0:0:0:45:hitclap.wav
320,192,140129,1,0,0:0:0:0:
448,192,140129,1,0,0:0:0:0:
192,192,140229,1,0,0:0:0:0:
320,192,140229,1,0,0:0:0:0:
64,192,140329,1,0,0:0:0:45:hitclap.wav
192,192,140329,1,0,0:0:0:0:
448,192,140329,1,0,0:0:0:0:
320,192,140429,1,0,0:0:0:45:hitclap.wav
448,192,140429,1,0,0:0:0:0:
64,192,140529,1,0,0:0:0:45:hitclap.wav
192,192,140529,1,0,0:0:0:0:
320,192,140629,1,0,0:0:0:45:hitclap.wav
448,192,140629,1,0,0:0:0:0:
64,192,140729,1,0,0:0:0:0:
192,192,140729,1,0,0:0:0:0:
320,192,140729,1,0,0:0:0:0:
192,192,140829,1,0,0:0:0:0:
448,192,140829,1,0,0:0:0:0:
64,192,140929,128,0,141329:0:0:0:65:hitfinish.wav
320,192,140929,1,0,0:0:0:0:
192,192,141029,1,0,0:0:0:0:
448,192,141029,1,0,0:0:0:0:
320,192,141129,1,0,0:0:0:45:hitclap.wav
448,192,141129,1,0,0:0:0:0:
192,192,141329,1,0,0:0:0:0:
320,192,141329,1,0,0:0:0:0:
64,192,141429,1,0,0:0:0:0:
448,192,141429,1,0,0:0:0:0:
192,192,141529,1,0,0:0:0:45:hitclap.wav
320,192,141529,1,0,0:0:0:0:
448,192,141529,1,0,0:0:0:0:
192,192,141729,128,0,142229:0:0:0:0:
448,192,141729,1,0,0:0:0:0:
64,192,141829,1,0,0:0:0:0:
320,192,141829,1,0,0:0:0:0:
320,192,141929,1,0,0:0:0:45:hitclap.wav
448,192,141929,1,0,0:0:0:0:
64,192,142029,1,0,0:0:0:0:
448,192,142029,1,0,0:0:0:0:
320,192,142229,1,0,0:0:0:0:
448,192,142229,1,0,0:0:0:0:
64,192,142329,1,0,0:0:0:45:hitclap.wav
192,192,142329,1,0,0:0:0:0:
320,192,142329,1,0,0:0:0:0:
192,192,142529,1,0,0:0:0:0:
320,192,142529,128,0,142929:0:0:0:0:
64,192,142629,1,0,0:0:0:0:
192,192,142629,1,0,0:0:0:0:
64,192,142729,1,0,0:0:0:45:hitclap.wav
448,192,142729,1,0,0:0:0:0:
64,192,142929,1,0,0:0:0:0:
192,192,142929,1,0,0:0:0:0:
64,192,143029,1,0,0:0:0:0:
192,192,143029,1,0,0:0:0:0:
64,192,143129,1,0,0:0:0:45:hitclap.wav
320,192,143129,1,0,0:0:0:0:
448,192,143129,1,0,0:0:0:0:
320,192,143329,1,0,0:0:0:0:
448,192,143329,128,0,143929:0:0:0:0:
64,192,143429,1,0,0:0:0:0:
192,192,143429,1,0,0:0:0:0:
64,192,143529,1,0,0:0:0:45:hitclap.wav
320,192,143529,1,0,0:0:0:0:
192,192,143629,1,0,0:0:0:0:
320,192,143629,1,0,0:0:0:0:
64,192,143829,1,0,0:0:0:0:
192,192,143829,1,0,0:0:0:0:
64,192,143929,1,0,0:0:0:45:hitclap.wav
192,192,143929,1,0,0:0:0:0:
320,192,143929,1,0,0:0:0:0:
320,192,144029,1,0,0:0:0:45:hitclap.wav
448,192,144029,1,0,0:0:0:0:
64,192,144129,1,0,0:0:0:45:hitclap.wav
192,192,144129,1,0,0:0:0:65:hitfinish.wav
448,192,144129,1,0,0:0:0:0:
192,192,144229,1,0,0:0:0:0:
64,192,144329,1,0,0:0:0:45:hitclap.wav
320,192,144329,1,0,0:0:0:0:
448,192,144329,1,0,0:0:0:0:
64,192,144429,1,0,0:0:0:0:
192,192,144529,1,0,0:0:0:45:hitclap.wav
320,192,144529,1,0,0:0:0:0:
448,192,144529,1,0,0:0:0:0:
448,192,144629,1,0,0:0:0:0:
64,192,144729,1,0,0:0:0:45:hitclap.wav
192,192,144729,1,0,0:0:0:0:
320,192,144729,1,0,0:0:0:0:
64,192,144829,1,0,0:0:0:0:
192,192,144929,1,0,0:0:0:45:hitclap.wav
320,192,144929,1,0,0:0:0:0:
448,192,144929,1,0,0:0:0:0:
320,192,145029,1,0,0:0:0:0:
64,192,145129,1,0,0:0:0:45:hitclap.wav
192,192,145129,1,0,0:0:0:0:
448,192,145129,1,0,0:0:0:0:
64,192,145229,1,0,0:0:0:0:
192,192,145329,1,0,0:0:0:45:hitclap.wav
320,192,145329,1,0,0:0:0:0:
448,192,145329,1,0,0:0:0:0:
448,192,145429,1,0,0:0:0:0:
64,192,145529,1,0,0:0:0:45:hitclap.wav
192,192,145529,1,0,0:0:0:0:
320,192,145529,1,0,0:0:0:0:
192,192,145629,1,0,0:0:0:0:
64,192,145729,1,0,0:0:0:45:hitclap.wav
320,192,145729,1,0,0:0:0:0:
448,192,145729,1,0,0:0:0:0:
320,192,145829,1,0,0:0:0:0:
64,192,145929,1,0,0:0:0:45:hitclap.wav
192,192,145929,1,0,0:0:0:0:
448,192,145929,1,0,0:0:0:0:
448,192,146029,1,0,0:0:0:0:
64,192,146129,1,0,0:0:0:45:hitclap.wav
192,192,146129,1,0,0:0:0:0:
320,192,146129,1,0,0:0:0:0:
64,192,146229,1,0,0:0:0:0:
192,192,146329,1,0,0:0:0:45:hitclap.wav
320,192,146329,1,0,0:0:0:0:
448,192,146329,1,0,0:0:0:0:
192,192,146429,1,0,0:0:0:0:
64,192,146529,1,0,0:0:0:45:hitclap.wav
320,192,146529,1,0,0:0:0:0:
448,192,146529,1,0,0:0:0:0:
448,192,146629,1,0,0:0:0:0:
64,192,146729,1,0,0:0:0:45:hitclap.wav
192,192,146729,1,0,0:0:0:0:
320,192,146729,1,0,0:0:0:0:
320,192,146829,1,0,0:0:0:45:hitclap.wav
64,192,146929,1,0,0:0:0:45:hitclap.wav
192,192,146929,1,0,0:0:0:0:
320,192,147029,1,0,0:0:0:45:hitclap.wav
448,192,147029,1,0,0:0:0:0:
64,192,147129,1,0,0:0:0:45:hitclap.wav
192,192,147129,1,0,0:0:0:0:
320,192,147229,1,0,0:0:0:45:hitclap.wav
448,192,147229,1,0,0:0:0:0:
64,192,147329,1,0,0:0:0:45:hitclap.wav
192,192,147329,1,0,0:0:0:0:
448,192,147329,1,0,0:0:0:0:
64,192,147529,1,0,0:0:0:0:
320,192,147529,1,0,0:0:0:0:
192,192,147629,1,0,0:0:0:45:hitclap.wav
320,192,147629,1,0,0:0:0:0:
448,192,147629,1,0,0:0:0:0:
192,192,147829,1,0,0:0:0:0:
448,192,147829,1,0,0:0:0:0:
64,192,147929,1,0,0:0:0:45:hitclap.wav
320,192,147929,1,0,0:0:0:0:
448,192,147929,1,0,0:0:0:0:
64,192,148129,1,0,0:0:0:0:
192,192,148229,1,0,0:0:0:0:
320,192,148329,1,0,0:0:0:0:
448,192,148429,1,0,0:0:0:0:
64,192,148529,128,0,148729:0:0:0:65:hitfinish.wav
192,192,148529,1,0,0:0:0:0:
320,192,148529,1,0,0:0:0:0:
448,192,148629,1,0,0:0:0:0:
192,192,148729,1,0,0:0:0:0:
64,192,148829,1,0,0:0:0:0:
192,192,148929,1,0,0:0:0:45:hitclap.wav
320,192,148929,1,0,0:0:0:65:hitfinish.wav
448,192,148929,1,0,0:0:0:0:
64,192,149129,1,0,0:0:0:45:hitclap.wav
320,192,149129,1,0,0:0:0:0:
448,192,149129,1,0,0:0:0:0:
64,192,149329,1,0,0:0:0:0:
192,192,149329,1,0,0:0:0:0:
64,192,149429,1,0,0:0:0:0:
192,192,149429,1,0,0:0:0:0:
64,192,149529,1,0,0:0:0:45:hitclap.wav
320,192,149529,1,0,0:0:0:0:
448,192,149529,1,0,0:0:0:0:
192,192,149629,1,0,0:0:0:0:
320,192,149729,1,0,0:0:0:0:
448,192,149729,1,0,0:0:0:0:
320,192,149829,1,0,0:0:0:0:
448,192,149829,1,0,0:0:0:0:
64,192,149929,1,0,0:0:0:45:hitclap.wav
192,192,149929,1,0,0:0:0:0:
448,192,149929,1,0,0:0:0:0:
64,192,150029,1,0,0:0:0:0:
320,192,150029,1,0,0:0:0:0:
192,192,150129,1,0,0:0:0:0:
192,192,150229,1,0,0:0:0:0:
320,192,150229,1,0,0:0:0:0:
64,192,150329,1,0,0:0:0:45:hitclap.wav
320,192,150329,1,0,0:0:0:0:
448,192,150329,1,0,0:0:0:0:
64,192,150529,1,0,0:0:0:0:
192,192,150529,1,0,0:0:0:0:
448,192,150629,1,0,0:0:0:0:
64,192,150729,1,0,0:0:0:45:hitclap.wav
192,192,150729,1,0,0:0:0:0:
320,192,150729,1,0,0:0:0:0:
448,192,150829,1,0,0:0:0:0:
64,192,150929,1,0,0:0:0:0:
192,192,150929,1,0,0:0:0:0:
64,192,151029,1,0,0:0:0:0:
192,192,151029,1,0,0:0:0:0:
64,192,151129,1,0,0:0:0:45:hitclap.wav
320,192,151129,1,0,0:0:0:0:
448,192,151129,1,0,0:0:0:0:
320,192,151329,1,0,0:0:0:0:
448,192,151329,1,0,0:0:0:0:
320,192,151429,1,0,0:0:0:0:
448,192,151429,1,0,0:0:0:0:
64,192,151529,1,0,0:0:0:45:hitclap.wav
192,192,151529,1,0,0:0:0:0:
448,192,151529,1,0,0:0:0:0:
64,192,151629,1,0,0:0:0:0:
192,192,151629,1,0,0:0:0:0:
320,192,151729,1,0,0:0:0:0:
192,192,151829,1,0,0:0:0:0:
448,192,151829,1,0,0:0:0:0:
64,192,151929,1,0,0:0:0:45:hitclap.wav
320,192,151929,1,0,0:0:0:0:
448,192,151929,1,0,0:0:0:0:
64,192,152129,1,0,0:0:0:65:hitfinish.wav
320,192,152129,1,0,0:0:0:0:
448,192,152129,1,0,0:0:0:0:
192,192,152262,1,0,0:0:0:0:
320,192,152262,1,0,0:0:0:0:
448,192,152262,1,0,0:0:0:0:
64,192,152329,1,0,0:0:0:45:hitclap.wav
192,192,152395,1,0,0:0:0:0:
320,192,152395,1,0,0:0:0:0:
448,192,152395,1,0,0:0:0:0:
64,192,152529,1,0,0:0:0:0:
192,192,152529,1,0,0:0:0:0:
448,192,152529,1,0,0:0:0:0:
64,192,152662,1,0,0:0:0:0:
192,192,152662,1,0,0:0:0:0:
320,192,152662,1,0,0:0:0:0:
448,192,152729,1,0,0:0:0:45:hitclap.wav
64,192,152795,1,0,0:0:0:0:
192,192,152795,1,0,0:0:0:0:
320,192,152795,1,0,0:0:0:0:
320,192,152929,1,0,0:0:0:0:
448,192,152929,1,0,0:0:0:0:
320,192,153029,1,0,0:0:0:0:
448,192,153029,1,0,0:0:0:0:
64,192,153129,1,0,0:0:0:45:hitclap.wav
192,192,153129,1,0,0:0:0:0:
448,192,153129,1,0,0:0:0:0:
192,192,153229,1,0,0:0:0:0:
320,192,153229,1,0,0:0:0:0:
64,192,153329,1,0,0:0:0:0:
192,192,153429,1,0,0:0:0:0:
320,192,153429,1,0,0:0:0:0:
64,192,153529,1,0,0:0:0:45:hitclap.wav
320,192,153529,1,0,0:0:0:0:
448,192,153529,1,0,0:0:0:0:
192,192,153629,1,0,0:0:0:0:
320,192,153729,1,0,0:0:0:0:
448,192,153729,1,0,0:0:0:0:
64,192,153929,1,0,0:0:0:45:hitclap.wav
192,192,153929,1,0,0:0:0:0:
448,192,153929,1,0,0:0:0:0:
320,192,154029,1,0,0:0:0:0:
64,192,154129,1,0,0:0:0:0:
192,192,154129,1,0,0:0:0:0:
320,192,154229,1,0,0:0:0:0:
448,192,154229,1,0,0:0:0:0:
64,192,154329,1,0,0:0:0:45:hitclap.wav
192,192,154329,1,0,0:0:0:0:
448,192,154329,1,0,0:0:0:0:
320,192,154429,1,0,0:0:0:0:
192,192,154529,1,0,0:0:0:0:
448,192,154529,1,0,0:0:0:0:
64,192,154629,1,0,0:0:0:0:
192,192,154629,1,0,0:0:0:0:
64,192,154729,1,0,0:0:0:45:hitclap.wav
320,192,154729,1,0,0:0:0:0:
448,192,154729,1,0,0:0:0:0:
192,192,154829,1,0,0:0:0:0:
448,192,154829,1,0,0:0:0:0:
320,192,154929,1,0,0:0:0:0:
64,192,155029,1,0,0:0:0:45:hitclap.wav
192,192,155029,1,0,0:0:0:0:
448,192,155029,1,0,0:0:0:0:
64,192,155129,1,0,0:0:0:45:hitclap.wav
320,192,155129,1,0,0:0:0:0:
192,192,155229,1,0,0:0:0:45:hitclap.wav
320,192,155229,1,0,0:0:0:0:
448,192,155229,1,0,0:0:0:0:
64,192,155329,1,0,0:0:0:45:hitclap.wav
448,192,155329,1,0,0:0:0:65:hitfinish.wav
192,192,155429,1,0,0:0:0:0:
320,192,155429,1,0,0:0:0:0:
64,192,155529,1,0,0:0:0:0:
320,192,155529,1,0,0:0:0:0:
192,192,155629,1,0,0:0:0:0:
448,192,155629,1,0,0:0:0:0:
64,192,155729,1,0,0:0:0:45:hitclap.wav
320,192,155729,1,0,0:0:0:0:
448,192,155729,1,0,0:0:0:0:
64,192,155829,1,0,0:0:0:0:
192,192,155829,1,0,0:0:0:0:
192,192,155929,1,0,0:0:0:0:
320,192,155929,1,0,0:0:0:0:
448,192,155929,1,0,0:0:0:0:
64,192,156029,1,0,0:0:0:0:
448,192,156029,1,0,0:0:0:0:
64,192,156129,1,0,0:0:0:45:hitclap.wav
192,192,156129,1,0,0:0:0:0:
320,192,156129,1,0,0:0:0:0:
320,192,156229,1,0,0:0:0:0:
448,192,156229,1,0,0:0:0:0:
64,192,156329,1,0,0:0:0:0:
192,192,156329,1,0,0:0:0:0:
320,192,156429,1,0,0:0:0:0:
448,192,156429,1,0,0:0:0:0:
64,192,156529,1,0,0:0:0:45:hitclap.wav
192,192,156529,1,0,0:0:0:0:
448,192,156529,1,0,0:0:0:0:
192,192,156629,1,0,0:0:0:0:
320,192,156629,1,0,0:0:0:0:
64,192,156729,1,0,0:0:0:0:
448,192,156729,1,0,0:0:0:0:
320,192,156829,1,0,0:0:0:0:
448,192,156829,1,0,0:0:0:0:
64,192,156929,1,0,0:0:0:45:hitclap.wav
192,192,156929,1,0,0:0:0:65:hitfinish.wav
320,192,156929,1,0,0:0:0:0:
192,192,157029,1,0,0:0:0:0:
448,192,157029,1,0,0:0:0:0:
64,192,157129,1,0,0:0:0:0:
320,192,157129,1,0,0:0:0:0:
64,192,157229,1,0,0:0:0:0:
448,192,157229,1,0,0:0:0:0:
192,192,157329,1,0,0:0:0:45:hitclap.wav
320,192,157329,1,0,0:0:0:0:
448,192,157329,1,0,0:0:0:0:
64,192,157429,1,0,0:0:0:0:
192,192,157429,1,0,0:0:0:0:
64,192,157529,1,0,0:0:0:0:
448,192,157529,1,0,0:0:0:0:
192,192,157629,1,0,0:0:0:0:
320,192,157629,1,0,0:0:0:0:
64,192,157729,1,0,0:0:0:45:hitclap.wav
320,192,157729,1,0,0:0:0:0:
448,192,157729,1,0,0:0:0:0:
64,192,157829,1,0,0:0:0:0:
192,192,157829,1,0,0:0:0:0:
320,192,157929,1,0,0:0:0:0:
448,192,157929,1,0,0:0:0:0:
192,192,158029,1,0,0:0:0:0:
448,192,158029,1,0,0:0:0:0:
64,192,158129,1,0,0:0:0:45:hitclap.wav
192,192,158129,1,0,0:0:0:0:
320,192,158129,1,0,0:0:0:0:
64,192,158229,1,0,0:0:0:0:
448,192,158229,1,0,0:0:0:0:
192,192,158329,1,0,0:0:0:0:
320,192,158329,1,0,0:0:0:0:
320,192,158429,1,0,0:0:0:0:
448,192,158429,1,0,0:0:0:0:
64,192,158529,1,0,0:0:0:45:hitclap.wav
192,192,158529,1,0,0:0:0:65:hitfinish.wav
448,192,158529,1,0,0:0:0:0:
192,192,158629,1,0,0:0:0:0:
320,192,158629,1,0,0:0:0:0:
64,192,158729,1,0,0:0:0:0:
320,192,158729,1,0,0:0:0:0:
192,192,158829,1,0,0:0:0:0:
448,192,158829,1,0,0:0:0:0:
64,192,158929,1,0,0:0:0:45:hitclap.wav
320,192,158929,1,0,0:0:0:0:
448,192,158929,1,0,0:0:0:0:
192,192,159029,1,0,0:0:0:0:
320,192,159029,1,0,0:0:0:0:
64,192,159129,1,0,0:0:0:0:
448,192,159129,1,0,0:0:0:0:
64,192,159229,1,0,0:0:0:0:
192,192,159229,1,0,0:0:0:0:
192,192,159329,1,0,0:0:0:45:hitclap.wav
320,192,159329,1,0,0:0:0:0:
448,192,159329,1,0,0:0:0:0:
64,192,159429,1,0,0:0:0:0:
320,192,159429,1,0,0:0:0:0:
64,192,159529,1,0,0:0:0:0:
448,192,159529,1,0,0:0:0:0:
320,192,159629,1,0,0:0:0:0:
448,192,159629,1,0,0:0:0:0:
64,192,159729,1,0,0:0:0:45:hitclap.wav
192,192,159729,1,0,0:0:0:0:
320,192,159729,1,0,0:0:0:0:
192,192,159829,1,0,0:0:0:0:
448,192,159829,1,0,0:0:0:0:
64,192,159929,1,0,0:0:0:0:
320,192,159929,1,0,0:0:0:0:
320,192,160029,1,0,0:0:0:0:
448,192,160029,1,0,0:0:0:0:
64,192,160129,1,0,0:0:0:45:hitclap.wav
192,192,160129,1,0,0:0:0:0:
448,192,160129,1,0,0:0:0:0:
192,192,160329,1,0,0:0:0:0:
64,192,160429,1,0,0:0:0:45:hitclap.wav
320,192,160429,1,0,0:0:0:0:
448,192,160429,1,0,0:0:0:0:
448,192,160529,1,0,0:0:0:0:
64,192,160729,1,0,0:0:0:45:hitclap.wav
192,192,160729,1,0,0:0:0:0:
448,192,160729,1,0,0:0:0:0:
64,192,160829,1,0,0:0:0:45:hitclap.wav
320,192,160829,1,0,0:0:0:0:
448,192,160829,1,0,0:0:0:0:
192,192,160929,1,0,0:0:0:0:
320,192,160929,1,0,0:0:0:0:
64,192,161029,1,0,0:0:0:0:
192,192,161029,1,0,0:0:0:0:
320,192,161129,1,0,0:0:0:0:
448,192,161129,1,0,0:0:0:0:
64,192,161229,1,0,0:0:0:0:
192,192,161229,1,0,0:0:0:0:
192,192,161329,128,0,161429:0:0:0:45:hitclap.wav
320,192,161329,1,0,0:0:0:0:
64,192,161429,1,0,0:0:0:45:hitclap.wav
448,192,161429,128,0,161529:0:0:0:0:
320,192,161529,128,0,161629:0:0:0:45:hitclap.wav
192,192,161629,128,0,161729:0:0:0:45:hitclap.wav
64,192,161729,1,0,0:0:0:70:drum-hitnormal.wav
448,192,161729,1,0,0:0:0:65:hitfinish.wav
320,192,161779,1,0,0:0:0:0:
192,192,161829,1,0,0:0:0:0:
64,192,161879,1,0,0:0:0:0:
320,192,161929,1,0,0:0:0:45:hitclap.wav
448,192,161929,1,0,0:0:0:0:
192,192,161979,1,0,0:0:0:0:
320,192,162029,1,0,0:0:0:0:
448,192,162079,1,0,0:0:0:0:
64,192,162129,1,0,0:0:0:0:
192,192,162129,1,0,0:0:0:0:
192,192,162229,1,0,0:0:0:0:
320,192,162229,1,0,0:0:0:0:
64,192,162329,1,0,0:0:0:45:hitclap.wav
320,192,162329,1,0,0:0:0:0:
448,192,162329,1,0,0:0:0:0:
192,192,162529,1,0,0:0:0:0:
320,192,162529,1,0,0:0:0:0:
64,192,162729,1,0,0:0:0:45:hitclap.wav
320,192,162729,1,0,0:0:0:0:
448,192,162729,1,0,0:0:0:0:
192,192,162929,1,0,0:0:0:0:
320,192,162929,1,0,0:0:0:0:
64,192,163029,1,0,0:0:0:0:
448,192,163029,1,0,0:0:0:0:
64,192,163129,1,0,0:0:0:45:hitclap.wav
192,192,163129,1,0,0:0:0:0:
320,192,163129,1,0,0:0:0:0:
192,192,163229,1,0,0:0:0:0:
320,192,163329,1,0,0:0:0:70:drum-hitnormal.wav
448,192,163329,1,0,0:0:0:0:
192,192,163379,1,0,0:0:0:0:
64,192,163429,1,0,0:0:0:0:
320,192,163479,1,0,0:0:0:0:
192,192,163529,1,0,0:0:0:45:hitclap.wav
448,192,163529,1,0,0:0:0:0:
64,192,163579,1,0,0:0:0:0:
448,192,163629,1,0,0:0:0:0:
192,192,163679,1,0,0:0:0:0:
320,192,163729,1,0,0:0:0:0:
64,192,163829,1,0,0:0:0:0:
192,192,163829,1,0,0:0:0:0:
64,192,163929,1,0,0:0:0:45:hitclap.wav
320,192,163929,1,0,0:0:0:0:
448,192,163929,1,0,0:0:0:0:
64,192,164129,1,0,0:0:0:0:
192,192,164129,1,0,0:0:0:0:
192,192,164329,1,0,0:0:0:45:hitclap.wav
320,192,164329,1,0,0:0:0:0:
448,192,164329,1,0,0:0:0:0:
64,192,164529,1,0,0:0:0:0:
448,192,164529,1,0,0:0:0:0:
64,192,164629,1,0,0:0:0:0:
320,192,164629,1,0,0:0:0:0:
192,192,164729,1,0,0:0:0:45:hitclap.wav
320,192,164729,1,0,0:0:0:0:
448,192,164729,1,0,0:0:0:0:
64,192,164929,1,0,0:0:0:70:drum-hitnormal.wav
192,192,164929,1,0,0:0:0:0:
448,192,164979,1,0,0:0:0:0:
320,192,165029,1,0,0:0:0:0:
64,192,165079,1,0,0:0:0:0:
320,192,165129,1,0,0:0:0:45:hitclap.wav
448,192,165129,1,0,0:0:0:0:
192,192,165179,1,0,0:0:0:0:
64,192,165229,1,0,0:0:0:0:
448,192,165279,1,0,0:0:0:0:
192,192,165329,1,0,0:0:0:0:
320,192,165379,1,0,0:0:0:0:
64,192,165429,1,0,0:0:0:0:
448,192,165429,1,0,0:0:0:0:
64,192,165529,1,0,0:0:0:45:hitclap.wav
192,192,165529,1,0,0:0:0:0:
448,192,165529,1,0,0:0:0:0:
192,192,165729,1,0,0:0:0:0:
320,192,165729,1,0,0:0:0:0:
64,192,165929,1,0,0:0:0:45:hitclap.wav
192,192,165929,1,0,0:0:0:0:
448,192,165929,1,0,0:0:0:0:
320,192,166129,1,0,0:0:0:0:
448,192,166129,1,0,0:0:0:0:
64,192,166229,1,0,0:0:0:0:
192,192,166229,1,0,0:0:0:0:
192,192,166329,1,0,0:0:0:45:hitclap.wav
320,192,166329,1,0,0:0:0:0:
448,192,166329,1,0,0:0:0:0:
64,192,166529,1,0,0:0:0:70:drum-hitnormal.wav
448,192,166529,1,0,0:0:0:0:
320,192,166579,1,0,0:0:0:0:
192,192,166629,1,0,0:0:0:0:
448,192,166679,1,0,0:0:0:0:
64,192,166729,1,0,0:0:0:45:hitclap.wav
192,192,166729,1,0,0:0:0:0:
320,192,166779,1,0,0:0:0:0:
64,192,166829,1,0,0:0:0:0:
192,192,166879,1,0,0:0:0:0:
448,192,166929,1,0,0:0:0:0:
192,192,167029,1,0,0:0:0:0:
320,192,167029,1,0,0:0:0:0:
64,192,167129,1,0,0:0:0:45:hitclap.wav
192,192,167129,1,0,0:0:0:0:
448,192,167129,1,0,0:0:0:0:
192,192,167329,1,0,0:0:0:0:
320,192,167329,1,0,0:0:0:0:
64,192,167529,1,0,0:0:0:45:hitclap.wav
320,192,167529,1,0,0:0:0:0:
448,192,167529,1,0,0:0:0:0:
64,192,167629,1,0,0:0:0:45:hitclap.wav
192,192,167629,1,0,0:0:0:0:
448,192,167629,1,0,0:0:0:0:
320,192,167729,1,0,0:0:0:0:
448,192,167729,1,0,0:0:0:0:
64,192,167829,1,0,0:0:0:0:
192,192,167829,1,0,0:0:0:0:
64,192,167929,1,0,0:0:0:45:hitclap.wav
320,192,167929,1,0,0:0:0:0:
448,192,167929,1,0,0:0:0:0:
192,192,168029,1,0,0:0:0:45:hitclap.wav
320,192,168029,1,0,0:0:0:0:
448,192,168029,1,0,0:0:0:0:
64,192,168129,1,0,0:0:0:70:drum-hitnormal.wav
192,192,168129,1,0,0:0:0:65:hitfinish.wav
448,192,168179,1,0,0:0:0:0:
320,192,168229,1,0,0:0:0:0:
192,192,168279,1,0,0:0:0:0:
64,192,168329,1,0,0:0:0:45:hitclap.wav
448,192,168329,1,0,0:0:0:0:
320,192,168379,1,0,0:0:0:0:
192,192,168429,1,0,0:0:0:0:
448,192,168479,1,0,0:0:0:0:
64,192,168529,1,0,0:0:0:0:
320,192,168529,1,0,0:0:0:0:
192,192,168629,1,0,0:0:0:0:
320,192,168629,1,0,0:0:0:0:
64,192,168729,1,0,0:0:0:45:hitclap.wav
192,192,168729,1,0,0:0:0:0:
448,192,168729,1,0,0:0:0:0:
192,192,168929,1,0,0:0:0:0:
448,192,168929,1,0,0:0:0:0:
64,192,169129,1,0,0:0:0:45:hitclap.wav
192,192,169129,1,0,0:0:0:0:
320,192,169129,1,0,0:0:0:0:
320,192,169329,1,0,0:0:0:0:
448,192,169329,1,0,0:0:0:0:
64,192,169429,1,0,0:0:0:0:
448,192,169429,1,0,0:0:0:0:
64,192,169529,1,0,0:0:0:45:hitclap.wav
192,192,169529,1,0,0:0:0:0:
320,192,169529,1,0,0:0:0:0:
192,192,169629,1,0,0:0:0:0:
320,192,169729,1,0,0:0:0:70:drum-hitnormal.wav
448,192,169729,1,0,0:0:0:0:
192,192,169779,1,0,0:0:0:0:
64,192,169829,1,0,0:0:0:0:
320,192,169879,1,0,0:0:0:0:
192,192,169929,1,0,0:0:0:45:hitclap.wav
448,192,169929,1,0,0:0:0:0:
64,192,169979,1,0,0:0:0:0:
448,192,170029,1,0,0:0:0:0:
192,192,170079,1,0,0:0:0:0:
320,192,170129,1,0,0:0:0:0:
64,192,170229,1,0,0:0:0:0:
192,192,170229,1,0,0:0:0:0:
64,192,170329,1,0,0:0:0:45:hitclap.wav
320,192,170329,1,0,0:0:0:0:
448,192,170329,1,0,0:0:0:0:
64,192,170529,1,0,0:0:0:0:
192,192,170529,1,0,0:0:0:0:
192,192,170729,1,0,0:0:0:45:hitclap.wav
320,192,170729,1,0,0:0:0:0:
448,192,170729,1,0,0:0:0:0:
64,192,170929,1,0,0:0:0:0:
448,192,170929,1,0,0:0:0:0:
64,192,171029,1,0,0:0:0:0:
320,192,171029,1,0,0:0:0:0:
192,192,171129,1,0,0:0:0:45:hitclap.wav
320,192,171129,1,0,0:0:0:0:
448,192,171129,1,0,0:0:0:0:
448,192,171229,1,0,0:0:0:0:
64,192,171329,1,0,0:0:0:70:drum-hitnormal.wav
192,192,171329,1,0,0:0:0:0:
320,192,171379,1,0,0:0:0:0:
192,192,171429,1,0,0:0:0:0:
448,192,171479,1,0,0:0:0:0:
64,192,171529,1,0,0:0:0:45:hitclap.wav
320,192,171529,1,0,0:0:0:0:
192,192,171579,1,0,0:0:0:0:
64,192,171629,1,0,0:0:0:0:
448,192,171679,1,0,0:0:0:0:
192,192,171729,1,0,0:0:0:0:
320,192,171829,1,0,0:0:0:0:
448,192,171829,1,0,0:0:0:0:
64,192,171929,1,0,0:0:0:45:hitclap.wav
192,192,171929,1,0,0:0:0:0:
448,192,171929,1,0,0:0:0:0:
192,192,172129,1,0,0:0:0:0:
320,192,172129,1,0,0:0:0:0:
64,192,172329,1,0,0:0:0:45:hitclap.wav
192,192,172329,1,0,0:0:0:0:
448,192,172329,1,0,0:0:0:0:
320,192,172529,1,0,0:0:0:0:
448,192,172529,1,0,0:0:0:0:
64,192,172629,1,0,0:0:0:0:
192,192,172629,1,0,0:0:0:0:
192,192,172729,1,0,0:0:0:45:hitclap.wav
320,192,172729,1,0,0:0:0:0:
448,192,172729,1,0,0:0:0:0:
64,192,172929,1,0,0:0:0:70:drum-hitnormal.wav
448,192,172929,1,0,0:0:0:0:
320,192,172979,1,0,0:0:0:0:
192,192,173029,1,0,0:0:0:0:
448,192,173079,1,0,0:0:0:0:
64,192,173129,1,0,0:0:0:45:hitclap.wav
192,192,173129,1,0,0:0:0:0:
320,192,173179,1,0,0:0:0:0:
64,192,173229,1,0,0:0:0:0:
320,192,173279,1,0,0:0:0:0:
448,192,173329,1,0,0:0:0:0:
64,192,173429,1,0,0:0:0:0:
320,192,173429,1,0,0:0:0:0:
64,192,173529,1,0,0:0:0:45:hitclap.wav
192,192,173529,1,0,0:0:0:0:
448,192,173529,1,0,0:0:0:0:
192,192,173729,1,0,0:0:0:0:
320,192,173729,1,0,0:0:0:0:
64,192,173929,1,0,0:0:0:45:hitclap.wav
320,192,173929,1,0,0:0:0:0:
448,192,173929,1,0,0:0:0:0:
64,192,174029,1,0,0:0:0:45:hitclap.wav
192,192,174029,1,0,0:0:0:0:
448,192,174029,1,0,0:0:0:0:
320,192,174129,1,0,0:0:0:0:
448,192,174129,1,0,0:0:0:0:
64,192,174229,1,0,0:0:0:0:
192,192,174229,1,0,0:0:0:0:
64,192,174329,1,0,0:0:0:45:hitclap.wav
320,192,174329,1,0,0:0:0:0:
448,192,174329,1,0,0:0:0:0:
192,192,174429,1,0,0:0:0:0:
320,192,174429,1,0,0:0:0:0:
64,192,174529,1,0,0:0:0:45:hitclap.wav
192,192,174529,1,0,0:0:0:65:hitfinish.wav
320,192,174529,1,0,0:0:0:0:
448,192,174529,1,0,0:0:0:0:
64,192,174729,1,0,0:0:0:0:
192,192,174729,1,0,0:0:0:0:
64,192,174929,1,0,0:0:0:45:hitclap.wav
192,192,174929,1,0,0:0:0:0:
320,192,174929,1,0,0:0:0:0:
448,192,174929,1,0,0:0:0:0:
192,192,175029,1,0,0:0:0:0:
320,192,175029,1,0,0:0:0:0:
192,192,175229,1,0,0:0:0:0:
320,192,175229,1,0,0:0:0:0:
64,192,175329,1,0,0:0:0:45:hitclap.wav
192,192,175329,1,0,0:0:0:0:
320,192,175329,1,0,0:0:0:0:
448,192,175329,1,0,0:0:0:0:
64,192,175529,1,0,0:0:0:0:
448,192,175529,1,0,0:0:0:0:
64,192,175729,1,0,0:0:0:45:hitclap.wav
192,192,175729,1,0,0:0:0:0:
320,192,175729,1,0,0:0:0:0:
448,192,175729,1,0,0:0:0:0:
320,192,175929,1,0,0:0:0:0:
448,192,175929,1,0,0:0:0:0:
64,192,176129,1,0,0:0:0:45:hitclap.wav
192,192,176129,1,0,0:0:0:0:
320,192,176129,1,0,0:0:0:0:
448,192,176129,1,0,0:0:0:0:
192,192,176329,1,0,0:0:0:0:
320,192,176329,1,0,0:0:0:0:
64,192,176529,1,0,0:0:0:45:hitclap.wav
192,192,176529,1,0,0:0:0:0:
320,192,176529,1,0,0:0:0:0:
448,192,176529,1,0,0:0:0:0:
64,192,176629,1,0,0:0:0:0:
448,192,176629,1,0,0:0:0:0:
64,192,176829,1,0,0:0:0:0:
448,192,176829,1,0,0:0:0:0:
64,192,176929,1,0,0:0:0:45:hitclap.wav
192,192,176929,1,0,0:0:0:0:
320,192,176929,1,0,0:0:0:0:
448,192,176929,1,0,0:0:0:0:
192,192,177129,1,0,0:0:0:0:
320,192,177129,1,0,0:0:0:0:
64,192,177329,1,0,0:0:0:45:hitclap.wav
192,192,177329,1,0,0:0:0:0:
320,192,177329,1,0,0:0:0:0:
448,192,177329,1,0,0:0:0:0:
192,192,177529,1,0,0:0:0:0:
448,192,177529,1,0,0:0:0:0:
64,192,177729,1,0,0:0:0:45:hitclap.wav
192,192,177729,1,0,0:0:0:65:hitfinish.wav
320,192,177729,1,0,0:0:0:0:
448,192,177729,1,0,0:0:0:0:
64,192,177929,1,0,0:0:0:0:
320,192,177929,1,0,0:0:0:0:
64,192,178129,1,0,0:0:0:45:hitclap.wav
192,192,178129,1,0,0:0:0:0:
320,192,178129,1,0,0:0:0:0:
448,192,178129,1,0,0:0:0:0:
192,192,178229,1,0,0:0:0:0:
448,192,178229,1,0,0:0:0:0:
192,192,178429,1,0,0:0:0:0:
448,192,178429,1,0,0:0:0:0:
64,192,178529,1,0,0:0:0:45:hitclap.wav
192,192,178529,1,0,0:0:0:0:
320,192,178529,1,0,0:0:0:0:
448,192,178529,1,0,0:0:0:0:
64,192,178729,1,0,0:0:0:0:
192,192,178729,1,0,0:0:0:0:
64,192,178929,1,0,0:0:0:45:hitclap.wav
192,192,178929,1,0,0:0:0:0:
320,192,178929,1,0,0:0:0:0:
448,192,178929,1,0,0:0:0:0:
320,192,179129,1,0,0:0:0:0:
448,192,179129,1,0,0:0:0:0:
64,192,179329,1,0,0:0:0:45:hitclap.wav
192,192,179329,1,0,0:0:0:0:
320,192,179329,1,0,0:0:0:0:
448,192,179329,1,0,0:0:0:0:
192,192,179529,1,0,0:0:0:0:
448,192,179529,1,0,0:0:0:0:
64,192,179729,1,0,0:0:0:45:hitclap.wav
192,192,179729,1,0,0:0:0:0:
320,192,179729,1,0,0:0:0:0:
448,192,179729,1,0,0:0:0:0:
64,192,179829,1,0,0:0:0:0:
320,192,179829,1,0,0:0:0:0:
64,192,180029,1,0,0:0:0:0:
320,192,180029,1,0,0:0:0:0:
64,192,180129,1,0,0:0:0:45:hitclap.wav
192,192,180129,1,0,0:0:0:0:
320,192,180129,1,0,0:0:0:0:
448,192,180129,1,0,0:0:0:0:
192,192,180329,1,0,0:0:0:0:
320,192,180329,1,0,0:0:0:0:
64,192,180429,1,0,0:0:0:45:hitclap.wav
320,192,180429,1,0,0:0:0:0:
448,192,180429,1,0,0:0:0:0:
64,192,180529,1,0,0:0:0:45:hitclap.wav
192,192,180529,1,0,0:0:0:0:
448,192,180529,1,0,0:0:0:0:
192,192,180629,1,0,0:0:0:45:hitclap.wav
320,192,180629,1,0,0:0:0:0:
448,192,180629,1,0,0:0:0:0:
64,192,180729,1,0,0:0:0:0:
192,192,180729,1,0,0:0:0:0:
64,192,180829,1,0,0:0:0:45:hitclap.wav
320,192,180829,1,0,0:0:0:0:
448,192,180829,1,0,0:0:0:0:
192,192,180929,1,0,0:0:0:0:
320,192,180929,1,0,0:0:0:0:
64,192,181129,1,0,0:0:0:45:hitclap.wav
192,192,181129,1,0,0:0:0:65:hitfinish.wav
320,192,181129,1,0,0:0:0:0:
448,192,181129,1,0,0:0:0:0:
64,192,181329,1,0,0:0:0:0:
192,192,181329,1,0,0:0:0:0:
64,192,181429,1,0,0:0:0:0:
192,192,181429,1,0,0:0:0:0:
192,192,181529,1,0,0:0:0:45:hitclap.wav
320,192,181529,1,0,0:0:0:0:
448,192,181529,1,0,0:0:0:0:
64,192,181629,1,0,0:0:0:0:
448,192,181629,1,0,0:0:0:0:
320,192,181729,1,0,0:0:0:0:
64,192,181829,1,0,0:0:0:0:
192,192,181829,1,0,0:0:0:0:
64,192,181929,1,0,0:0:0:45:hitclap.wav
320,192,181929,1,0,0:0:0:0:
448,192,181929,1,0,0:0:0:0:
192,192,182129,1,0,0:0:0:0:
448,192,182129,1,0,0:0:0:0:
192,192,182229,1,0,0:0:0:0:
320,192,182229,1,0,0:0:0:0:
64,192,182329,1,0,0:0:0:45:hitclap.wav
320,192,182329,1,0,0:0:0:0:
448,192,182329,1,0,0:0:0:0:
192,192,182529,1,0,0:0:0:0:
448,192,182529,1,0,0:0:0:0:
64,192,182729,1,0,0:0:0:45:hitclap.wav
192,192,182729,1,0,0:0:0:0:
320,192,182729,1,0,0:0:0:0:
192,192,182929,1,0,0:0:0:0:
448,192,182929,1,0,0:0:0:0:
64,192,183029,1,0,0:0:0:0:
320,192,183029,1,0,0:0:0:0:
64,192,183129,1,0,0:0:0:45:hitclap.wav
192,192,183129,1,0,0:0:0:0:
448,192,183129,1,0,0:0:0:0:
320,192,183229,1,0,0:0:0:0:
448,192,183229,1,0,0:0:0:0:
192,192,183329,1,0,0:0:0:0:
64,192,183429,1,0,0:0:0:0:
320,192,183429,1,0,0:0:0:0:
192,192,183529,1,0,0:0:0:45:hitclap.wav
320,192,183529,1,0,0:0:0:0:
448,192,183529,1,0,0:0:0:0:
64,192,183729,1,0,0:0:0:0:
448,192,183729,1,0,0:0:0:0:
64,192,183829,1,0,0:0:0:0:
448,192,183829,1,0,0:0:0:0:
64,192,183929,1,0,0:0:0:45:hitclap.wav
192,192,183929,1,0,0:0:0:0:
320,192,183929,1,0,0:0:0:0:
320,192,184129,1,0,0:0:0:0:
448,192,184129,1,0,0:0:0:0:
64,192,184329,1,0,0:0:0:45:hitclap.wav
192,192,184329,1,0,0:0:0:65:hitfinish.wav
320,192,184329,1,0,0:0:0:0:
448,192,184329,1,0,0:0:0:0:
192,192,184529,1,0,0:0:0:0:
320,192,184529,1,0,0:0:0:0:
192,192,184629,1,0,0:0:0:0:
320,192,184629,1,0,0:0:0:0:
64,192,184729,1,0,0:0:0:45:hitclap.wav
320,192,184729,1,0,0:0:0:0:
448,192,184729,1,0,0:0:0:0:
64,192,184829,1,0,0:0:0:0:
192,192,184829,1,0,0:0:0:0:
320,192,184929,1,0,0:0:0:0:
192,192,185029,1,0,0:0:0:0:
448,192,185029,1,0,0:0:0:0:
64,192,185129,1,0,0:0:0:45:hitclap.wav
320,192,185129,1,0,0:0:0:0:
448,192,185129,1,0,0:0:0:0:
192,192,185329,1,0,0:0:0:0:
320,192,185329,1,0,0:0:0:0:
192,192,185429,1,0,0:0:0:0:
320,192,185429,1,0,0:0:0:0:
64,192,185529,1,0,0:0:0:45:hitclap.wav
192,192,185529,1,0,0:0:0:0:
448,192,185529,1,0,0:0:0:0:
64,192,185729,1,0,0:0:0:45:hitclap.wav
320,192,185729,1,0,0:0:0:0:
448,192,185729,1,0,0:0:0:0:
192,192,185929,1,0,0:0:0:0:
320,192,185929,1,0,0:0:0:0:
64,192,186029,1,0,0:0:0:45:hitclap.wav
192,192,186029,1,0,0:0:0:0:
448,192,186029,1,0,0:0:0:0:
192,192,186229,1,0,0:0:0:0:
320,192,186229,1,0,0:0:0:0:
64,192,186329,1,0,0:0:0:45:hitclap.wav
320,192,186329,1,0,0:0:0:0:
448,192,186329,1,0,0:0:0:0:
64,192,186529,1,0,0:0:0:45:hitclap.wav
192,192,186529,1,0,0:0:0:65:hitfinish.wav
320,192,186529,1,0,0:0:0:0:
448,192,186529,128,0,186929:0:0:0:0:
64,192,186929,128,0,187329:0:0:0:0:
320,192,187329,1,0,0:0:0:45:hitclap.wav
448,192,187329,1,0,0:0:0:65:hitfinish.wav
64,192,187429,1,0,0:0:0:0:
192,192,187429,1,0,0:0:0:0:
192,192,187529,1,0,0:0:0:0:
320,192,187529,1,0,0:0:0:0:
64,192,187629,1,0,0:0:0:0:
448,192,187629,1,0,0:0:0:0:
192,192,187729,1,0,0:0:0:45:hitclap.wav
320,192,187729,1,0,0:0:0:0:
448,192,187729,1,0,0:0:0:0:
64,192,187829,1,0,0:0:0:0:
320,192,187829,1,0,0:0:0:0:
64,192,187929,1,0,0:0:0:0:
192,192,187929,1,0,0:0:0:0:
320,192,188029,1,0,0:0:0:0:
448,192,188029,1,0,0:0:0:0:
64,192,188129,1,0,0:0:0:45:hitclap.wav
192,192,188129,1,0,0:0:0:0:
448,192,188129,1,0,0:0:0:0:
192,192,188229,1,0,0:0:0:0:
320,192,188229,1,0,0:0:0:0:
320,192,188329,1,0,0:0:0:0:
448,192,188329,1,0,0:0:0:0:
64,192,188429,1,0,0:0:0:0:
192,192,188429,1,0,0:0:0:0:
64,192,188529,1,0,0:0:0:45:hitclap.wav
320,192,188529,1,0,0:0:0:0:
448,192,188529,1,0,0:0:0:0:
192,192,188629,1,0,0:0:0:0:
320,192,188629,1,0,0:0:0:0:
192,192,188729,1,0,0:0:0:0:
448,192,188729,1,0,0:0:0:0:
64,192,188829,1,0,0:0:0:0:
320,192,188829,1,0,0:0:0:0:
192,192,188929,1,0,0:0:0:45:hitclap.wav
320,192,188929,1,0,0:0:0:65:hitfinish.wav
448,192,188929,1,0,0:0:0:0:
64,192,189029,1,0,0:0:0:0:
192,192,189029,1,0,0:0:0:0:
64,192,189129,1,0,0:0:0:0:
448,192,189129,1,0,0:0:0:0:
320,192,189229,1,0,0:0:0:0:
448,192,189229,1,0,0:0:0:0:
64,192,189329,1,0,0:0:0:45:hitclap.wav
192,192,189329,1,0,0:0:0:0:
320,192,189329,1,0,0:0:0:0:
64,192,189429,1,0,0:0:0:0:
448,192,189429,1,0,0:0:0:0:
192,192,189529,1,0,0:0:0:0:
448,192,189529,1,0,0:0:0:0:
64,192,189629,1,0,0:0:0:0:
320,192,189629,1,0,0:0:0:0:
64,192,189729,1,0,0:0:0:45:hitclap.wav
192,192,189729,1,0,0:0:0:0:
448,192,189729,1,0,0:0:0:0:
192,192,189829,1,0,0:0:0:0:
320,192,189829,1,0,0:0:0:0:
320,192,189929,1,0,0:0:0:0:
448,192,189929,1,0,0:0:0:0:
64,192,190029,1,0,0:0:0:0:
192,192,190029,1,0,0:0:0:0:
64,192,190129,1,0,0:0:0:45:hitclap.wav
320,192,190129,1,0,0:0:0:0:
448,192,190129,1,0,0:0:0:0:
192,192,190229,1,0,0:0:0:0:
448,192,190229,1,0,0:0:0:0:
64,192,190329,1,0,0:0:0:0:
192,192,190329,1,0,0:0:0:0:
320,192,190429,1,0,0:0:0:0:
448,192,190429,1,0,0:0:0:0:
64,192,190529,1,0,0:0:0:45:hitclap.wav
192,192,190529,1,0,0:0:0:65:hitfinish.wav
448,192,190529,1,0,0:0:0:0:
192,192,190629,1,0,0:0:0:0:
320,192,190629,1,0,0:0:0:0:
64,192,190729,1,0,0:0:0:0:
448,192,190729,1,0,0:0:0:0:
320,192,190829,1,0,0:0:0:0:
448,192,190829,1,0,0:0:0:0:
64,192,190929,1,0,0:0:0:45:hitclap.wav
192,192,190929,1,0,0:0:0:0:
320,192,190929,1,0,0:0:0:0:
192,192,191029,1,0,0:0:0:0:
448,192,191029,1,0,0:0:0:0:
320,192,191129,1,0,0:0:0:0:
448,192,191129,1,0,0:0:0:0:
64,192,191229,1,0,0:0:0:0:
192,192,191229,1,0,0:0:0:0:
64,192,191329,1,0,0:0:0:45:hitclap.wav
320,192,191329,1,0,0:0:0:0:
448,192,191329,1,0,0:0:0:0:
192,192,191429,1,0,0:0:0:0:
320,192,191429,1,0,0:0:0:0:
64,192,191529,1,0,0:0:0:0:
448,192,191529,1,0,0:0:0:0:
64,192,191629,1,0,0:0:0:0:
192,192,191629,1,0,0:0:0:0:
192,192,191729,1,0,0:0:0:45:hitclap.wav
320,192,191729,1,0,0:0:0:0:
448,192,191729,1,0,0:0:0:0:
64,192,191829,1,0,0:0:0:0:
448,192,191829,1,0,0:0:0:0:
64,192,191929,1,0,0:0:0:0:
192,192,191929,1,0,0:0:0:0:
320,192,192029,1,0,0:0:0:0:
448,192,192029,1,0,0:0:0:0:
64,192,192129,1,0,0:0:0:45:hitclap.wav
192,192,192129,1,0,0:0:0:65:hitfinish.wav
448,192,192129,1,0,0:0:0:0:
192,192,192229,1,0,0:0:0:0:
320,192,192229,1,0,0:0:0:0:
64,192,192329,1,0,0:0:0:0:
320,192,192329,1,0,0:0:0:0:
192,192,192429,1,0,0:0:0:0:
448,192,192429,1,0,0:0:0:0:
64,192,192529,1,0,0:0:0:45:hitclap.wav
192,192,192529,1,0,0:0:0:0:
320,192,192529,1,0,0:0:0:0:
320,192,192629,1,0,0:0:0:0:
448,192,192629,1,0,0:0:0:0:
192,192,192729,1,0,0:0:0:0:
448,192,192729,1,0,0:0:0:0:
64,192,192829,1,0,0:0:0:0:
320,192,192829,1,0,0:0:0:0:
64,192,192929,1,0,0:0:0:45:hitclap.wav
192,192,192929,1,0,0:0:0:0:
448,192,192929,1,0,0:0:0:0:
192,192,193029,1,0,0:0:0:0:
320,192,193029,1,0,0:0:0:0:
64,192,193129,1,0,0:0:0:45:hitclap.wav
320,192,193129,1,0,0:0:0:0:
448,192,193129,1,0,0:0:0:0:
64,192,193229,1,0,0:0:0:45:hitclap.wav
192,192,193229,1,0,0:0:0:0:
320,192,193329,1,0,0:0:0:45:hitclap.wav
448,192,193329,1,0,0:0:0:0:
64,192,193429,1,0,0:0:0:45:hitclap.wav
192,192,193429,1,0,0:0:0:0:
64,192,193529,1,0,0:0:0:0:
320,192,193529,1,0,0:0:0:0:
448,192,193529,1,0,0:0:0:0:
192,192,193629,1,0,0:0:0:0:
448,192,193629,1,0,0:0:0:0:
64,192,193729,128,0,194129:0:0:0:65:hitfinish.wav
320,192,193729,1,0,0:0:0:0:
192,192,193829,1,0,0:0:0:0:
448,192,193829,1,0,0:0:0:0:
320,192,193929,1,0,0:0:0:45:hitclap.wav
448,192,193929,1,0,0:0:0:0:
192,192,194129,1,0,0:0:0:0:
320,192,194129,1,0,0:0:0:0:
64,192,194229,1,0,0:0:0:0:
448,192,194229,1,0,0:0:0:0:
192,192,194329,1,0,0:0:0:45:hitclap.wav
320,192,194329,1,0,0:0:0:0:
448,192,194329,1,0,0:0:0:0:
192,192,194529,128,0,195029:0:0:0:0:
448,192,194529,1,0,0:0:0:0:
64,192,194629,1,0,0:0:0:0:
320,192,194629,1,0,0:0:0:0:
320,192,194729,1,0,0:0:0:45:hitclap.wav
448,192,194729,1,0,0:0:0:0:
64,192,194829,1,0,0:0:0:0:
448,192,194829,1,0,0:0:0:0:
320,192,195029,1,0,0:0:0:0:
448,192,195029,1,0,0:0:0:0:
64,192,195129,1,0,0:0:0:45:hitclap.wav
192,192,195129,1,0,0:0:0:0:
320,192,195129,1,0,0:0:0:0:
192,192,195329,1,0,0:0:0:0:
320,192,195329,128,0,195729:0:0:0:0:
64,192,195429,1,0,0:0:0:0:
192,192,195429,1,0,0:0:0:0:
64,192,195529,1,0,0:0:0:45:hitclap.wav
448,192,195529,1,0,0:0:0:0:
64,192,195729,1,0,0:0:0:0:
192,192,195729,1,0,0:0:0:0:
64,192,195829,1,0,0:0:0:0:
192,192,195829,1,0,0:0:0:0:
64,192,195929,1,0,0:0:0:45:hitclap.wav
320,192,195929,1,0,0:0:0:0:
448,192,195929,1,0,0:0:0:0:
320,192,196129,1,0,0:0:0:0:
448,192,196129,128,0,196729:0:0:0:0:
64,192,196229,1,0,0:0:0:0:
192,192,196229,1,0,0:0:0:0:
64,192,196329,1,0,0:0:0:45:hitclap.wav
320,192,196329,1,0,0:0:0:0:
192,192,196429,1,0,0:0:0:0:
320,192,196429,1,0,0:0:0:0:
64,192,196629,1,0,0:0:0:0:
192,192,196629,1,0,0:0:0:0:
64,192,196729,1,0,0:0:0:45:hitclap.wav
192,192,196729,1,0,0:0:0:0:
320,192,196729,1,0,0:0:0:0:
320,192,196829,1,0,0:0:0:45:hitclap.wav
448,192,196829,1,0,0:0:0:0:
64,192,196929,1,0,0:0:0:45:hitclap.wav
192,192,196929,1,0,0:0:0:65:hitfinish.wav
448,192,196929,1,0,0:0:0:0:
192,192,197029,1,0,0:0:0:0:
64,192,197129,1,0,0:0:0:45:hitclap.wav
320,192,197129,1,0,0:0:0:0:
448,192,197129,1,0,0:0:0:0:
64,192,197229,1,0,0:0:0:0:
192,192,197329,1,0,0:0:0:45:hitclap.wav
320,192,197329,1,0,0:0:0:0:
448,192,197329,1,0,0:0:0:0:
448,192,197429,1,0,0:0:0:0:
64,192,197529,1,0,0:0:0:45:hitclap.wav
192,192,197529,1,0,0:0:0:0:
320,192,197529,1,0,0:0:0:0:
64,192,197629,1,0,0:0:0:0:
192,192,197729,1,0,0:0:0:45:hitclap.wav
320,192,197729,1,0,0:0:0:0:
448,192,197729,1,0,0:0:0:0:
320,192,197829,1,0,0:0:0:0:
64,192,197929,1,0,0:0:0:45:hitclap.wav
192,192,197929,1,0,0:0:0:0:
448,192,197929,1,0,0:0:0:0:
64,192,198029,1,0,0:0:0:0:
192,192,198129,1,0,0:0:0:45:hitclap.wav
320,192,198129,1,0,0:0:0:0:
448,192,198129,1,0,0:0:0:0:
448,192,198229,1,0,0:0:0:0:
64,192,198329,1,0,0:0:0:45:hitclap.wav
192,192,198329,1,0,0:0:0:0:
320,192,198329,1,0,0:0:0:0:
192,192,198429,1,0,0:0:0:0:
64,192,198529,1,0,0:0:0:45:hitclap.wav
320,192,198529,1,0,0:0:0:0:
448,192,198529,1,0,0:0:0:0:
320,192,198629,1,0,0:0:0:0:
64,192,198729,1,0,0:0:0:45:hitclap.wav
192,192,198729,1,0,0:0:0:0:
448,192,198729,1,0,0:0:0:0:
448,192,198829,1,0,0:0:0:0:
64,192,198929,1,0,0:0:0:45:hitclap.wav
192,192,198929,1,0,0:0:0:0:
320,192,198929,1,0,0:0:0:0:
64,192,199029,1,0,0:0:0:0:
192,192,199129,1,0,0:0:0:45:hitclap.wav
320,192,199129,1,0,0:0:0:0:
448,192,199129,1,0,0:0:0:0:
192,192,199229,1,0,0:0:0:0:
64,192,199329,1,0,0:0:0:45:hitclap.wav
320,192,199329,1,0,0:0:0:0:
448,192,199329,1,0,0:0:0:0:
448,192,199429,1,0,0:0:0:0:
64,192,199529,1,0,0:0:0:45:hitclap.wav
192,192,199529,1,0,0:0:0:0:
320,192,199529,1,0,0:0:0:0:
320,192,199629,1,0,0:0:0:45:hitclap.wav
448,192,199629,1,0,0:0:0:0:
64,192,199729,1,0,0:0:0:45:hitclap.wav
192,192,199729,1,0,0:0:0:0:
320,192,199829,1,0,0:0:0:45:hitclap.wav
448,192,199829,1,0,0:0:0:0:
64,192,199929,1,0,0:0:0:45:hitclap.wav
192,192,199929,1,0,0:0:0:0:
320,192,200029,1,0,0:0:0:45:hitclap.wav
448,192,200029,1,0,0:0:0:0:
64,192,200129,1,0,0:0:0:45:hitclap.wav
192,192,200129,1,0,0:0:0:65:hitfinish.wav
448,192,200129,1,0,0:0:0:0:
64,192,200229,1,0,0:0:0:0:
320,192,200229,1,0,0:0:0:0:
192,192,200329,1,0,0:0:0:0:
320,192,200329,1,0,0:0:0:0:
64,192,200429,1,0,0:0:0:0:
448,192,200429,1,0,0:0:0:0:
64,192,200529,1,0,0:0:0:45:hitclap.wav
192,192,200529,1,0,0:0:0:0:
320,192,200529,1,0,0:0:0:0:
192,192,200629,1,0,0:0:0:0:
448,192,200629,1,0,0:0:0:0:
320,192,200729,1,0,0:0:0:0:
448,192,200729,1,0,0:0:0:0:
64,192,200829,1,0,0:0:0:0:
192,192,200829,1,0,0:0:0:0:
64,192,200929,1,0,0:0:0:45:hitclap.wav
320,192,200929,1,0,0:0:0:0:
448,192,200929,1,0,0:0:0:0:
192,192,201029,1,0,0:0:0:0:
320,192,201029,1,0,0:0:0:0:
64,192,201129,1,0,0:0:0:0:
192,192,201129,1,0,0:0:0:0:
320,192,201229,1,0,0:0:0:0:
448,192,201229,1,0,0:0:0:0:
64,192,201329,1,0,0:0:0:45:hitclap.wav
192,192,201329,1,0,0:0:0:0:
448,192,201329,1,0,0:0:0:0:
192,192,201429,1,0,0:0:0:0:
320,192,201429,1,0,0:0:0:0:
64,192,201529,1,0,0:0:0:0:
320,192,201529,1,0,0:0:0:0:
192,192,201629,1,0,0:0:0:0:
448,192,201629,1,0,0:0:0:0:
64,192,201729,1,0,0:0:0:45:hitclap.wav
192,192,201729,1,0,0:0:0:65:hitfinish.wav
320,192,201729,1,0,0:0:0:0:
320,192,201829,1,0,0:0:0:0:
448,192,201829,1,0,0:0:0:0:
64,192,201929,1,0,0:0:0:0:
448,192,201929,1,0,0:0:0:0:
64,192,202029,1,0,0:0:0:0:
192,192,202029,1,0,0:0:0:0:
192,192,202129,1,0,0:0:0:45:hitclap.wav
320,192,202129,1,0,0:0:0:0:
448,192,202129,1,0,0:0:0:0:
64,192,202229,1,0,0:0:0:0:
448,192,202229,1,0,0:0:0:0:
64,192,202329,1,0,0:0:0:0:
320,192,202329,1,0,0:0:0:0:
192,192,202429,1,0,0:0:0:0:
448,192,202429,1,0,0:0:0:0:
64,192,202529,1,0,0:0:0:45:hitclap.wav
320,192,202529,1,0,0:0:0:0:
448,192,202529,1,0,0:0:0:0:
192,192,202629,1,0,0:0:0:0:
320,192,202629,1,0,0:0:0:0:
64,192,202729,1,0,0:0:0:0:
192,192,202729,1,0,0:0:0:0:
320,192,202829,1,0,0:0:0:0:
448,192,202829,1,0,0:0:0:0:
64,192,202929,1,0,0:0:0:45:hitclap.wav
192,192,202929,1,0,0:0:0:0:
448,192,202929,1,0,0:0:0:0:
64,192,203029,1,0,0:0:0:0:
320,192,203029,1,0,0:0:0:0:
320,192,203129,1,0,0:0:0:0:
448,192,203129,1,0,0:0:0:0:
64,192,203229,1,0,0:0:0:0:
192,192,203229,1,0,0:0:0:0:
64,192,203329,1,0,0:0:0:45:hitclap.wav
320,192,203329,1,0,0:0:0:65:hitfinish.wav
448,192,203329,1,0,0:0:0:0:
192,192,203429,1,0,0:0:0:0:
320,192,203429,1,0,0:0:0:0:
64,192,203529,1,0,0:0:0:0:
448,192,203529,1,0,0:0:0:0:
64,192,203629,1,0,0:0:0:0:
192,192,203629,1,0,0:0:0:0:
192,192,203729,1,0,0:0:0:45:hitclap.wav
320,192,203729,1,0,0:0:0:0:
448,192,203729,1,0,0:0:0:0:
64,192,203829,1,0,0:0:0:0:
320,192,203829,1,0,0:0:0:0:
64,192,203929,1,0,0:0:0:0:
192,192,203929,1,0,0:0:0:0:
320,192,204029,1,0,0:0:0:0:
448,192,204029,1,0,0:0:0:0:
64,192,204129,1,0,0:0:0:45:hitclap.wav
192,192,204129,1,0,0:0:0:0:
448,192,204129,1,0,0:0:0:0:
192,192,204229,1,0,0:0:0:0:
320,192,204229,1,0,0:0:0:0:
64,192,204329,1,0,0:0:0:0:
448,192,204329,1,0,0:0:0:0:
320,192,204429,1,0,0:0:0:0:
448,192,204429,1,0,0:0:0:0:
64,192,204529,1,0,0:0:0:45:hitclap.wav
192,192,204529,1,0,0:0:0:0:
320,192,204529,1,0,0:0:0:0:
64,192,204629,1,0,0:0:0:0:
448,192,204629,1,0,0:0:0:0:
320,192,204729,1,0,0:0:0:0:
448,192,204729,1,0,0:0:0:0:
64,192,204829,1,0,0:0:0:0:
192,192,204829,1,0,0:0:0:0:
64,192,204929,1,0,0:0:0:45:hitclap.wav
320,192,204929,1,0,0:0:0:65:hitfinish.wav
448,192,204929,1,0,0:0:0:0:
192,192,205029,1,0,0:0:0:0:
320,192,205029,1,0,0:0:0:0:
192,192,205129,1,0,0:0:0:0:
448,192,205129,1,0,0:0:0:0:
64,192,205229,1,0,0:0:0:0:
320,192,205229,1,0,0:0:0:0:
192,192,205329,1,0,0:0:0:45:hitclap.wav
320,192,205329,1,0,0:0:0:0:
448,192,205329,1,0,0:0:0:0:
64,192,205429,1,0,0:0:0:0:
192,192,205429,1,0,0:0:0:0:
64,192,205529,1,0,0:0:0:0:
320,192,205529,1,0,0:0:0:0:
192,192,205629,1,0,0:0:0:0:
448,192,205629,1,0,0:0:0:0:
64,192,205729,1,0,0:0:0:45:hitclap.wav
320,192,205729,1,0,0:0:0:0:
448,192,205729,1,0,0:0:0:0:
192,192,205829,1,0,0:0:0:0:
320,192,205829,1,0,0:0:0:0:
64,192,205929,1,0,0:0:0:45:hitclap.wav
192,192,205929,1,0,0:0:0:0:
448,192,205929,1,0,0:0:0:0:
320,192,206029,1,0,0:0:0:45:hitclap.wav
448,192,206029,1,0,0:0:0:0:
64,192,206129,1,0,0:0:0:45:hitclap.wav
192,192,206129,1,0,0:0:0:0:
320,192,206229,1,0,0:0:0:45:hitclap.wav
448,192,206229,1,0,0:0:0:0:
64,192,206329,1,0,0:0:0:0:
192,192,206329,1,0,0:0:0:0:
320,192,206329,1,0,0:0:0:0:
192,192,206429,1,0,0:0:0:0:
448,192,206429,1,0,0:0:0:0:
64,192,206529,128,0,206929:0:0:0:65:hitfinish.wav
320,192,206529,1,0,0:0:0:0:
192,192,206629,1,0,0:0:0:0:
448,192,206629,1,0,0:0:0:0:
320,192,206729,1,0,0:0:0:45:hitclap.wav
448,192,206729,1,0,0:0:0:0:
192,192,206929,1,0,0:0:0:0:
320,192,206929,1,0,0:0:0:0:
64,192,207029,1,0,0:0:0:0:
448,192,207029,1,0,0:0:0:0:
192,192,207129,1,0,0:0:0:45:hitclap.wav
320,192,207129,1,0,0:0:0:0:
448,192,207129,1,0,0:0:0:0:
192,192,207329,128,0,207829:0:0:0:0:
448,192,207329,1,0,0:0:0:0:
64,192,207429,1,0,0:0:0:0:
320,192,207429,1,0,0:0:0:0:
320,192,207529,1,0,0:0:0:45:hitclap.wav
448,192,207529,1,0,0:0:0:0:
64,192,207629,1,0,0:0:0:0:
448,192,207629,1,0,0:0:0:0:
320,192,207829,1,0,0:0:0:0:
448,192,207829,1,0,0:0:0:0:
64,192,207929,1,0,0:0:0:45:hitclap.wav
192,192,207929,1,0,0:0:0:0:
320,192,207929,1,0,0:0:0:0:
192,192,208129,1,0,0:0:0:0:
320,192,208129,128,0,208529:0:0:0:0:
64,192,208229,1,0,0:0:0:0:
192,192,208229,1,0,0:0:0:0:
64,192,208329,1,0,0:0:0:45:hitclap.wav
448,192,208329,1,0,0:0:0:0:
64,192,208529,1,0,0:0:0:0:
192,192,208529,1,0,0:0:0:0:
64,192,208629,1,0,0:0:0:0:
192,192,208629,1,0,0:0:0:0:
64,192,208729,1,0,0:0:0:45:hitclap.wav
320,192,208729,1,0,0:0:0:0:
448,192,208729,1,0,0:0:0:0:
320,192,208929,1,0,0:0:0:0:
448,192,208929,128,0,209529:0:0:0:0:
64,192,209029,1,0,0:0:0:0:
192,192,209029,1,0,0:0:0:0:
64,192,209129,1,0,0:0:0:45:hitclap.wav
320,192,209129,1,0,0:0:0:0:
192,192,209229,1,0,0:0:0:0:
320,192,209229,1,0,0:0:0:0:
64,192,209429,1,0,0:0:0:0:
192,192,209429,1,0,0:0:0:0:
64,192,209529,1,0,0:0:0:45:hitclap.wav
192,192,209529,1,0,0:0:0:0:
320,192,209529,1,0,0:0:0:0:
320,192,209629,1,0,0:0:0:45:hitclap.wav
448,192,209629,1,0,0:0:0:0:
64,192,209729,1,0,0:0:0:45:hitclap.wav
192,192,209729,1,0,0:0:0:65:hitfinish.wav
448,192,209729,1,0,0:0:0:0:
192,192,209829,1,0,0:0:0:0:
64,192,209929,1,0,0:0:0:45:hitclap.wav
320,192,209929,1,0,0:0:0:0:
448,192,209929,1,0,0:0:0:0:
64,192,210029,1,0,0:0:0:0:
192,192,210129,1,0,0:0:0:45:hitclap.wav
320,192,210129,1,0,0:0:0:0:
448,192,210129,1,0,0:0:0:0:
448,192,210229,1,0,0:0:0:0:
64,192,210329,1,0,0:0:0:45:hitclap.wav
192,192,210329,1,0,0:0:0:0:
320,192,210329,1,0,0:0:0:0:
64,192,210429,1,0,0:0:0:0:
192,192,210529,1,0,0:0:0:45:hitclap.wav
320,192,210529,1,0,0:0:0:0:
448,192,210529,1,0,0:0:0:0:
320,192,210629,1,0,0:0:0:0:
64,192,210729,1,0,0:0:0:45:hitclap.wav
192,192,210729,1,0,0:0:0:0:
448,192,210729,1,0,0:0:0:0:
64,192,210829,1,0,0:0:0:0:
192,192,210929,1,0,0:0:0:45:hitclap.wav
320,192,210929,1,0,0:0:0:0:
448,192,210929,1,0,0:0:0:0:
448,192,211029,1,0,0:0:0:0:
64,192,211129,1,0,0:0:0:45:hitclap.wav
192,192,211129,1,0,0:0:0:0:
320,192,211129,1,0,0:0:0:0:
192,192,211229,1,0,0:0:0:0:
64,192,211329,1,0,0:0:0:45:hitclap.wav
320,192,211329,1,0,0:0:0:0:
448,192,211329,1,0,0:0:0:0:
320,192,211429,1,0,0:0:0:0:
64,192,211529,1,0,0:0:0:45:hitclap.wav
192,192,211529,1,0,0:0:0:0:
448,192,211529,1,0,0:0:0:0:
448,192,211629,1,0,0:0:0:0:
64,192,211729,1,0,0:0:0:45:hitclap.wav
192,192,211729,1,0,0:0:0:0:
320,192,211729,1,0,0:0:0:0:
64,192,211829,1,0,0:0:0:0:
192,192,211929,1,0,0:0:0:45:hitclap.wav
320,192,211929,1,0,0:0:0:0:
448,192,211929,1,0,0:0:0:0:
192,192,212029,1,0,0:0:0:0:
64,192,212129,1,0,0:0:0:45:hitclap.wav
320,192,212129,1,0,0:0:0:0:
448,192,212129,1,0,0:0:0:0:
448,192,212229,1,0,0:0:0:0:
64,192,212329,1,0,0:0:0:45:hitclap.wav
192,192,212329,1,0,0:0:0:0:
320,192,212329,1,0,0:0:0:0:
320,192,212429,1,0,0:0:0:45:hitclap.wav
448,192,212429,1,0,0:0:0:0:
64,192,212529,1,0,0:0:0:45:hitclap.wav
192,192,212529,1,0,0:0:0:0:
320,192,212629,1,0,0:0:0:45:hitclap.wav
448,192,212629,1,0,0:0:0:0:
64,192,212729,1,0,0:0:0:45:hitclap.wav
192,192,212729,1,0,0:0:0:0:
320,192,212829,1,0,0:0:0:45:hitclap.wav
448,192,212829,1,0,0:0:0:0:
192,192,212929,128,0,214629:0:0:0:0:
320,192,214529,1,0,0:0:0:0:
64,192,214629,128,0,216229:0:0:0:0:
448,192,214729,1,0,0:0:0:0:
192,192,216129,1,0,0:0:0:0:
448,192,216229,128,0,217829:0:0:0:0:
320,192,216329,1,0,0:0:0:0:
192,192,217729,1,0,0:0:0:0:
320,192,217829,128,0,219429:0:0:0:0:
64,192,217929,1,0,0:0:0:0:
64,192,219329,1,0,0:0:0:0:
448,192,219429,128,0,221029:0:0:0:0:
192,192,219529,1,0,0:0:0:0:
320,192,220929,1,0,0:0:0:0:
192,192,221029,128,0,222629:0:0:0:0:
64,192,221129,1,0,0:0:0:0:
448,192,222529,1,0,0:0:0:0:
320,192,222629,128,0,224229:0:0:0:0:
64,192,222729,1,0,0:0:0:0:
192,192,224129,1,0,0:0:0:0:
448,192,224229,128,0,225729:0:0:0:0:
64,192,224329,1,0,0:0:0:0:
64,192,224929,1,0,0:0:0:0:
192,192,224929,1,0,0:0:0:0:
64,192,225729,1,0,0:0:0:0:
192,192,225729,128,0,227329:0:0:0:0:
448,192,225929,1,0,0:0:0:0:
320,192,226129,1,0,0:0:0:0:
64,192,226329,1,0,0:0:0:0:
64,192,226729,1,0,0:0:0:0:
448,192,226929,1,0,0:0:0:0:
320,192,227129,1,0,0:0:0:0:
64,192,227329,128,0,228929:0:0:0:0:
448,192,227329,1,0,0:0:0:0:
320,192,228129,1,0,0:0:0:0:
448,192,228129,1,0,0:0:0:0:
192,192,228929,1,0,0:0:0:0:
448,192,228929,128,0,230529:0:0:0:0:
64,192,229129,1,0,0:0:0:0:
192,192,229329,1,0,0:0:0:0:
320,192,229529,1,0,0:0:0:0:
64,192,229929,1,0,0:0:0:0:
320,192,230129,1,0,0:0:0:0:
192,192,230329,1,0,0:0:0:0:
64,192,230529,1,0,0:0:0:0:
320,192,230529,128,0,232129:0:0:0:0:
64,192,231329,1,0,0:0:0:0:
192,192,231329,1,0,0:0:0:0:
448,192,231729,1,0,0:0:0:0:
64,192,232129,1,0,0:0:0:0:
448,192,232129,128,0,233729:0:0:0:0:
192,192,232729,1,0,0:0:0:0:
320,192,232729,1,0,0:0:0:0:
64,192,233729,128,0,235329:0:0:0:0:
320,192,233729,1,0,0:0:0:0:
192,192,234329,1,0,0:0:0:0:
448,192,234329,1,0,0:0:0:0:
192,192,235329,1,0,0:0:0:0:
320,192,235329,128,0,236929:0:0:0:0:
64,192,235929,1,0,0:0:0:0:
448,192,235929,1,0,0:0:0:0:
192,192,236929,128,0,237129:0:0:0:0:
448,192,236929,128,0,238529:0:0:0:0:
320,192,237129,128,0,237729:0:0:0:0:
64,192,237729,128,0,238229:0:0:0:0:
192,192,237829,1,0,0:0:0:0:
320,192,237929,1,0,0:0:0:0:
64,192,238529,128,0,240129:0:0:0:0:
192,192,238529,128,0,239329:0:0:0:0:
320,192,238729,1,0,0:0:0:0:
448,192,238929,1,0,0:0:0:0:
320,192,239129,128,0,239729:0:0:0:0:
448,192,239329,128,0,239729:0:0:0:0:
192,192,239729,128,0,240129:0:0:0:0:
320,192,240129,128,0,241729:0:0:0:0:
448,192,240129,128,0,240729:0:0:0:0:
64,192,240329,1,0,0:0:0:0:
192,192,240529,1,0,0:0:0:0:
64,192,240729,128,0,240929:0:0:0:0:
192,192,240929,128,0,241329:0:0:0:0:
448,192,240929,128,0,241329:0:0:0:0:
64,192,241329,128,0,241429:0:0:0:0:
448,192,241429,128,0,241729:0:0:0:0:
64,192,241729,128,0,243129:0:0:0:0:
192,192,241729,128,0,243329:0:0:0:0:
448,192,241929,1,0,0:0:0:0:
320,192,242129,1,0,0:0:0:0:
448,192,242329,128,0,242729:0:0:0:0:
320,192,242729,1,0,0:0:0:0:
448,192,242929,1,0,0:0:0:0:
320,192,243129,128,0,243329:0:0:0:0:
64,192,243329,128,0,244329:0:0:0:0:
448,192,243329,128,0,244929:0:0:0:0:
192,192,244129,1,0,0:0:0:0:
192,192,244929,128,0,245529:0:0:0:0:
320,192,244929,128,0,246529:0:0:0:0:
64,192,245529,128,0,245829:0:0:0:0:
192,192,246129,128,0,246529:0:0:0:0:
64,192,246529,128,0,248129:0:0:0:0:
448,192,246529,128,0,247129:0:0:0:0:
192,192,247129,128,0,247729:0:0:0:0:
320,192,247729,128,0,248129:0:0:0:0:
192,192,248129,128,0,249729:0:0:0:0:
448,192,248129,128,0,248529:0:0:0:0:
64,192,248529,128,0,248929:0:0:0:0:
448,192,248729,128,0,249329:0:0:0:0:
320,192,248929,128,0,249329:0:0:0:0:
64,192,249329,128,0,249729:0:0:0:0:
320,192,249729,128,0,250529:0:0:0:0:
448,192,249729,128,0,251329:0:0:0:0:
64,192,250529,128,0,250729:0:0:0:0:
192,192,250929,128,0,251329:0:0:0:0:
64,192,251329,128,0,252929:0:0:0:0:
320,192,251529,1,0,0:0:0:0:
192,192,251729,1,0,0:0:0:0:
448,192,251929,128,0,252529:0:0:0:0:
320,192,252729,1,0,0:0:0:0:
448,192,252829,1,0,0:0:0:0:
192,192,252929,128,0,254529:0:0:0:0:
320,192,252929,128,0,253529:0:0:0:0:
448,192,253529,128,0,254129:0:0:0:0:
64,192,253729,1,0,0:0:0:0:
64,192,254129,128,0,254529:0:0:0:0:
320,192,254529,128,0,255329:0:0:0:0:
448,192,254529,128,0,256129:0:0:0:0:
64,192,255329,128,0,255529:0:0:0:0:
320,192,255529,128,0,255729:0:0:0:0:
192,192,255729,128,0,256129:0:0:0:0:
64,192,256129,128,0,256929:0:0:0:0:
320,192,256129,128,0,256929:0:0:0:0:
192,192,256929,128,0,257329:0:0:0:0:
448,192,256929,128,0,257329:0:0:0:0:
64,192,257329,128,0,257529:0:0:0:0:
320,192,257329,128,0,257729:0:0:0:0:
448,192,257529,128,0,257729:0:0:0:0:
64,192,257729,128,0,258229:0:0:0:0:
192,192,257729,128,0,259329:0:0:0:0:
448,192,258329,128,0,259129:0:0:0:0:
64,192,259329,128,0,259929:0:0:0:0:
448,192,259529,128,0,259729:0:0:0:0:
192,192,259729,128,0,259929:0:0:0:0:
320,192,259929,128,0,260529:0:0:0:0:
448,192,259929,128,0,260129:0:0:0:0:
64,192,260129,128,0,260329:0:0:0:0:
192,192,260329,128,0,260529:0:0:0:0:
64,192,260529,128,0,260929:0:0:0:0:
448,192,260529,128,0,260729:0:0:0:0:
320,192,260729,128,0,260929:0:0:0:0:
192,192,260929,128,0,262529:0:0:0:0:
448,192,260929,128,0,262529:0:0:0:0:
64,192,262529,1,0,0:0:0:0:
320,192,262529,128,0,263329:0:0:0:0:
192,192,262929,1,0,0:0:0:0:
64,192,263329,128,0,264129:0:0:0:0:
448,192,263329,1,0,0:0:0:0:
320,192,263729,1,0,0:0:0:0:
192,192,264129,1,0,0:0:0:45:hitclap.wav
320,192,264129,1,0,0:0:0:65:hitfinish.wav
448,192,264129,1,0,0:0:0:0:
64,192,264329,1,0,0:0:0:0:
192,192,264329,1,0,0:0:0:0:
64,192,264529,1,0,0:0:0:45:hitclap.wav
192,192,264529,1,0,0:0:0:0:
320,192,264529,1,0,0:0:0:0:
448,192,264529,1,0,0:0:0:0:
192,192,264629,1,0,0:0:0:0:
320,192,264629,1,0,0:0:0:0:
192,192,264829,1,0,0:0:0:0:
320,192,264829,1,0,0:0:0:0:
64,192,264929,1,0,0:0:0:45:hitclap.wav
192,192,264929,1,0,0:0:0:0:
320,192,264929,1,0,0:0:0:0:
448,192,264929,1,0,0:0:0:0:
64,192,265129,1,0,0:0:0:0:
448,192,265129,1,0,0:0:0:0:
64,192,265329,1,0,0:0:0:45:hitclap.wav
192,192,265329,1,0,0:0:0:0:
320,192,265329,1,0,0:0:0:0:
448,192,265329,1,0,0:0:0:0:
320,192,265529,1,0,0:0:0:0:
448,192,265529,1,0,0:0:0:0:
64,192,265729,1,0,0:0:0:45:hitclap.wav
192,192,265729,1,0,0:0:0:0:
320,192,265729,1,0,0:0:0:0:
448,192,265729,1,0,0:0:0:0:
192,192,265929,1,0,0:0:0:0:
320,192,265929,1,0,0:0:0:0:
64,192,266129,1,0,0:0:0:45:hitclap.wav
192,192,266129,1,0,0:0:0:0:
320,192,266129,1,0,0:0:0:0:
448,192,266129,1,0,0:0:0:0:
64,192,266229,1,0,0:0:0:0:
448,192,266229,1,0,0:0:0:0:
64,192,266429,1,0,0:0:0:0:
448,192,266429,1,0,0:0:0:0:
64,192,266529,1,0,0:0:0:45:hitclap.wav
192,192,266529,1,0,0:0:0:0:
320,192,266529,1,0,0:0:0:0:
448,192,266529,1,0,0:0:0:0:
192,192,266729,1,0,0:0:0:0:
320,192,266729,1,0,0:0:0:0:
64,192,266929,1,0,0:0:0:45:hitclap.wav
192,192,266929,1,0,0:0:0:0:
320,192,266929,1,0,0:0:0:0:
448,192,266929,1,0,0:0:0:0:
192,192,267129,1,0,0:0:0:0:
448,192,267129,1,0,0:0:0:0:
64,192,267329,1,0,0:0:0:45:hitclap.wav
192,192,267329,1,0,0:0:0:65:hitfinish.wav
320,192,267329,1,0,0:0:0:0:
448,192,267329,1,0,0:0:0:0:
64,192,267529,1,0,0:0:0:0:
320,192,267529,1,0,0:0:0:0:
64,192,267729,1,0,0:0:0:45:hitclap.wav
192,192,267729,1,0,0:0:0:0:
320,192,267729,1,0,0:0:0:0:
448,192,267729,1,0,0:0:0:0:
192,192,267829,1,0,0:0:0:0:
448,192,267829,1,0,0:0:0:0:
192,192,268029,1,0,0:0:0:0:
448,192,268029,1,0,0:0:0:0:
64,192,268129,1,0,0:0:0:45:hitclap.wav
192,192,268129,1,0,0:0:0:0:
320,192,268129,1,0,0:0:0:0:
448,192,268129,1,0,0:0:0:0:
64,192,268329,1,0,0:0:0:0:
192,192,268329,1,0,0:0:0:0:
64,192,268529,1,0,0:0:0:45:hitclap.wav
192,192,268529,1,0,0:0:0:0:
320,192,268529,1,0,0:0:0:0:
448,192,268529,1,0,0:0:0:0:
320,192,268729,1,0,0:0:0:0:
448,192,268729,1,0,0:0:0:0:
64,192,268929,1,0,0:0:0:45:hitclap.wav
192,192,268929,1,0,0:0:0:0:
320,192,268929,1,0,0:0:0:0:
448,192,268929,1,0,0:0:0:0:
192,192,269129,1,0,0:0:0:0:
448,192,269129,1,0,0:0:0:0:
64,192,269329,1,0,0:0:0:45:hitclap.wav
192,192,269329,1,0,0:0:0:0:
320,192,269329,1,0,0:0:0:0:
448,192,269329,1,0,0:0:0:0:
64,192,269429,1,0,0:0:0:0:
320,192,269429,1,0,0:0:0:0:
64,192,269629,1,0,0:0:0:0:
320,192,269629,1,0,0:0:0:0:
64,192,269729,1,0,0:0:0:45:hitclap.wav
192,192,269729,1,0,0:0:0:0:
320,192,269729,1,0,0:0:0:0:
448,192,269729,1,0,0:0:0:0:
64,192,269929,1,0,0:0:0:0:
320,192,269929,1,0,0:0:0:0:
192,192,270029,1,0,0:0:0:45:hitclap.wav
320,192,270029,1,0,0:0:0:0:
448,192,270029,1,0,0:0:0:0:
64,192,270129,1,0,0:0:0:45:hitclap.wav
192,192,270129,1,0,0:0:0:0:
448,192,270129,1,0,0:0:0:0:
64,192,270229,1,0,0:0:0:45:hitclap.wav
320,192,270229,1,0,0:0:0:0:
448,192,270229,1,0,0:0:0:0:
64,192,270329,1,0,0:0:0:0:
192,192,270329,1,0,0:0:0:0:
320,192,270429,1,0,0:0:0:45:hitclap.wav
448,192,270429,1,0,0:0:0:0:
192,192,270529,1,0,0:0:0:0:
320,192,270529,1,0,0:0:0:0:
64,192,270729,1,0,0:0:0:45:hitclap.wav
192,192,270729,1,0,0:0:0:65:hitfinish.wav
320,192,270729,1,0,0:0:0:0:
448,192,270729,1,0,0:0:0:0:
64,192,270929,1,0,0:0:0:0:
192,192,270929,1,0,0:0:0:0:
64,192,271029,1,0,0:0:0:0:
192,192,271029,1,0,0:0:0:0:
192,192,271129,1,0,0:0:0:45:hitclap.wav
320,192,271129,1,0,0:0:0:0:
448,192,271129,1,0,0:0:0:0:
64,192,271229,1,0,0:0:0:0:
448,192,271229,1,0,0:0:0:0:
320,192,271329,1,0,0:0:0:0:
64,192,271429,1,0,0:0:0:0:
192,192,271429,1,0,0:0:0:0:
64,192,271529,1,0,0:0:0:45:hitclap.wav
320,192,271529,1,0,0:0:0:0:
448,192,271529,1,0,0:0:0:0:
192,192,271729,1,0,0:0:0:0:
448,192,271729,1,0,0:0:0:0:
192,192,271829,1,0,0:0:0:0:
320,192,271829,1,0,0:0:0:0:
64,192,271929,1,0,0:0:0:45:hitclap.wav
320,192,271929,1,0,0:0:0:0:
448,192,271929,1,0,0:0:0:0:
192,192,272129,1,0,0:0:0:0:
448,192,272129,1,0,0:0:0:0:
64,192,272329,1,0,0:0:0:45:hitclap.wav
192,192,272329,1,0,0:0:0:0:
320,192,272329,1,0,0:0:0:0:
192,192,272529,1,0,0:0:0:0:
448,192,272529,1,0,0:0:0:0:
64,192,272629,1,0,0:0:0:0:
320,192,272629,1,0,0:0:0:0:
64,192,272729,1,0,0:0:0:45:hitclap.wav
192,192,272729,1,0,0:0:0:0:
448,192,272729,1,0,0:0:0:0:
320,192,272829,1,0,0:0:0:0:
448,192,272829,1,0,0:0:0:0:
192,192,272929,1,0,0:0:0:0:
64,192,273029,1,0,0:0:0:0:
320,192,273029,1,0,0:0:0:0:
192,192,273129,1,0,0:0:0:45:hitclap.wav
320,192,273129,1,0,0:0:0:0:
448,192,273129,1,0,0:0:0:0:
64,192,273329,1,0,0:0:0:0:
448,192,273329,1,0,0:0:0:0:
64,192,273429,1,0,0:0:0:0:
448,192,273429,1,0,0:0:0:0:
64,192,273529,1,0,0:0:0:45:hitclap.wav
192,192,273529,1,0,0:0:0:0:
320,192,273529,1,0,0:0:0:0:
320,192,273729,1,0,0:0:0:0:
448,192,273729,1,0,0:0:0:0:
64,192,273929,1,0,0:0:0:45:hitclap.wav
192,192,273929,1,0,0:0:0:65:hitfinish.wav
320,192,273929,1,0,0:0:0:0:
448,192,273929,1,0,0:0:0:0:
192,192,274129,1,0,0:0:0:0:
320,192,274129,1,0,0:0:0:0:
192,192,274229,1,0,0:0:0:0:
320,192,274229,1,0,0:0:0:0:
64,192,274329,1,0,0:0:0:45:hitclap.wav
320,192,274329,1,0,0:0:0:0:
448,192,274329,1,0,0:0:0:0:
64,192,274429,1,0,0:0:0:0:
192,192,274429,1,0,0:0:0:0:
320,192,274529,1,0,0:0:0:0:
192,192,274629,1,0,0:0:0:0:
448,192,274629,1,0,0:0:0:0:
64,192,274729,1,0,0:0:0:45:hitclap.wav
320,192,274729,1,0,0:0:0:0:
448,192,274729,1,0,0:0:0:0:
192,192,274929,1,0,0:0:0:0:
320,192,274929,1,0,0:0:0:0:
192,192,275029,1,0,0:0:0:0:
320,192,275029,1,0,0:0:0:0:
64,192,275129,1,0,0:0:0:45:hitclap.wav
192,192,275129,1,0,0:0:0:0:
448,192,275129,1,0,0:0:0:0:
64,192,275329,1,0,0:0:0:45:hitclap.wav
320,192,275329,1,0,0:0:0:0:
448,192,275329,1,0,0:0:0:0:
192,192,275529,1,0,0:0:0:0:
320,192,275529,1,0,0:0:0:0:
64,192,275629,1,0,0:0:0:45:hitclap.wav
192,192,275629,1,0,0:0:0:0:
448,192,275629,1,0,0:0:0:0:
192,192,275829,1,0,0:0:0:0:
320,192,275829,1,0,0:0:0:0:
64,192,275929,1,0,0:0:0:45:hitclap.wav
320,192,275929,1,0,0:0:0:0:
448,192,275929,1,0,0:0:0:0:
64,192,276129,1,0,0:0:0:45:hitclap.wav
192,192,276129,1,0,0:0:0:65:hitfinish.wav
320,192,276129,1,0,0:0:0:0:
448,192,276129,128,0,276529:0:0:0:0:
64,192,276529,128,0,276929:0:0:0:0:
192,192,276929,128,0,278129:0:0:0:0:
448,192,276929,128,0,277129:0:0:0:0:
64,192,277129,128,0,277329:0:0:0:0:
320,192,277329,128,0,277529:0:0:0:0:
448,192,277529,128,0,277729:0:0:0:0:
320,192,277729,128,0,277929:0:0:0:0:
64,192,277929,128,0,278129:0:0:0:0:
320,192,278129,128,0,278329:0:0:0:0:
448,192,278129,128,0,278529:0:0:0:0:
192,192,278329,128,0,278529:0:0:0:0:
64,192,278529,128,0,278929:0:0:0:0:
320,192,278529,128,0,279329:0:0:0:0:
448,192,278929,128,0,279129:0:0:0:0:
192,192,279129,128,0,279329:0:0:0:0:
64,192,279329,128,0,280129:0:0:0:0:
448,192,279329,128,0,279729:0:0:0:0:
320,192,279729,128,0,280029:0:0:0:0:
448,192,280129,128,0,280329:0:0:0:0:
64,192,280229,128,0,280329:0:0:0:0:
192,192,280329,128,0,281729:0:0:0:0:
320,192,280329,128,0,280429:0:0:0:0:
64,192,280729,128,0,280829:0:0:0:0:
320,192,280829,128,0,280929:0:0:0:0:
448,192,280929,128,0,281329:0:0:0:0:
320,192,281329,128,0,281429:0:0:0:0:
64,192,281429,128,0,281529:0:0:0:0:
448,192,281529,128,0,281729:0:0:0:0:
320,192,281729,128,0,282129:0:0:0:0:
64,192,281929,128,0,282129:0:0:0:0:
192,192,282129,1,0,0:0:0:0:
448,192,282129,128,0,282329:0:0:0:0:
192,192,282329,128,0,282529:0:0:0:0:
320,192,282529,1,0,0:0:0:0:
448,192,282529,128,0,282729:0:0:0:0:
64,192,282729,128,0,282929:0:0:0:0:
192,192,282929,1,0,0:0:0:0:
320,192,282929,128,0,283329:0:0:0:0:
448,192,283129,128,0,283329:0:0:0:0:
64,192,283329,128,0,284129:0:0:0:0:
192,192,283329,128,0,284129:0:0:0:0:
320,192,284129,128,0,284929:0:0:0:0:
448,192,284129,128,0,284529:0:0:0:0:
64,192,284529,128,0,284929:0:0:0:0:
192,192,284929,128,0,286529:0:0:0:0:
448,192,284929,128,0,285729:0:0:0:0:
64,192,285729,128,0,286529:0:0:0:0:
320,192,286529,128,0,286929:0:0:0:0:
448,192,286529,128,0,288129:0:0:0:0:
64,192,286929,128,0,287329:0:0:0:0:
192,192,287329,128,0,288129:0:0:0:0:
64,192,288129,128,0,288929:0:0:0:0:
320,192,288129,128,0,288929:0:0:0:0:
192,192,288929,128,0,289329:0:0:0:0:
448,192,288929,128,0,289729:0:0:0:0:
64,192,289329,128,0,289729:0:0:0:0:
192,192,289729,1,0,0:0:0:65:hitfinish.wav
320,192,289729,128,0,289929:0:0:0:0:
64,192,289929,128,0,290129:0:0:0:0:
192,192,290129,128,0,290329:0:0:0:0:
320,192,290329,128,0,290529:0:0:0:0:
64,192,290529,1,0,0:0:0:45:hitclap.wav
192,192,290529,1,0,0:0:0:0:
448,192,290529,128,0,290729:0:0:0:0:
320,192,290729,128,0,290929:0:0:0:0:
192,192,290929,128,0,291129:0:0:0:0:
64,192,291129,128,0,291329:0:0:0:45:hitclap.wav
448,192,291129,1,0,0:0:0:0:
192,192,291329,1,0,0:0:0:0:
320,192,291329,128,0,291729:0:0:0:0:
448,192,291729,128,0,291929:0:0:0:0:
192,192,291929,128,0,292129:0:0:0:0:
64,192,292129,128,0,292529:0:0:0:45:hitclap.wav
320,192,292129,1,0,0:0:0:0:
448,192,292129,1,0,0:0:0:0:
320,192,292529,1,0,0:0:0:45:hitclap.wav
448,192,292529,1,0,0:0:0:0:
64,192,292629,1,0,0:0:0:45:hitclap.wav
192,192,292629,1,0,0:0:0:0:
320,192,292729,1,0,0:0:0:45:hitclap.wav
448,192,292729,1,0,0:0:0:0:
64,192,292829,1,0,0:0:0:45:hitclap.wav
192,192,292829,1,0,0:0:0:0:
64,192,292929,128,0,293029:0:0:0:65:hitfinish.wav
448,192,292929,1,0,0:0:0:0:
192,192,293029,128,0,293129:0:0:0:0:
448,192,293129,128,0,293329:0:0:0:0:
320,192,293329,1,0,0:0:0:0:
64,192,293529,1,0,0:0:0:0:
192,192,293529,1,0,0:0:0:0:
320,192,293629,1,0,0:0:0:0:
448,192,293629,1,0,0:0:0:0:
64,192,293729,1,0,0:0:0:45:hitclap.wav
192,192,293729,1,0,0:0:0:0:
448,192,293729,128,0,293829:0:0:0:0:
320,192,294129,128,0,294229:0:0:0:0:
448,192,294129,1,0,0:0:0:0:
64,192,294229,128,0,294329:0:0:0:0:
192,192,294329,1,0,0:0:0:45:hitclap.wav
320,192,294329,1,0,0:0:0:0:
448,192,294329,128,0,294729:0:0:0:0:
64,192,294529,1,0,0:0:0:0:
192,192,294529,1,0,0:0:0:0:
320,192,294729,128,0,294929:0:0:0:0:
192,192,294929,128,0,295129:0:0:0:0:
64,192,295129,1,0,0:0:0:0:
448,192,295129,1,0,0:0:0:0:
192,192,295229,1,0,0:0:0:0:
320,192,295229,1,0,0:0:0:0:
64,192,295329,1,0,0:0:0:0:
448,192,295329,1,0,0:0:0:0:
192,192,295462,1,0,0:0:0:45:hitclap.wav
320,192,295462,1,0,0:0:0:0:
448,192,295462,1,0,0:0:0:0:
64,192,295595,1,0,0:0:0:45:hitclap.wav
192,192,295595,1,0,0:0:0:0:
320,192,295595,1,0,0:0:0:0:
64,192,295729,1,0,0:0:0:45:hitclap.wav
192,192,295729,1,0,0:0:0:0:
448,192,295729,1,0,0:0:0:0:
320,192,295862,1,0,0:0:0:0:
448,192,295862,1,0,0:0:0:0:
64,192,295995,1,0,0:0:0:0:
192,192,295995,1,0,0:0:0:0:
64,192,296129,128,0,296729:0:0:0:65:hitfinish.wav
320,192,296129,1,0,0:0:0:0:
448,192,296129,1,0,0:0:0:0:
320,192,296529,1,0,0:0:0:0:
320,192,296729,1,0,0:0:0:0:
448,192,296729,1,0,0:0:0:0:
64,192,296829,1,0,0:0:0:0:
320,192,296829,1,0,0:0:0:0:
64,192,296929,1,0,0:0:0:45:hitclap.wav
192,192,296929,128,0,297729:0:0:0:0:
448,192,296929,1,0,0:0:0:0:
64,192,297329,1,0,0:0:0:0:
448,192,297329,1,0,0:0:0:0:
64,192,297529,1,0,0:0:0:45:hitclap.wav
320,192,297529,1,0,0:0:0:0:
448,192,297529,1,0,0:0:0:0:
64,192,297729,1,0,0:0:0:0:
320,192,297729,128,0,298329:0:0:0:0:
192,192,297929,1,0,0:0:0:0:
448,192,297929,1,0,0:0:0:0:
64,192,298129,1,0,0:0:0:0:
192,192,298329,1,0,0:0:0:0:
448,192,298329,1,0,0:0:0:0:
64,192,298429,1,0,0:0:0:0:
320,192,298429,1,0,0:0:0:0:
64,192,298529,1,0,0:0:0:45:hitclap.wav
192,192,298529,1,0,0:0:0:0:
448,192,298529,128,0,298929:0:0:0:0:
64,192,298729,1,0,0:0:0:45:hitclap.wav
192,192,298729,1,0,0:0:0:0:
320,192,298729,1,0,0:0:0:0:
64,192,298929,1,0,0:0:0:0:
192,192,298929,1,0,0:0:0:0:
64,192,299029,1,0,0:0:0:0:
448,192,299029,1,0,0:0:0:0:
320,192,299129,1,0,0:0:0:0:
448,192,299129,1,0,0:0:0:0:
192,192,299229,1,0,0:0:0:0:
320,192,299229,1,0,0:0:0:0:
64,192,299329,128,0,300929:0:0:0:65:hitfinish.wav
192,192,299329,1,0,0:0:0:0:
448,192,299329,1,0,0:0:0:0:
448,192,299729,1,0,0:0:0:0:
192,192,299929,1,0,0:0:0:0:
320,192,299929,1,0,0:0:0:0:
192,192,300029,1,0,0:0:0:0:
320,192,300029,1,0,0:0:0:0:
192,192,300129,1,0,0:0:0:45:hitclap.wav
320,192,300129,1,0,0:0:0:0:
448,192,300129,1,0,0:0:0:0:
320,192,300529,1,0,0:0:0:0:
448,192,300529,1,0,0:0:0:0:
192,192,300729,1,0,0:0:0:45:hitclap.wav
320,192,300729,1,0,0:0:0:0:
448,192,300729,1,0,0:0:0:0:
192,192,300929,1,0,0:0:0:0:
320,192,300929,1,0,0:0:0:0:
64,192,301062,1,0,0:0:0:45:hitclap.wav
320,192,301062,1,0,0:0:0:0:
448,192,301062,1,0,0:0:0:0:
64,192,301195,1,0,0:0:0:45:hitclap.wav
192,192,301195,1,0,0:0:0:0:
448,192,301195,1,0,0:0:0:0:
192,192,301329,1,0,0:0:0:45:hitclap.wav
320,192,301329,1,0,0:0:0:0:
448,192,301329,1,0,0:0:0:0:
64,192,301462,1,0,0:0:0:45:hitclap.wav
192,192,301462,1,0,0:0:0:0:
320,192,301462,1,0,0:0:0:0:
64,192,301595,1,0,0:0:0:45:hitclap.wav
320,192,301595,1,0,0:0:0:0:
448,192,301595,1,0,0:0:0:0:
192,192,301729,1,0,0:0:0:0:
320,192,301729,1,0,0:0:0:0:
320,192,301829,1,0,0:0:0:0:
448,192,301829,1,0,0:0:0:0:
64,192,301929,1,0,0:0:0:0:
448,192,301929,1,0,0:0:0:0:
64,192,302029,1,0,0:0:0:0:
192,192,302029,1,0,0:0:0:0:
320,192,302129,1,0,0:0:0:45:hitclap.wav
448,192,302129,1,0,0:0:0:0:
64,192,302195,1,0,0:0:0:45:hitclap.wav
192,192,302195,1,0,0:0:0:0:
64,192,302262,1,0,0:0:0:45:hitclap.wav
192,192,302262,1,0,0:0:0:0:
320,192,302329,1,0,0:0:0:0:
448,192,302329,1,0,0:0:0:0:
64,192,302395,1,0,0:0:0:0:
192,192,302395,1,0,0:0:0:0:
320,192,302462,1,0,0:0:0:45:hitclap.wav
448,192,302462,1,0,0:0:0:0:
64,192,302529,1,0,0:0:0:45:hitclap.wav
320,192,302529,1,0,0:0:0:65:hitfinish.wav
192,192,302629,1,0,0:0:0:0:
448,192,302629,1,0,0:0:0:0:
192,192,302729,1,0,0:0:0:0:
320,192,302729,1,0,0:0:0:0:
64,192,302829,1,0,0:0:0:0:
448,192,302829,1,0,0:0:0:0:
192,192,302929,1,0,0:0:0:45:hitclap.wav
320,192,302929,1,0,0:0:0:0:
448,192,302929,1,0,0:0:0:0:
64,192,303029,1,0,0:0:0:0:
320,192,303029,1,0,0:0:0:0:
64,192,303129,1,0,0:0:0:0:
192,192,303129,1,0,0:0:0:0:
320,192,303229,1,0,0:0:0:0:
448,192,303229,1,0,0:0:0:0:
64,192,303329,1,0,0:0:0:45:hitclap.wav
192,192,303329,1,0,0:0:0:0:
448,192,303329,1,0,0:0:0:0:
192,192,303429,1,0,0:0:0:0:
320,192,303429,1,0,0:0:0:0:
320,192,303529,1,0,0:0:0:0:
448,192,303529,1,0,0:0:0:0:
64,192,303629,1,0,0:0:0:0:
192,192,303629,1,0,0:0:0:0:
64,192,303729,1,0,0:0:0:45:hitclap.wav
320,192,303729,1,0,0:0:0:0:
448,192,303729,1,0,0:0:0:0:
192,192,303829,1,0,0:0:0:0:
320,192,303829,1,0,0:0:0:0:
192,192,303929,1,0,0:0:0:0:
448,192,303929,1,0,0:0:0:0:
64,192,304029,1,0,0:0:0:0:
320,192,304029,1,0,0:0:0:0:
192,192,304129,1,0,0:0:0:45:hitclap.wav
320,192,304129,1,0,0:0:0:65:hitfinish.wav
448,192,304129,1,0,0:0:0:0:
64,192,304229,1,0,0:0:0:0:
192,192,304229,1,0,0:0:0:0:
64,192,304329,1,0,0:0:0:0:
448,192,304329,1,0,0:0:0:0:
320,192,304429,1,0,0:0:0:0:
448,192,304429,1,0,0:0:0:0:
64,192,304529,1,0,0:0:0:45:hitclap.wav
192,192,304529,1,0,0:0:0:0:
320,192,304529,1,0,0:0:0:0:
64,192,304629,1,0,0:0:0:0:
448,192,304629,1,0,0:0:0:0:
192,192,304729,1,0,0:0:0:0:
448,192,304729,1,0,0:0:0:0:
64,192,304829,1,0,0:0:0:0:
320,192,304829,1,0,0:0:0:0:
64,192,304929,1,0,0:0:0:45:hitclap.wav
192,192,304929,1,0,0:0:0:0:
448,192,304929,1,0,0:0:0:0:
192,192,305029,1,0,0:0:0:0:
320,192,305029,1,0,0:0:0:0:
320,192,305129,1,0,0:0:0:0:
448,192,305129,1,0,0:0:0:0:
64,192,305229,1,0,0:0:0:0:
192,192,305229,1,0,0:0:0:0:
64,192,305329,1,0,0:0:0:45:hitclap.wav
320,192,305329,1,0,0:0:0:0:
448,192,305329,1,0,0:0:0:0:
192,192,305429,1,0,0:0:0:0:
448,192,305429,1,0,0:0:0:0:
64,192,305529,1,0,0:0:0:0:
192,192,305529,1,0,0:0:0:0:
320,192,305629,1,0,0:0:0:0:
448,192,305629,1,0,0:0:0:0:
64,192,305729,1,0,0:0:0:45:hitclap.wav
192,192,305729,1,0,0:0:0:65:hitfinish.wav
448,192,305729,1,0,0:0:0:0:
192,192,305829,1,0,0:0:0:0:
320,192,305829,1,0,0:0:0:0:
64,192,305929,1,0,0:0:0:0:
448,192,305929,1,0,0:0:0:0:
320,192,306029,1,0,0:0:0:0:
448,192,306029,1,0,0:0:0:0:
64,192,306129,1,0,0:0:0:45:hitclap.wav
192,192,306129,1,0,0:0:0:0:
320,192,306129,1,0,0:0:0:0:
192,192,306229,1,0,0:0:0:0:
448,192,306229,1,0,0:0:0:0:
320,192,306329,1,0,0:0:0:0:
448,192,306329,1,0,0:0:0:0:
64,192,306429,1,0,0:0:0:0:
192,192,306429,1,0,0:0:0:0:
64,192,306529,1,0,0:0:0:45:hitclap.wav
320,192,306529,1,0,0:0:0:0:
448,192,306529,1,0,0:0:0:0:
192,192,306629,1,0,0:0:0:0:
320,192,306629,1,0,0:0:0:0:
64,192,306729,1,0,0:0:0:0:
448,192,306729,1,0,0:0:0:0:
64,192,306829,1,0,0:0:0:0:
192,192,306829,1,0,0:0:0:0:
192,192,306929,1,0,0:0:0:45:hitclap.wav
320,192,306929,1,0,0:0:0:0:
448,192,306929,1,0,0:0:0:0:
64,192,307029,1,0,0:0:0:0:
448,192,307029,1,0,0:0:0:0:
64,192,307129,1,0,0:0:0:0:
192,192,307129,1,0,0:0:0:0:
320,192,307229,1,0,0:0:0:0:
448,192,307229,1,0,0:0:0:0:
64,192,307329,1,0,0:0:0:65:hitfinish.wav
192,192,307329,1,0,0:0:0:0:
448,192,307329,1,0,0:0:0:0:
192,192,307429,1,0,0:0:0:0:
320,192,307429,1,0,0:0:0:0:
64,192,307529,1,0,0:0:0:0:
320,192,307529,1,0,0:0:0:0:
192,192,307629,1,0,0:0:0:0:
448,192,307629,1,0,0:0:0:0:
64,192,307729,1,0,0:0:0:45:hitclap.wav
192,192,307729,1,0,0:0:0:0:
320,192,307729,1,0,0:0:0:0:
320,192,307829,1,0,0:0:0:0:
448,192,307829,1,0,0:0:0:0:
192,192,307929,1,0,0:0:0:0:
448,192,307929,1,0,0:0:0:0:
64,192,308029,1,0,0:0:0:0:
320,192,308029,1,0,0:0:0:0:
64,192,308129,1,0,0:0:0:45:hitclap.wav
192,192,308129,1,0,0:0:0:0:
448,192,308129,1,0,0:0:0:0:
192,192,308229,1,0,0:0:0:0:
320,192,308229,1,0,0:0:0:0:
64,192,308329,1,0,0:0:0:45:hitclap.wav
320,192,308329,1,0,0:0:0:0:
448,192,308329,1,0,0:0:0:0:
64,192,308429,1,0,0:0:0:45:hitclap.wav
192,192,308429,1,0,0:0:0:0:
320,192,308529,1,0,0:0:0:45:hitclap.wav
448,192,308529,1,0,0:0:0:0:
64,192,308629,1,0,0:0:0:45:hitclap.wav
192,192,308629,1,0,0:0:0:0:
64,192,308729,1,0,0:0:0:0:
320,192,308729,1,0,0:0:0:0:
448,192,308729,1,0,0:0:0:0:
192,192,308829,1,0,0:0:0:0:
448,192,308829,1,0,0:0:0:0:
64,192,308929,128,0,309329:0:0:0:65:hitfinish.wav
320,192,308929,1,0,0:0:0:0:
192,192,309029,1,0,0:0:0:0:
448,192,309029,1,0,0:0:0:0:
320,192,309129,1,0,0:0:0:45:hitclap.wav
448,192,309129,1,0,0:0:0:0:
192,192,309329,1,0,0:0:0:0:
320,192,309329,1,0,0:0:0:0:
64,192,309429,1,0,0:0:0:0:
448,192,309429,1,0,0:0:0:0:
192,192,309529,1,0,0:0:0:45:hitclap.wav
320,192,309529,1,0,0:0:0:0:
448,192,309529,1,0,0:0:0:0:
192,192,309729,128,0,310229:0:0:0:0:
448,192,309729,1,0,0:0:0:0:
64,192,309829,1,0,0:0:0:0:
320,192,309829,1,0,0:0:0:0:
320,192,309929,1,0,0:0:0:45:hitclap.wav
448,192,309929,1,0,0:0:0:0:
64,192,310029,1,0,0:0:0:0:
448,192,310029,1,0,0:0:0:0:
320,192,310229,1,0,0:0:0:0:
448,192,310229,1,0,0:0:0:0:
64,192,310329,1,0,0:0:0:45:hitclap.wav
192,192,310329,1,0,0:0:0:0:
320,192,310329,1,0,0:0:0:0:
192,192,310529,1,0,0:0:0:0:
320,192,310529,128,0,310929:0:0:0:0:
64,192,310629,1,0,0:0:0:0:
192,192,310629,1,0,0:0:0:0:
64,192,310729,1,0,0:0:0:45:hitclap.wav
448,192,310729,1,0,0:0:0:0:
64,192,310929,1,0,0:0:0:0:
192,192,310929,1,0,0:0:0:0:
64,192,311029,1,0,0:0:0:0:
192,192,311029,1,0,0:0:0:0:
64,192,311129,1,0,0:0:0:45:hitclap.wav
320,192,311129,1,0,0:0:0:0:
448,192,311129,1,0,0:0:0:0:
320,192,311329,1,0,0:0:0:0:
448,192,311329,128,0,311929:0:0:0:0:
64,192,311429,1,0,0:0:0:0:
192,192,311429,1,0,0:0:0:0:
64,192,311529,1,0,0:0:0:45:hitclap.wav
320,192,311529,1,0,0:0:0:0:
192,192,311629,1,0,0:0:0:0:
320,192,311629,1,0,0:0:0:0:
64,192,311829,1,0,0:0:0:0:
192,192,311829,1,0,0:0:0:0:
64,192,311929,1,0,0:0:0:45:hitclap.wav
192,192,311929,1,0,0:0:0:0:
320,192,311929,1,0,0:0:0:0:
320,192,312029,1,0,0:0:0:45:hitclap.wav
448,192,312029,1,0,0:0:0:0:
64,192,312129,1,0,0:0:0:45:hitclap.wav
192,192,312129,1,0,0:0:0:65:hitfinish.wav
448,192,312129,1,0,0:0:0:0:
192,192,312229,1,0,0:0:0:0:
64,192,312329,1,0,0:0:0:45:hitclap.wav
320,192,312329,1,0,0:0:0:0:
448,192,312329,1,0,0:0:0:0:
64,192,312429,1,0,0:0:0:0:
192,192,312529,1,0,0:0:0:45:hitclap.wav
320,192,312529,1,0,0:0:0:0:
448,192,312529,1,0,0:0:0:0:
448,192,312629,1,0,0:0:0:0:
64,192,312729,1,0,0:0:0:45:hitclap.wav
192,192,312729,1,0,0:0:0:0:
320,192,312729,1,0,0:0:0:0:
64,192,312829,1,0,0:0:0:0:
192,192,312929,1,0,0:0:0:45:hitclap.wav
320,192,312929,1,0,0:0:0:0:
448,192,312929,1,0,0:0:0:0:
320,192,313029,1,0,0:0:0:0:
64,192,313129,1,0,0:0:0:45:hitclap.wav
192,192,313129,1,0,0:0:0:0:
448,192,313129,1,0,0:0:0:0:
64,192,313229,1,0,0:0:0:0:
192,192,313329,1,0,0:0:0:45:hitclap.wav
320,192,313329,1,0,0:0:0:0:
448,192,313329,1,0,0:0:0:0:
448,192,313429,1,0,0:0:0:0:
64,192,313529,1,0,0:0:0:45:hitclap.wav
192,192,313529,1,0,0:0:0:0:
320,192,313529,1,0,0:0:0:0:
192,192,313629,1,0,0:0:0:0:
64,192,313729,1,0,0:0:0:45:hitclap.wav
320,192,313729,1,0,0:0:0:0:
448,192,313729,1,0,0:0:0:0:
320,192,313829,1,0,0:0:0:0:
64,192,313929,1,0,0:0:0:45:hitclap.wav
192,192,313929,1,0,0:0:0:0:
448,192,313929,1,0,0:0:0:0:
448,192,314029,1,0,0:0:0:0:
64,192,314129,1,0,0:0:0:45:hitclap.wav
192,192,314129,1,0,0:0:0:0:
320,192,314129,1,0,0:0:0:0:
64,192,314229,1,0,0:0:0:0:
192,192,314329,1,0,0:0:0:45:hitclap.wav
320,192,314329,1,0,0:0:0:0:
448,192,314329,1,0,0:0:0:0:
192,192,314429,1,0,0:0:0:0:
64,192,314529,1,0,0:0:0:45:hitclap.wav
320,192,314529,1,0,0:0:0:0:
448,192,314529,1,0,0:0:0:0:
448,192,314629,1,0,0:0:0:0:
64,192,314729,1,0,0:0:0:45:hitclap.wav
192,192,314729,1,0,0:0:0:0:
320,192,314729,1,0,0:0:0:0:
320,192,314829,1,0,0:0:0:45:hitclap.wav
448,192,314829,1,0,0:0:0:0:
64,192,314929,1,0,0:0:0:45:hitclap.wav
192,192,314929,1,0,0:0:0:0:
320,192,315029,1,0,0:0:0:45:hitclap.wav
448,192,315029,1,0,0:0:0:0:
64,192,315129,1,0,0:0:0:45:hitclap.wav
192,192,315129,1,0,0:0:0:0:
320,192,315229,1,0,0:0:0:45:hitclap.wav
448,192,315229,1,0,0:0:0:0:
64,192,315329,1,0,0:0:0:45:hitclap.wav
192,192,315329,1,0,0:0:0:65:hitfinish.wav
448,192,315329,1,0,0:0:0:0:
64,192,315429,1,0,0:0:0:0:
320,192,315429,1,0,0:0:0:0:
192,192,315529,1,0,0:0:0:0:
320,192,315529,1,0,0:0:0:0:
64,192,315629,1,0,0:0:0:0:
448,192,315629,1,0,0:0:0:0:
64,192,315729,1,0,0:0:0:45:hitclap.wav
192,192,315729,1,0,0:0:0:0:
320,192,315729,1,0,0:0:0:0:
192,192,315829,1,0,0:0:0:0:
448,192,315829,1,0,0:0:0:0:
320,192,315929,1,0,0:0:0:0:
448,192,315929,1,0,0:0:0:0:
64,192,316029,1,0,0:0:0:0:
192,192,316029,1,0,0:0:0:0:
64,192,316129,1,0,0:0:0:45:hitclap.wav
320,192,316129,1,0,0:0:0:0:
448,192,316129,1,0,0:0:0:0:
192,192,316229,1,0,0:0:0:0:
320,192,316229,1,0,0:0:0:0:
64,192,316329,1,0,0:0:0:0:
192,192,316329,1,0,0:0:0:0:
320,192,316429,1,0,0:0:0:0:
448,192,316429,1,0,0:0:0:0:
64,192,316529,1,0,0:0:0:45:hitclap.wav
192,192,316529,1,0,0:0:0:0:
448,192,316529,1,0,0:0:0:0:
192,192,316629,1,0,0:0:0:0:
320,192,316629,1,0,0:0:0:0:
64,192,316729,1,0,0:0:0:0:
320,192,316729,1,0,0:0:0:0:
192,192,316829,1,0,0:0:0:0:
448,192,316829,1,0,0:0:0:0:
64,192,316929,1,0,0:0:0:45:hitclap.wav
192,192,316929,1,0,0:0:0:65:hitfinish.wav
320,192,316929,1,0,0:0:0:0:
320,192,317029,1,0,0:0:0:0:
448,192,317029,1,0,0:0:0:0:
64,192,317129,1,0,0:0:0:0:
448,192,317129,1,0,0:0:0:0:
64,192,317229,1,0,0:0:0:0:
192,192,317229,1,0,0:0:0:0:
192,192,317329,1,0,0:0:0:45:hitclap.wav
320,192,317329,1,0,0:0:0:0:
448,192,317329,1,0,0:0:0:0:
64,192,317429,1,0,0:0:0:0:
448,192,317429,1,0,0:0:0:0:
64,192,317529,1,0,0:0:0:0:
320,192,317529,1,0,0:0:0:0:
192,192,317629,1,0,0:0:0:0:
448,192,317629,1,0,0:0:0:0:
64,192,317729,1,0,0:0:0:45:hitclap.wav
320,192,317729,1,0,0:0:0:0:
448,192,317729,1,0,0:0:0:0:
192,192,317829,1,0,0:0:0:0:
320,192,317829,1,0,0:0:0:0:
64,192,317929,1,0,0:0:0:0:
192,192,317929,1,0,0:0:0:0:
320,192,318029,1,0,0:0:0:0:
448,192,318029,1,0,0:0:0:0:
64,192,318129,1,0,0:0:0:45:hitclap.wav
192,192,318129,1,0,0:0:0:0:
448,192,318129,1,0,0:0:0:0:
64,192,318229,1,0,0:0:0:0:
320,192,318229,1,0,0:0:0:0:
320,192,318329,1,0,0:0:0:0:
448,192,318329,1,0,0:0:0:0:
64,192,318429,1,0,0:0:0:0:
192,192,318429,1,0,0:0:0:0:
64,192,318529,1,0,0:0:0:45:hitclap.wav
320,192,318529,1,0,0:0:0:65:hitfinish.wav
448,192,318529,1,0,0:0:0:0:
192,192,318629,1,0,0:0:0:0:
320,192,318629,1,0,0:0:0:0:
64,192,318729,1,0,0:0:0:0:
448,192,318729,1,0,0:0:0:0:
64,192,318829,1,0,0:0:0:0:
192,192,318829,1,0,0:0:0:0:
192,192,318929,1,0,0:0:0:45:hitclap.wav
320,192,318929,1,0,0:0:0:0:
448,192,318929,1,0,0:0:0:0:
64,192,319029,1,0,0:0:0:0:
320,192,319029,1,0,0:0:0:0:
64,192,319129,1,0,0:0:0:0:
192,192,319129,1,0,0:0:0:0:
320,192,319229,1,0,0:0:0:0:
448,192,319229,1,0,0:0:0:0:
64,192,319329,1,0,0:0:0:45:hitclap.wav
192,192,319329,1,0,0:0:0:0:
448,192,319329,1,0,0:0:0:0:
192,192,319429,1,0,0:0:0:0:
320,192,319429,1,0,0:0:0:0:
64,192,319529,1,0,0:0:0:0:
448,192,319529,1,0,0:0:0:0:
320,192,319629,1,0,0:0:0:0:
448,192,319629,1,0,0:0:0:0:
64,192,319729,1,0,0:0:0:45:hitclap.wav
192,192,319729,1,0,0:0:0:0:
320,192,319729,1,0,0:0:0:0:
64,192,319829,1,0,0:0:0:0:
448,192,319829,1,0,0:0:0:0:
320,192,319929,1,0,0:0:0:0:
448,192,319929,1,0,0:0:0:0:
64,192,320029,1,0,0:0:0:0:
192,192,320029,1,0,0:0:0:0:
64,192,320129,1,0,0:0:0:45:hitclap.wav
320,192,320129,1,0,0:0:0:65:hitfinish.wav
448,192,320129,1,0,0:0:0:0:
192,192,320229,1,0,0:0:0:0:
320,192,320229,1,0,0:0:0:0:
192,192,320329,1,0,0:0:0:0:
448,192,320329,1,0,0:0:0:0:
64,192,320429,1,0,0:0:0:0:
320,192,320429,1,0,0:0:0:0:
192,192,320529,1,0,0:0:0:45:hitclap.wav
320,192,320529,1,0,0:0:0:0:
448,192,320529,1,0,0:0:0:0:
64,192,320629,1,0,0:0:0:0:
192,192,320629,1,0,0:0:0:0:
64,192,320729,1,0,0:0:0:0:
320,192,320729,1,0,0:0:0:0:
192,192,320829,1,0,0:0:0:0:
448,192,320829,1,0,0:0:0:0:
64,192,320929,1,0,0:0:0:45:hitclap.wav
320,192,320929,1,0,0:0:0:0:
448,192,320929,1,0,0:0:0:0:
192,192,321029,1,0,0:0:0:0:
320,192,321029,1,0,0:0:0:0:
64,192,321129,1,0,0:0:0:45:hitclap.wav
192,192,321129,1,0,0:0:0:0:
448,192,321129,1,0,0:0:0:0:
320,192,321229,1,0,0:0:0:45:hitclap.wav
448,192,321229,1,0,0:0:0:0:
64,192,321329,1,0,0:0:0:45:hitclap.wav
192,192,321329,1,0,0:0:0:0:
320,192,321429,1,0,0:0:0:45:hitclap.wav
448,192,321429,1,0,0:0:0:0:
64,192,321529,1,0,0:0:0:0:
192,192,321529,1,0,0:0:0:0:
320,192,321529,1,0,0:0:0:0:
192,192,321629,1,0,0:0:0:0:
448,192,321629,1,0,0:0:0:0:
64,192,321729,128,0,322129:0:0:0:65:hitfinish.wav
320,192,321729,1,0,0:0:0:0:
192,192,321829,1,0,0:0:0:0:
448,192,321829,1,0,0:0:0:0:
320,192,321929,1,0,0:0:0:45:hitclap.wav
448,192,321929,1,0,0:0:0:0:
192,192,322129,1,0,0:0:0:0:
320,192,322129,1,0,0:0:0:0:
64,192,322229,1,0,0:0:0:0:
448,192,322229,1,0,0:0:0:0:
192,192,322329,1,0,0:0:0:45:hitclap.wav
320,192,322329,1,0,0:0:0:0:
448,192,322329,1,0,0:0:0:0:
192,192,322529,128,0,323029:0:0:0:0:
448,192,322529,1,0,0:0:0:0:
64,192,322629,1,0,0:0:0:0:
320,192,322629,1,0,0:0:0:0:
320,192,322729,1,0,0:0:0:45:hitclap.wav
448,192,322729,1,0,0:0:0:0:
64,192,322829,1,0,0:0:0:0:
448,192,322829,1,0,0:0:0:0:
320,192,323029,1,0,0:0:0:0:
448,192,323029,1,0,0:0:0:0:
64,192,323129,1,0,0:0:0:45:hitclap.wav
192,192,323129,1,0,0:0:0:0:
320,192,323129,1,0,0:0:0:0:
192,192,323329,1,0,0:0:0:0:
320,192,323329,128,0,323729:0:0:0:0:
64,192,323429,1,0,0:0:0:0:
192,192,323429,1,0,0:0:0:0:
64,192,323529,1,0,0:0:0:45:hitclap.wav
448,192,323529,1,0,0:0:0:0:
64,192,323729,1,0,0:0:0:0:
192,192,323729,1,0,0:0:0:0:
64,192,323829,1,0,0:0:0:0:
192,192,323829,1,0,0:0:0:0:
64,192,323929,1,0,0:0:0:45:hitclap.wav
320,192,323929,1,0,0:0:0:0:
448,192,323929,1,0,0:0:0:0:
320,192,324129,1,0,0:0:0:0:
448,192,324129,128,0,324729:0:0:0:0:
64,192,324229,1,0,0:0:0:0:
192,192,324229,1,0,0:0:0:0:
64,192,324329,1,0,0:0:0:45:hitclap.wav
320,192,324329,1,0,0:0:0:0:
192,192,324429,1,0,0:0:0:0:
320,192,324429,1,0,0:0:0:0:
64,192,324629,1,0,0:0:0:0:
192,192,324629,1,0,0:0:0:0:
64,192,324729,1,0,0:0:0:45:hitclap.wav
192,192,324729,1,0,0:0:0:0:
320,192,324729,1,0,0:0:0:0:
320,192,324829,1,0,0:0:0:45:hitclap.wav
448,192,324829,1,0,0:0:0:0:
64,192,324929,1,0,0:0:0:45:hitclap.wav
192,192,324929,1,0,0:0:0:65:hitfinish.wav
448,192,324929,1,0,0:0:0:0:
192,192,325029,1,0,0:0:0:0:
64,192,325129,1,0,0:0:0:45:hitclap.wav
320,192,325129,1,0,0:0:0:0:
448,192,325129,1,0,0:0:0:0:
64,192,325229,1,0,0:0:0:0:
192,192,325329,1,0,0:0:0:45:hitclap.wav
320,192,325329,1,0,0:0:0:0:
448,192,325329,1,0,0:0:0:0:
448,192,325429,1,0,0:0:0:0:
64,192,325529,1,0,0:0:0:45:hitclap.wav
192,192,325529,1,0,0:0:0:0:
320,192,325529,1,0,0:0:0:0:
64,192,325629,1,0,0:0:0:0:
192,192,325729,1,0,0:0:0:45:hitclap.wav
320,192,325729,1,0,0:0:0:0:
448,192,325729,1,0,0:0:0:0:
320,192,325829,1,0,0:0:0:0:
64,192,325929,1,0,0:0:0:45:hitclap.wav
192,192,325929,1,0,0:0:0:0:
448,192,325929,1,0,0:0:0:0:
64,192,326029,1,0,0:0:0:0:
192,192,326129,1,0,0:0:0:45:hitclap.wav
320,192,326129,1,0,0:0:0:0:
448,192,326129,1,0,0:0:0:0:
448,192,326229,1,0,0:0:0:0:
64,192,326329,1,0,0:0:0:45:hitclap.wav
192,192,326329,1,0,0:0:0:0:
320,192,326329,1,0,0:0:0:0:
192,192,326429,1,0,0:0:0:0:
64,192,326529,1,0,0:0:0:45:hitclap.wav
320,192,326529,1,0,0:0:0:0:
448,192,326529,1,0,0:0:0:0:
320,192,326629,1,0,0:0:0:0:
64,192,326729,1,0,0:0:0:45:hitclap.wav
192,192,326729,1,0,0:0:0:0:
448,192,326729,1,0,0:0:0:0:
448,192,326829,1,0,0:0:0:0:
64,192,326929,1,0,0:0:0:45:hitclap.wav
192,192,326929,1,0,0:0:0:0:
320,192,326929,1,0,0:0:0:0:
64,192,327029,1,0,0:0:0:0:
192,192,327129,1,0,0:0:0:45:hitclap.wav
320,192,327129,1,0,0:0:0:0:
448,192,327129,1,0,0:0:0:0:
192,192,327229,1,0,0:0:0:0:
64,192,327329,1,0,0:0:0:45:hitclap.wav
320,192,327329,1,0,0:0:0:0:
448,192,327329,1,0,0:0:0:0:
448,192,327429,1,0,0:0:0:0:
64,192,327529,1,0,0:0:0:45:hitclap.wav
192,192,327529,1,0,0:0:0:0:
320,192,327529,1,0,0:0:0:0:
320,192,327629,1,0,0:0:0:45:hitclap.wav
448,192,327629,1,0,0:0:0:0:
64,192,327729,1,0,0:0:0:45:hitclap.wav
192,192,327729,1,0,0:0:0:0:
320,192,327829,1,0,0:0:0:45:hitclap.wav
448,192,327829,1,0,0:0:0:0:
64,192,327929,1,0,0:0:0:45:hitclap.wav
192,192,327929,1,0,0:0:0:0:
320,192,328029,1,0,0:0:0:45:hitclap.wav
448,192,328029,1,0,0:0:0:0:
64,192,328129,1,0,0:0:0:45:hitclap.wav
192,192,328129,1,0,0:0:0:0:
448,192,328129,1,0,0:0:0:0:
64,192,328329,1,0,0:0:0:0:
320,192,328329,1,0,0:0:0:0:
192,192,328429,1,0,0:0:0:45:hitclap.wav
320,192,328429,1,0,0:0:0:0:
448,192,328429,1,0,0:0:0:0:
192,192,328629,1,0,0:0:0:0:
448,192,328629,1,0,0:0:0:0:
64,192,328729,1,0,0:0:0:45:hitclap.wav
320,192,328729,1,0,0:0:0:0:
448,192,328729,1,0,0:0:0:0:
64,192,328929,1,0,0:0:0:45:hitclap.wav
192,192,328929,1,0,0:0:0:0:
448,192,328929,1,0,0:0:0:0:
64,192,329029,1,0,0:0:0:45:hitclap.wav
320,192,329029,1,0,0:0:0:0:
448,192,329029,1,0,0:0:0:0:
192,192,329129,1,0,0:0:0:0:
320,192,329229,1,0,0:0:0:0:
192,192,329329,1,0,0:0:0:0:
448,192,329329,1,0,0:0:0:0:
64,192,329429,1,0,0:0:0:0:
320,192,329429,1,0,0:0:0:0:
192,192,329529,1,0,0:0:0:0:
448,192,329529,1,0,0:0:0:0:
64,192,329629,1,0,0:0:0:0:
320,192,329629,1,0,0:0:0:0:
64,192,329729,1,0,0:0:0:45:hitclap.wav
192,192,329729,1,0,0:0:0:65:hitfinish.wav
448,192,329729,1,0,0:0:0:0:
192,192,329929,1,0,0:0:0:45:hitclap.wav
320,192,329929,1,0,0:0:0:0:
448,192,329929,1,0,0:0:0:0:
64,192,330129,1,0,0:0:0:0:
192,192,330129,1,0,0:0:0:0:
64,192,330229,1,0,0:0:0:0:
192,192,330229,1,0,0:0:0:0:
64,192,330329,1,0,0:0:0:45:hitclap.wav
320,192,330329,1,0,0:0:0:0:
448,192,330329,1,0,0:0:0:0:
192,192,330429,1,0,0:0:0:0:
320,192,330529,1,0,0:0:0:0:
448,192,330529,1,0,0:0:0:0:
320,192,330629,1,0,0:0:0:0:
448,192,330629,1,0,0:0:0:0:
64,192,330729,1,0,0:0:0:45:hitclap.wav
192,192,330729,1,0,0:0:0:0:
448,192,330729,1,0,0:0:0:0:
64,192,330829,1,0,0:0:0:0:
320,192,330829,1,0,0:0:0:0:
192,192,330929,1,0,0:0:0:0:
192,192,331029,1,0,0:0:0:0:
320,192,331029,1,0,0:0:0:0:
64,192,331129,1,0,0:0:0:45:hitclap.wav
320,192,331129,1,0,0:0:0:0:
448,192,331129,1,0,0:0:0:0:
64,192,331329,1,0,0:0:0:0:
192,192,331329,1,0,0:0:0:0:
448,192,331429,1,0,0:0:0:0:
64,192,331529,1,0,0:0:0:45:hitclap.wav
192,192,331529,1,0,0:0:0:0:
320,192,331529,1,0,0:0:0:0:
448,192,331629,1,0,0:0:0:0:
64,192,331729,1,0,0:0:0:0:
320,192,331729,1,0,0:0:0:0:
64,192,331829,1,0,0:0:0:0:
320,192,331829,1,0,0:0:0:0:
64,192,331929,1,0,0:0:0:45:hitclap.wav
192,192,331929,1,0,0:0:0:0:
448,192,331929,1,0,0:0:0:0:
320,192,332129,1,0,0:0:0:0:
448,192,332129,1,0,0:0:0:0:
320,192,332229,1,0,0:0:0:0:
448,192,332229,1,0,0:0:0:0:
64,192,332329,1,0,0:0:0:45:hitclap.wav
192,192,332329,1,0,0:0:0:0:
448,192,332329,1,0,0:0:0:0:
64,192,332429,1,0,0:0:0:0:
192,192,332429,1,0,0:0:0:0:
320,192,332529,1,0,0:0:0:0:
192,192,332629,1,0,0:0:0:0:
448,192,332629,1,0,0:0:0:0:
64,192,332729,1,0,0:0:0:45:hitclap.wav
320,192,332729,1,0,0:0:0:0:
448,192,332729,1,0,0:0:0:0:
64,192,332929,1,0,0:0:0:65:hitfinish.wav
320,192,332929,1,0,0:0:0:0:
448,192,332929,1,0,0:0:0:0:
192,192,333062,1,0,0:0:0:0:
320,192,333062,1,0,0:0:0:0:
448,192,333062,1,0,0:0:0:0:
64,192,333129,1,0,0:0:0:45:hitclap.wav
192,192,333195,1,0,0:0:0:0:
320,192,333195,1,0,0:0:0:0:
448,192,333195,1,0,0:0:0:0:
64,192,333329,1,0,0:0:0:0:
192,192,333329,1,0,0:0:0:0:
448,192,333329,1,0,0:0:0:0:
64,192,333462,1,0,0:0:0:0:
192,192,333462,1,0,0:0:0:0:
320,192,333462,1,0,0:0:0:0:
448,192,333529,1,0,0:0:0:45:hitclap.wav
64,192,333595,1,0,0:0:0:0:
192,192,333595,1,0,0:0:0:0:
320,192,333595,1,0,0:0:0:0:
320,192,333729,1,0,0:0:0:0:
448,192,333729,1,0,0:0:0:0:
320,192,333829,1,0,0:0:0:0:
448,192,333829,1,0,0:0:0:0:
64,192,333929,1,0,0:0:0:45:hitclap.wav
192,192,333929,1,0,0:0:0:0:
448,192,333929,1,0,0:0:0:0:
192,192,334029,1,0,0:0:0:0:
320,192,334029,1,0,0:0:0:0:
64,192,334129,1,0,0:0:0:0:
192,192,334229,1,0,0:0:0:0:
320,192,334229,1,0,0:0:0:0:
64,192,334329,1,0,0:0:0:45:hitclap.wav
320,192,334329,1,0,0:0:0:0:
448,192,334329,1,0,0:0:0:0:
192,192,334429,1,0,0:0:0:0:
320,192,334529,1,0,0:0:0:0:
448,192,334529,1,0,0:0:0:0:
64,192,334729,1,0,0:0:0:45:hitclap.wav
192,192,334729,1,0,0:0:0:0:
448,192,334729,1,0,0:0:0:0:
320,192,334829,1,0,0:0:0:0:
64,192,334929,1,0,0:0:0:0:
192,192,334929,1,0,0:0:0:0:
320,192,335029,1,0,0:0:0:0:
448,192,335029,1,0,0:0:0:0:
64,192,335129,1,0,0:0:0:45:hitclap.wav
192,192,335129,1,0,0:0:0:0:
448,192,335129,1,0,0:0:0:0:
320,192,335229,1,0,0:0:0:0:
192,192,335329,1,0,0:0:0:0:
448,192,335329,1,0,0:0:0:0:
64,192,335429,1,0,0:0:0:0:
192,192,335429,1,0,0:0:0:0:
64,192,335529,1,0,0:0:0:45:hitclap.wav
320,192,335529,1,0,0:0:0:0:
448,192,335529,1,0,0:0:0:0:
192,192,335629,1,0,0:0:0:0:
448,192,335629,1,0,0:0:0:0:
320,192,335729,1,0,0:0:0:0:
64,192,335829,1,0,0:0:0:45:hitclap.wav
192,192,335829,1,0,0:0:0:0:
448,192,335829,1,0,0:0:0:0:
192,192,335929,1,0,0:0:0:45:hitclap.wav
320,192,335929,1,0,0:0:0:0:
448,192,335929,1,0,0:0:0:0:
64,192,336029,1,0,0:0:0:45:hitclap.wav
192,192,336029,1,0,0:0:0:0:
320,192,336029,1,0,0:0:0:0:
64,192,336129,1,0,0:0:0:45:hitclap.wav
320,192,336129,1,0,0:0:0:65:hitfinish.wav
448,192,336129,1,0,0:0:0:0:
192,192,336329,1,0,0:0:0:45:hitclap.wav
320,192,336329,1,0,0:0:0:0:
448,192,336329,1,0,0:0:0:0:
64,192,336529,1,0,0:0:0:0:
192,192,336529,1,0,0:0:0:0:
64,192,336629,1,0,0:0:0:0:
192,192,336629,1,0,0:0:0:0:
192,192,336729,1,0,0:0:0:45:hitclap.wav
320,192,336729,1,0,0:0:0:0:
448,192,336729,1,0,0:0:0:0:
64,192,336929,1,0,0:0:0:0:
448,192,336929,1,0,0:0:0:0:
64,192,337029,1,0,0:0:0:0:
192,192,337029,1,0,0:0:0:0:
192,192,337129,1,0,0:0:0:45:hitclap.wav
320,192,337129,1,0,0:0:0:0:
448,192,337129,1,0,0:0:0:0:
64,192,337229,1,0,0:0:0:0:
448,192,337229,1,0,0:0:0:0:
320,192,337329,1,0,0:0:0:0:
64,192,337429,1,0,0:0:0:0:
448,192,337429,1,0,0:0:0:0:
64,192,337529,1,0,0:0:0:45:hitclap.wav
192,192,337529,1,0,0:0:0:0:
320,192,337529,1,0,0:0:0:0:
320,192,337729,1,0,0:0:0:0:
448,192,337729,1,0,0:0:0:0:
64,192,337929,1,0,0:0:0:45:hitclap.wav
192,192,337929,1,0,0:0:0:0:
448,192,337929,1,0,0:0:0:0:
192,192,338129,1,0,0:0:0:0:
320,192,338129,1,0,0:0:0:0:
192,192,338229,1,0,0:0:0:0:
320,192,338229,1,0,0:0:0:0:
64,192,338329,1,0,0:0:0:45:hitclap.wav
192,192,338329,1,0,0:0:0:0:
448,192,338329,1,0,0:0:0:0:
64,192,338529,1,0,0:0:0:0:
320,192,338529,1,0,0:0:0:0:
448,192,338529,1,0,0:0:0:0:
64,192,338662,1,0,0:0:0:0:
192,192,338662,1,0,0:0:0:0:
448,192,338662,1,0,0:0:0:0:
320,192,338729,1,0,0:0:0:45:hitclap.wav
64,192,338795,1,0,0:0:0:0:
192,192,338795,1,0,0:0:0:0:
448,192,338795,1,0,0:0:0:0:
192,192,338929,1,0,0:0:0:0:
320,192,338929,1,0,0:0:0:0:
448,192,338929,1,0,0:0:0:0:
64,192,339062,1,0,0:0:0:0:
320,192,339062,1,0,0:0:0:0:
448,192,339062,1,0,0:0:0:0:
192,192,339129,1,0,0:0:0:45:hitclap.wav
64,192,339195,1,0,0:0:0:0:
320,192,339195,1,0,0:0:0:0:
448,192,339195,1,0,0:0:0:0:
192,192,339329,1,0,0:0:0:65:hitfinish.wav
320,192,339329,1,0,0:0:0:0:
448,192,339329,1,0,0:0:0:0:
320,192,339429,1,0,0:0:0:0:
64,192,339529,1,0,0:0:0:45:hitclap.wav
192,192,339529,1,0,0:0:0:0:
448,192,339529,1,0,0:0:0:0:
320,192,339629,1,0,0:0:0:0:
64,192,339729,1,0,0:0:0:0:
192,192,339729,1,0,0:0:0:0:
64,192,339829,1,0,0:0:0:0:
448,192,339829,1,0,0:0:0:0:
192,192,339929,1,0,0:0:0:45:hitclap.wav
320,192,339929,1,0,0:0:0:0:
448,192,339929,1,0,0:0:0:0:
64,192,340029,1,0,0:0:0:0:
320,192,340129,1,0,0:0:0:0:
448,192,340129,1,0,0:0:0:0:
192,192,340229,1,0,0:0:0:0:
320,192,340229,1,0,0:0:0:0:
64,192,340329,1,0,0:0:0:45:hitclap.wav
192,192,340329,1,0,0:0:0:0:
448,192,340329,1,0,0:0:0:0:
64,192,340429,1,0,0:0:0:0:
320,192,340429,1,0,0:0:0:0:
448,192,340529,1,0,0:0:0:0:
192,192,340629,1,0,0:0:0:0:
320,192,340629,1,0,0:0:0:0:
64,192,340729,1,0,0:0:0:45:hitclap.wav
320,192,340729,1,0,0:0:0:0:
448,192,340729,1,0,0:0:0:0:
192,192,340829,1,0,0:0:0:0:
320,192,340929,1,0,0:0:0:0:
448,192,340929,1,0,0:0:0:0:
64,192,341129,1,0,0:0:0:45:hitclap.wav
192,192,341129,1,0,0:0:0:0:
448,192,341129,1,0,0:0:0:0:
192,192,341329,1,0,0:0:0:0:
320,192,341329,1,0,0:0:0:0:
192,192,341429,1,0,0:0:0:0:
320,192,341429,1,0,0:0:0:0:
64,192,341529,1,0,0:0:0:45:hitclap.wav
320,192,341529,1,0,0:0:0:0:
448,192,341529,1,0,0:0:0:0:
64,192,341729,1,0,0:0:0:0:
192,192,341729,1,0,0:0:0:0:
64,192,341829,1,0,0:0:0:0:
448,192,341829,1,0,0:0:0:0:
192,192,341929,1,0,0:0:0:45:hitclap.wav
320,192,341929,1,0,0:0:0:0:
448,192,341929,1,0,0:0:0:0:
64,192,342029,1,0,0:0:0:45:hitclap.wav
192,192,342029,1,0,0:0:0:0:
320,192,342029,1,0,0:0:0:0:
320,192,342129,1,0,0:0:0:45:hitclap.wav
448,192,342129,1,0,0:0:0:0:
64,192,342229,1,0,0:0:0:45:hitclap.wav
192,192,342229,1,0,0:0:0:0:
320,192,342329,1,0,0:0:0:45:hitclap.wav
448,192,342329,1,0,0:0:0:0:
192,192,342429,1,0,0:0:0:45:hitclap.wav
320,192,342429,1,0,0:0:0:0:
64,192,342529,1,0,0:0:0:65:hitfinish.wav
448,192,342529,1,0,0:0:0:0:
64,192,342629,1,0,0:0:0:45:hitclap.wav
192,192,342629,1,0,0:0:0:0:
320,192,342629,1,0,0:0:0:0:
320,192,342729,1,0,0:0:0:0:
448,192,342729,1,0,0:0:0:0:
64,192,342829,1,0,0:0:0:45:hitclap.wav
192,192,342829,1,0,0:0:0:0:
448,192,342829,1,0,0:0:0:0:
192,192,342929,1,0,0:0:0:0:
320,192,342929,1,0,0:0:0:0:
64,192,343029,1,0,0:0:0:45:hitclap.wav
320,192,343029,1,0,0:0:0:0:
448,192,343029,1,0,0:0:0:0:
64,192,343129,1,0,0:0:0:0:
192,192,343129,1,0,0:0:0:0:
192,192,343229,1,0,0:0:0:45:hitclap.wav
320,192,343229,1,0,0:0:0:0:
448,192,343229,1,0,0:0:0:0:
64,192,343329,1,0,0:0:0:0:
448,192,343329,1,0,0:0:0:0:
64,192,343429,1,0,0:0:0:45:hitclap.wav
192,192,343429,1,0,0:0:0:0:
320,192,343429,1,0,0:0:0:0:
192,192,343529,1,0,0:0:0:0:
448,192,343529,1,0,0:0:0:0:
64,192,343629,1,0,0:0:0:45:hitclap.wav
320,192,343629,1,0,0:0:0:0:
448,192,343629,1,0,0:0:0:0:
64,192,343729,1,0,0:0:0:0:
192,192,343729,1,0,0:0:0:0:
192,192,343829,1,0,0:0:0:45:hitclap.wav
320,192,343829,1,0,0:0:0:0:
448,192,343829,1,0,0:0:0:0:
64,192,343929,1,0,0:0:0:0:
448,192,343929,1,0,0:0:0:0:
64,192,344029,1,0,0:0:0:45:hitclap.wav
192,192,344029,1,0,0:0:0:0:
320,192,344029,1,0,0:0:0:0:
320,192,344129,1,0,0:0:0:0:
448,192,344129,1,0,0:0:0:0:
64,192,344229,1,0,0:0:0:45:hitclap.wav
192,192,344229,1,0,0:0:0:0:
448,192,344229,1,0,0:0:0:0:
192,192,344329,1,0,0:0:0:0:
320,192,344329,1,0,0:0:0:0:
64,192,344429,1,0,0:0:0:45:hitclap.wav
192,192,344429,1,0,0:0:0:0:
448,192,344429,1,0,0:0:0:0:
320,192,344529,1,0,0:0:0:0:
448,192,344529,1,0,0:0:0:0:
64,192,344629,1,0,0:0:0:45:hitclap.wav
192,192,344629,1,0,0:0:0:0:
320,192,344629,1,0,0:0:0:0:
64,192,344729,1,0,0:0:0:0:
448,192,344729,1,0,0:0:0:0:
192,192,344829,1,0,0:0:0:45:hitclap.wav
320,192,344829,1,0,0:0:0:0:
448,192,344829,1,0,0:0:0:0:
64,192,344929,1,0,0:0:0:0:
192,192,344929,1,0,0:0:0:0:
64,192,345029,1,0,0:0:0:45:hitclap.wav
320,192,345029,1,0,0:0:0:0:
448,192,345029,1,0,0:0:0:0:
192,192,345129,1,0,0:0:0:0:
448,192,345129,1,0,0:0:0:0:
64,192,345229,1,0,0:0:0:45:hitclap.wav
192,192,345229,1,0,0:0:0:0:
320,192,345229,1,0,0:0:0:0:
64,192,345329,1,0,0:0:0:0:
448,192,345329,1,0,0:0:0:0:
192,192,345429,1,0,0:0:0:45:hitclap.wav
320,192,345429,1,0,0:0:0:0:
448,192,345429,1,0,0:0:0:0:
64,192,345529,1,0,0:0:0:0:
192,192,345529,1,0,0:0:0:0:
64,192,345629,1,0,0:0:0:45:hitclap.wav
320,192,345629,1,0,0:0:0:0:
448,192,345629,1,0,0:0:0:0:
192,192,345729,1,0,0:0:0:65:hitfinish.wav
448,192,345729,1,0,0:0:0:0:
64,192,345829,1,0,0:0:0:45:hitclap.wav
192,192,345829,1,0,0:0:0:0:
320,192,345829,1,0,0:0:0:0:
320,192,345929,1,0,0:0:0:0:
448,192,345929,1,0,0:0:0:0:
64,192,346029,1,0,0:0:0:45:hitclap.wav
192,192,346029,1,0,0:0:0:0:
448,192,346029,1,0,0:0:0:0:
192,192,346129,1,0,0:0:0:0:
320,192,346129,1,0,0:0:0:0:
64,192,346229,1,0,0:0:0:45:hitclap.wav
320,192,346229,1,0,0:0:0:0:
448,192,346229,1,0,0:0:0:0:
64,192,346329,1,0,0:0:0:0:
192,192,346329,1,0,0:0:0:0:
192,192,346429,1,0,0:0:0:45:hitclap.wav
320,192,346429,1,0,0:0:0:0:
448,192,346429,1,0,0:0:0:0:
64,192,346529,1,0,0:0:0:0:
320,192,346529,1,0,0:0:0:0:
64,192,346629,1,0,0:0:0:45:hitclap.wav
192,192,346629,1,0,0:0:0:0:
448,192,346629,1,0,0:0:0:0:
192,192,346729,1,0,0:0:0:0:
320,192,346729,1,0,0:0:0:0:
64,192,346829,1,0,0:0:0:45:hitclap.wav
192,192,346829,1,0,0:0:0:0:
448,192,346829,1,0,0:0:0:0:
320,192,346929,1,0,0:0:0:0:
448,192,346929,1,0,0:0:0:0:
64,192,347029,1,0,0:0:0:45:hitclap.wav
192,192,347029,1,0,0:0:0:0:
320,192,347029,1,0,0:0:0:0:
64,192,347129,1,0,0:0:0:0:
448,192,347129,1,0,0:0:0:0:
192,192,347229,1,0,0:0:0:45:hitclap.wav
320,192,347229,1,0,0:0:0:0:
448,192,347229,1,0,0:0:0:0:
64,192,347329,1,0,0:0:0:0:
192,192,347329,1,0,0:0:0:0:
64,192,347429,1,0,0:0:0:45:hitclap.wav
320,192,347429,1,0,0:0:0:0:
448,192,347429,1,0,0:0:0:0:
192,192,347529,1,0,0:0:0:0:
448,192,347529,1,0,0:0:0:0:
64,192,347629,1,0,0:0:0:45:hitclap.wav
192,192,347629,1,0,0:0:0:0:
320,192,347629,1,0,0:0:0:0:
320,192,347729,1,0,0:0:0:0:
448,192,347729,1,0,0:0:0:0:
64,192,347829,1,0,0:0:0:45:hitclap.wav
192,192,347829,1,0,0:0:0:0:
448,192,347829,1,0,0:0:0:0:
64,192,347929,1,0,0:0:0:0:
320,192,347929,1,0,0:0:0:0:
192,192,348029,1,0,0:0:0:45:hitclap.wav
320,192,348029,1,0,0:0:0:0:
448,192,348029,1,0,0:0:0:0:
64,192,348129,1,0,0:0:0:0:
192,192,348129,1,0,0:0:0:0:
64,192,348229,1,0,0:0:0:45:hitclap.wav
320,192,348229,1,0,0:0:0:0:
448,192,348229,1,0,0:0:0:0:
192,192,348329,1,0,0:0:0:0:
320,192,348329,1,0,0:0:0:0:
64,192,348429,1,0,0:0:0:45:hitclap.wav
192,192,348429,1,0,0:0:0:0:
448,192,348429,1,0,0:0:0:0:
320,192,348529,1,0,0:0:0:45:hitclap.wav
448,192,348529,1,0,0:0:0:0:
64,192,348629,1,0,0:0:0:45:hitclap.wav
192,192,348629,1,0,0:0:0:0:
320,192,348729,1,0,0:0:0:45:hitclap.wav
448,192,348729,1,0,0:0:0:0:
64,192,348829,1,0,0:0:0:45:hitclap.wav
192,192,348829,1,0,0:0:0:0:
64,192,348929,1,0,0:0:0:45:hitclap.wav
320,192,348929,1,0,0:0:0:65:hitfinish.wav
448,192,348929,1,0,0:0:0:0:
192,192,349029,1,0,0:0:0:0:
320,192,349029,1,0,0:0:0:0:
64,192,349129,1,0,0:0:0:0:
192,192,349129,1,0,0:0:0:0:
320,192,349229,1,0,0:0:0:0:
448,192,349229,1,0,0:0:0:0:
64,192,349329,1,0,0:0:0:45:hitclap.wav
192,192,349329,1,0,0:0:0:0:
448,192,349329,1,0,0:0:0:0:
192,192,349429,1,0,0:0:0:0:
320,192,349429,1,0,0:0:0:0:
320,192,349529,1,0,0:0:0:0:
448,192,349529,1,0,0:0:0:0:
64,192,349629,1,0,0:0:0:0:
192,192,349629,1,0,0:0:0:0:
192,192,349729,1,0,0:0:0:45:hitclap.wav
320,192,349729,1,0,0:0:0:0:
448,192,349729,1,0,0:0:0:0:
64,192,349829,1,0,0:0:0:0:
320,192,349829,1,0,0:0:0:0:
64,192,349929,1,0,0:0:0:0:
192,192,349929,1,0,0:0:0:0:
320,192,350029,1,0,0:0:0:0:
448,192,350029,1,0,0:0:0:0:
64,192,350129,1,0,0:0:0:45:hitclap.wav
192,192,350129,1,0,0:0:0:0:
448,192,350129,1,0,0:0:0:0:
192,192,350229,1,0,0:0:0:0:
320,192,350229,1,0,0:0:0:0:
64,192,350329,1,0,0:0:0:0:
448,192,350329,1,0,0:0:0:0:
320,192,350429,1,0,0:0:0:0:
448,192,350429,1,0,0:0:0:0:
64,192,350529,1,0,0:0:0:45:hitclap.wav
192,192,350529,1,0,0:0:0:65:hitfinish.wav
320,192,350529,1,0,0:0:0:0:
192,192,350629,1,0,0:0:0:0:
448,192,350629,1,0,0:0:0:0:
64,192,350729,1,0,0:0:0:0:
320,192,350729,1,0,0:0:0:0:
64,192,350829,1,0,0:0:0:0:
448,192,350829,1,0,0:0:0:0:
192,192,350929,1,0,0:0:0:45:hitclap.wav
320,192,350929,1,0,0:0:0:0:
448,192,350929,1,0,0:0:0:0:
64,192,351029,1,0,0:0:0:0:
192,192,351029,1,0,0:0:0:0:
64,192,351129,1,0,0:0:0:0:
448,192,351129,1,0,0:0:0:0:
192,192,351229,1,0,0:0:0:0:
320,192,351229,1,0,0:0:0:0:
64,192,351329,1,0,0:0:0:45:hitclap.wav
320,192,351329,1,0,0:0:0:0:
448,192,351329,1,0,0:0:0:0:
64,192,351429,1,0,0:0:0:0:
192,192,351429,1,0,0:0:0:0:
320,192,351529,1,0,0:0:0:0:
448,192,351529,1,0,0:0:0:0:
192,192,351629,1,0,0:0:0:0:
448,192,351629,1,0,0:0:0:0:
64,192,351729,1,0,0:0:0:45:hitclap.wav
192,192,351729,1,0,0:0:0:0:
320,192,351729,1,0,0:0:0:0:
64,192,351829,1,0,0:0:0:0:
448,192,351829,1,0,0:0:0:0:
192,192,351929,1,0,0:0:0:0:
320,192,351929,1,0,0:0:0:0:
320,192,352029,1,0,0:0:0:0:
448,192,352029,1,0,0:0:0:0:
64,192,352129,1,0,0:0:0:45:hitclap.wav
192,192,352129,1,0,0:0:0:65:hitfinish.wav
448,192,352129,1,0,0:0:0:0:
192,192,352229,1,0,0:0:0:0:
320,192,352229,1,0,0:0:0:0:
64,192,352329,1,0,0:0:0:0:
320,192,352329,1,0,0:0:0:0:
192,192,352429,1,0,0:0:0:0:
448,192,352429,1,0,0:0:0:0:
64,192,352529,1,0,0:0:0:45:hitclap.wav
320,192,352529,1,0,0:0:0:0:
448,192,352529,1,0,0:0:0:0:
192,192,352629,1,0,0:0:0:0:
320,192,352629,1,0,0:0:0:0:
64,192,352729,1,0,0:0:0:0:
448,192,352729,1,0,0:0:0:0:
64,192,352829,1,0,0:0:0:0:
192,192,352829,1,0,0:0:0:0:
192,192,352929,1,0,0:0:0:45:hitclap.wav
320,192,352929,1,0,0:0:0:0:
448,192,352929,1,0,0:0:0:0:
64,192,353029,1,0,0:0:0:0:
320,192,353029,1,0,0:0:0:0:
64,192,353129,1,0,0:0:0:0:
448,192,353129,1,0,0:0:0:0:
320,192,353229,1,0,0:0:0:0:
448,192,353229,1,0,0:0:0:0:
64,192,353329,1,0,0:0:0:45:hitclap.wav
192,192,353329,1,0,0:0:0:0:
320,192,353329,1,0,0:0:0:0:
192,192,353429,1,0,0:0:0:0:
448,192,353429,1,0,0:0:0:0:
64,192,353529,1,0,0:0:0:0:
320,192,353529,1,0,0:0:0:0:
320,192,353629,1,0,0:0:0:0:
448,192,353629,1,0,0:0:0:0:
64,192,353729,1,0,0:0:0:45:hitclap.wav
192,192,353729,1,0,0:0:0:0:
448,192,353729,1,0,0:0:0:0:
192,192,353929,1,0,0:0:0:0:
64,192,354029,1,0,0:0:0:45:hitclap.wav
320,192,354029,1,0,0:0:0:0:
448,192,354029,1,0,0:0:0:0:
448,192,354129,1,0,0:0:0:0:
64,192,354329,1,0,0:0:0:45:hitclap.wav
192,192,354329,1,0,0:0:0:0:
448,192,354329,1,0,0:0:0:0:
64,192,354429,1,0,0:0:0:45:hitclap.wav
320,192,354429,1,0,0:0:0:0:
448,192,354429,1,0,0:0:0:0:
192,192,354529,1,0,0:0:0:0:
320,192,354529,1,0,0:0:0:0:
64,192,354629,1,0,0:0:0:0:
192,192,354629,1,0,0:0:0:0:
320,192,354729,1,0,0:0:0:0:
448,192,354729,1,0,0:0:0:0:
64,192,354829,1,0,0:0:0:0:
192,192,354829,1,0,0:0:0:0:
192,192,354929,128,0,355029:0:0:0:45:hitclap.wav
320,192,354929,1,0,0:0:0:0:
64,192,355029,1,0,0:0:0:45:hitclap.wav
448,192,355029,128,0,355129:0:0:0:0:
320,192,355129,128,0,355229:0:0:0:45:hitclap.wav
192,192,355229,128,0,355329:0:0:0:45:hitclap.wav
64,192,355329,128,0,358529:0:0:0:65:hitfinish.wav
320,192,355329,1,0,0:0:0:0:
448,192,355329,128,0,358529:0:0:0:0:
