osu file format v14

[General]
AudioFilename: audio.mp3
AudioLeadIn: 0
PreviewTime: 302521
Countdown: 0
SampleSet: Soft
StackLeniency: 0.7
Mode: 2
LetterboxInBreaks: 0
WidescreenStoryboard: 0

[Editor]
Bookmarks: 83321
DistanceSpacing: 1
BeatDivisor: 4
GridSize: 4
TimelineZoom: 2.6

[Metadata]
Title:Keikan no Senritsu
TitleUnicode:荊冠の旋律
Artist:Ariabl'eyeS
ArtistUnicode:Ariabl'eyeS
Creator:Razor Sharp
Version:Catastrophe
Source:osu!
Tags:Arthas Kegarenaki Ruriiro no Rosenkreuz Metal featured artist fa mappers guild mg japanese pop j-pop 2nd Album 瑠璃色のローゼンクロイツ Luna リゼ Lise
BeatmapID:2569370
BeatmapSetID:1235986

[Difficulty]
HPDrainRate:4
CircleSize:4.2
OverallDifficulty:9.8
ApproachRate:9.8
SliderMultiplier:1.5
SliderTickRate:1

[Events]
//Background and Video events
0,0,"fff19c9920b5ad68267c326e26b00b7f.jpg",0,0
//Break Periods
//Storyboard Layer 0 (Background)
//Storyboard Layer 1 (Fail)
//Storyboard Layer 2 (Pass)
//Storyboard Layer 3 (Foreground)
//Storyboard Layer 4 (Overlay)
//Storyboard Sound Samples

[TimingPoints]
921,200,4,2,1,70,1,0
921,-142.857142857143,4,2,1,70,0,0
971,-142.857142857143,4,2,1,20,0,0
1308,-142.857142857143,4,2,1,5,0,0
1321,-142.857142857143,4,2,1,70,0,0
1371,-142.857142857143,4,2,1,20,0,0
2108,-142.857142857143,4,2,1,5,0,0
2121,-142.857142857143,4,2,1,70,0,0
2171,-142.857142857143,4,2,1,20,0,0
2508,-142.857142857143,4,2,1,5,0,0
2521,-142.857142857143,4,2,1,70,0,0
2571,-142.857142857143,4,2,1,20,0,0
2908,-142.857142857143,4,2,1,5,0,0
2921,-142.857142857143,4,2,1,70,0,0
2971,-142.857142857143,4,2,1,20,0,0
3308,-142.857142857143,4,2,1,5,0,0
3321,-142.857142857143,4,2,1,70,0,0
3371,-142.857142857143,4,2,1,20,0,0
3708,-142.857142857143,4,2,1,5,0,0
3721,-142.857142857143,4,2,1,70,0,0
3771,-142.857142857143,4,2,1,20,0,0
4108,-142.857142857143,4,2,1,5,0,0
4121,-142.857142857143,4,2,1,70,0,0
4171,-142.857142857143,4,2,1,20,0,0
4508,-142.857142857143,4,2,1,5,0,0
4521,-142.857142857143,4,2,1,70,0,0
4571,-142.857142857143,4,2,1,20,0,0
4908,-142.857142857143,4,2,1,5,0,0
4921,-142.857142857143,4,2,1,70,0,0
4971,-142.857142857143,4,2,1,20,0,0
5308,-142.857142857143,4,2,1,5,0,0
5321,-142.857142857143,4,2,1,70,0,0
5371,-142.857142857143,4,2,1,20,0,0
5708,-142.857142857143,4,2,1,5,0,0
5721,-142.857142857143,4,2,1,70,0,0
5771,-142.857142857143,4,2,1,20,0,0
6108,-142.857142857143,4,2,1,5,0,0
6121,-142.857142857143,4,2,1,70,0,0
6171,-142.857142857143,4,2,1,20,0,0
6508,-142.857142857143,4,2,1,5,0,0
6521,-142.857142857143,4,2,1,70,0,0
6571,-142.857142857143,4,2,1,20,0,0
6908,-142.857142857143,4,2,1,5,0,0
6921,-142.857142857143,4,2,1,70,0,0
6971,-142.857142857143,4,2,1,20,0,0
7308,-142.857142857143,4,2,1,5,0,0
7321,-142.857142857143,4,2,1,70,0,0
7371,-142.857142857143,4,2,1,20,0,0
7708,-142.857142857143,4,2,1,5,0,0
7721,-142.857142857143,4,2,1,70,0,0
7771,-142.857142857143,4,2,1,20,0,0
8108,-142.857142857143,4,2,1,5,0,0
8121,-142.857142857143,4,2,1,70,0,0
8171,-142.857142857143,4,2,1,20,0,0
8508,-142.857142857143,4,2,1,5,0,0
8521,-142.857142857143,4,2,1,70,0,0
8571,-142.857142857143,4,2,1,20,0,0
8908,-142.857142857143,4,2,1,5,0,0
8921,-142.857142857143,4,2,1,70,0,0
8971,-142.857142857143,4,2,1,20,0,0
9308,-142.857142857143,4,2,1,5,0,0
9321,-142.857142857143,4,2,1,70,0,0
9371,-142.857142857143,4,2,1,20,0,0
9708,-142.857142857143,4,2,1,5,0,0
9721,-142.857142857143,4,2,1,70,0,0
9771,-142.857142857143,4,2,1,20,0,0
10108,-142.857142857143,4,2,1,5,0,0
10121,-142.857142857143,4,2,1,70,0,0
10171,-142.857142857143,4,2,1,20,0,0
10508,-142.857142857143,4,2,1,5,0,0
10521,-142.857142857143,4,2,1,70,0,0
10571,-142.857142857143,4,2,1,20,0,0
10908,-142.857142857143,4,2,1,5,0,0
10921,-142.857142857143,4,2,1,70,0,0
10971,-142.857142857143,4,2,1,20,0,0
11308,-142.857142857143,4,2,1,5,0,0
11321,-142.857142857143,4,2,1,70,0,0
11371,-142.857142857143,4,2,1,20,0,0
11708,-142.857142857143,4,2,1,5,0,0
11721,-142.857142857143,4,2,1,70,0,0
11771,-142.857142857143,4,2,1,20,0,0
12108,-142.857142857143,4,2,1,5,0,0
12121,-142.857142857143,4,2,1,70,0,0
12171,-142.857142857143,4,2,1,20,0,0
12508,-142.857142857143,4,2,1,5,0,0
12521,-142.857142857143,4,2,1,70,0,0
12571,-142.857142857143,4,2,1,20,0,0
12908,-142.857142857143,4,2,1,5,0,0
12921,-142.857142857143,4,2,1,70,0,0
12971,-142.857142857143,4,2,1,20,0,0
13308,-142.857142857143,4,2,1,5,0,0
13321,-142.857142857143,4,2,1,70,0,0
13371,-142.857142857143,4,2,1,20,0,0
13708,-142.857142857143,4,2,1,5,0,0
13721,-333.333333333333,4,2,1,70,0,0
13771,-333.333333333333,4,2,1,20,0,0
17721,-100,4,2,1,70,0,0
27371,-100,4,2,1,20,0,0
27621,-100,4,2,1,70,0,0
27671,-100,4,2,1,20,0,0
27921,-100,4,2,1,70,0,0
27971,-100,4,2,1,20,0,0
28121,-100,4,2,1,70,0,0
28171,-100,4,2,1,20,0,0
28421,-100,4,2,1,70,0,0
28471,-100,4,2,1,20,0,0
28721,-100,4,2,1,70,0,0
28771,-100,4,2,1,20,0,0
28921,-100,4,2,1,70,0,0
44921,-100,4,3,1,70,0,1
51321,-100,4,2,1,70,0,1
57721,-100,4,2,1,70,0,0
89721,-100,4,2,1,70,0,1
96121,-100,4,2,1,70,0,0
121721,-100,4,2,1,70,0,1
147321,-100,4,2,1,70,0,0
155321,-100,4,2,1,70,0,1
161721,-100,4,2,1,70,0,0
187321,-100,4,2,1,70,0,1
212921,-200,4,2,1,70,0,0
212971,-200,4,2,1,20,0,0
214471,-200,4,2,1,70,0,0
214771,-200,4,2,1,20,0,0
216071,-200,4,2,1,70,0,0
216371,-200,4,2,1,20,0,0
217671,-200,4,2,1,70,0,0
217971,-200,4,2,1,20,0,0
219271,-200,4,2,1,70,0,0
219571,-200,4,2,1,20,0,0
220871,-200,4,2,1,70,0,0
221171,-200,4,2,1,20,0,0
222471,-200,4,2,1,70,0,0
222771,-200,4,2,1,20,0,0
224071,-200,4,2,1,70,0,0
224371,-200,4,2,1,20,0,0
224921,-200,4,2,1,70,0,0
224971,-200,4,2,1,20,0,0
225721,-200,4,2,1,70,0,0
227371,-200,4,2,1,20,0,0
228121,-200,4,2,1,70,0,0
228171,-200,4,2,1,20,0,0
228921,-200,4,2,1,70,0,0
230571,-200,4,2,1,20,0,0
231321,-200,4,2,1,70,0,0
264121,-100,4,2,1,70,0,0
276921,-200,4,2,1,70,0,0
276971,-200,4,2,1,20,0,0
278121,-200,4,2,1,70,0,0
278171,-200,4,2,1,20,0,0
278521,-200,4,2,1,70,0,0
278571,-200,4,2,1,20,0,0
279321,-200,4,2,1,70,0,0
279371,-200,4,2,1,20,0,0
280121,-200,4,2,1,70,0,0
280171,-200,4,2,1,20,0,0
281721,-200,4,2,1,70,0,0
283371,-200,4,2,1,20,0,0
284121,-200,4,2,1,70,0,0
284171,-200,4,2,1,20,0,0
284521,-200,4,2,1,70,0,0
284571,-200,4,2,1,20,0,0
284921,-200,4,2,1,70,0,0
284971,-200,4,2,1,20,0,0
286521,-200,4,2,1,70,0,0
286571,-200,4,2,1,20,0,0
287321,-200,4,2,1,70,0,0
287371,-200,4,2,1,20,0,0
288121,-200,4,2,1,70,0,0
288171,-200,4,2,1,20,0,0
288921,-200,4,2,1,70,0,0
288971,-200,4,2,1,20,0,0
289721,-133.333333333333,4,2,1,70,0,0
296121,-200,4,2,1,70,0,0
302121,-133.333333333333,4,2,1,70,0,0
302521,-100,4,2,1,70,0,1
328121,-100,4,2,1,70,0,0
342521,-100,4,3,1,70,0,1
348921,-100,4,2,1,70,0,1
355321,-100,4,2,1,70,0,0

[Colours]
Combo1 : 174,0,87
Combo2 : 255,162,117
Combo3 : 255,89,89
Combo4 : 149,149,255

[HitObjects]
125,38,921,6,0,L|329:38,1,203.43749379158,0|0,0:0|0:0,0:0:0:0:
328,38,1321,2,0,P|296:39|319:292,1,413.437487382889,0|0,0:0|0:0,0:0:0:0:
317,291,2121,2,0,L|113:291,1,203.43749379158,0|0,0:0|0:0,0:0:0:0:
113,291,2521,6,0,L|317:291,1,203.43749379158,0|0,0:0|0:0,0:0:0:0:
316,291,2921,2,0,P|342:288|316:167,1,203.43749379158,0|0,0:0|0:0,0:0:0:0:
319,166,3321,2,0,P|293:163|319:42,1,203.43749379158,0|0,0:0|0:0,0:0:0:0:
315,41,3721,2,0,L|109:49,1,203.43749379158,0|0,0:0|0:0,0:0:0:0:
111,48,4121,6,0,P|137:51|111:172,1,203.43749379158,0|0,0:0|0:0,0:0:0:0:
115,172,4521,2,0,L|319:172,1,203.43749379158,0|0,0:0|0:0,0:0:0:0:
318,172,4921,2,0,P|292:175|318:296,1,203.43749379158,0|0,0:0|0:0,0:0:0:0:
314,296,5321,2,0,L|110:296,1,203.43749379158,0|0,0:0|0:0,0:0:0:0:
110,296,5721,6,0,P|84:293|110:172,1,203.43749379158,0|0,0:0|0:0,0:0:0:0:
105,171,6121,2,0,P|131:168|105:47,1,203.43749379158,0|0,0:0|0:0,0:0:0:0:
109,46,6521,2,0,L|318:47,1,203.43749379158,0|0,0:0|0:0,0:0:0:0:
312,46,6921,2,0,P|338:49|312:170,1,203.43749379158,0|0,0:0|0:0,0:0:0:0:
316,170,7321,6,0,L|112:170,1,203.43749379158,0|0,0:0|0:0,0:0:0:0:
112,170,7721,2,0,L|315:170,1,203.43749379158,0|0,0:0|0:0,0:0:0:0:
315,170,8121,2,0,L|111:170,1,203.43749379158,0|0,0:0|0:0,0:0:0:0:
111,170,8521,2,0,L|314:170,1,203.43749379158,0|0,0:0|0:0,0:0:0:0:
314,170,8921,6,0,P|340:173|314:294,1,203.43749379158,0|0,0:0|0:0,0:0:0:0:
318,294,9321,2,0,L|114:294,1,203.43749379158,0|0,0:0|0:0,0:0:0:0:
114,294,9721,2,0,P|88:291|114:170,1,203.43749379158,0|0,0:0|0:0,0:0:0:0:
109,169,10121,2,0,L|313:169,1,203.43749379158,0|0,0:0|0:0,0:0:0:0:
312,169,10521,6,0,P|286:166|312:45,1,203.43749379158,0|0,0:0|0:0,0:0:0:0:
307,44,10921,2,0,P|333:47|307:168,1,203.43749379158,0|0,0:0|0:0,0:0:0:0:
311,168,11321,2,0,L|103:165,1,203.43749379158,0|0,0:0|0:0,0:0:0:0:
107,165,11721,2,0,L|315:161,1,203.43749379158,0|0,0:0|0:0,0:0:0:0:
310,161,12121,6,0,P|336:164|310:285,1,203.43749379158,0|0,0:0|0:0,0:0:0:0:
314,285,12521,2,0,P|288:282|314:161,1,203.43749379158,0|0,0:0|0:0,0:0:0:0:
309,160,12921,2,0,L|100:163,1,203.43749379158,0|0,0:0|0:0,0:0:0:0:
105,163,13321,2,0,L|313:166,1,203.43749379158,0|0,0:0|0:0,0:0:0:0:
308,165,13721,6,0,P|257:417|205:164,1,719.999978027344,0|0,0:0|0:0,0:0:0:0:
341,92,17721,6,0,L|347:171,1,75,0|0,0:0|0:0,0:0:0:0:
271,170,17921,2,0,L|372:171,1,75,0|0,0:0|0:0,0:0:0:0:
181,216,18121,2,0,L|175:295,1,75,0|0,0:0|0:0,0:0:0:0:
251,294,18321,2,0,L|150:295,1,75,0|0,0:0|0:0,0:0:0:0:
421,297,18521,6,0,L|331:297,3,75,0|0|0|0,0:0|0:0|0:0|0:0,0:0:0:0:
188,126,18921,2,2,L|183:212,1,75,0|0,0:0|0:0,0:0:0:0:
258,203,19121,2,2,L|347:204,1,75,0|0,0:0|0:0,0:0:0:0:
157,324,19321,6,0,P|123:303|166:221,1,150,12|0,0:0|0:0,0:0:0:0:
236,222,19621,1,8,0:0:0:0:
161,221,19721,1,0,0:0:0:0:
86,221,19821,1,8,0:0:0:0:
244,181,19921,6,0,P|278:160|235:78,1,150,12|0,0:0|0:0,0:0:0:0:
165,79,20221,1,8,0:0:0:0:
240,78,20321,1,0,0:0:0:0:
315,78,20421,1,8,0:0:0:0:
157,294,20521,5,8,0:0:0:0:
427,229,20721,1,8,0:0:0:0:
157,225,20921,6,0,P|120:202|170:126,1,150,8|0,0:0|0:0,0:0:0:0:
235,125,21221,1,0,0:0:0:0:
310,125,21321,2,0,L|402:126,3,75,8|0|0|0,0:0|0:0|0:0|0:0,0:0:0:0:
310,125,21721,1,8,0:0:0:0:
261,125,21787,1,0,0:0:0:0:
211,125,21854,1,0,0:0:0:0:
261,227,21921,2,0,L|342:227,1,75,0|0,0:0|0:0,0:0:0:0:
223,306,22121,6,0,P|175:305|57:136,1,262.5,8|0,0:0|0:0,0:0:0:0:
206,156,22521,6,0,L|368:156,1,150,12|0,0:0|0:0,0:0:0:0:
296,110,22821,1,8,0:0:0:0:
221,104,22921,1,0,0:0:0:0:
295,107,23021,1,8,0:0:0:0:
136,261,23121,6,0,L|298:261,1,150,12|0,0:0|0:0,0:0:0:0:
346,217,23421,1,8,0:0:0:0:
271,211,23521,1,0,0:0:0:0:
345,214,23621,1,8,0:0:0:0:
110,303,23721,5,8,0:0:0:0:
380,152,23921,1,8,0:0:0:0:
110,303,24121,6,0,P|92:246|112:205,1,100,8|8,0:0|0:0,0:0:0:0:
317,121,24387,1,8,0:0:0:0:
106,211,24521,1,8,0:0:0:0:
317,121,24654,1,8,0:0:0:0:
106,211,24787,1,8,0:0:0:0:
317,121,24921,5,8,0:0:0:0:
416,126,25054,1,8,0:0:0:0:
316,122,25187,1,8,0:0:0:0:
216,247,25321,1,8,0:0:0:0:
117,252,25454,1,8,0:0:0:0:
217,248,25587,1,8,0:0:0:0:
429,313,25721,5,8,0:0:0:0:
114,82,25921,1,8,0:0:0:0:
429,313,26521,5,8,0:0:0:0:
114,82,26721,1,8,0:0:0:0:
429,313,27321,6,0,P|370:236|278:215,1,187.5,8|0,0:0|0:0,0:0:0:0:
173,215,27621,2,0,P|232:138|324:117,1,187.5,8|0,0:0|0:0,0:0:0:0:
429,128,27921,2,0,L|287:114,1,112.5,8|0,0:0|0:0,0:0:0:0:
204,112,28121,6,0,L|3:90,1,187.5,8|0,0:0|0:0,0:0:0:0:
131,230,28421,2,0,L|332:208,1,187.5,8|0,0:0|0:0,0:0:0:0:
430,150,28721,2,0,L|288:136,1,112.5,8|0,0:0|0:0,0:0:0:0:
203,100,28921,5,8,0:0:0:0:
141,151,29321,1,0,0:0:0:0:
131,233,29721,1,0,0:0:0:0:
186,285,30121,1,0,0:0:0:0:
336,285,30321,1,0,0:0:0:0:
261,284,30421,1,0,0:0:0:0:
419,144,30521,5,8,0:0:0:0:
260,146,30621,1,8,0:0:0:0:
102,145,30721,2,2,L|90:219,1,75,0|0,0:0|0:0,0:0:0:0:
164,221,30921,1,0,0:0:0:0:
322,241,31021,1,8,0:0:0:0:
164,288,31121,1,8,0:0:0:0:
213,289,31187,1,8,0:0:0:0:
263,290,31254,1,8,0:0:0:0:
389,289,31321,5,8,0:0:0:0:
231,121,31421,2,0,L|169:70,2,75,8|0|0,0:0|0:0|0:0,0:0:0:0:
390,121,31721,1,8,0:0:0:0:
231,163,31821,1,8,0:0:0:0:
73,200,31921,1,8,0:0:0:0:
231,217,32021,1,8,0:0:0:0:
73,200,32121,6,0,L|242:200,2,150,4|8|0,0:0|0:0|0:0,0:0:0:0:
148,200,32621,1,0,0:0:0:0:
307,291,32721,2,0,L|214:291,1,75,8|0,0:0|0:0,0:0:0:0:
390,338,32921,6,0,P|435:332|483:240,1,150,0|8,0:0|0:0,0:0:0:0:
335,227,33321,2,0,P|290:221|242:129,1,150,0|8,0:0|0:0,0:0:0:0:
389,117,33721,6,0,L|313:116,1,75,0|0,0:0|0:0,0:0:0:0:
238,125,33921,2,0,L|314:124,1,75,8|0,0:0|0:0,0:0:0:0:
153,211,34121,2,0,L|326:211,1,150,0|8,0:0|0:0,0:0:0:0:
153,293,34521,6,0,L|0:293,1,150,0|8,0:0|0:0,0:0:0:0:
152,293,34921,2,0,L|305:293,1,150,0|8,0:0|0:0,0:0:0:0:
451,287,35321,5,6,0:0:0:0:
351,282,35454,1,2,0:0:0:0:
450,275,35587,1,2,0:0:0:0:
197,91,35721,1,2,0:0:0:0:
296,92,35854,1,2,0:0:0:0:
47,229,35987,1,2,0:0:0:0:
298,311,36121,5,2,0:0:0:0:
223,308,36221,1,2,0:0:0:0:
381,203,36321,1,8,0:0:0:0:
455,203,36421,1,0,0:0:0:0:
267,52,36521,1,2,0:0:0:0:
342,55,36621,1,2,0:0:0:0:
184,160,36721,1,8,0:0:0:0:
26,166,36821,1,0,0:0:0:0:
184,160,36921,6,4,L|358:160,1,150,0|8,0:0|0:0,0:0:0:0:
259,160,37221,1,0,0:0:0:0:
417,331,37321,2,0,P|401:284|309:248,1,150,0|8,0:0|0:0,0:0:0:0:
238,248,37621,1,0,0:0:0:0:
80,172,37721,6,0,L|163:172,1,75,2|0,0:0|0:0,0:0:0:0:
313,48,37921,2,0,L|230:48,1,75,10|0,0:0|0:0,0:0:0:0:
80,109,38121,1,0,0:0:0:0:
237,154,38221,1,8,0:0:0:0:
79,188,38321,1,8,0:0:0:0:
236,233,38421,1,8,0:0:0:0:
79,251,38521,6,0,L|251:252,1,150,4|8,0:0|0:0,0:0:0:0:
378,238,38921,2,0,L|288:240,2,75,0|0|8,0:0|0:0|0:0,0:0:0:0:
63,322,39321,6,0,L|56:144,1,150,0|8,0:0|0:0,0:0:0:0:
207,168,39721,2,0,L|214:-10,1,150,0|8,0:0|0:0,0:0:0:0:
480,143,40121,6,0,L|319:142,3,150,0|8|0|8,0:0|0:0|0:0|0:0,0:0:0:0:
41,275,40921,5,2,0:0:0:0:
140,266,41054,1,2,0:0:0:0:
41,275,41187,1,2,0:0:0:0:
293,154,41321,1,2,0:0:0:0:
193,153,41454,1,2,0:0:0:0:
93,152,41587,1,2,0:0:0:0:
345,55,41721,6,0,L|424:56,1,75,4|0,0:0|0:0,0:0:0:0:
261,115,41921,2,0,L|340:116,1,75,8|0,0:0|0:0,0:0:0:0:
177,218,42121,2,0,L|98:219,1,75,0|0,0:0|0:0,0:0:0:0:
177,227,42321,2,0,L|98:228,1,75,8|0,0:0|0:0,0:0:0:0:
261,299,42521,6,0,L|425:299,1,150,0|8,0:0|0:0,0:0:0:0:
261,296,42921,2,0,L|97:296,1,150,0|8,0:0|0:0,0:0:0:0:
269,135,43221,1,0,0:0:0:0:
111,81,43321,6,0,P|91:124|121:225,1,150,0|8,0:0|0:0,0:0:0:0:
266,226,43721,1,0,0:0:0:0:
340,226,43821,1,0,0:0:0:0:
415,226,43921,1,8,0:0:0:0:
100,127,44121,6,0,L|6:127,1,75,0|0,0:0|0:0,0:0:0:0:
183,205,44321,2,0,L|89:205,1,75,8|8,0:0|0:0,0:0:0:0:
266,292,44521,1,8,0:0:0:0:
424,141,44621,1,8,0:0:0:0:
266,292,44721,1,8,0:0:0:0:
108,298,44821,1,8,0:0:0:0:
341,209,44921,6,0,L|431:209,1,75,4|8,0:0|0:0,0:0:0:0:
258,125,45121,2,0,L|183:125,1,75,0|8,0:0|0:0,0:0:0:0:
416,60,45321,1,0,0:0:0:0:
258,125,45421,1,8,0:0:0:0:
416,60,45521,1,0,0:0:0:0:
258,125,45621,1,8,0:0:0:0:
416,237,45721,6,0,L|328:237,1,75,0|8,0:0|0:0,0:0:0:0:
183,228,45921,2,0,L|95:228,1,75,0|8,0:0|0:0,0:0:0:0:
266,326,46121,2,0,L|191:326,1,75,0|8,0:0|0:0,0:0:0:0:
350,265,46321,2,0,L|425:265,1,75,0|8,0:0|0:0,0:0:0:0:
267,102,46521,5,0,0:0:0:0:
108,98,46621,1,8,0:0:0:0:
267,102,46721,1,0,0:0:0:0:
426,86,46821,1,8,0:0:0:0:
267,102,46921,2,0,L|350:102,1,75,0|8,0:0|0:0,0:0:0:0:
184,204,47121,2,0,L|89:204,1,75,0|8,0:0|0:0,0:0:0:0:
267,217,47321,6,0,L|275:300,1,75,0|8,0:0|0:0,0:0:0:0:
115,280,47521,2,0,L|107:363,1,75,0|8,0:0|0:0,0:0:0:0:
267,217,47721,2,0,L|275:134,1,75,0|8,0:0|0:0,0:0:0:0:
432,151,47921,2,0,L|440:234,1,75,0|8,0:0|0:0,0:0:0:0:
279,243,48121,6,0,L|193:243,1,75,4|8,0:0|0:0,0:0:0:0:
362,156,48321,2,0,L|444:156,1,75,0|8,0:0|0:0,0:0:0:0:
279,79,48521,2,0,L|365:79,1,75,0|8,0:0|0:0,0:0:0:0:
196,166,48721,2,0,L|114:166,1,75,0|8,0:0|0:0,0:0:0:0:
279,250,48921,5,0,0:0:0:0:
437,252,49021,1,8,0:0:0:0:
279,250,49121,2,0,L|364:250,1,75,0|8,0:0|0:0,0:0:0:0:
196,250,49321,1,0,0:0:0:0:
38,252,49421,1,8,0:0:0:0:
196,250,49521,1,0,0:0:0:0:
38,252,49621,1,8,0:0:0:0:
196,250,49721,6,0,L|292:251,1,75,0|8,0:0|0:0,0:0:0:0:
431,176,49921,2,0,L|352:176,1,75,0|8,0:0|0:0,0:0:0:0:
198,225,50121,2,0,L|294:226,1,75,0|8,0:0|0:0,0:0:0:0:
113,137,50321,2,0,L|188:137,1,75,0|8,0:0|0:0,0:0:0:0:
346,114,50521,5,0,0:0:0:0:
188,78,50621,1,8,0:0:0:0:
30,100,50721,2,0,L|112:100,1,75,0|8,0:0|0:0,0:0:0:0:
263,177,50921,1,8,0:0:0:0:
105,100,51021,1,8,0:0:0:0:
263,177,51121,1,8,0:0:0:0:
105,100,51221,1,8,0:0:0:0:
263,177,51321,5,12,0:0:0:0:
330,203,51421,1,0,0:0:0:0:
359,271,51521,1,0,0:0:0:0:
284,274,51621,1,0,0:0:0:0:
126,228,51721,5,8,0:0:0:0:
59,254,51821,1,0,0:0:0:0:
30,322,51921,1,0,0:0:0:0:
105,325,52021,1,0,0:0:0:0:
263,90,52121,5,8,0:0:0:0:
196,116,52221,1,0,0:0:0:0:
167,184,52321,1,0,0:0:0:0:
242,187,52421,1,0,0:0:0:0:
400,214,52521,5,8,0:0:0:0:
467,240,52621,1,0,0:0:0:0:
496,308,52721,1,0,0:0:0:0:
421,311,52821,1,0,0:0:0:0:
240,307,52921,6,0,L|154:307,1,75,8|0,0:0|0:0,0:0:0:0:
323,213,53121,2,0,L|237:213,1,75,0|0,0:0|0:0,0:0:0:0:
407,175,53321,6,0,L|493:175,1,75,8|0,0:0|0:0,0:0:0:0:
324,81,53521,2,0,L|410:81,1,75,0|0,0:0|0:0,0:0:0:0:
241,102,53721,5,10,0:0:0:0:
340,104,53854,1,2,0:0:0:0:
439,105,53987,1,2,0:0:0:0:
187,188,54121,1,10,0:0:0:0:
286,188,54254,1,2,0:0:0:0:
187,188,54387,1,2,0:0:0:0:
439,300,54521,6,2,L|361:299,1,75,12|0,0:0|0:0,0:0:0:0:
289,292,54721,2,2,L|372:293,1,75,0|0,0:0|0:0,0:0:0:0:
205,244,54921,2,2,L|292:244,1,75,8|0,0:0|0:0,0:0:0:0:
205,237,55121,2,2,L|113:235,1,75,0|0,0:0|0:0,0:0:0:0:
288,71,55321,6,0,L|295:166,1,75,8|0,0:0|0:0,0:0:0:0:
218,150,55521,2,0,L|211:245,1,75,0|0,0:0|0:0,0:0:0:0:
370,237,55721,2,0,L|460:238,1,75,8|0,0:0|0:0,0:0:0:0:
286,299,55921,1,0,0:0:0:0:
444,237,56021,1,0,0:0:0:0:
248,182,56121,5,8,0:0:0:0:
467,132,56421,1,8,0:0:0:0:
42,175,56721,1,8,0:0:0:0:
256,112,56821,1,8,0:0:0:0:
467,132,56921,5,0,0:0:0:0:
452,204,57021,1,0,0:0:0:0:
399,256,57121,1,0,0:0:0:0:
327,271,57221,1,0,0:0:0:0:
169,258,57321,1,8,0:0:0:0:
327,271,57421,1,8,0:0:0:0:
169,258,57521,1,8,0:0:0:0:
327,271,57621,1,8,0:0:0:0:
158,343,57721,6,0,L|32:242,2,150,4|8|0,0:0|0:0|0:0,0:0:0:0:
233,192,58221,1,0,0:0:0:0:
75,196,58321,2,0,L|65:24,1,150,8|0,0:0|0:0,0:0:0:0:
383,122,58721,2,0,L|393:294,1,150,8|0,0:0|0:0,0:0:0:0:
316,273,59021,1,0,0:0:0:0:
391,271,59121,1,8,0:0:0:0:
76,314,59321,6,0,P|85:259|177:199,1,150,0|8,0:0|0:0,0:0:0:0:
305,201,59721,1,0,0:0:0:0:
230,199,59821,1,0,0:0:0:0:
388,82,59921,1,8,0:0:0:0:
238,82,60121,2,0,L|236:233,1,150,0|8,0:0|0:0,0:0:0:0:
385,244,60521,2,0,L|459:247,2,75,0|0|8,0:0|0:0|0:0,0:0:0:0:
68,234,60921,6,0,L|225:234,2,150,4|8|0,0:0|0:0|0:0,0:0:0:0:
142,232,61421,1,0,0:0:0:0:
300,204,61521,2,0,P|268:139|191:117,1,150,8|0,0:0|0:0,0:0:0:0:
482,73,61921,1,8,0:0:0:0:
332,77,62121,2,0,L|411:76,1,75,0|0,0:0|0:0,0:0:0:0:
247,147,62321,1,8,0:0:0:0:
396,148,62521,5,0,0:0:0:0:
63,278,62721,2,0,L|295:277,1,225,8|0,0:0|0:0,0:0:0:0:
213,275,63121,1,8,0:0:0:0:
480,63,63321,2,0,L|321:63,1,150,0|8,0:0|0:0,0:0:0:0:
488,163,63621,1,8,0:0:0:0:
312,229,63721,2,0,L|390:229,1,75,0|0,0:0|0:0,0:0:0:0:
229,282,63921,1,8,0:0:0:0:
387,229,64021,1,8,0:0:0:0:
200,325,64121,6,0,L|47:325,1,150,4|8,0:0|0:0,0:0:0:0:
199,321,64521,2,0,L|275:321,1,75,0|0,0:0|0:0,0:0:0:0:
116,176,64721,1,8,0:0:0:0:
431,75,64921,1,0,0:0:0:0:
281,76,65121,2,0,L|444:76,1,150,8|0,0:0|0:0,0:0:0:0:
356,76,65421,1,0,0:0:0:0:
430,79,65521,1,8,0:0:0:0:
115,308,65721,6,0,P|91:270|121:163,1,150,0|8,0:0|0:0,0:0:0:0:
262,170,66121,2,0,L|178:170,1,75,0|0,0:0|0:0,0:0:0:0:
29,172,66321,1,8,0:0:0:0:
345,46,66521,2,0,P|369:84|339:191,1,150,0|8,0:0|0:0,0:0:0:0:
198,184,66921,2,0,L|282:184,1,75,0|0,0:0|0:0,0:0:0:0:
431,182,67121,1,8,0:0:0:0:
115,338,67321,6,0,P|129:283|227:231,1,150,4|8,0:0|0:0,0:0:0:0:
352,232,67721,1,0,0:0:0:0:
359,157,67821,1,0,0:0:0:0:
175,100,67921,2,0,L|335:101,2,150,8|0|8,0:0|0:0|0:0,0:0:0:0:
454,223,68521,2,0,L|372:223,1,75,0|0,0:0|0:0,0:0:0:0:
220,218,68721,1,8,0:0:0:0:
478,160,68921,6,0,L|320:159,1,150,0|8,0:0|0:0,0:0:0:0:
402,156,69221,1,0,0:0:0:0:
327,154,69321,1,0,0:0:0:0:
252,152,69421,1,0,0:0:0:0:
410,54,69521,1,8,0:0:0:0:
93,280,69721,6,0,P|58:231|106:155,1,150,0|8,0:0|0:0,0:0:0:0:
171,161,70021,1,8,0:0:0:0:
329,235,70121,2,0,L|243:235,1,75,0|0,0:0|0:0,0:0:0:0:
412,137,70321,1,8,0:0:0:0:
96,50,70521,6,0,L|280:50,2,150,4|8|0,0:0|0:0|0:0,0:0:0:0:
170,51,71021,1,0,0:0:0:0:
328,222,71121,2,0,L|144:222,1,150,8|0,0:0|0:0,0:0:0:0:
252,223,71421,1,0,0:0:0:0:
51,178,71521,2,0,L|45:95,1,75,8|0,0:0|0:0,0:0:0:0:
120,101,71721,2,0,L|35:102,1,75,0|0,0:0|0:0,0:0:0:0:
203,72,71921,1,8,0:0:0:0:
475,131,72121,6,0,B|477:185|477:185|367:215,1,150,0|8,0:0|0:0,0:0:0:0:
234,207,72521,2,0,L|143:206,1,75,0|0,0:0|0:0,0:0:0:0:
345,144,72721,2,0,L|370:69,1,75,8|0,0:0|0:0,0:0:0:0:
281,136,72921,2,0,L|123:139,1,150,0|8,0:0|0:0,0:0:0:0:
280,145,73321,2,0,L|221:195,1,75,0|0,0:0|0:0,0:0:0:0:
41,236,73521,1,8,0:0:0:0:
356,305,73721,6,0,L|176:304,2,150,4|8|0,0:0|0:0|0:0,0:0:0:0:
281,302,74221,1,0,0:0:0:0:
122,231,74321,2,0,L|302:230,2,150,8|0|8,0:0|0:0|0:0,0:0:0:0:
113,156,74821,1,0,0:0:0:0:
271,142,74921,2,0,L|194:114,1,75,0|0,0:0|0:0,0:0:0:0:
41,117,75121,1,8,0:0:0:0:
359,46,75321,5,0,0:0:0:0:
209,47,75521,2,0,L|202:127,1,75,8|0,0:0|0:0,0:0:0:0:
277,121,75721,2,0,L|189:120,1,75,0|0,0:0|0:0,0:0:0:0:
43,127,75921,1,8,0:0:0:0:
331,307,76121,6,0,L|488:305,1,150,0|8,0:0|0:0,0:0:0:0:
323,231,76421,1,8,0:0:0:0:
480,158,76521,2,0,L|390:157,1,75,0|0,0:0|0:0,0:0:0:0:
245,130,76721,1,8,0:0:0:0:
404,87,76821,1,8,0:0:0:0:
240,73,76921,6,0,L|83:74,1,150,4|8,0:0|0:0,0:0:0:0:
405,286,77321,2,0,L|410:207,1,75,0|0,0:0|0:0,0:0:0:0:
251,156,77521,2,0,L|409:150,1,150,8|0,0:0|0:0,0:0:0:0:
87,66,77921,2,0,L|173:64,1,75,8|0,0:0|0:0,0:0:0:0:
319,124,78121,2,0,L|233:122,1,75,0|0,0:0|0:0,0:0:0:0:
87,66,78321,1,8,0:0:0:0:
403,222,78521,6,0,L|233:222,1,150,0|8,0:0|0:0,0:0:0:0:
245,147,78821,1,0,0:0:0:0:
394,146,79021,1,0,0:0:0:0:
236,65,79121,1,8,0:0:0:0:
386,65,79321,2,0,P|419:98|378:189,1,150,0|8,0:0|0:0,0:0:0:0:
238,199,79721,1,0,0:0:0:0:
312,201,79821,1,0,0:0:0:0:
153,299,79921,1,8,0:0:0:0:
78,294,80021,1,0,0:0:0:0:
238,336,80121,6,0,L|400:335,2,150,4|8|0,0:0|0:0|0:0,0:0:0:0:
313,335,80621,1,0,0:0:0:0:
155,340,80721,2,0,P|76:321|49:251,1,150,8|0,0:0|0:0,0:0:0:0:
124,263,81021,1,0,0:0:0:0:
283,182,81121,2,0,L|358:182,1,75,8|0,0:0|0:0,0:0:0:0:
200,98,81321,2,0,L|275:98,1,75,0|0,0:0|0:0,0:0:0:0:
116,48,81521,1,8,0:0:0:0:
401,91,81721,5,0,0:0:0:0:
256,152,81921,1,8,0:0:0:0:
182,150,82021,1,0,0:0:0:0:
37,155,82221,1,0,0:0:0:0:
197,231,82321,2,0,L|277:229,1,75,8|0,0:0|0:0,0:0:0:0:
113,302,82521,2,0,P|80:273|122:181,1,150,0|8,0:0|0:0,0:0:0:0:
269,187,82821,1,8,0:0:0:0:
111,106,82921,5,0,0:0:0:0:
270,93,83021,1,0,0:0:0:0:
429,106,83121,1,8,0:0:0:0:
270,93,83221,1,0,0:0:0:0:
429,106,83321,6,0,L|274:105,1,150,4|8,0:0|0:0,0:0:0:0:
129,91,83721,2,0,L|212:92,1,75,0|0,0:0|0:0,0:0:0:0:
128,95,83921,2,0,L|47:96,1,75,8|0,0:0|0:0,0:0:0:0:
211,211,84121,6,0,L|361:211,1,150,0|8,0:0|0:0,0:0:0:0:
211,207,84521,2,0,L|61:207,1,150,0|8,0:0|0:0,0:0:0:0:
377,283,84921,6,0,L|385:196,1,75,4|0,0:0|0:0,0:0:0:0:
308,201,85121,2,0,L|392:200,1,75,8|0,0:0|0:0,0:0:0:0:
225,124,85321,2,0,L|377:123,1,150,0|8,0:0|0:0,0:0:0:0:
72,28,85721,6,0,L|61:191,1,150,0|8,0:0|0:0,0:0:0:0:
211,176,86121,2,0,L|48:178,1,150,0|8,0:0|0:0,0:0:0:0:
376,273,86521,5,6,0:0:0:0:
276,267,86654,1,2,0:0:0:0:
375,264,86787,1,2,0:0:0:0:
172,115,86921,1,2,0:0:0:0:
271,115,87054,1,2,0:0:0:0:
57,223,87187,1,2,0:0:0:0:
270,320,87321,6,0,L|178:319,1,75,2|2,0:0|0:0,0:0:0:0:
352,316,87521,2,0,L|260:315,1,75,10|0,0:0|0:0,0:0:0:0:
120,125,87721,2,0,L|212:124,1,75,2|2,0:0|0:0,0:0:0:0:
38,121,87921,1,8,0:0:0:0:
196,67,88021,1,0,0:0:0:0:
354,119,88121,6,0,L|198:119,1,150,0|8,0:0|0:0,0:0:0:0:
274,143,88421,1,0,0:0:0:0:
436,183,88521,2,0,L|443:272,1,75,0|0,0:0|0:0,0:0:0:0:
367,267,88721,2,0,L|276:265,1,75,8|0,0:0|0:0,0:0:0:0:
133,260,88921,6,0,L|34:260,1,75,0|0,0:0|0:0,0:0:0:0:
132,253,89121,2,0,L|231:253,1,75,8|0,0:0|0:0,0:0:0:0:
366,178,89321,2,0,L|274:178,1,75,0|8,0:0|0:0,0:0:0:0:
450,101,89521,1,8,0:0:0:0:
280,125,89621,1,8,0:0:0:0:
450,101,89721,5,12,0:0:0:0:
375,101,89821,2,0,L|296:101,2,75,0|0|0,0:0|0:0|0:0,0:0:0:0:
217,227,90121,5,8,0:0:0:0:
292,227,90221,2,0,L|371:227,2,75,0|0|0,0:0|0:0|0:0,0:0:0:0:
134,300,90521,5,8,0:0:0:0:
209,300,90621,2,0,L|288:300,2,75,0|0|0,0:0|0:0|0:0,0:0:0:0:
367,174,90921,5,8,0:0:0:0:
292,174,91021,2,0,L|213:174,2,75,0|0|0,0:0|0:0|0:0,0:0:0:0:
134,146,91321,6,0,L|36:146,1,75,8|0,0:0|0:0,0:0:0:0:
217,73,91521,2,0,L|142:73,1,75,0|0,0:0|0:0,0:0:0:0:
301,112,91721,6,0,L|307:196,1,75,8|0,0:0|0:0,0:0:0:0:
148,209,91921,2,0,L|227:208,1,75,0|0,0:0|0:0,0:0:0:0:
63,290,92121,5,10,0:0:0:0:
162,290,92254,1,2,0:0:0:0:
63,290,92387,1,2,0:0:0:0:
313,204,92521,1,10,0:0:0:0:
214,204,92654,1,2,0:0:0:0:
313,204,92787,1,2,0:0:0:0:
109,115,92921,6,0,L|24:116,3,75,12|0|0|0,0:0|0:0|0:0|0:0,0:0:0:0:
192,61,93321,2,0,L|107:62,3,75,8|0|0|0,0:0|0:0|0:0|0:0,0:0:0:0:
275,85,93721,6,0,L|279:170,1,75,8|0,0:0|0:0,0:0:0:0:
202,162,93921,2,0,L|206:247,1,75,0|0,0:0|0:0,0:0:0:0:
364,273,94121,2,0,L|448:273,1,75,8|0,0:0|0:0,0:0:0:0:
281,212,94321,1,0,0:0:0:0:
439,273,94421,1,0,0:0:0:0:
281,147,94521,5,8,0:0:0:0:
480,43,94821,1,8,0:0:0:0:
35,199,95121,1,8,0:0:0:0:
256,105,95221,1,8,0:0:0:0:
477,199,95321,6,0,L|389:199,1,75,0|0,0:0|0:0,0:0:0:0:
327,193,95521,2,0,L|401:191,1,75,0|0,0:0|0:0,0:0:0:0:
244,138,95721,1,8,0:0:0:0:
401,190,95821,1,8,0:0:0:0:
244,138,95921,1,8,0:0:0:0:
401,190,96021,1,8,0:0:0:0:
244,138,96121,6,0,L|84:140,1,150,4|8,0:0|0:0,0:0:0:0:
243,148,96521,2,0,L|329:149,1,75,0|0,0:0|0:0,0:0:0:0:
160,207,96721,2,0,P|128:233|170:320,1,150,8|0,0:0|0:0,0:0:0:0:
312,294,97121,2,0,L|233:295,1,75,8|0,0:0|0:0,0:0:0:0:
311,282,97321,2,0,L|401:282,1,75,0|0,0:0|0:0,0:0:0:0:
213,192,97521,1,8,0:0:0:0:
481,105,97721,6,0,L|320:105,1,150,0|8,0:0|0:0,0:0:0:0:
406,105,98021,1,0,0:0:0:0:
256,107,98221,1,0,0:0:0:0:
413,232,98321,1,8,0:0:0:0:
263,232,98521,2,0,L|253:68,1,150,0|8,0:0|0:0,0:0:0:0:
402,98,98921,2,0,L|318:95,1,75,0|0,0:0|0:0,0:0:0:0:
167,93,99121,1,8,0:0:0:0:
447,224,99321,6,0,L|271:221,2,150,4|8|0,0:0|0:0|0:0,0:0:0:0:
372,223,99821,1,0,0:0:0:0:
214,211,99921,2,0,L|53:214,1,150,8|0,0:0|0:0,0:0:0:0:
364,140,100321,2,0,L|369:48,1,75,8|0,0:0|0:0,0:0:0:0:
293,55,100521,2,0,L|380:56,1,75,0|0,0:0|0:0,0:0:0:0:
211,108,100721,1,8,0:0:0:0:
475,216,100921,6,0,L|322:217,1,150,0|8,0:0|0:0,0:0:0:0:
399,213,101221,1,0,0:0:0:0:
249,213,101421,1,0,0:0:0:0:
407,98,101521,1,8,0:0:0:0:
257,101,101721,2,0,L|421:102,1,150,0|8,0:0|0:0,0:0:0:0:
248,139,102021,1,8,0:0:0:0:
90,165,102121,2,0,L|165:167,1,75,0|0,0:0|0:0,0:0:0:0:
323,199,102321,1,8,0:0:0:0:
161,190,102421,1,8,0:0:0:0:
318,162,102521,6,0,L|471:162,2,150,4|8|0,0:0|0:0|0:0,0:0:0:0:
243,160,103021,1,0,0:0:0:0:
402,77,103121,2,0,L|428:248,1,150,8|0,0:0|0:0,0:0:0:0:
127,248,103521,2,0,L|213:248,1,75,8|0,0:0|0:0,0:0:0:0:
359,219,103721,2,0,L|273:219,1,75,0|0,0:0|0:0,0:0:0:0:
441,157,103921,1,8,0:0:0:0:
159,147,104121,6,0,P|170:102|261:58,1,150,0|8,0:0|0:0,0:0:0:0:
331,61,104421,1,0,0:0:0:0:
181,63,104621,1,0,0:0:0:0:
339,165,104721,1,8,0:0:0:0:
189,165,104921,2,0,L|28:165,1,150,0|8,0:0|0:0,0:0:0:0:
189,165,105321,2,0,L|282:165,2,75,0|0|8,0:0|0:0|0:0,0:0:0:0:
468,192,105721,6,0,L|297:192,1,150,4|8,0:0|0:0,0:0:0:0:
168,192,106121,2,0,L|255:193,1,75,0|0,0:0|0:0,0:0:0:0:
401,131,106321,2,0,L|230:131,2,150,8|0|8,0:0|0:0|0:0,0:0:0:0:
326,132,106821,1,0,0:0:0:0:
167,196,106921,2,0,L|254:197,1,75,0|0,0:0|0:0,0:0:0:0:
400,219,107121,1,8,0:0:0:0:
127,321,107321,6,0,L|301:321,1,150,0|8,0:0|0:0,0:0:0:0:
202,322,107621,1,0,0:0:0:0:
351,320,107821,1,0,0:0:0:0:
186,180,107921,2,0,L|348:180,1,150,8|0,0:0|0:0,0:0:0:0:
186,179,108321,1,8,0:0:0:0:
344,152,108421,1,8,0:0:0:0:
177,141,108521,2,0,L|171:59,1,75,0|0,0:0|0:0,0:0:0:0:
330,64,108721,1,8,0:0:0:0:
171,66,108821,1,0,0:0:0:0:
414,79,108921,5,12,0:0:0:0:
472,123,109021,1,0,0:0:0:0:
476,196,109121,1,0,0:0:0:0:
424,246,109221,1,0,0:0:0:0:
265,108,109321,5,8,0:0:0:0:
207,152,109421,1,0,0:0:0:0:
203,225,109521,1,0,0:0:0:0:
255,275,109621,1,0,0:0:0:0:
98,79,109721,5,8,0:0:0:0:
40,123,109821,1,0,0:0:0:0:
36,196,109921,1,0,0:0:0:0:
88,246,110021,1,0,0:0:0:0:
247,108,110121,5,8,0:0:0:0:
305,152,110221,1,0,0:0:0:0:
309,225,110321,1,0,0:0:0:0:
257,275,110421,1,0,0:0:0:0:
414,310,110521,5,8,0:0:0:0:
339,309,110621,1,0,0:0:0:0:
264,309,110721,1,0,0:0:0:0:
189,309,110821,1,0,0:0:0:0:
347,181,110921,6,0,L|423:182,1,75,8|0,0:0|0:0,0:0:0:0:
264,105,111121,2,0,L|340:106,1,75,0|0,0:0|0:0,0:0:0:0:
180,135,111321,5,8,0:0:0:0:
105,135,111421,1,0,0:0:0:0:
140,200,111521,1,0,0:0:0:0:
213,214,111621,1,0,0:0:0:0:
370,196,111721,5,8,0:0:0:0:
445,196,111821,1,0,0:0:0:0:
410,261,111921,1,0,0:0:0:0:
337,275,112021,1,0,0:0:0:0:
155,286,112121,5,12,0:0:0:0:
253,286,112221,2,0,L|258:206,2,75,0|0|0,0:0|0:0|0:0,0:0:0:0:
436,123,112521,5,8,0:0:0:0:
338,123,112621,2,0,L|333:43,2,75,0|0|0,0:0|0:0|0:0,0:0:0:0:
155,286,112921,5,8,0:0:0:0:
253,286,113021,2,0,L|258:206,2,75,0|0|0,0:0|0:0|0:0,0:0:0:0:
412,122,113321,6,0,L|321:122,1,75,8|0,0:0|0:0,0:0:0:0:
177,126,113521,1,0,0:0:0:0:
337,122,113621,1,0,0:0:0:0:
166,65,113721,6,0,L|251:64,1,75,8|0,0:0|0:0,0:0:0:0:
165,64,113921,2,0,L|161:152,1,75,0|0,0:0|0:0,0:0:0:0:
319,230,114121,6,0,L|234:229,1,75,8|0,0:0|0:0,0:0:0:0:
320,229,114321,2,0,L|324:317,1,75,0|0,0:0|0:0,0:0:0:0:
166,65,114521,6,0,L|251:64,2,75,8|0|0,0:0|0:0|0:0,0:0:0:0:
324,161,114821,1,8,0:0:0:0:
166,185,114921,5,8,0:0:0:0:
322,211,115021,2,0,L|247:211,1,75,8|0,0:0|0:0,0:0:0:0:
410,319,115221,2,0,L|486:318,1,75,8|0,0:0|0:0,0:0:0:0:
215,336,115521,6,0,P|127:302|98:239,1,150,12|0,0:0|0:0,0:0:0:0:
188,239,115821,1,0,0:0:0:0:
346,225,115921,2,0,L|347:299,1,75,8|0,0:0|0:0,0:0:0:0:
186,300,116121,6,0,L|263:296,1,75,0|0,0:0|0:0,0:0:0:0:
420,339,116321,2,0,L|343:335,1,75,8|0,0:0|0:0,0:0:0:0:
186,300,116521,2,0,L|263:296,1,75,8|8,0:0|0:0,0:0:0:0:
102,284,116721,2,0,L|89:126,1,150,8|0,0:0|0:0,0:0:0:0:
407,138,117121,6,0,L|324:137,1,75,8|0,0:0|0:0,0:0:0:0:
175,132,117321,2,0,L|92:132,1,75,0|0,0:0|0:0,0:0:0:0:
258,239,117521,1,8,0:0:0:0:
108,239,117721,6,0,L|188:242,1,75,0|0,0:0|0:0,0:0:0:0:
342,201,117921,2,0,L|265:200,1,75,8|0,0:0|0:0,0:0:0:0:
424,127,118121,2,0,L|347:126,1,75,8|8,0:0|0:0,0:0:0:0:
191,119,118321,2,0,L|353:121,1,150,8|0,0:0|0:0,0:0:0:0:
37,131,118721,6,0,L|30:221,1,75,12|0,0:0|0:0,0:0:0:0:
189,230,118921,2,0,L|196:320,1,75,0|0,0:0|0:0,0:0:0:0:
354,308,119121,2,0,L|268:307,1,75,8|0,0:0|0:0,0:0:0:0:
122,228,119321,6,0,L|207:229,1,75,0|0,0:0|0:0,0:0:0:0:
39,168,119521,2,0,L|124:169,1,75,8|0,0:0|0:0,0:0:0:0:
271,168,119721,2,0,L|186:169,1,75,0|0,0:0|0:0,0:0:0:0:
354,108,119921,2,0,L|269:109,1,75,8|0,0:0|0:0,0:0:0:0:
121,71,120121,6,0,P|126:135|230:200,1,187.5,12|0,0:0|0:0,0:0:0:0:
378,203,120421,2,0,P|373:267|269:332,1,187.5,12|0,0:0|0:0,0:0:0:0:
116,193,120721,2,0,L|259:195,1,112.5,12|0,0:0|0:0,0:0:0:0:
370,203,120921,2,0,P|261:404|174:190,1,562.5,12|0,0:0|0:0,0:0:0:0:
384,159,121721,6,0,L|468:159,1,75,8|0,0:0|0:0,0:0:0:0:
301,163,121921,2,0,L|301:84,1,75,0|0,0:0|0:0,0:0:0:0:
143,239,122121,2,0,L|59:239,1,75,8|0,0:0|0:0,0:0:0:0:
226,243,122321,2,0,L|226:164,1,75,0|0,0:0|0:0,0:0:0:0:
384,135,122521,6,0,L|309:134,1,75,8|0,0:0|0:0,0:0:0:0:
466,207,122721,2,0,L|391:206,1,75,0|0,0:0|0:0,0:0:0:0:
233,201,122921,2,0,L|307:200,1,75,8|0,0:0|0:0,0:0:0:0:
151,273,123121,2,0,L|225:272,1,75,0|0,0:0|0:0,0:0:0:0:
66,262,123321,6,0,L|61:182,1,75,12|0,0:0|0:0,0:0:0:0:
136,189,123521,2,0,L|141:109,1,75,0|0,0:0|0:0,0:0:0:0:
298,114,123721,2,0,L|210:114,1,75,8|0,0:0|0:0,0:0:0:0:
381,184,123921,2,0,L|293:184,1,75,0|0,0:0|0:0,0:0:0:0:
148,232,124121,6,0,L|233:232,1,75,8|0,0:0|0:0,0:0:0:0:
148,232,124321,2,0,L|138:319,1,75,0|0,0:0|0:0,0:0:0:0:
299,128,124521,2,0,L|214:128,1,75,8|0,0:0|0:0,0:0:0:0:
299,128,124721,2,0,L|309:41,1,75,0|0,0:0|0:0,0:0:0:0:
148,60,124921,5,12,0:0:0:0:
316,183,125021,1,0,0:0:0:0:
140,178,125121,2,0,L|239:182,1,75,0|0,0:0|0:0,0:0:0:0:
139,183,125321,2,0,L|43:186,1,75,8|0,0:0|0:0,0:0:0:0:
222,200,125521,1,0,0:0:0:0:
60,283,125621,1,0,0:0:0:0:
220,348,125721,6,0,L|141:348,1,75,8|0,0:0|0:0,0:0:0:0:
219,346,125921,2,0,L|300:346,1,75,0|0,0:0|0:0,0:0:0:0:
136,214,126121,1,8,0:0:0:0:
295,166,126221,1,0,0:0:0:0:
131,132,126321,2,0,L|130:50,1,75,0|0,0:0|0:0,0:0:0:0:
290,49,126521,6,0,L|382:50,1,75,12|0,0:0|0:0,0:0:0:0:
206,102,126721,2,0,L|298:103,1,75,0|0,0:0|0:0,0:0:0:0:
124,162,126921,2,0,L|216:163,1,75,8|0,0:0|0:0,0:0:0:0:
40,215,127121,2,0,L|132:216,1,75,0|0,0:0|0:0,0:0:0:0:
272,301,127321,6,0,L|179:301,1,75,8|0,0:0|0:0,0:0:0:0:
355,196,127521,1,8,0:0:0:0:
197,301,127621,1,8,0:0:0:0:
355,196,127721,1,8,0:0:0:0:
197,301,127821,1,8,0:0:0:0:
355,196,127921,2,0,L|361:109,1,75,0|0,0:0|0:0,0:0:0:0:
201,111,128121,6,0,L|114:112,2,75,4|0|8,0:0|0:0|0:0,0:0:0:0:
51,107,128521,2,0,L|138:108,2,75,0|0|8,0:0|0:0|0:0,0:0:0:0:
311,111,128921,6,0,L|398:112,2,75,0|0|8,0:0|0:0|0:0,0:0:0:0:
461,107,129321,2,0,L|374:108,2,75,0|0|8,0:0|0:0|0:0,0:0:0:0:
66,101,129721,6,0,L|127:157,1,75,0|0,0:0|0:0,0:0:0:0:
196,151,129921,1,8,0:0:0:0:
46,158,130121,2,0,L|133:159,2,75,0|0|8,0:0|0:0|0:0,0:0:0:0:
446,101,130521,6,0,L|385:157,1,75,0|0,0:0|0:0,0:0:0:0:
316,151,130721,1,8,0:0:0:0:
466,158,130921,2,0,L|379:159,2,75,0|0|8,0:0|0:0|0:0,0:0:0:0:
255,148,131221,1,8,0:0:0:0:
92,153,131321,6,0,L|11:153,1,75,12|0,0:0|0:0,0:0:0:0:
174,219,131521,2,0,L|93:219,1,75,8|0,0:0|0:0,0:0:0:0:
256,155,131721,2,0,L|175:155,1,75,8|0,0:0|0:0,0:0:0:0:
339,222,131921,2,0,L|258:222,1,75,8|0,0:0|0:0,0:0:0:0:
420,153,132121,6,0,L|501:153,1,75,8|0,0:0|0:0,0:0:0:0:
338,219,132321,2,0,L|419:219,1,75,8|0,0:0|0:0,0:0:0:0:
256,155,132521,2,0,L|337:155,1,75,8|0,0:0|0:0,0:0:0:0:
173,222,132721,2,0,L|254:222,1,75,8|0,0:0|0:0,0:0:0:0:
84,304,132921,6,0,L|69:222,1,75,8|0,0:0|0:0,0:0:0:0:
282,131,133121,2,0,L|197:131,1,75,8|0,0:0|0:0,0:0:0:0:
428,304,133321,2,0,L|443:222,1,75,8|0,0:0|0:0,0:0:0:0:
230,131,133521,2,0,L|315:131,1,75,8|0,0:0|0:0,0:0:0:0:
464,93,133721,6,0,L|384:93,1,75,8|0,0:0|0:0,0:0:0:0:
224,79,133921,1,8,0:0:0:0:
389,93,134021,1,8,0:0:0:0:
224,79,134121,1,8,0:0:0:0:
58,116,134221,1,8,0:0:0:0:
224,79,134321,1,8,0:0:0:0:
58,116,134421,1,8,0:0:0:0:
244,133,134521,6,0,L|325:133,1,75,12|0,0:0|0:0,0:0:0:0:
161,192,134721,2,0,L|157:271,1,75,0|0,0:0|0:0,0:0:0:0:
315,308,134921,2,0,L|234:308,1,75,8|0,0:0|0:0,0:0:0:0:
82,250,135121,2,0,L|174:250,1,75,0|0,0:0|0:0,0:0:0:0:
316,190,135321,6,0,L|238:191,1,75,8|0,0:0|0:0,0:0:0:0:
398,177,135521,2,0,L|404:96,1,75,0|0,0:0|0:0,0:0:0:0:
246,58,135721,2,0,L|324:57,1,75,8|0,0:0|0:0,0:0:0:0:
164,71,135921,2,0,L|158:152,1,75,0|0,0:0|0:0,0:0:0:0:
318,220,136121,6,0,L|236:220,1,75,12|0,0:0|0:0,0:0:0:0:
317,221,136321,2,0,L|405:222,1,75,0|0,0:0|0:0,0:0:0:0:
233,143,136521,2,0,L|147:143,1,75,8|0,0:0|0:0,0:0:0:0:
315,79,136721,2,0,L|229:79,1,75,0|0,0:0|0:0,0:0:0:0:
398,128,136921,6,0,L|475:127,1,75,8|0,0:0|0:0,0:0:0:0:
398,128,137121,2,0,L|310:129,1,75,0|0,0:0|0:0,0:0:0:0:
163,167,137321,2,0,L|247:167,1,75,8|0,0:0|0:0,0:0:0:0:
312,168,137521,2,0,L|321:263,1,75,0|0,0:0|0:0,0:0:0:0:
160,328,137721,5,12,0:0:0:0:
319,242,137821,1,0,0:0:0:0:
160,328,137921,2,0,L|155:238,1,75,0|0,0:0|0:0,0:0:0:0:
231,251,138121,2,0,L|324:253,1,75,8|0,0:0|0:0,0:0:0:0:
148,118,138321,1,0,0:0:0:0:
306,122,138421,1,0,0:0:0:0:
146,60,138521,6,0,L|226:59,1,75,8|0,0:0|0:0,0:0:0:0:
295,57,138721,2,0,L|212:58,1,75,0|0,0:0|0:0,0:0:0:0:
379,153,138921,1,8,0:0:0:0:
220,57,139021,1,0,0:0:0:0:
379,153,139121,2,0,L|289:155,1,75,0|0,0:0|0:0,0:0:0:0:
146,157,139321,6,0,L|55:157,1,75,12|0,0:0|0:0,0:0:0:0:
229,212,139521,2,0,L|229:299,1,75,0|0,0:0|0:0,0:0:0:0:
387,284,139721,2,0,L|478:284,1,75,8|0,0:0|0:0,0:0:0:0:
304,229,139921,2,0,L|304:142,1,75,0|0,0:0|0:0,0:0:0:0:
146,95,140121,6,0,L|234:95,1,75,8|0,0:0|0:0,0:0:0:0:
63,167,140321,1,8,0:0:0:0:
221,95,140421,1,8,0:0:0:0:
63,167,140521,1,8,0:0:0:0:
221,95,140621,1,8,0:0:0:0:
379,167,140721,2,0,L|283:167,1,75,0|0,0:0|0:0,0:0:0:0:
92,206,140921,6,0,L|168:207,1,75,4|0,0:0|0:0,0:0:0:0:
265,209,141121,1,8,0:0:0:0:
115,204,141321,2,0,L|36:203,2,75,0|0|8,0:0|0:0|0:0,0:0:0:0:
420,206,141721,6,0,L|344:207,1,75,0|0,0:0|0:0,0:0:0:0:
247,209,141921,1,8,0:0:0:0:
397,204,142121,2,0,L|476:203,2,75,0|0|8,0:0|0:0|0:0,0:0:0:0:
125,305,142521,6,0,L|112:219,1,75,0|0,0:0|0:0,0:0:0:0:
211,222,142721,1,8,0:0:0:0:
61,219,142921,2,0,L|140:217,2,75,0|0|8,0:0|0:0|0:0,0:0:0:0:
387,305,143321,6,0,L|400:219,1,75,0|0,0:0|0:0,0:0:0:0:
301,222,143521,1,8,0:0:0:0:
451,219,143721,2,0,L|372:217,2,75,0|0|8,0:0|0:0|0:0,0:0:0:0:
251,160,144021,1,8,0:0:0:0:
420,153,144121,6,0,L|501:153,1,75,12|0,0:0|0:0,0:0:0:0:
338,219,144321,2,0,L|419:219,1,75,8|0,0:0|0:0,0:0:0:0:
256,155,144521,2,0,L|337:155,1,75,8|0,0:0|0:0,0:0:0:0:
173,222,144721,2,0,L|254:222,1,75,8|0,0:0|0:0,0:0:0:0:
92,153,144921,6,0,L|11:153,1,75,8|0,0:0|0:0,0:0:0:0:
174,219,145121,2,0,L|93:219,1,75,8|0,0:0|0:0,0:0:0:0:
256,155,145321,2,0,L|175:155,1,75,8|0,0:0|0:0,0:0:0:0:
339,222,145521,2,0,L|258:222,1,75,8|0,0:0|0:0,0:0:0:0:
428,304,145721,6,0,L|443:222,1,75,8|0,0:0|0:0,0:0:0:0:
230,131,145921,2,0,L|315:131,1,75,8|0,0:0|0:0,0:0:0:0:
84,304,146121,2,0,L|69:222,1,75,8|0,0:0|0:0,0:0:0:0:
282,131,146321,2,0,L|197:131,1,75,8|0,0:0|0:0,0:0:0:0:
48,93,146521,6,0,L|128:93,1,75,8|0,0:0|0:0,0:0:0:0:
288,79,146721,1,8,0:0:0:0:
123,93,146821,1,8,0:0:0:0:
288,79,146921,1,8,0:0:0:0:
454,116,147021,1,8,0:0:0:0:
288,79,147121,1,8,0:0:0:0:
454,116,147221,1,8,0:0:0:0:
183,141,147321,6,0,L|8:141,1,150,8|0,0:0|0:0,0:0:0:0:
329,141,147621,2,0,L|504:141,1,150,8|0,0:0|0:0,0:0:0:0:
183,141,147921,2,0,L|81:141,1,75,8|0,0:0|0:0,0:0:0:0:
346,194,148121,5,0,0:0:0:0:
255,194,148221,1,0,0:0:0:0:
164,194,148321,1,0,0:0:0:0:
255,194,148421,1,0,0:0:0:0:
91,292,148521,2,0,P|60:262|101:162,1,150,0|0,0:0|0:0,0:0:0:0:
160,164,148821,1,0,0:0:0:0:
429,278,148921,6,0,L|274:279,1,150,4|8,0:0|0:0,0:0:0:0:
129,293,149321,2,0,L|212:292,1,75,0|0,0:0|0:0,0:0:0:0:
128,289,149521,2,0,L|47:288,1,75,8|0,0:0|0:0,0:0:0:0:
211,173,149721,6,0,L|361:173,1,150,0|8,0:0|0:0,0:0:0:0:
211,177,150121,2,0,L|61:177,1,150,0|8,0:0|0:0,0:0:0:0:
377,101,150521,6,0,L|385:188,1,75,4|0,0:0|0:0,0:0:0:0:
308,183,150721,2,0,L|392:184,1,75,8|0,0:0|0:0,0:0:0:0:
225,260,150921,2,0,L|377:261,1,150,0|8,0:0|0:0,0:0:0:0:
72,356,151321,6,0,L|61:193,1,150,0|8,0:0|0:0,0:0:0:0:
211,208,151721,2,0,L|48:206,1,150,0|8,0:0|0:0,0:0:0:0:
376,111,152121,5,6,0:0:0:0:
276,117,152254,1,2,0:0:0:0:
375,120,152387,1,2,0:0:0:0:
172,269,152521,1,2,0:0:0:0:
271,269,152654,1,2,0:0:0:0:
57,161,152787,1,2,0:0:0:0:
270,64,152921,6,0,L|178:65,1,75,2|2,0:0|0:0,0:0:0:0:
352,68,153121,2,0,L|260:69,1,75,10|0,0:0|0:0,0:0:0:0:
120,259,153321,2,0,L|212:260,1,75,2|2,0:0|0:0,0:0:0:0:
38,263,153521,1,8,0:0:0:0:
196,317,153621,1,0,0:0:0:0:
354,265,153721,6,0,L|198:265,1,150,4|8,0:0|0:0,0:0:0:0:
274,241,154021,1,0,0:0:0:0:
436,201,154121,2,0,L|443:112,1,75,0|0,0:0|0:0,0:0:0:0:
367,117,154321,2,0,L|276:119,1,75,8|0,0:0|0:0,0:0:0:0:
133,124,154521,6,0,L|34:124,1,75,0|0,0:0|0:0,0:0:0:0:
132,131,154721,2,0,L|231:131,1,75,8|0,0:0|0:0,0:0:0:0:
366,206,154921,2,0,L|274:206,1,75,0|8,0:0|0:0,0:0:0:0:
450,283,155121,1,8,0:0:0:0:
275,257,155221,1,8,0:0:0:0:
117,253,155321,5,12,0:0:0:0:
20,252,155421,2,0,L|11:168,2,75,0|0|0,0:0|0:0|0:0,0:0:0:0:
180,179,155721,5,8,0:0:0:0:
83,178,155821,2,0,L|74:94,2,75,0|0|0,0:0|0:0|0:0,0:0:0:0:
243,218,156121,5,8,0:0:0:0:
146,217,156221,2,0,L|137:133,2,75,0|0|0,0:0|0:0|0:0,0:0:0:0:
306,144,156521,5,8,0:0:0:0:
209,143,156621,2,0,L|200:59,2,75,0|0|0,0:0|0:0|0:0,0:0:0:0:
367,242,156921,6,0,L|444:242,1,75,8|0,0:0|0:0,0:0:0:0:
284,306,157121,2,0,L|209:306,1,75,0|0,0:0|0:0,0:0:0:0:
366,342,157321,2,0,L|291:342,1,75,8|0,0:0|0:0,0:0:0:0:
449,335,157521,2,0,L|454:251,1,75,0|0,0:0|0:0,0:0:0:0:
265,102,157721,5,10,0:0:0:0:
365,102,157854,1,2,0:0:0:0:
266,102,157987,1,2,0:0:0:0:
478,199,158121,1,10,0:0:0:0:
378,199,158254,1,2,0:0:0:0:
477,199,158387,1,2,0:0:0:0:
266,216,158521,6,0,L|188:216,3,75,12|0|0|0,0:0|0:0|0:0|0:0,0:0:0:0:
350,325,158921,2,0,L|428:325,3,75,8|0|0|0,0:0|0:0|0:0|0:0,0:0:0:0:
265,243,159321,6,0,L|182:240,1,75,8|0,0:0|0:0,0:0:0:0:
265,243,159521,2,0,L|340:243,1,75,0|0,0:0|0:0,0:0:0:0:
182,161,159721,2,0,L|97:160,1,75,8|0,0:0|0:0,0:0:0:0:
265,88,159921,1,0,0:0:0:0:
107,160,160021,1,0,0:0:0:0:
265,88,160121,5,8,0:0:0:0:
32,43,160421,1,8,0:0:0:0:
477,199,160721,1,8,0:0:0:0:
256,105,160821,1,8,0:0:0:0:
35,199,160921,6,0,L|123:199,1,75,0|0,0:0|0:0,0:0:0:0:
185,193,161121,2,0,L|111:191,1,75,0|0,0:0|0:0,0:0:0:0:
268,138,161321,1,8,0:0:0:0:
111,190,161421,1,8,0:0:0:0:
268,138,161521,1,8,0:0:0:0:
111,190,161621,1,8,0:0:0:0:
284,190,161721,6,0,L|443:190,1,150,4|8,0:0|0:0,0:0:0:0:
284,182,162121,2,0,L|268:103,1,75,0|0,0:0|0:0,0:0:0:0:
427,92,162321,2,0,L|273:91,1,150,8|0,0:0|0:0,0:0:0:0:
126,89,162721,2,0,L|124:167,1,75,8|0,0:0|0:0,0:0:0:0:
199,162,162921,2,0,L|112:163,1,75,0|0,0:0|0:0,0:0:0:0:
298,226,163121,1,8,0:0:0:0:
32,308,163321,6,0,L|208:308,1,150,0|8,0:0|0:0,0:0:0:0:
108,291,163621,1,0,0:0:0:0:
255,261,163821,1,0,0:0:0:0:
96,212,163921,1,8,0:0:0:0:
245,195,164121,2,0,L|399:196,1,150,0|8,0:0|0:0,0:0:0:0:
245,173,164521,2,0,L|328:172,1,75,0|0,0:0|0:0,0:0:0:0:
163,113,164721,1,8,0:0:0:0:
472,85,164921,6,0,L|310:84,1,150,4|8,0:0|0:0,0:0:0:0:
171,77,165321,2,0,L|268:81,1,75,0|0,0:0|0:0,0:0:0:0:
404,190,165521,2,0,L|246:187,2,150,8|0|8,0:0|0:0|0:0,0:0:0:0:
329,191,166021,1,0,0:0:0:0:
170,187,166121,2,0,L|86:187,1,75,0|0,0:0|0:0,0:0:0:0:
294,111,166321,1,8,0:0:0:0:
36,80,166521,5,0,0:0:0:0:
294,111,166721,2,0,L|458:110,1,150,8|0,0:0|0:0,0:0:0:0:
368,109,167021,1,0,0:0:0:0:
210,179,167121,1,8,0:0:0:0:
474,241,167321,1,0,0:0:0:0:
324,238,167521,1,8,0:0:0:0:
166,245,167621,1,8,0:0:0:0:
324,238,167721,2,0,L|331:153,1,75,0|0,0:0|0:0,0:0:0:0:
173,145,167921,1,8,0:0:0:0:
330,163,168021,1,8,0:0:0:0:
168,99,168121,6,0,L|333:99,1,150,4|8,0:0|0:0,0:0:0:0:
168,98,168521,2,0,L|260:100,1,75,0|0,0:0|0:0,0:0:0:0:
401,97,168721,2,0,L|419:251,1,150,8|0,0:0|0:0,0:0:0:0:
139,223,169121,2,0,L|203:276,1,75,8|0,0:0|0:0,0:0:0:0:
271,271,169321,2,0,L|189:270,1,75,0|0,0:0|0:0,0:0:0:0:
355,164,169521,1,8,0:0:0:0:
76,108,169721,6,0,L|230:108,1,150,0|8,0:0|0:0,0:0:0:0:
301,108,170021,1,0,0:0:0:0:
151,113,170221,1,0,0:0:0:0:
308,151,170321,1,8,0:0:0:0:
160,178,170521,2,0,L|145:330,1,150,0|8,0:0|0:0,0:0:0:0:
294,317,170921,2,0,L|392:317,1,75,0|0,0:0|0:0,0:0:0:0:
211,183,171121,1,8,0:0:0:0:
477,135,171321,6,0,L|318:134,2,150,4|8|0,0:0|0:0|0:0,0:0:0:0:
401,136,171821,1,0,0:0:0:0:
239,86,171921,2,0,L|398:85,2,150,8|0|8,0:0|0:0|0:0,0:0:0:0:
315,87,172421,1,0,0:0:0:0:
156,201,172521,2,0,L|80:201,1,75,0|0,0:0|0:0,0:0:0:0:
295,259,172721,1,8,0:0:0:0:
37,276,172921,6,0,L|200:273,1,150,0|8,0:0|0:0,0:0:0:0:
111,273,173221,1,0,0:0:0:0:
260,276,173421,1,0,0:0:0:0:
103,155,173521,1,8,0:0:0:0:
252,155,173721,5,0,0:0:0:0:
401,151,173921,1,8,0:0:0:0:
243,113,174021,1,8,0:0:0:0:
401,151,174121,2,0,L|317:151,1,75,0|0,0:0|0:0,0:0:0:0:
167,146,174321,2,0,L|83:146,1,75,8|0,0:0|0:0,0:0:0:0:
291,233,174521,5,12,0:0:0:0:
389,244,174621,2,0,L|423:311,2,75,0|0|0,0:0|0:0|0:0,0:0:0:0:
230,154,174921,5,8,0:0:0:0:
328,165,175021,2,0,L|362:232,2,75,0|0|0,0:0|0:0|0:0,0:0:0:0:
167,146,175321,5,8,0:0:0:0:
265,157,175421,2,0,L|299:224,2,75,0|0|0,0:0|0:0|0:0,0:0:0:0:
106,67,175721,5,8,0:0:0:0:
204,78,175821,2,0,L|238:145,2,75,0|0|0,0:0|0:0|0:0,0:0:0:0:
44,193,176121,5,8,0:0:0:0:
142,193,176221,2,0,L|150:269,2,75,0|0|0,0:0|0:0|0:0,0:0:0:0:
300,242,176521,5,8,0:0:0:0:
202,242,176621,2,0,L|194:318,2,75,0|0|0,0:0|0:0|0:0,0:0:0:0:
468,191,176921,5,8,0:0:0:0:
370,191,177021,2,0,L|362:115,2,75,0|0|0,0:0|0:0|0:0,0:0:0:0:
212,142,177321,5,8,0:0:0:0:
310,142,177421,2,0,L|318:66,2,75,0|0|0,0:0|0:0|0:0,0:0:0:0:
145,216,177721,5,12,0:0:0:0:
47,217,177821,1,0,0:0:0:0:
79,151,177921,1,0,0:0:0:0:
149,132,178021,1,0,0:0:0:0:
307,312,178121,5,8,0:0:0:0:
405,313,178221,1,0,0:0:0:0:
373,247,178321,1,0,0:0:0:0:
303,228,178421,1,0,0:0:0:0:
461,184,178521,5,8,0:0:0:0:
363,185,178621,1,0,0:0:0:0:
395,119,178721,1,0,0:0:0:0:
465,100,178821,1,0,0:0:0:0:
307,140,178921,6,0,L|217:141,1,75,8|0,0:0|0:0,0:0:0:0:
390,57,179121,1,0,0:0:0:0:
232,140,179221,1,0,0:0:0:0:
391,255,179321,5,8,0:0:0:0:
489,258,179421,2,0,L|499:338,2,75,0|0|0,0:0|0:0|0:0,0:0:0:0:
331,254,179721,5,8,0:0:0:0:
429,257,179821,2,0,L|439:337,2,75,0|0|0,0:0|0:0|0:0,0:0:0:0:
271,257,180121,5,8,0:0:0:0:
369,260,180221,2,0,L|379:340,2,75,0|0|8,0:0|0:0|0:0,0:0:0:0:
207,221,180521,5,8,0:0:0:0:
363,195,180621,2,0,L|288:195,1,75,8|0,0:0|0:0,0:0:0:0:
451,87,180821,2,0,L|456:161,1,75,8|0,0:0|0:0,0:0:0:0:
116,212,181121,6,0,L|201:212,1,75,12|0,0:0|0:0,0:0:0:0:
391,290,181321,2,0,L|476:290,1,75,0|0,0:0|0:0,0:0:0:0:
306,190,181521,2,0,L|301:108,1,75,8|0,0:0|0:0,0:0:0:0:
143,243,181721,6,0,L|138:161,1,75,0|0,0:0|0:0,0:0:0:0:
306,190,181921,2,0,L|311:108,1,75,8|0,0:0|0:0,0:0:0:0:
469,243,182121,2,0,L|474:161,1,75,8|8,0:0|0:0,0:0:0:0:
306,190,182321,1,8,0:0:0:0:
455,175,182521,6,0,L|296:168,2,150,8|8|0,0:0|0:0|0:0,0:0:0:0:
380,173,183021,1,0,0:0:0:0:
222,175,183121,2,0,L|137:174,1,75,8|0,0:0|0:0,0:0:0:0:
307,267,183321,6,0,L|392:266,1,75,0|0,0:0|0:0,0:0:0:0:
224,302,183521,2,0,L|217:227,1,75,8|0,0:0|0:0,0:0:0:0:
380,173,183721,2,0,L|285:171,1,75,8|8,0:0|0:0,0:0:0:0:
462,113,183921,2,0,L|475:273,1,150,8|0,0:0|0:0,0:0:0:0:
50,161,184321,6,0,L|159:159,1,75,12|0,0:0|0:0,0:0:0:0:
285,216,184521,2,0,L|176:214,1,75,0|0,0:0|0:0,0:0:0:0:
369,135,184721,2,0,L|478:133,1,75,8|0,0:0|0:0,0:0:0:0:
283,89,184921,6,0,L|206:88,1,75,0|0,0:0|0:0,0:0:0:0:
369,135,185121,2,0,L|294:133,1,75,8|0,0:0|0:0,0:0:0:0:
136,202,185321,2,0,L|210:200,1,75,0|0,0:0|0:0,0:0:0:0:
369,135,185521,2,0,L|294:133,1,75,8|0,0:0|0:0,0:0:0:0:
453,68,185721,6,0,P|443:137|322:200,1,187.5,12|0,0:0|0:0,0:0:0:0:
216,203,186021,2,0,P|136:247|114:335,1,187.5,12|0,0:0|0:0,0:0:0:0:
301,323,186321,2,0,L|413:321,1,112.5,12|0,0:0|0:0,0:0:0:0:
204,200,186521,2,0,P|313:401|400:187,1,562.5,12|0,0:0|0:0,0:0:0:0:
142,163,187321,6,0,L|136:79,1,75,8|0,0:0|0:0,0:0:0:0:
294,53,187521,2,0,L|209:53,1,75,0|0,0:0|0:0,0:0:0:0:
377,75,187721,2,0,L|383:159,1,75,8|0,0:0|0:0,0:0:0:0:
225,185,187921,2,0,L|310:185,1,75,0|0,0:0|0:0,0:0:0:0:
142,240,188121,6,0,L|54:240,1,75,8|0,0:0|0:0,0:0:0:0:
225,317,188321,2,0,L|137:317,1,75,0|0,0:0|0:0,0:0:0:0:
308,256,188521,2,0,L|396:256,1,75,8|0,0:0|0:0,0:0:0:0:
225,179,188721,2,0,L|313:179,1,75,0|0,0:0|0:0,0:0:0:0:
142,102,188921,6,0,L|217:102,1,75,12|0,0:0|0:0,0:0:0:0:
291,92,189121,2,0,L|196:90,1,75,0|0,0:0|0:0,0:0:0:0:
374,41,189321,2,0,L|378:120,1,75,8|0,0:0|0:0,0:0:0:0:
220,160,189521,2,0,L|224:239,1,75,0|0,0:0|0:0,0:0:0:0:
66,257,189721,6,0,L|155:257,3,75,8|0|0|0,0:0|0:0|0:0|0:0,0:0:0:0:
299,308,190121,2,0,L|304:222,1,75,8|0,0:0|0:0,0:0:0:0:
206,294,190321,2,0,L|211:208,1,75,0|0,0:0|0:0,0:0:0:0:
368,147,190521,5,12,0:0:0:0:
210,219,190621,1,0,0:0:0:0:
368,147,190721,2,0,L|276:147,1,75,0|0,0:0|0:0,0:0:0:0:
218,147,190921,2,0,L|295:147,1,75,8|0,0:0|0:0,0:0:0:0:
135,62,191121,5,0,0:0:0:0:
293,147,191221,1,0,0:0:0:0:
135,62,191321,2,0,L|216:62,1,75,8|0,0:0|0:0,0:0:0:0:
285,62,191521,2,0,L|208:63,1,75,0|0,0:0|0:0,0:0:0:0:
52,149,191721,5,8,0:0:0:0:
210,62,191821,1,0,0:0:0:0:
52,149,191921,2,0,L|47:239,1,75,0|0,0:0|0:0,0:0:0:0:
208,326,192121,6,0,L|116:325,1,75,12|0,0:0|0:0,0:0:0:0:
292,273,192321,2,0,L|200:272,1,75,0|0,0:0|0:0,0:0:0:0:
374,213,192521,2,0,L|282:212,1,75,8|0,0:0|0:0,0:0:0:0:
458,160,192721,2,0,L|366:159,1,75,0|0,0:0|0:0,0:0:0:0:
225,152,192921,6,0,L|314:152,1,75,8|0,0:0|0:0,0:0:0:0:
142,90,193121,1,8,0:0:0:0:
300,152,193221,1,8,0:0:0:0:
142,90,193321,1,8,0:0:0:0:
300,152,193421,1,8,0:0:0:0:
142,90,193521,2,0,L|136:177,1,75,0|0,0:0|0:0,0:0:0:0:
328,204,193721,6,0,L|407:204,2,75,4|0|8,0:0|0:0|0:0,0:0:0:0:
477,202,194121,2,0,L|398:202,2,75,0|0|8,0:0|0:0|0:0,0:0:0:0:
184,204,194521,6,0,L|105:204,2,75,0|0|8,0:0|0:0|0:0,0:0:0:0:
35,202,194921,2,0,L|114:202,2,75,0|0|8,0:0|0:0|0:0,0:0:0:0:
362,214,195321,6,0,L|301:157,1,75,0|0,0:0|0:0,0:0:0:0:
232,161,195521,1,8,0:0:0:0:
381,146,195721,2,0,L|461:147,1,75
477,75,195921,1,8,0:0:0:0:
150,214,196121,6,0,L|211:157,1,75,0|0,0:0|0:0,0:0:0:0:
280,161,196321,1,8,0:0:0:0:
131,146,196521,2,0,L|43:147,1,75
39,73,196721,1,8,0:0:0:0:
255,62,196821,1,8,0:0:0:0:
420,231,196921,6,0,L|501:231,1,75,12|0,0:0|0:0,0:0:0:0:
338,165,197121,2,0,L|419:165,1,75,8|0,0:0|0:0,0:0:0:0:
256,229,197321,2,0,L|337:229,1,75,8|0,0:0|0:0,0:0:0:0:
173,162,197521,2,0,L|254:162,1,75,8|0,0:0|0:0,0:0:0:0:
92,231,197721,6,0,L|11:231,1,75,8|0,0:0|0:0,0:0:0:0:
174,165,197921,2,0,L|93:165,1,75,8|0,0:0|0:0,0:0:0:0:
256,229,198121,2,0,L|175:229,1,75,8|0,0:0|0:0,0:0:0:0:
339,162,198321,2,0,L|258:162,1,75,8|0,0:0|0:0,0:0:0:0:
428,80,198521,6,0,L|443:162,1,75,8|0,0:0|0:0,0:0:0:0:
230,253,198721,2,0,L|315:253,1,75,8|0,0:0|0:0,0:0:0:0:
84,80,198921,2,0,L|69:162,1,75,8|0,0:0|0:0,0:0:0:0:
282,253,199121,2,0,L|197:253,1,75,8|0,0:0|0:0,0:0:0:0:
48,291,199321,6,0,L|128:291,1,75,8|0,0:0|0:0,0:0:0:0:
288,305,199521,1,8,0:0:0:0:
123,291,199621,1,8,0:0:0:0:
288,305,199721,1,8,0:0:0:0:
454,268,199821,1,8,0:0:0:0:
288,305,199921,1,8,0:0:0:0:
454,268,200021,1,8,0:0:0:0:
281,249,200121,6,0,L|275:166,1,75,12|0,0:0|0:0,0:0:0:0:
434,182,200321,2,0,L|428:99,1,75,0|0,0:0|0:0,0:0:0:0:
271,241,200521,2,0,L|277:158,1,75,8|0,0:0|0:0,0:0:0:0:
118,174,200721,2,0,L|124:91,1,75,0|0,0:0|0:0,0:0:0:0:
281,87,200921,6,0,L|358:87,1,75,8|0,0:0|0:0,0:0:0:0:
197,127,201121,2,0,L|116:127,1,75,0|0,0:0|0:0,0:0:0:0:
280,207,201321,2,0,L|203:207,1,75,8|0,0:0|0:0,0:0:0:0:
364,247,201521,2,0,L|445:247,1,75,0|0,0:0|0:0,0:0:0:0:
281,289,201721,6,0,L|271:210,1,75,12|0,0:0|0:0,0:0:0:0:
346,209,201921,2,0,L|260:209,1,75,0|0,0:0|0:0,0:0:0:0:
113,133,202121,2,0,L|201:133,1,75,8|0,0:0|0:0,0:0:0:0:
30,85,202321,2,0,L|118:85,1,75,0|0,0:0|0:0,0:0:0:0:
263,80,202521,6,0,L|182:80,1,75,8|0,0:0|0:0,0:0:0:0:
113,80,202721,2,0,L|194:80,1,75,0|0,0:0|0:0,0:0:0:0:
346,167,202921,2,0,L|264:167,1,75,8|0,0:0|0:0,0:0:0:0:
346,167,203121,2,0,L|422:167,1,75,0|0,0:0|0:0,0:0:0:0:
263,267,203321,5,12,0:0:0:0:
421,49,203421,1,0,0:0:0:0:
263,161,203521,2,0,L|186:161,1,75,0|0,0:0|0:0,0:0:0:0:
262,161,203721,2,0,L|343:161,1,75,8|0,0:0|0:0,0:0:0:0:
179,44,203921,1,0,0:0:0:0:
337,331,204021,1,0,0:0:0:0:
179,335,204121,6,0,L|263:335,1,75,8|0,0:0|0:0,0:0:0:0:
328,338,204321,2,0,L|234:336,1,75,0|0,0:0|0:0,0:0:0:0:
411,157,204521,1,8,0:0:0:0:
253,243,204621,1,0,0:0:0:0:
411,235,204721,2,0,L|496:235,1,75,0|0,0:0|0:0,0:0:0:0:
328,227,204921,6,0,L|419:227,1,75,12|0,0:0|0:0,0:0:0:0:
245,172,205121,2,0,L|245:85,1,75,0|0,0:0|0:0,0:0:0:0:
87,100,205321,2,0,L|-4:100,1,75,8|0,0:0|0:0,0:0:0:0:
170,155,205521,2,0,L|170:242,1,75,0|0,0:0|0:0,0:0:0:0:
328,289,205721,6,0,L|240:289,1,75,8|0,0:0|0:0,0:0:0:0:
411,217,205921,1,8,0:0:0:0:
253,289,206021,1,8,0:0:0:0:
411,217,206121,1,8,0:0:0:0:
253,289,206221,1,8,0:0:0:0:
95,217,206321,2,0,L|191:217,1,75,0|0,0:0|0:0,0:0:0:0:
340,205,206521,6,0,L|419:206,2,75,4|0|8,0:0|0:0|0:0,0:0:0:0:
490,205,206921,2,0,L|498:128,1,75,0|0,0:0|0:0,0:0:0:0:
432,92,207121,1,8,0:0:0:0:
172,205,207321,6,0,L|93:206,2,75,0|0|8,0:0|0:0|0:0,0:0:0:0:
22,205,207721,2,0,L|14:128,1,75,0|0,0:0|0:0,0:0:0:0:
80,92,207921,1,8,0:0:0:0:
338,82,208121,6,0,L|254:82,2,75,0|0|8,0:0|0:0|0:0,0:0:0:0:
487,81,208521,2,0,L|403:81,2,75,0|0|8,0:0|0:0|0:0,0:0:0:0:
174,302,208921,6,0,L|258:302,2,75,0|0|8,0:0|0:0|0:0,0:0:0:0:
25,303,209321,2,0,L|109:303,2,75,0|0|8,0:0|0:0|0:0,0:0:0:0:
255,190,209621,1,8,0:0:0:0:
92,153,209721,6,0,L|11:153,1,75,12|0,0:0|0:0,0:0:0:0:
174,219,209921,2,0,L|93:219,1,75,8|0,0:0|0:0,0:0:0:0:
256,155,210121,2,0,L|175:155,1,75,8|0,0:0|0:0,0:0:0:0:
339,222,210321,2,0,L|258:222,1,75,8|0,0:0|0:0,0:0:0:0:
420,153,210521,6,0,L|501:153,1,75,8|0,0:0|0:0,0:0:0:0:
338,219,210721,2,0,L|419:219,1,75,8|0,0:0|0:0,0:0:0:0:
256,155,210921,2,0,L|337:155,1,75,8|0,0:0|0:0,0:0:0:0:
173,222,211121,2,0,L|254:222,1,75,8|0,0:0|0:0,0:0:0:0:
84,304,211321,6,0,L|69:222,1,75,8|0,0:0|0:0,0:0:0:0:
282,131,211521,2,0,L|197:131,1,75,8|0,0:0|0:0,0:0:0:0:
428,304,211721,2,0,L|443:222,1,75,8|0,0:0|0:0,0:0:0:0:
230,131,211921,2,0,L|315:131,1,75,8|0,0:0|0:0,0:0:0:0:
464,93,212121,6,0,L|384:93,1,75,8|0,0:0|0:0,0:0:0:0:
224,79,212321,1,8,0:0:0:0:
389,93,212421,1,0,0:0:0:0:
224,79,212521,1,8,0:0:0:0:
58,116,212621,1,8,0:0:0:0:
224,79,212721,1,8,0:0:0:0:
58,116,212821,1,8,0:0:0:0:
346,72,212921,6,0,P|255:291|171:73,1,600,8|2,0:0|0:0,0:0:0:0:
243,76,214621,1,2,0:0:0:0:
317,77,214721,6,0,B|396:77|396:154|317:154|317:154|240:154|239:240|315:238|315:238|393:239|393:320|319:322|319:322|262:320,1,525,2|2,0:0|0:0,0:0:0:0:
191,317,216221,1,2,0:0:0:0:
116,318,216321,6,0,B|42:318|42:318|42:243|42:243|117:243|117:243|117:167|117:167|191:167|191:167|191:91|191:91|267:91,1,525,2|2,0:0|0:0,0:0:0:0:
191,91,217821,1,2,0:0:0:0:
116,91,217921,6,0,B|91:161|91:161|298:160|300:307|87:309|87:309|122:373,1,525,2|2,0:0|0:0,0:0:0:0:
197,368,219421,1,2,0:0:0:0:
271,362,219521,6,0,P|312:347|251:-20,1,525,2|2,0:0|0:0,0:0:0:0:
190,54,221021,1,2,0:0:0:0:
115,54,221121,6,0,P|247:244|382:57,1,525,2|2,0:0|0:0,0:0:0:0:
311,68,222621,1,2,0:0:0:0:
236,70,222721,6,0,B|157:70|157:147|236:147|236:147|313:147|314:233|238:231|238:231|160:232|160:313|234:315|234:315|291:313,1,525,2|2,0:0|0:0,0:0:0:0:
361,310,224221,1,2,0:0:0:0:
435,306,224321,6,0,P|441:261|325:161,1,206.25,2|0,0:0|0:0,0:0:0:0:
270,202,224921,2,0,P|149:132|204:19,1,281.25,2|0,0:0|0:0,0:0:0:0:
306,104,225721,5,2,0:0:0:0:
159,105,225921,2,0,L|125:180,2,75,2|2|2,0:0|0:0|0:0,0:0:0:0:
353,105,226721,2,0,L|387:180,2,75,2|2|2,0:0|0:0|0:0,0:0:0:0:
76,86,227321,6,0,P|32:188|112:344,1,281.25,2|0,0:0|0:0,0:0:0:0:
155,338,228121,2,0,P|172:229|39:151,1,281.25,2|0,0:0|0:0,0:0:0:0:
230,336,228921,5,2,0:0:0:0:
378,318,229121,2,0,L|408:249,2,75,2|2|2,0:0|0:0|0:0,0:0:0:0:
378,318,229921,1,2,0:0:0:0:
228,319,230121,2,0,L|312:317,1,75,2|2,0:0|0:0,0:0:0:0:
36,353,230521,6,0,P|36:319|201:147,1,281.25,2|0,0:0|0:0,0:0:0:0:
251,148,231321,2,0,P|289:162|249:225,1,131.25,2|0,0:0|0:0,0:0:0:0:
195,223,231721,2,0,P|157:237|197:300,1,131.25,2|0,0:0|0:0,0:0:0:0:
329,308,232121,6,0,P|360:296|323:169,1,206.25,2|0,0:0|0:0,0:0:0:0:
261,165,232721,2,0,P|334:33|398:164,1,356.25,2|0,0:0|0:0,0:0:0:0:
177,316,233721,6,0,P|146:304|183:177,1,206.25,2|0,0:0|0:0,0:0:0:0:
243,174,234321,2,0,P|170:42|106:173,1,356.25,2|0,0:0|0:0,0:0:0:0:
334,316,235321,6,0,P|365:304|328:177,1,206.25,2|0,0:0|0:0,0:0:0:0:
262,171,235921,2,0,P|335:39|399:170,1,356.25,2|0,0:0|0:0,0:0:0:0:
183,178,236921,6,0,P|253:69|320:174,1,300,2|2,0:0|0:0,0:0:0:0:
246,164,237821,1,0,0:0:0:0:
171,161,237921,2,0,P|116:170|181:248,1,206.25,0|0,0:0|0:0,0:0:0:0:
291,248,238521,6,0,P|328:233|284:95,1,225,10|0,0:0|0:0,0:0:0:0:
138,102,239321,2,0,L|134:184,1,75,0|0,0:0|0:0,0:0:0:0:
284,184,239721,2,0,L|288:266,1,75,0|2,0:0|0:0,0:0:0:0:
137,248,240121,2,0,L|355:248,1,206.25,10|0,0:0|0:0,0:0:0:0:
137,248,240921,2,0,P|111:236|147:145,1,150,0|0,0:0|0:0,0:0:0:0:
401,169,241721,6,0,L|326:169,1,75,10|0,0:0|0:0,0:0:0:0:
176,159,242121,1,0,0:0:0:0:
325,161,242321,2,0,P|353:185|318:281,1,150,0|0,0:0|0:0,0:0:0:0:
175,247,242921,2,0,L|166:161,1,75,0|2,0:0|0:0,0:0:0:0:
317,168,243321,2,0,P|376:165|435:99,2,150,10|0|0,0:0|0:0|0:0,0:0:0:0:
80,185,244921,6,0,L|312:187,2,225,10|0|0,0:0|0:0|0:0,0:0:0:0:
437,185,246521,2,0,L|205:187,2,225,10|0|0,0:0|0:0|0:0,0:0:0:0:
172,327,248121,6,0,P|131:293|123:197,1,150,10|0,0:0|0:0,0:0:0:0:
255,192,248721,1,0,0:0:0:0:
340,327,248921,2,0,P|381:293|389:197,1,150,0|0,0:0|0:0,0:0:0:0:
106,131,249721,2,0,L|409:131,1,300,10|0,0:0|0:0,0:0:0:0:
106,68,250921,1,0,0:0:0:0:
406,131,251321,6,0,P|441:156|358:278,1,225,2|2,0:0|0:0,0:0:0:0:
143,153,252721,1,2,0:0:0:0:
218,153,252821,1,2,0:0:0:0:
293,156,252921,2,0,P|324:160|285:234,1,150,2|0,0:0|0:0,0:0:0:0:
147,250,253521,2,0,P|170:243|139:151,1,150,2|2,0:0|0:0,0:0:0:0:
298,137,254121,2,0,L|211:138,1,75,2|0,0:0|0:0,0:0:0:0:
374,137,254521,6,0,P|409:143|375:334,1,300,2|2,0:0|0:0,0:0:0:0:
311,328,255421,1,2,0:0:0:0:
386,324,255521,1,2,0:0:0:0:
237,322,255721,2,0,L|229:235,1,75,2|0,0:0|0:0,0:0:0:0:
380,225,256121,2,0,P|428:214|360:116,1,225,2|0,0:0|0:0,0:0:0:0:
217,102,256921,2,0,L|61:105,1,150,2|2,0:0|0:0,0:0:0:0:
217,108,257521,2,0,L|220:151,1,37.5,0|0,0:0|0:0,0:0:0:0:
144,142,257721,6,0,P|149:180|239:242,1,150,10|0,0:0|0:0,0:0:0:0:
383,222,258321,2,0,P|334:85|270:220,1,375,0|10,0:0|0:0,0:0:0:0:
417,192,259521,2,0,L|330:187,2,75,0|0|0,0:0|0:0|0:0,0:0:0:0:
267,198,260121,2,0,L|256:122,1,75,0|0,0:0|0:0,0:0:0:0:
107,109,260521,2,0,L|191:108,1,75,0|2,0:0|0:0,0:0:0:0:
332,118,260921,2,0,P|252:326|148:128,1,562.5,10|0,0:0|0:0,0:0:0:0:
276,120,262521,5,4,0:0:0:0:
92,356,262921,1,4,0:0:0:0:
390,318,263321,1,4,0:0:0:0:
105,226,263721,1,4,0:0:0:0:
470,338,264121,6,0,L|474:175,1,150,12|0,0:0|0:0,0:0:0:0:
325,173,264521,2,0,L|328:89,2,75,8|0|0,0:0|0:0|0:0,0:0:0:0:
250,171,264821,1,0,0:0:0:0:
175,171,264921,2,0,L|179:8,1,150,8|0,0:0|0:0,0:0:0:0:
29,27,265321,2,0,L|33:190,1,150,8|0,0:0|0:0,0:0:0:0:
302,253,265721,6,0,L|453:250,1,150,8|0,0:0|0:0,0:0:0:0:
302,252,266121,1,8,0:0:0:0:
227,252,266221,1,0,0:0:0:0:
152,252,266321,1,0,0:0:0:0:
227,253,266421,1,0,0:0:0:0:
302,253,266521,2,0,L|453:250,1,150,8|0,0:0|0:0,0:0:0:0:
303,238,266921,2,0,L|453:240,1,150,8|0,0:0|0:0,0:0:0:0:
42,338,267321,6,0,L|38:175,1,150,12|0,0:0|0:0,0:0:0:0:
187,173,267721,2,0,L|184:89,2,75,8|0|0,0:0|0:0|0:0,0:0:0:0:
262,171,268021,1,0,0:0:0:0:
337,171,268121,2,0,L|333:8,1,150,8|0,0:0|0:0,0:0:0:0:
483,27,268521,2,0,L|479:190,1,150,8|0,0:0|0:0,0:0:0:0:
405,175,268821,1,0,0:0:0:0:
171,176,268921,6,0,L|330:175,1,150,8|0,0:0|0:0,0:0:0:0:
472,175,269321,1,8,0:0:0:0:
398,174,269421,1,0,0:0:0:0:
323,174,269521,1,0,0:0:0:0:
398,174,269621,1,0,0:0:0:0:
472,175,269721,2,0,L|313:174,1,150,8|0,0:0|0:0,0:0:0:0:
162,171,270021,5,8,0:0:0:0:
320,222,270121,2,0,L|321:301,1,75,8|8,0:0|0:0,0:0:0:0:
246,295,270321,1,0,0:0:0:0:
403,328,270421,2,0,L|488:328,1,75,8|0,0:0|0:0,0:0:0:0:
179,331,270721,6,0,L|105:331,1,75,12|0,0:0|0:0,0:0:0:0:
261,207,270921,2,0,L|335:207,1,75,0|0,0:0|0:0,0:0:0:0:
178,127,271121,2,0,L|178:50,1,75,8|0,0:0|0:0,0:0:0:0:
336,47,271321,6,0,L|248:47,1,75,0|0,0:0|0:0,0:0:0:0:
103,163,271521,2,0,L|191:163,1,75,8|0,0:0|0:0,0:0:0:0:
336,237,271721,2,0,L|248:237,1,75,8|8,0:0|0:0,0:0:0:0:
419,305,271921,2,0,L|426:136,1,150,8|0,0:0|0:0,0:0:0:0:
276,148,272321,6,0,L|198:147,1,75,8|0,0:0|0:0,0:0:0:0:
359,147,272521,2,0,L|364:68,1,75,0|0,0:0|0:0,0:0:0:0:
204,226,272721,2,0,L|282:227,1,75,8|0,0:0|0:0,0:0:0:0:
121,227,272921,6,0,L|116:306,1,75,0|0,0:0|0:0,0:0:0:0:
275,319,273121,2,0,L|353:320,1,75,8|0,0:0|0:0,0:0:0:0:
192,148,273321,2,0,L|114:149,1,75,8|8,0:0|0:0,0:0:0:0:
275,84,273521,2,0,L|425:84,1,150,8|0,0:0|0:0,0:0:0:0:
101,188,273921,6,0,L|270:188,1,150,12|0,0:0|0:0,0:0:0:0:
102,186,274321,2,0,L|181:187,1,75,8|0,0:0|0:0,0:0:0:0:
336,91,274521,6,0,L|257:92,1,75,0|0,0:0|0:0,0:0:0:0:
102,69,274721,2,0,L|181:70,1,75,8|0,0:0|0:0,0:0:0:0:
336,91,274921,2,0,L|257:92,1,75,0|0,0:0|0:0,0:0:0:0:
420,176,275121,2,0,L|341:177,1,75,8|0,0:0|0:0,0:0:0:0:
148,323,275321,6,0,L|355:320,1,187.5,12|0,0:0|0:0,0:0:0:0:
473,245,275621,2,0,L|266:242,1,187.5,12|0,0:0|0:0,0:0:0:0:
143,201,275921,2,0,L|286:199,1,112.5,12|0,0:0|0:0,0:0:0:0:
397,191,276121,2,0,P|288:-10|201:204,1,562.5,12|0,0:0|0:0,0:0:0:0:
378,325,276921,6,0,P|415:306|320:27,1,431.25,10|0,0:0|0:0,0:0:0:0:
212,35,278121,6,0,P|161:51|212:67,1,131.25,0|0,0:0|0:0,0:0:0:0:
313,84,278521,6,0,B|388:84|388:167|317:167|317:167|254:166|255:242|321:239,1,281.25,10|0,0:0|0:0,0:0:0:0:
426,243,279321,6,0,P|361:336|251:240,1,281.25,0|0,0:0|0:0,0:0:0:0:
362,240,280121,6,0,P|256:27|135:241,1,581.25,10|0,0:0|0:0,0:0:0:0:
248,233,281721,6,0,L|334:233,1,75,10|0,0:0|0:0,0:0:0:0:
194,326,282121,2,0,L|108:326,1,75,0|0,0:0|0:0,0:0:0:0:
277,274,282521,2,0,L|281:194,1,75,0|0,0:0|0:0,0:0:0:0:
151,133,282921,2,0,L|232:132,1,75,0|2,0:0|0:0,0:0:0:0:
354,132,283321,6,0,P|255:220|161:132,1,281.25,10|0,0:0|0:0,0:0:0:0:
278,111,284121,6,0,P|298:115|370:205,1,131.25,0|0,0:0|0:0,0:0:0:0:
234,111,284521,6,0,P|214:115|142:205,1,131.25,0|0,0:0|0:0,0:0:0:0:
307,35,284921,6,0,P|239:244|198:38,1,581.25,10|0,0:0|0:0,0:0:0:0:
316,52,286521,6,0,P|372:98|301:264,1,281.25,10|0,0:0|0:0,0:0:0:0:
196,52,287321,6,0,P|140:98|211:264,1,281.25,0|0,0:0|0:0,0:0:0:0:
328,210,288121,6,0,B|403:210|403:293|332:293|332:293|269:292|270:368|336:365,1,281.25,10|0,0:0|0:0,0:0:0:0:
184,210,288921,6,0,B|109:210|109:293|180:293|180:293|243:292|242:368|176:365,1,281.25,10|0,0:0|0:0,0:0:0:0:
291,333,289721,6,0,L|300:219,1,112.500004291535,12|0,0:0|0:0,0:0:0:0:
199,271,290121,2,0,L|192:148,1,112.500004291535
254,180,290421,1,0,0:0:0:0:
442,144,290521,2,0,L|322:140,2,112.500004291535,8|0|0,0:0|0:0|0:0,0:0:0:0:
138,119,291121,1,8,0:0:0:0:
423,121,291321,6,0,P|408:169|268:271,1,225.000008583069,4|0,0:0|0:0,0:0:0:0:
161,263,291921,2,0,L|156:327,1,56.2500021457673
391,295,292121,2,0,P|414:290|386:142,1,225.000008583069,8|8,0:0|0:0,0:0:0:0:
321,194,292621,1,8,0:0:0:0:
313,116,292721,1,8,0:0:0:0:
385,89,292821,1,8,0:0:0:0:
221,74,292921,6,0,L|98:75,1,112.500004291535,12|0,0:0|0:0,0:0:0:0:
297,81,293521,1,0,0:0:0:0:
225,80,293621,1,0,0:0:0:0:
400,150,293721,2,0,L|491:233,1,112.500004291535,8|0,0:0|0:0,0:0:0:0:
324,157,294121,1,0,0:0:0:0:
396,156,294221,1,0,0:0:0:0:
206,249,294321,6,0,P|181:247|86:82,1,225.000008583069,8|0,0:0|0:0,0:0:0:0:
169,149,294921,2,0,L|285:145,1,112.500004291535,0|8,0:0|0:0,0:0:0:0:
224,145,295221,1,0,0:0:0:0:
167,141,295321,5,8,0:0:0:0:
394,96,295454,1,8,0:0:0:0:
170,147,295587,1,8,0:0:0:0:
394,96,295721,1,8,0:0:0:0:
290,96,295854,1,8,0:0:0:0:
189,93,295987,1,8,0:0:0:0:
384,291,296121,6,0,P|406:286|352:123,1,281.25,12|0,0:0|0:0,0:0:0:0:
128,291,296921,2,0,P|106:286|160:123,1,281.25,8|0,0:0|0:0,0:0:0:0:
364,285,297721,6,0,B|439:285|439:202|368:202|368:202|305:203|306:127|372:130,1,281.25,0|0,0:0|0:0,0:0:0:0:
148,285,298521,6,0,B|73:285|73:202|144:202|144:202|207:203|206:127|140:130,1,281.25,8|0,0:0|0:0,0:0:0:0:
353,280,299321,6,0,P|256:118|160:278,1,450,12|0,0:0|0:0,0:0:0:0:
392,203,300921,5,0,0:0:0:0:
181,126,301054,1,8,0:0:0:0:
392,203,301187,1,8,0:0:0:0:
120,203,301321,1,8,0:0:0:0:
331,126,301454,1,8,0:0:0:0:
120,203,301587,1,8,0:0:0:0:
385,275,301721,5,8,0:0:0:0:
412,249,301821,1,8,0:0:0:0:
414,213,301921,1,8,0:0:0:0:
391,184,302021,1,8,0:0:0:0:
229,177,302121,2,0,L|188:169,1,37.5000014305115,8|0,0:0|0:0,0:0:0:0:
340,125,302254,2,0,L|381:118,1,37.5000014305115
229,177,302387,2,0,L|188:171,1,37.5000014305115
341,81,302521,6,0,L|427:80,1,75,12|0,0:0|0:0,0:0:0:0:
259,113,302721,2,0,L|259:202,1,75,0|0,0:0|0:0,0:0:0:0:
101,235,302921,2,0,L|187:234,1,75,8|0,0:0|0:0,0:0:0:0:
334,236,303121,2,0,L|334:325,1,75,0|0,0:0|0:0,0:0:0:0:
176,328,303321,6,0,L|101:328,1,75,8|0,0:0|0:0,0:0:0:0:
259,313,303521,2,0,L|184:313,1,75,0|0,0:0|0:0,0:0:0:0:
342,258,303721,2,0,L|419:258,1,75,8|0,0:0|0:0,0:0:0:0:
259,144,303921,2,0,L|259:222,1,75,0|0,0:0|0:0,0:0:0:0:
101,254,304121,6,0,L|24:254,1,75,12|0,0:0|0:0,0:0:0:0:
101,250,304321,2,0,L|187:250,1,75,0|0,0:0|0:0,0:0:0:0:
334,182,304521,2,0,L|246:182,1,75,8|0,0:0|0:0,0:0:0:0:
417,140,304721,2,0,L|329:140,1,75,0|0,0:0|0:0,0:0:0:0:
500,98,304921,6,0,L|506:176,1,75,8|0,0:0|0:0,0:0:0:0:
433,188,305121,2,0,L|346:188,1,75,0|0,0:0|0:0,0:0:0:0:
200,187,305321,2,0,L|275:187,1,75,8|0,0:0|0:0,0:0:0:0:
350,185,305521,2,0,L|266:186,1,75,0|0,0:0|0:0,0:0:0:0:
117,103,305721,5,12,0:0:0:0:
276,185,305821,1,0,0:0:0:0:
117,103,305921,2,0,L|198:104,1,75,0|0,0:0|0:0,0:0:0:0:
267,104,306121,2,0,L|180:104,1,75,8|0,0:0|0:0,0:0:0:0:
350,177,306321,1,0,0:0:0:0:
192,104,306421,1,0,0:0:0:0:
350,177,306521,6,0,L|429:177,1,75,8|0,0:0|0:0,0:0:0:0:
350,177,306721,2,0,L|270:177,1,75,0|0,0:0|0:0,0:0:0:0:
433,89,306921,1,8,0:0:0:0:
275,177,307021,1,0,0:0:0:0:
433,89,307121,2,0,L|346:89,1,75,0|0,0:0|0:0,0:0:0:0:
200,93,307321,6,0,L|117:93,1,75,12|0,0:0|0:0,0:0:0:0:
283,122,307521,2,0,L|368:122,1,75,0|0,0:0|0:0,0:0:0:0:
200,177,307721,2,0,L|285:177,1,75,8|0,0:0|0:0,0:0:0:0:
117,242,307921,2,0,L|202:242,1,75,0|0,0:0|0:0,0:0:0:0:
350,296,308121,6,0,L|270:296,1,75,8|0,0:0|0:0,0:0:0:0:
433,205,308321,1,8,0:0:0:0:
275,183,308421,1,8,0:0:0:0:
433,205,308521,1,8,0:0:0:0:
275,183,308621,1,8,0:0:0:0:
433,205,308721,2,0,L|358:205,1,75,0|0,0:0|0:0,0:0:0:0:
200,152,308921,6,0,L|190:236,1,75,4|0,0:0|0:0,0:0:0:0:
267,230,309121,1,8,0:0:0:0:
118,239,309321,2,0,L|38:240,1,75,0|0,0:0|0:0,0:0:0:0:
32,165,309521,1,8,0:0:0:0:
312,152,309721,6,0,L|322:236,1,75,0|0,0:0|0:0,0:0:0:0:
245,230,309921,1,8,0:0:0:0:
394,239,310121,2,0,L|474:240,1,75,0|0,0:0|0:0,0:0:0:0:
480,165,310321,1,8,0:0:0:0:
184,134,310521,6,0,L|272:134,2,75,0|0|8,0:0|0:0|0:0,0:0:0:0:
35,133,310921,2,0,L|123:133,2,75,0|0|8,0:0|0:0|0:0,0:0:0:0:
328,134,311321,6,0,L|240:134,2,75,0|0|8,0:0|0:0|0:0,0:0:0:0:
477,133,311721,2,0,L|389:133,2,75,0|0|8,0:0|0:0|0:0,0:0:0:0:
257,121,312021,1,8,0:0:0:0:
92,231,312121,6,0,L|11:231,1,75,12|0,0:0|0:0,0:0:0:0:
174,165,312321,2,0,L|93:165,1,75,8|0,0:0|0:0,0:0:0:0:
256,229,312521,2,0,L|175:229,1,75,8|0,0:0|0:0,0:0:0:0:
339,162,312721,2,0,L|258:162,1,75,8|0,0:0|0:0,0:0:0:0:
420,231,312921,6,0,L|501:231,1,75,8|0,0:0|0:0,0:0:0:0:
338,165,313121,2,0,L|419:165,1,75,8|0,0:0|0:0,0:0:0:0:
256,229,313321,2,0,L|337:229,1,75,8|0,0:0|0:0,0:0:0:0:
173,162,313521,2,0,L|254:162,1,75,8|0,0:0|0:0,0:0:0:0:
84,80,313721,6,0,L|69:162,1,75,8|0,0:0|0:0,0:0:0:0:
282,253,313921,2,0,L|197:253,1,75,8|0,0:0|0:0,0:0:0:0:
428,80,314121,2,0,L|443:162,1,75,8|0,0:0|0:0,0:0:0:0:
230,253,314321,2,0,L|315:253,1,75,8|0,0:0|0:0,0:0:0:0:
464,291,314521,6,0,L|384:291,1,75,8|0,0:0|0:0,0:0:0:0:
224,305,314721,1,8,0:0:0:0:
389,291,314821,1,8,0:0:0:0:
224,305,314921,1,8,0:0:0:0:
58,268,315021,1,8,0:0:0:0:
224,305,315121,1,8,0:0:0:0:
58,268,315221,1,8,0:0:0:0:
239,171,315321,6,0,L|325:171,1,75,12|0,0:0|0:0,0:0:0:0:
155,88,315521,2,0,L|237:88,1,75,0|0,0:0|0:0,0:0:0:0:
388,120,315721,2,0,L|302:120,1,75,8|0,0:0|0:0,0:0:0:0:
472,203,315921,2,0,L|390:203,1,75,0|0,0:0|0:0,0:0:0:0:
239,269,316121,6,0,L|163:269,1,75,8|0,0:0|0:0,0:0:0:0:
151,195,316321,2,0,L|234:196,1,75,0|0,0:0|0:0,0:0:0:0:
384,185,316521,2,0,L|308:185,1,75,8|0,0:0|0:0,0:0:0:0:
296,111,316721,2,0,L|379:112,1,75,0|0,0:0|0:0,0:0:0:0:
212,52,316921,5,12,0:0:0:0:
114,53,317021,1,0,0:0:0:0:
212,52,317121,1,0,0:0:0:0:
114,53,317221,1,0,0:0:0:0:
212,52,317321,1,8,0:0:0:0:
310,53,317421,1,0,0:0:0:0:
212,52,317521,1,0,0:0:0:0:
310,53,317621,1,0,0:0:0:0:
473,155,317721,5,8,0:0:0:0:
375,156,317821,1,0,0:0:0:0:
473,155,317921,1,0,0:0:0:0:
375,156,318021,1,0,0:0:0:0:
277,155,318121,1,8,0:0:0:0:
375,156,318221,1,0,0:0:0:0:
277,155,318321,1,0,0:0:0:0:
375,156,318421,1,0,0:0:0:0:
212,273,318521,6,0,L|130:273,1,75,12|0,0:0|0:0,0:0:0:0:
235,318,318721,2,0,L|242:241,1,75,0|0,0:0|0:0,0:0:0:0:
144,193,318921,2,0,L|227:193,1,75,8|0,0:0|0:0,0:0:0:0:
317,123,319121,2,0,L|226:126,1,75,0|0,0:0|0:0,0:0:0:0:
401,73,319321,5,8,0:0:0:0:
458,118,319421,1,0,0:0:0:0:
457,190,319521,1,0,0:0:0:0:
399,233,319621,1,0,0:0:0:0:
301,222,319721,2,0,L|383:222,1,75,8|0,0:0|0:0,0:0:0:0:
474,218,319921,2,0,L|392:218,1,75,0|0,0:0|0:0,0:0:0:0:
241,49,320121,6,0,L|241:129,1,75,12|0,0:0|0:0,0:0:0:0:
399,142,320321,2,0,L|487:142,1,75,0|0,0:0|0:0,0:0:0:0:
316,204,320521,2,0,L|404:204,1,75,8|0,0:0|0:0,0:0:0:0:
233,268,320721,2,0,L|321:268,1,75,0|0,0:0|0:0,0:0:0:0:
150,316,320921,6,0,L|65:316,1,75,8|0,0:0|0:0,0:0:0:0:
233,203,321121,1,8,0:0:0:0:
75,316,321221,1,8,0:0:0:0:
233,203,321321,1,8,0:0:0:0:
75,316,321421,1,8,0:0:0:0:
233,203,321521,2,0,L|325:203,1,75,0|0,0:0|0:0,0:0:0:0:
150,96,321721,6,0,L|230:97,1,75,4|0,0:0|0:0,0:0:0:0:
322,100,321921,1,8,0:0:0:0:
172,100,322121,2,0,L|91:101,1,75,0|0,0:0|0:0,0:0:0:0:
49,43,322321,1,8,0:0:0:0:
362,96,322521,6,0,L|282:97,1,75,0|0,0:0|0:0,0:0:0:0:
190,100,322721,1,8,0:0:0:0:
340,100,322921,2,0,L|421:101,1,75,0|0,0:0|0:0,0:0:0:0:
463,43,323121,1,8,0:0:0:0:
176,43,323321,6,0,L|90:47,2,75,0|0|8,0:0|0:0|0:0,0:0:0:0:
27,46,323721,2,0,L|113:50,2,75,0|0|8,0:0|0:0|0:0,0:0:0:0:
336,43,324121,6,0,L|422:47,2,75,0|0|8,0:0|0:0|0:0,0:0:0:0:
485,46,324521,2,0,L|399:50,2,75,0|0|8,0:0|0:0|0:0,0:0:0:0:
257,60,324821,1,8,0:0:0:0:
92,153,324921,6,0,L|11:153,1,75,12|0,0:0|0:0,0:0:0:0:
174,219,325121,2,0,L|93:219,1,75,8|0,0:0|0:0,0:0:0:0:
256,155,325321,2,0,L|175:155,1,75,8|0,0:0|0:0,0:0:0:0:
339,222,325521,2,0,L|258:222,1,75,8|0,0:0|0:0,0:0:0:0:
420,153,325721,6,0,L|501:153,1,75,8|0,0:0|0:0,0:0:0:0:
338,219,325921,2,0,L|419:219,1,75,8|0,0:0|0:0,0:0:0:0:
256,155,326121,2,0,L|337:155,1,75,8|0,0:0|0:0,0:0:0:0:
173,222,326321,2,0,L|254:222,1,75,8|0,0:0|0:0,0:0:0:0:
84,304,326521,6,0,L|69:222,1,75,8|0,0:0|0:0,0:0:0:0:
282,131,326721,2,0,L|197:131,1,75,8|0,0:0|0:0,0:0:0:0:
428,304,326921,2,0,L|443:222,1,75,8|0,0:0|0:0,0:0:0:0:
230,131,327121,2,0,L|315:131,1,75,8|0,0:0|0:0,0:0:0:0:
464,93,327321,6,0,L|384:93,1,75,8|0,0:0|0:0,0:0:0:0:
224,79,327521,1,8,0:0:0:0:
389,93,327621,1,8,0:0:0:0:
224,79,327721,1,8,0:0:0:0:
58,116,327821,1,8,0:0:0:0:
224,79,327921,1,8,0:0:0:0:
58,116,328021,1,8,0:0:0:0:
329,243,328121,6,0,L|504:243,1,150,8|0,0:0|0:0,0:0:0:0:
183,243,328421,2,0,L|8:243,1,150,8|0,0:0|0:0,0:0:0:0:
329,243,328721,2,0,L|431:243,1,75,8|0,0:0|0:0,0:0:0:0:
150,93,328921,5,8,0:0:0:0:
362,93,329021,2,0,L|384:172,2,75,8|0|0,0:0|0:0|0:0,0:0:0:0:
150,93,329321,2,0,L|249:92,3,75,8|8|8|8,0:0|0:0|0:0|0:0,0:0:0:0:
429,278,329721,6,0,L|274:279,1,150,4|8,0:0|0:0,0:0:0:0:
129,293,330121,2,0,L|212:292,1,75,0|0,0:0|0:0,0:0:0:0:
128,289,330321,2,0,L|47:288,1,75,8|0,0:0|0:0,0:0:0:0:
211,173,330521,6,0,L|361:173,1,150,0|8,0:0|0:0,0:0:0:0:
211,177,330921,2,0,L|61:177,1,150,0|8,0:0|0:0,0:0:0:0:
377,101,331321,6,0,L|385:188,1,75,0|0,0:0|0:0,0:0:0:0:
308,183,331521,2,0,L|392:184,1,75,8|0,0:0|0:0,0:0:0:0:
225,260,331721,2,0,L|377:261,1,150,0|8,0:0|0:0,0:0:0:0:
72,356,332121,6,0,L|61:193,1,150,0|8,0:0|0:0,0:0:0:0:
211,208,332521,2,0,L|48:206,1,150,0|8,0:0|0:0,0:0:0:0:
376,111,332921,5,6,0:0:0:0:
276,117,333054,1,2,0:0:0:0:
375,120,333187,1,2,0:0:0:0:
172,269,333321,1,2,0:0:0:0:
271,269,333454,1,2,0:0:0:0:
57,161,333587,1,2,0:0:0:0:
270,64,333721,6,0,L|178:65,1,75,2|2,0:0|0:0,0:0:0:0:
352,68,333921,2,0,L|260:69,1,75,10|0,0:0|0:0,0:0:0:0:
120,259,334121,2,2,L|212:260,1,75
38,263,334321,1,8,0:0:0:0:
196,317,334421,1,0,0:0:0:0:
354,265,334521,6,0,L|198:265,1,150,0|8,0:0|0:0,0:0:0:0:
274,241,334821,1,0,0:0:0:0:
436,201,334921,2,0,L|443:112,1,75,0|0,0:0|0:0,0:0:0:0:
367,117,335121,2,0,L|276:119,1,75,8|0,0:0|0:0,0:0:0:0:
133,124,335321,6,0,L|34:124,1,75,0|0,0:0|0:0,0:0:0:0:
132,131,335521,2,0,L|231:131,1,75,8|0,0:0|0:0,0:0:0:0:
366,206,335721,2,0,L|274:206,1,75,0|8,0:0|0:0,0:0:0:0:
450,283,335921,1,8,0:0:0:0:
275,257,336021,1,8,0:0:0:0:
79,251,336121,6,0,L|251:252,1,150,4|8,0:0|0:0,0:0:0:0:
378,238,336521,2,0,L|288:240,2,75,0|0|8,0:0|0:0|0:0,0:0:0:0:
63,322,336921,6,0,L|56:144,1,150,0|8,0:0|0:0,0:0:0:0:
207,168,337321,2,0,L|214:-10,1,150,0|8,0:0|0:0,0:0:0:0:
480,143,337721,6,0,L|319:142,3,150,0|8|0|8,0:0|0:0|0:0|0:0,0:0:0:0:
41,275,338521,5,2,0:0:0:0:
140,266,338654,1,2,0:0:0:0:
41,275,338787,1,2,0:0:0:0:
293,154,338921,1,2,0:0:0:0:
193,153,339054,1,2,0:0:0:0:
93,152,339187,1,2,0:0:0:0:
345,55,339321,6,0,L|424:56,1,75,4|0,0:0|0:0,0:0:0:0:
261,115,339521,2,0,L|340:116,1,75,8|0,0:0|0:0,0:0:0:0:
177,218,339721,2,0,L|98:219,1,75,0|0,0:0|0:0,0:0:0:0:
177,227,339921,2,0,L|98:228,1,75,8|0,0:0|0:0,0:0:0:0:
261,299,340121,6,0,L|425:299,1,150,0|8,0:0|0:0,0:0:0:0:
261,296,340521,2,0,L|97:296,1,150,0|8,0:0|0:0,0:0:0:0:
269,135,340821,1,0,0:0:0:0:
111,81,340921,6,0,P|91:124|121:225,1,150,0|8,0:0|0:0,0:0:0:0:
266,226,341321,1,0,0:0:0:0:
340,226,341421,1,0,0:0:0:0:
415,226,341521,1,8,0:0:0:0:
100,127,341721,6,0,L|6:127,1,75,0|0,0:0|0:0,0:0:0:0:
183,205,341921,2,0,L|89:205,1,75,8|8,0:0|0:0,0:0:0:0:
266,292,342121,1,8,0:0:0:0:
424,141,342221,1,8,0:0:0:0:
266,292,342321,1,8,0:0:0:0:
108,298,342421,1,8,0:0:0:0:
272,145,342521,6,0,L|353:145,1,75,4|8,0:0|0:0,0:0:0:0:
190,185,342721,2,0,L|95:184,1,75,0|8,0:0|0:0,0:0:0:0:
273,232,342921,1,0,0:0:0:0:
116,184,343021,1,8,0:0:0:0:
273,232,343121,1,0,0:0:0:0:
431,256,343221,1,8,0:0:0:0:
273,232,343321,6,0,L|267:147,1,75,0|8,0:0|0:0,0:0:0:0:
110,344,343521,2,0,L|104:259,1,75,0|8,0:0|0:0,0:0:0:0:
263,175,343721,2,0,L|269:260,1,75,0|8,0:0|0:0,0:0:0:0:
426,63,343921,2,0,L|432:148,1,75,0|8,0:0|0:0,0:0:0:0:
274,122,344121,5,0,0:0:0:0:
116,136,344221,1,8,0:0:0:0:
274,122,344321,1,0,0:0:0:0:
116,136,344421,1,8,0:0:0:0:
274,172,344521,2,0,L|373:173,1,75,0|8,0:0|0:0,0:0:0:0:
190,257,344721,2,0,L|289:258,1,75,0|8,0:0|0:0,0:0:0:0:
425,259,344921,6,0,L|413:177,1,75,0|8,0:0|0:0,0:0:0:0:
257,345,345121,2,0,L|245:263,1,75,0|8,0:0|0:0,0:0:0:0:
89,259,345321,2,0,L|101:177,1,75,0|8,0:0|0:0,0:0:0:0:
257,345,345521,2,0,L|269:263,1,75,0|8,0:0|0:0,0:0:0:0:
110,233,345721,6,0,L|35:233,1,75,4|8,0:0|0:0,0:0:0:0:
193,192,345921,2,0,L|275:192,1,75,0|8,0:0|0:0,0:0:0:0:
110,115,346121,2,0,L|196:115,1,75,0|8,0:0|0:0,0:0:0:0:
27,173,346321,2,0,L|22:253,1,75,0|8,0:0|0:0,0:0:0:0:
181,243,346521,5,0,0:0:0:0:
23,247,346621,1,8,0:0:0:0:
181,243,346721,2,0,L|95:244,1,75,0|8,0:0|0:0,0:0:0:0:
265,139,346921,1,0,0:0:0:0:
107,243,347021,1,8,0:0:0:0:
265,139,347121,1,0,0:0:0:0:
422,182,347221,1,8,0:0:0:0:
264,274,347321,6,0,L|168:275,1,75,0|8,0:0|0:0,0:0:0:0:
29,200,347521,2,0,L|108:200,1,75,0|8,0:0|0:0,0:0:0:0:
262,249,347721,2,0,L|166:250,1,75,0|8,0:0|0:0,0:0:0:0:
347,161,347921,2,0,L|272:161,1,75,0|8,0:0|0:0,0:0:0:0:
114,138,348121,5,0,0:0:0:0:
272,102,348221,1,8,0:0:0:0:
430,124,348321,2,0,L|348:124,1,75,0|8,0:0|0:0,0:0:0:0:
197,201,348521,1,8,0:0:0:0:
355,124,348621,1,8,0:0:0:0:
197,201,348721,1,8,0:0:0:0:
355,124,348821,1,8,0:0:0:0:
197,201,348921,5,12,0:0:0:0:
294,237,349021,2,0,L|312:154,2,75,0|0|0,0:0|0:0|0:0,0:0:0:0:
136,259,349321,5,8,0:0:0:0:
233,295,349421,2,0,L|251:212,2,75,0|0|0,0:0|0:0|0:0,0:0:0:0:
75,177,349721,5,8,0:0:0:0:
172,213,349821,2,0,L|190:130,2,75,0|0|0,0:0|0:0|0:0,0:0:0:0:
14,235,350121,5,8,0:0:0:0:
111,271,350221,2,0,L|129:188,2,75,0|0|0,0:0|0:0|0:0,0:0:0:0:
271,289,350521,6,0,L|357:289,1,75,8|0,0:0|0:0,0:0:0:0:
188,195,350721,2,0,L|274:195,1,75,0|0,0:0|0:0,0:0:0:0:
105,71,350921,6,0,L|19:71,1,75,8|0,0:0|0:0,0:0:0:0:
188,165,351121,2,0,L|102:165,1,75,0|0,0:0|0:0,0:0:0:0:
271,102,351321,5,10,0:0:0:0:
172,104,351454,1,2,0:0:0:0:
73,105,351587,1,2,0:0:0:0:
325,188,351721,1,10,0:0:0:0:
226,188,351854,1,2,0:0:0:0:
325,188,351987,1,2,0:0:0:0:
104,304,352121,6,0,L|26:304,3,75,12|0|0|0,0:0|0:0|0:0|0:0,0:0:0:0:
188,306,352521,2,0,L|266:306,3,75,8|0|0|0,0:0|0:0|0:0|0:0,0:0:0:0:
105,258,352921,6,0,L|180:260,1,75,8|0,0:0|0:0,0:0:0:0:
105,260,353121,2,0,L|30:260,1,75,0|0,0:0|0:0,0:0:0:0:
196,159,353321,2,0,L|111:158,1,75,8|0,0:0|0:0,0:0:0:0:
279,86,353521,1,0,0:0:0:0:
121,158,353621,1,0,0:0:0:0:
279,86,353721,5,8,0:0:0:0:
33,34,354021,1,8,0:0:0:0:
461,191,354321,1,8,0:0:0:0:
257,96,354421,1,8,0:0:0:0:
36,190,354521,6,0,L|124:190,1,75,0|0,0:0|0:0,0:0:0:0:
186,184,354721,2,0,L|112:182,1,75,0|0,0:0|0:0,0:0:0:0:
269,129,354921,1,8,0:0:0:0:
112,181,355021,1,8,0:0:0:0:
269,129,355121,1,8,0:0:0:0:
112,181,355221,1,8,0:0:0:0:
300,201,355321,5,12,0:0:0:0:
256,192,355421,12,0,358521,0:0:0:0:
