osu file format v14

[General]
AudioFilename: audio.mp3
AudioLeadIn: 0
PreviewTime: 114116
Countdown: 0
SampleSet: Normal
StackLeniency: 0.7
Mode: 1
LetterboxInBreaks: 0
WidescreenStoryboard: 0

[Editor]
Bookmarks: 35454,70530,114837,148068,177606,207144,231143,253297,282835,299451,314220,328989,343759
DistanceSpacing: 0.1
BeatDivisor: 4
GridSize: 32
TimelineZoom: 3.899999

[Metadata]
Title:Kegarenaki Bara Juuji
TitleUnicode:穢れなき薔薇十字
Artist:Ariabl'eyeS
ArtistUnicode:Ariabl'eyeS
Creator:Hivie
Version:Hivie & KyeX's Rosenkreuz
Source:
Tags:featured artist fa kyex ariableyes japanese rock gothic metal 瑠璃色のローゼンクロイツ kegare naki ruriiro no rosenkreuz Rena Lyse リゼ Rosicrucian jrock j-rock j-metal jmetal female vocals the untainted rose cross
BeatmapID:3953036
BeatmapSetID:1916069

[Difficulty]
HPDrainRate:5
CircleSize:2
OverallDifficulty:7.2
ApproachRate:10
SliderMultiplier:1.4
SliderTickRate:1

[Events]
//Background and Video events
0,0,"raw.jpg",0,0
//Break Periods
//Storyboard Layer 0 (Background)
//Storyboard Layer 1 (Fail)
//Storyboard Layer 2 (Pass)
//Storyboard Layer 3 (Foreground)
//Storyboard Layer 4 (Overlay)
//Storyboard Sound Samples

[TimingPoints]
149,666.666666666667,4,1,0,40,1,8
149,-13.8888888888889,4,1,0,40,0,0
816,666.666666666667,4,1,0,40,1,0
10422,714.285714285714,4,1,0,40,1,8
10422,-93.3358222885944,4,1,0,40,0,8
11136,693.64161849711,4,1,0,40,1,8
11136,-96.1076405574243,4,1,0,40,0,8
11482,666.666666666667,4,1,0,40,1,0
12148,722.89156626506,4,1,0,40,1,8
12148,-92.2253988748501,4,1,0,40,0,8
12509,666.666666666667,4,1,0,40,1,8
12842,666.666666666667,4,1,0,40,1,8
13842,625,4,1,0,40,1,8
13842,-106.666666666667,4,1,0,40,0,8
14154,722.89156626506,4,1,0,40,1,0
14154,-92.2253988748501,4,1,0,40,0,0
14696,666.666666666667,4,1,0,40,1,8
15529,526.315789473684,4,1,0,40,1,8
15529,-160,4,1,0,40,0,8
15792,740.740740740741,4,1,0,40,1,8
15792,-90.0009000090001,4,1,0,40,0,8
16162,666.666666666667,4,1,0,40,1,8
16828,631.578947368421,4,1,0,40,1,0
16828,-105.552037154317,4,1,0,40,0,0
17459,645.161290322581,4,1,0,40,1,8
17459,-103.337811305157,4,1,0,40,0,8
18104,697.674418604651,4,1,0,40,1,8
18104,-95.5566172957477,4,1,0,40,0,8
19150,661.521499448732,4,1,0,40,1,8
19150,-100.775975007558,4,1,0,40,0,8
19480,666.666666666667,4,1,0,40,1,0
21480,710.059171597633,4,1,0,40,1,8
21480,-93.8967136150235,4,1,0,40,0,8
21835,681.818181818182,4,1,0,40,1,8
21835,-97.7803852547179,4,1,0,40,0,8
22175,633.579725448786,4,1,0,40,1,0
22175,-105.218855218855,4,1,0,40,0,0
22650,664.451827242525,4,1,0,40,1,8
22650,-100.331092605598,4,1,0,40,0,0
24145,645.161290322581,4,1,0,40,1,8
24145,-103.337811305157,4,1,0,40,0,8
24790,645.161290322581,4,1,0,40,1,0
24790,-103.337811305157,4,1,0,40,0,0
25273,645.161290322581,4,1,0,40,1,8
25273,-103.337811305157,4,1,0,40,0,0
25918,444.444444444444,4,1,0,40,1,8
25918,-149.992500374981,4,1,0,40,0,8
26140,630.252100840336,4,1,0,40,1,8
26140,-105.7753331923,4,1,0,40,0,8
26770,689.655172413793,4,1,0,40,1,8
26770,-96.665055582407,4,1,0,40,0,8
27459,676.437429537768,4,1,0,40,1,0
27459,-98.5512959495417,4,1,0,40,0,0
29150,697.674418604651,4,1,0,40,1,8
29150,-95.5566172957477,4,1,0,40,0,8
30196,645.161290322581,4,1,0,40,1,0
30196,-103.337811305157,4,1,0,40,0,0
31163,659.340659340659,4,1,0,40,1,8
31163,-101.112234580384,4,1,0,40,0,8
31492,666.666666666667,4,1,0,40,1,8
32825,657.390161060589,4,1,0,40,1,0
32825,-101.409593347531,4,1,0,40,0,0
32989,-101.409593347531,4,1,0,40,0,0
35290,-101.409593347531,4,1,0,50,0,0
35454,461.538461538462,4,1,0,50,1,0
36261,-100,4,1,0,50,0,0
36489,-96.3968668407311,4,1,0,50,0,0
36604,-93.0443548387097,4,1,0,50,0,0
36720,-89.8909232567199,4,1,0,50,0,0
36835,-86.9688118345425,4,1,0,50,0,0
36951,-84.2076452878387,4,1,0,50,0,0
37066,-81.638068282328,4,1,0,50,0,0
37181,-79.2206677538409,4,1,0,50,0,0
37242,-100,4,1,0,70,0,0
37300,461.538461538462,4,1,0,70,1,0
37300,-66.6666666666667,4,1,0,70,0,0
43873,-64.0083217753121,4,1,0,70,0,0
43989,-61.5333333333333,4,1,0,70,0,0
44104,-59.2616372391653,4,1,0,70,0,0
44220,-57.1340142370783,4,1,0,70,0,0
44335,-55.1703526598924,4,1,0,70,0,0
44450,-53.3371857844554,4,1,0,70,0,0
44566,-51.6074923119933,4,1,0,70,0,0
44684,230.769230769231,4,1,0,75,1,0
51200,-99.0662230331652,4,1,0,75,0,0
51257,-98.1653815474608,4,1,0,75,0,0
51315,-97.2653985984509,4,1,0,75,0,0
51373,-96.3817678692633,4,1,0,75,0,0
51431,-95.5140477052828,4,1,0,75,0,0
51488,-94.6763770643143,4,1,0,75,0,0
51604,-93.0162249319762,4,1,0,75,0,0
51661,-92.2216116301144,4,1,0,75,0,0
51719,-91.4268733594176,4,1,0,75,0,0
51777,-90.6457156886816,4,1,0,75,0,0
51834,-89.8909232567199,4,1,0,75,0,0
51892,-89.1356832448093,4,1,0,75,0,0
51950,-88.3930281555258,4,1,0,75,0,0
52007,-87.6751365471385,4,1,0,75,0,0
52065,-86.9565217391304,4,1,0,75,0,0
52184,-100,4,1,0,75,0,0
65969,-99.3755383290267,4,1,0,75,0,0
66027,-98.7588273057993,4,1,0,75,0,0
66084,-98.160161650537,4,1,0,75,0,0
66142,-97.5583976323856,4,1,0,75,0,0
66257,-96.3868003341688,4,1,0,75,0,0
66373,-95.233182005778,4,1,0,75,0,0
66431,-94.6666666666667,4,1,0,75,0,0
66488,-94.1164474355053,4,1,0,75,0,0
66546,-93.5631018753168,4,1,0,75,0,0
66604,-93.0162249319762,4,1,0,75,0,0
66661,-92.4849699398798,4,1,0,75,0,0
66719,-91.9505877664873,4,1,0,75,0,0
66777,-91.4223454833597,4,1,0,75,0,0
66834,-90.9090909090909,4,1,0,60,0,0
66950,-91.4312594389839,4,1,0,60,0,0
67065,-91.9548816015537,4,1,0,60,0,0
67181,-92.4891682736858,4,1,0,60,0,0
67296,-93.0250132245145,4,1,0,60,0,0
67411,-93.5671032962578,4,1,0,60,0,0
67469,-93.8429090539476,4,1,0,60,0,0
67527,-94.1203455921707,4,1,0,60,0,0
67642,-94.6753146871074,4,1,0,60,0,0
67757,-95.2368672151017,4,1,0,60,0,0
67815,-95.5226196942655,4,1,0,60,0,0
67873,-95.8100921001427,4,1,0,60,0,0
67988,-96.3852277176041,4,1,0,60,0,0
68104,-96.9724023842659,4,1,0,60,0,0
68219,-97.5616199508626,4,1,0,60,0,0
68296,-97.9601580943792,4,1,0,60,0,0
68373,-98.3619656412305,4,1,0,60,0,0
68450,-98.7670829878848,4,1,0,60,0,0
68565,-99.3783805602648,4,1,0,60,0,0
68681,-100.002707898941,4,1,0,60,0,0
68738,-100.312372674182,4,1,0,60,0,0
68796,-100.629444944004,4,1,0,60,0,0
68911,-101.264087307028,4,1,0,60,0,0
69027,-101.912409967713,4,1,0,60,0,0
69142,-102.563390451857,4,1,0,60,0,0
69257,-103.222740867037,4,1,0,60,0,0
69315,-103.558509295869,4,1,0,60,0,0
69373,-103.896469264313,4,1,0,60,0,0
69488,-104.57312756619,4,1,0,60,0,0
69604,-105.264658096514,4,1,0,60,0,0
69681,-105.728764064245,4,1,0,60,0,0
69757,-106.190873278316,4,1,0,60,0,0
69834,-106.663200762499,4,1,0,60,0,0
69950,-107.382745485738,4,1,0,60,0,0
70065,-108.105734609643,4,1,0,60,0,0
70142,-108.595289205164,4,1,0,60,0,0
70219,-109.089297846572,4,1,0,60,0,0
70296,-109.58782159708,4,1,0,60,0,0
70411,-110.340912486181,4,1,0,60,0,0
70527,-111.111111111111,4,1,0,65,0,0
70645,-125,4,1,0,65,0,0
77334,-123.715026369894,4,1,0,65,0,0
77450,-122.445368486243,4,1,0,65,0,0
77565,-121.212121212121,4,1,0,65,0,0
77681,-119.993063984741,4,1,0,65,0,0
77796,-118.808481414714,4,1,0,65,0,0
77911,-117.647058823529,4,1,0,70,0,0
84719,-116.508123579426,4,1,0,70,0,0
84834,-115.391028847757,4,1,0,70,0,0
84950,-114.285714285714,4,1,0,70,0,0
85065,-113.21063394683,4,1,0,70,0,0
85181,-112.146503524836,4,1,0,70,0,0
85296,-111.111111111111,4,1,0,70,0,0
92104,-109.082323311821,4,1,0,70,0,0
92219,-107.142857142857,4,1,0,70,0,0
92334,-105.271152969771,4,1,0,70,0,0
92450,-103.448275862069,4,1,0,70,0,0
92565,-101.702377458174,4,1,0,70,0,0
92681,-111.111111111111,4,1,0,70,0,0
92914,-83.3333333333333,4,1,0,70,0,0
93030,-111.111111111111,4,1,0,70,0,0
99488,-109.096641967523,4,1,0,70,0,0
99604,-107.137327759715,4,1,0,70,0,0
99719,-105.263157894737,4,1,0,70,0,0
99834,-103.453431006129,4,1,0,70,0,0
99950,-101.689933872153,4,1,0,70,0,0
100065,-100,4,1,0,70,0,0
100184,-125,4,1,0,70,0,0
106872,-122.456202442046,4,1,0,70,0,0
106988,-119.993063984741,4,1,0,70,0,0
107103,-117.647058823529,4,1,0,70,0,0
107219,-115.371790596866,4,1,0,70,0,0
107334,-113.201374120726,4,1,0,70,0,0
107449,-111.111111111111,4,1,0,70,0,0
110277,-110.340705319785,4,1,0,70,0,0
110334,-109.593920683923,4,1,0,70,0,0
110450,-108.10494260951,4,1,0,70,0,0
110565,-106.668207558072,4,1,0,70,0,0
110623,-105.957984157961,4,1,0,70,0,0
110681,-105.257155890067,4,1,0,70,0,0
110738,-104.577384998867,4,1,0,70,0,0
110796,-103.894642053129,4,1,0,70,0,0
110911,-102.566951883543,4,1,0,70,0,0
111027,-101.261656609984,4,1,0,70,0,0
111142,-100,4,1,0,75,0,0
113219,-111.111111111111,4,1,0,75,0,0
113334,-105.279172371824,4,1,0,75,0,0
113450,-99.9855512209218,4,1,0,75,0,0
113565,-95.2380952380952,4,1,0,75,0,0
113681,-90.8852114525873,4,1,0,75,0,0
113796,-86.9455961804247,4,1,0,75,0,0
113911,-83.3333333333333,4,1,0,75,0,0
114837,-100,4,1,0,80,0,1
142530,230.769230769231,8,1,0,80,1,0
142530,-100,8,1,0,80,0,0
142645,-136.986301369863,8,1,0,70,0,0
144376,461.538461538462,4,1,0,40,1,0
148010,-80,4,1,0,50,0,0
162779,-66.6666666666667,4,1,0,60,0,0
176680,-62.0669056152927,4,1,0,60,0,0
176796,-59.9884526558891,4,1,0,60,0,0
177026,-56.2533838657282,4,1,0,60,0,0
177142,-54.5406824146982,4,1,0,60,0,0
177257,-52.9426751592357,4,1,0,60,0,0
177373,-51.4229151200198,4,1,0,60,0,0
177488,-50,4,1,0,75,0,0
177606,230.769230769231,4,1,0,75,1,0
199125,-99.1688162797363,4,1,0,75,0,0
199182,-98.365316275764,4,1,0,75,0,0
199298,-96.7696825618795,4,1,0,75,0,0
199356,-95.9911222083507,4,1,0,75,0,0
199413,-95.2380952380952,4,1,0,75,0,0
199471,-94.4838885854724,4,1,0,75,0,0
199529,-93.741533459767,4,1,0,75,0,0
199586,-93.0232558139535,4,1,0,75,0,0
199644,-92.3035881019074,4,1,0,75,0,0
199759,-90.9090909090909,4,1,0,75,0,0
199932,-71.4285714285714,4,1,0,90,0,0
200048,-100,4,1,0,70,0,0
207144,461.538461538462,4,1,0,70,1,0
207144,-50,4,1,0,70,0,0
207259,-68.4931506849315,4,1,0,30,0,0
210836,-100,4,1,0,30,0,0
214413,-100,4,1,0,60,0,0
214528,-80,4,1,0,60,0,0
222833,-73.1662220343908,4,1,0,60,0,0
222948,-71.6428719222015,4,1,0,60,0,0
223064,-70.1692167392846,4,1,0,60,0,0
223179,-68.7669124401082,4,1,0,60,0,0
223294,-67.4195589738597,4,1,0,60,0,0
223525,-64.8666370044259,4,1,0,60,0,0
223641,-63.6562105021257,4,1,0,60,0,0
223759,230.769230769231,4,1,0,70,1,0
223759,-125,4,1,0,70,0,0
230563,-122.456202442046,4,1,0,70,0,0
230679,-119.993063984741,4,1,0,70,0,0
230794,-117.647058823529,4,1,0,70,0,0
230910,-115.371790596866,4,1,0,70,0,0
231025,-113.201374120726,4,1,0,70,0,0
231140,-111.111111111111,4,1,0,70,0,0
234025,-109.580909414698,4,1,0,70,0,0
234140,-108.10494260951,4,1,0,70,0,0
234256,-106.655881673215,4,1,0,70,0,0
234313,-105.957984157961,4,1,0,70,0,0
234371,-105.257155890067,4,1,0,70,0,0
234429,-104.565537555228,4,1,0,70,0,0
234486,-103.894642053129,4,1,0,70,0,0
234544,-103.220755983002,4,1,0,70,0,0
234602,-102.555555555556,4,1,0,70,0,0
234717,-101.261656609984,4,1,0,70,0,0
234832,-100,4,1,0,75,0,0
238643,-125,4,1,0,70,0,0
245448,-119.993063984741,4,1,0,70,0,0
245563,-117.647058823529,4,1,0,70,0,0
245679,-115.371790596866,4,1,0,70,0,0
245794,-113.201374120726,4,1,0,70,0,0
245909,-111.111111111111,4,1,0,70,0,0
248736,-110.353897656624,4,1,0,70,0,0
248794,-109.593920683923,4,1,0,70,0,0
248909,-108.117605716294,4,1,0,70,0,0
249025,-106.668207558072,4,1,0,70,0,0
249140,-105.269160583942,4,1,0,70,0,0
249198,-104.577384998867,4,1,0,70,0,0
249256,-103.894642053129,4,1,0,70,0,0
249313,-103.232300637513,4,1,0,70,0,0
249371,-102.566951883543,4,1,0,70,0,0
249486,-101.272767171385,4,1,0,70,0,0
249602,-100,4,1,0,75,0,0
251679,-111.111111111111,4,1,0,75,0,0
251794,-105.279172371824,4,1,0,75,0,0
251909,-100.028910089621,4,1,0,75,0,0
252025,-95.2380952380952,4,1,0,75,0,0
252140,-90.9210353435817,4,1,0,75,0,0
252256,-86.9455961804247,4,1,0,75,0,0
252371,-83.3333333333333,4,1,0,75,0,0
253297,-100,4,1,0,80,0,1
280989,230.769230769231,8,1,0,80,1,0
280989,-100,7,1,0,80,0,0
281103,-136.986301369863,7,1,0,70,0,0
282835,230.769230769231,4,1,0,70,1,0
284447,-95.2380952380952,4,1,0,70,0,0
284524,-93.75,4,1,0,70,0,0
284601,-92.3076923076923,4,1,0,70,0,0
284681,-90.9090909090909,4,1,0,90,0,1
292181,-95.2380952380952,4,1,0,90,0,1
299450,-83.3333333333333,4,1,0,90,0,0
299681,-100,4,1,0,70,0,0
300373,-83.3333333333333,4,1,0,85,0,1
300716,-88.886748844376,4,1,0,85,0,1
301062,-95.233182005778,4,1,0,85,0,1
301296,-100,4,1,0,85,0,0
301527,-100,4,1,0,70,0,0
302219,-83.3333333333333,4,1,0,85,0,1
302450,-86.9606180516299,4,1,0,85,0,1
302565,-88.886748844376,4,1,0,85,0,1
302623,-89.8909232567199,4,1,0,85,0,1
302681,-90.9180457052797,4,1,0,85,0,1
302796,-93.0255996774844,4,1,0,85,0,1
302911,-95.233182005778,4,1,0,85,0,1
303142,-100,4,1,0,85,0,0
303373,-100,4,1,0,70,0,0
304065,-83.3333333333333,4,1,0,85,0,1
304293,-86.9606180516299,4,1,0,85,0,1
304408,-88.886748844376,4,1,0,85,0,1
304639,-93.0255996774844,4,1,0,85,0,1
304755,-95.2528379772962,4,1,0,85,0,1
304988,-100,4,1,0,80,0,0
305216,-98.1575519102438,4,1,0,80,0,0
305332,-97.2577118621743,4,1,0,80,0,0
305389,-96.8215671876639,4,1,0,80,0,0
305447,-96.3817678692633,4,1,0,80,0,0
305562,-95.5214612817262,4,1,0,80,0,0
305620,-95.0933676754669,4,1,0,80,0,0
305678,-94.6690940793354,4,1,0,80,0,0
305793,-93.8389589263928,4,1,0,80,0,0
305908,-93.0232558139535,4,1,0,80,0,0
305966,-92.6172139578055,4,1,0,80,0,0
306024,-92.2147014012039,4,1,0,80,0,0
306081,-91.8225228810187,4,1,0,80,0,0
306139,-91.4268733594176,4,1,0,80,0,0
306255,-90.6457156886816,4,1,0,80,0,0
306371,-89.8777934660889,4,1,0,80,0,0
306428,-89.5052001260637,4,1,0,80,0,0
306486,-89.1292277237284,4,1,0,80,0,0
306544,-88.7564007019737,4,1,0,80,0,0
306601,-88.3930281555258,4,1,0,80,0,0
306716,-87.6688908413079,4,1,0,80,0,0
306835,-86.9565217391304,4,1,0,85,0,1
306950,-95.2380952380952,4,1,0,85,0,1
312373,230.769230769231,8,1,0,85,1,0
312373,-95.2380952380952,7,1,0,85,0,0
312488,-129.87012987013,7,1,0,70,0,0
314219,230.769230769231,4,1,0,75,1,0
328120,-99.0662230331652,4,1,0,75,0,0
328178,-98.1497235219056,4,1,0,75,0,0
328235,-97.2653985984509,4,1,0,75,0,0
328293,-96.3817678692633,4,1,0,75,0,0
328351,-95.5140477052828,4,1,0,75,0,0
328408,-94.6763770643143,4,1,0,75,0,0
328524,-93.0162249319762,4,1,0,75,0,0
328582,-92.2077922077922,4,1,0,75,0,0
328639,-91.4268733594176,4,1,0,75,0,0
328697,-90.6457156886816,4,1,0,75,0,0
328755,-89.8777934660889,4,1,0,75,0,0
328812,-89.1356832448093,4,1,0,75,0,0
328870,-88.3930281555258,4,1,0,75,0,0
328928,-87.6626460252636,4,1,0,75,0,0
328985,-86.9565217391304,4,1,0,75,0,0
329103,-100,4,1,0,75,0,0
343757,600,4,1,0,70,1,8
343759,600,4,1,0,70,1,0
343759,-38.4615384615385,4,1,0,70,0,0
343834,-54.9450549450549,4,1,0,20,0,0
344027,400,4,1,0,20,1,8
344246,454.545454545455,4,1,0,20,1,8
345609,472.44094488189,4,1,0,20,1,0

[HitObjects]
256,192,35454,5,8,0:0:0:0:
256,192,35915,1,8,0:0:0:0:
256,192,36377,1,0,0:0:0:0:
256,192,36492,1,0,0:0:0:0:
256,192,36607,1,0,0:0:0:0:
256,192,36723,1,0,0:0:0:0:
256,192,36838,1,8,0:0:0:0:
256,192,36954,1,8,0:0:0:0:
256,192,37069,1,8,0:0:0:0:
256,192,37184,1,8,0:0:0:0:
256,192,37300,1,4,0:0:0:0:
256,192,37761,1,8,0:0:0:0:
256,192,37992,1,0,0:0:0:0:
256,192,38107,1,0,0:0:0:0:
256,192,38223,1,8,0:0:0:0:
256,192,38453,1,0,0:0:0:0:
256,192,38684,1,8,0:0:0:0:
256,192,38915,1,0,0:0:0:0:
256,192,38992,1,8,0:0:0:0:
256,192,39069,1,8,0:0:0:0:
256,192,39146,1,0,0:0:0:0:
256,192,39492,1,8,0:0:0:0:
256,192,39607,1,0,0:0:0:0:
256,192,39838,1,0,0:0:0:0:
256,192,39953,1,0,0:0:0:0:
256,192,40069,1,8,0:0:0:0:
256,192,40300,1,0,0:0:0:0:
256,192,40376,1,0,0:0:0:0:
256,192,40453,1,0,0:0:0:0:
256,192,40530,1,8,0:0:0:0:
256,192,40761,1,8,0:0:0:0:
256,192,40838,1,8,0:0:0:0:
256,192,40915,1,8,0:0:0:0:
256,192,40992,1,4,0:0:0:0:
256,192,41453,1,8,0:0:0:0:
256,192,41684,1,0,0:0:0:0:
256,192,41800,1,0,0:0:0:0:
256,192,41915,1,8,0:0:0:0:
256,192,42146,1,0,0:0:0:0:
256,192,42261,1,0,0:0:0:0:
256,192,42376,1,8,0:0:0:0:
256,192,42607,1,0,0:0:0:0:
256,192,42838,1,0,0:0:0:0:
256,192,43069,1,0,0:0:0:0:
256,192,43184,1,0,0:0:0:0:
256,192,43300,1,8,0:0:0:0:
256,192,43530,1,0,0:0:0:0:
256,192,43761,1,0,0:0:0:0:
256,192,43876,1,8,0:0:0:0:
256,192,43992,1,0,0:0:0:0:
256,192,44107,1,0,0:0:0:0:
256,192,44223,1,8,0:0:0:0:
256,192,44338,1,8,0:0:0:0:
256,192,44453,1,8,0:0:0:0:
256,192,44569,1,8,0:0:0:0:
256,192,44684,1,4,0:0:0:0:
256,192,44914,1,8,0:0:0:0:
256,192,45030,1,0,0:0:0:0:
256,192,45087,1,0,0:0:0:0:
256,192,45145,1,8,0:0:0:0:
256,192,45260,1,0,0:0:0:0:
256,192,45376,1,8,0:0:0:0:
256,192,45434,1,8,0:0:0:0:
256,192,45491,1,0,0:0:0:0:
256,192,45607,1,8,0:0:0:0:
256,192,45722,1,0,0:0:0:0:
256,192,45837,1,8,0:0:0:0:
256,192,45895,1,8,0:0:0:0:
256,192,45953,1,0,0:0:0:0:
256,192,46010,1,0,0:0:0:0:
256,192,46068,1,8,0:0:0:0:
256,192,46184,1,0,0:0:0:0:
256,192,46299,1,8,0:0:0:0:
256,192,46357,1,0,0:0:0:0:
256,192,46414,1,8,0:0:0:0:
256,192,46472,1,8,0:0:0:0:
256,192,46530,1,0,0:0:0:0:
256,192,46645,1,0,0:0:0:0:
256,192,46760,1,8,0:0:0:0:
256,192,46876,1,8,0:0:0:0:
256,192,46934,1,8,0:0:0:0:
256,192,46991,1,0,0:0:0:0:
256,192,47107,1,0,0:0:0:0:
256,192,47164,1,0,0:0:0:0:
256,192,47222,1,8,0:0:0:0:
256,192,47337,1,0,0:0:0:0:
256,192,47453,1,8,0:0:0:0:
256,192,47510,1,8,0:0:0:0:
256,192,47568,1,8,0:0:0:0:
256,192,47684,1,0,0:0:0:0:
256,192,47741,1,0,0:0:0:0:
256,192,47799,1,8,0:0:0:0:
256,192,47857,1,8,0:0:0:0:
256,192,47914,1,0,0:0:0:0:
256,192,48030,1,0,0:0:0:0:
256,192,48087,1,0,0:0:0:0:
256,192,48145,1,8,0:0:0:0:
256,192,48203,1,0,0:0:0:0:
256,192,48260,1,8,0:0:0:0:
256,192,48318,1,8,0:0:0:0:
256,192,48376,1,0,0:0:0:0:
256,192,48607,1,8,0:0:0:0:
256,192,48722,1,8,0:0:0:0:
256,192,48780,1,8,0:0:0:0:
256,192,48837,1,0,0:0:0:0:
256,192,48953,1,0,0:0:0:0:
256,192,49010,1,0,0:0:0:0:
256,192,49068,1,8,0:0:0:0:
256,192,49184,1,0,0:0:0:0:
256,192,49299,1,8,0:0:0:0:
256,192,49414,1,0,0:0:0:0:
256,192,49472,1,0,0:0:0:0:
256,192,49530,1,8,0:0:0:0:
256,192,49645,1,0,0:0:0:0:
256,192,49760,1,8,0:0:0:0:
256,192,49818,1,8,0:0:0:0:
256,192,49876,1,0,0:0:0:0:
256,192,49934,1,0,0:0:0:0:
256,192,49991,1,8,0:0:0:0:
256,192,50107,1,0,0:0:0:0:
256,192,50222,1,8,0:0:0:0:
256,192,50280,1,8,0:0:0:0:
256,192,50337,1,0,0:0:0:0:
256,192,50395,1,0,0:0:0:0:
256,192,50453,1,8,0:0:0:0:
256,192,50510,1,0,0:0:0:0:
256,192,50568,1,0,0:0:0:0:
256,192,50626,1,0,0:0:0:0:
256,192,50684,1,8,0:0:0:0:
256,192,50799,1,0,0:0:0:0:
256,192,50857,1,0,0:0:0:0:
256,192,50914,1,8,0:0:0:0:
256,192,51030,1,0,0:0:0:0:
256,192,51145,1,8,0:0:0:0:
256,192,51203,1,0,0:0:0:0:
256,192,51260,1,0,0:0:0:0:
256,192,51318,1,0,0:0:0:0:
256,192,51376,1,8,0:0:0:0:
256,192,51434,1,8,0:0:0:0:
256,192,51491,1,0,0:0:0:0:
256,192,51607,1,0,0:0:0:0:
256,192,51664,1,0,0:0:0:0:
256,192,51722,1,8,0:0:0:0:
256,192,51780,1,0,0:0:0:0:
256,192,51837,1,8,0:0:0:0:
256,192,51895,1,8,0:0:0:0:
256,192,51953,1,0,0:0:0:0:
256,192,52010,1,0,0:0:0:0:
256,192,52068,1,12,0:0:0:0:
256,192,52299,1,8,0:0:0:0:
256,192,52414,1,8,0:0:0:0:
256,192,52472,1,8,0:0:0:0:
256,192,52530,1,0,0:0:0:0:
256,192,52645,1,0,0:0:0:0:
256,192,52760,1,8,0:0:0:0:
256,192,52991,1,0,0:0:0:0:
256,192,53222,1,8,0:0:0:0:
256,192,53337,1,8,0:0:0:0:
256,192,53453,1,0,0:0:0:0:
256,192,53568,1,0,0:0:0:0:
256,192,53684,1,8,0:0:0:0:
256,192,53914,1,0,0:0:0:0:
256,192,54145,1,8,0:0:0:0:
256,192,54260,1,0,0:0:0:0:
256,192,54318,1,0,0:0:0:0:
256,192,54376,1,8,0:0:0:0:
256,192,54491,1,0,0:0:0:0:
256,192,54607,1,8,0:0:0:0:
256,192,54722,1,8,0:0:0:0:
256,192,54837,1,0,0:0:0:0:
256,192,55068,1,8,0:0:0:0:
256,192,55184,1,8,0:0:0:0:
256,192,55299,1,0,0:0:0:0:
256,192,55414,1,0,0:0:0:0:
256,192,55530,1,8,0:0:0:0:
256,192,55645,1,0,0:0:0:0:
256,192,55760,1,12,0:0:0:0:
256,192,55991,1,8,0:0:0:0:
256,192,56107,1,0,0:0:0:0:
256,192,56164,1,0,0:0:0:0:
256,192,56222,1,8,0:0:0:0:
256,192,56337,1,0,0:0:0:0:
256,192,56453,1,8,0:0:0:0:
256,192,56684,1,0,0:0:0:0:
256,192,56914,1,8,0:0:0:0:
256,192,57030,1,0,0:0:0:0:
256,192,57145,1,0,0:0:0:0:
256,192,57260,1,0,0:0:0:0:
256,192,57376,1,8,0:0:0:0:
256,192,57607,1,0,0:0:0:0:
256,192,57837,1,8,0:0:0:0:
256,192,57953,1,8,0:0:0:0:
256,192,58010,1,8,0:0:0:0:
256,192,58068,1,0,0:0:0:0:
256,192,58184,1,0,0:0:0:0:
256,192,58299,1,8,0:0:0:0:
256,192,58530,1,0,0:0:0:0:
256,192,58645,1,8,0:0:0:0:
256,192,58760,1,8,0:0:0:0:
256,192,58876,1,0,0:0:0:0:
256,192,58991,1,8,0:0:0:0:
256,192,59107,1,8,0:0:0:0:
256,192,59222,1,8,0:0:0:0:
256,192,59337,1,8,0:0:0:0:
256,192,59453,1,4,0:0:0:0:
256,192,59684,1,8,0:0:0:0:
256,192,59799,1,0,0:0:0:0:
256,192,59857,1,0,0:0:0:0:
256,192,59914,1,8,0:0:0:0:
256,192,60030,1,0,0:0:0:0:
256,192,60145,1,8,0:0:0:0:
256,192,60260,1,8,0:0:0:0:
256,192,60318,1,8,0:0:0:0:
256,192,60376,1,0,0:0:0:0:
256,192,60491,1,0,0:0:0:0:
256,192,60607,1,8,0:0:0:0:
256,192,60664,1,0,0:0:0:0:
256,192,60722,1,0,0:0:0:0:
256,192,60780,1,0,0:0:0:0:
256,192,60837,1,8,0:0:0:0:
256,192,60953,1,0,0:0:0:0:
256,192,61068,1,8,0:0:0:0:
256,192,61126,1,0,0:0:0:0:
256,192,61184,1,8,0:0:0:0:
256,192,61241,1,0,0:0:0:0:
256,192,61299,1,8,0:0:0:0:
256,192,61357,1,8,0:0:0:0:
256,192,61414,1,0,0:0:0:0:
256,192,61530,1,8,0:0:0:0:
256,192,61645,1,0,0:0:0:0:
256,192,61703,1,0,0:0:0:0:
256,192,61760,1,0,0:0:0:0:
256,192,61876,1,8,0:0:0:0:
256,192,61991,1,8,0:0:0:0:
256,192,62049,1,0,0:0:0:0:
256,192,62107,1,0,0:0:0:0:
256,192,62222,1,8,0:0:0:0:
256,192,62280,1,0,0:0:0:0:
256,192,62337,1,8,0:0:0:0:
256,192,62395,1,8,0:0:0:0:
256,192,62453,1,0,0:0:0:0:
256,192,62568,1,8,0:0:0:0:
256,192,62626,1,8,0:0:0:0:
256,192,62684,1,8,0:0:0:0:
256,192,62799,1,0,0:0:0:0:
256,192,62857,1,0,0:0:0:0:
256,192,62914,1,8,0:0:0:0:
256,192,62972,1,0,0:0:0:0:
256,192,63030,1,8,0:0:0:0:
256,192,63087,1,8,0:0:0:0:
256,192,63145,1,0,0:0:0:0:
256,192,63376,1,8,0:0:0:0:
256,192,63491,1,8,0:0:0:0:
256,192,63549,1,8,0:0:0:0:
256,192,63607,1,0,0:0:0:0:
256,192,63722,1,0,0:0:0:0:
256,192,63780,1,0,0:0:0:0:
256,192,63837,1,8,0:0:0:0:
256,192,63953,1,0,0:0:0:0:
256,192,64068,1,8,0:0:0:0:
256,192,64184,1,0,0:0:0:0:
256,192,64241,1,0,0:0:0:0:
256,192,64299,1,8,0:0:0:0:
256,192,64414,1,0,0:0:0:0:
256,192,64530,1,8,0:0:0:0:
256,192,64587,1,8,0:0:0:0:
256,192,64645,1,0,0:0:0:0:
256,192,64760,1,8,0:0:0:0:
256,192,64818,1,0,0:0:0:0:
256,192,64876,1,8,0:0:0:0:
256,192,64934,1,8,0:0:0:0:
256,192,64991,1,0,0:0:0:0:
256,192,65107,1,0,0:0:0:0:
256,192,65222,1,8,0:0:0:0:
256,192,65280,1,8,0:0:0:0:
256,192,65337,1,0,0:0:0:0:
256,192,65395,1,0,0:0:0:0:
256,192,65453,1,8,0:0:0:0:
256,192,65568,1,0,0:0:0:0:
256,192,65626,1,0,0:0:0:0:
256,192,65684,1,8,0:0:0:0:
256,192,65799,1,0,0:0:0:0:
256,192,65914,1,8,0:0:0:0:
256,192,65972,1,8,0:0:0:0:
256,192,66030,1,8,0:0:0:0:
256,192,66087,1,8,0:0:0:0:
256,192,66145,1,0,0:0:0:0:
256,192,66260,1,8,0:0:0:0:
256,192,66376,1,0,0:0:0:0:
256,192,66434,1,0,0:0:0:0:
256,192,66491,1,8,0:0:0:0:
256,192,66549,1,0,0:0:0:0:
256,192,66607,1,8,0:0:0:0:
256,192,66664,1,8,0:0:0:0:
256,192,66722,1,0,0:0:0:0:
256,192,66780,1,0,0:0:0:0:
256,192,66837,1,12,0:0:0:0:
256,192,66953,1,0,0:0:0:0:
256,192,67068,1,8,0:0:0:0:
256,192,67184,1,8,0:0:0:0:
256,192,67299,1,0,0:0:0:0:
256,192,67414,1,8,0:0:0:0:
256,192,67472,1,8,0:0:0:0:
256,192,67530,1,0,0:0:0:0:
256,192,67645,1,8,0:0:0:0:
256,192,67760,1,0,0:0:0:0:
256,192,67818,1,0,0:0:0:0:
256,192,67876,1,8,0:0:0:0:
256,192,67991,1,0,0:0:0:0:
256,192,68107,1,8,0:0:0:0:
256,192,68222,1,0,0:0:0:0:
256,192,68299,1,0,0:0:0:0:
256,192,68376,1,0,0:0:0:0:
256,192,68453,1,8,0:0:0:0:
256,192,68568,1,8,0:0:0:0:
256,192,68684,1,0,0:0:0:0:
256,192,68741,1,0,0:0:0:0:
256,192,68799,1,8,0:0:0:0:
256,192,68914,1,0,0:0:0:0:
256,192,69030,1,8,0:0:0:0:
256,192,69145,1,0,0:0:0:0:
256,192,69260,1,8,0:0:0:0:
256,192,69318,1,8,0:0:0:0:
256,192,69376,1,0,0:0:0:0:
256,192,69491,1,8,0:0:0:0:
256,192,69607,1,0,0:0:0:0:
256,192,69684,1,0,0:0:0:0:
256,192,69760,1,8,0:0:0:0:
256,192,69837,1,8,0:0:0:0:
256,192,69953,1,0,0:0:0:0:
256,192,70068,1,8,0:0:0:0:
256,192,70145,1,8,0:0:0:0:
256,192,70222,1,8,0:0:0:0:
256,192,70299,1,8,0:0:0:0:
256,192,70414,1,8,0:0:0:0:
256,192,70530,1,4,0:0:0:0:
256,192,70760,1,8,0:0:0:0:
256,192,70876,1,0,0:0:0:0:
256,192,70991,1,8,0:0:0:0:
256,192,71107,1,8,0:0:0:0:
256,192,71222,1,0,0:0:0:0:
256,192,71453,1,8,0:0:0:0:
256,192,71684,1,0,0:0:0:0:
256,192,71799,1,0,0:0:0:0:
256,192,71914,1,8,0:0:0:0:
256,192,72030,1,0,0:0:0:0:
256,192,72145,1,8,0:0:0:0:
256,192,72260,1,8,0:0:0:0:
256,192,72376,1,0,0:0:0:0:
256,192,72607,1,8,0:0:0:0:
256,192,72722,1,0,0:0:0:0:
256,192,72837,1,8,0:0:0:0:
256,192,73068,1,8,0:0:0:0:
256,192,73184,1,8,0:0:0:0:
256,192,73299,1,0,0:0:0:0:
256,192,73414,1,0,0:0:0:0:
256,192,73530,1,8,0:0:0:0:
256,192,73760,1,0,0:0:0:0:
256,192,73876,1,8,0:0:0:0:
256,192,73991,1,0,0:0:0:0:
256,96,74222,1,12,0:0:0:0:
256,192,74453,1,0,0:0:0:0:
256,192,74568,1,8,0:0:0:0:
256,192,74684,1,0,0:0:0:0:
256,192,74799,1,0,0:0:0:0:
256,192,74914,1,8,0:0:0:0:
256,192,75145,1,0,0:0:0:0:
256,192,75376,1,8,0:0:0:0:
256,192,75607,1,0,0:0:0:0:
256,192,75722,1,0,0:0:0:0:
256,192,75837,1,8,0:0:0:0:
256,192,76068,1,0,0:0:0:0:
256,192,76299,1,8,0:0:0:0:
256,192,76530,1,0,0:0:0:0:
256,192,76645,1,0,0:0:0:0:
256,192,76760,1,8,0:0:0:0:
256,192,76837,1,0,0:0:0:0:
256,192,76914,1,0,0:0:0:0:
256,192,76991,1,8,0:0:0:0:
256,192,77222,1,8,0:0:0:0:
256,192,77337,1,0,0:0:0:0:
256,192,77453,1,8,0:0:0:0:
256,192,77568,1,8,0:0:0:0:
256,192,77684,1,8,0:0:0:0:
256,192,77799,1,8,0:0:0:0:
256,96,77914,1,4,0:0:0:0:
256,192,78145,1,8,0:0:0:0:
256,192,78376,1,0,0:0:0:0:
256,192,78491,1,0,0:0:0:0:
256,192,78607,1,8,0:0:0:0:
256,192,78722,1,8,0:0:0:0:
256,192,78837,1,0,0:0:0:0:
256,192,79068,1,8,0:0:0:0:
256,192,79184,1,0,0:0:0:0:
256,192,79299,1,8,0:0:0:0:
256,192,79414,1,8,0:0:0:0:
256,192,79530,1,0,0:0:0:0:
256,192,79645,1,8,0:0:0:0:
256,192,79760,1,0,0:0:0:0:
256,192,79991,1,8,0:0:0:0:
256,192,80107,1,0,0:0:0:0:
256,192,80222,1,8,0:0:0:0:
256,192,80453,1,0,0:0:0:0:
256,192,80568,1,8,0:0:0:0:
256,192,80684,1,0,0:0:0:0:
256,192,80799,1,0,0:0:0:0:
256,192,80914,1,8,0:0:0:0:
256,192,81145,1,8,0:0:0:0:
256,192,81260,1,8,0:0:0:0:
256,192,81376,1,0,0:0:0:0:
256,96,81607,1,12,0:0:0:0:
256,192,81837,1,0,0:0:0:0:
256,192,81953,1,8,0:0:0:0:
256,192,82068,1,0,0:0:0:0:
256,192,82184,1,0,0:0:0:0:
256,192,82299,1,8,0:0:0:0:
256,192,82414,1,8,0:0:0:0:
256,192,82530,1,0,0:0:0:0:
256,192,82760,1,8,0:0:0:0:
256,192,82991,1,0,0:0:0:0:
256,192,83107,1,0,0:0:0:0:
256,192,83222,1,8,0:0:0:0:
256,192,83337,1,8,0:0:0:0:
256,192,83453,1,0,0:0:0:0:
256,192,83684,1,8,0:0:0:0:
256,192,83799,1,0,0:0:0:0:
256,192,84030,1,0,0:0:0:0:
256,192,84145,1,8,0:0:0:0:
256,192,84376,1,0,0:0:0:0:
256,192,84607,1,8,0:0:0:0:
256,192,84722,1,0,0:0:0:0:
256,192,84837,1,8,0:0:0:0:
256,192,84953,1,8,0:0:0:0:
256,192,85068,1,8,0:0:0:0:
256,192,85184,1,8,0:0:0:0:
256,96,85299,1,4,0:0:0:0:
256,192,85530,1,8,0:0:0:0:
256,192,85760,1,0,0:0:0:0:
256,192,85876,1,0,0:0:0:0:
256,192,85991,1,8,0:0:0:0:
256,192,86107,1,0,0:0:0:0:
256,192,86222,1,8,0:0:0:0:
256,192,86337,1,8,0:0:0:0:
256,192,86453,1,0,0:0:0:0:
256,192,86568,1,8,0:0:0:0:
256,192,86684,1,0,0:0:0:0:
256,192,86914,1,8,0:0:0:0:
256,192,87030,1,8,0:0:0:0:
256,192,87145,1,0,0:0:0:0:
256,192,87376,1,8,0:0:0:0:
256,192,87491,1,0,0:0:0:0:
256,192,87607,1,8,0:0:0:0:
256,192,87722,1,8,0:0:0:0:
256,192,87837,1,0,0:0:0:0:
256,192,87953,1,8,0:0:0:0:
256,192,88068,1,0,0:0:0:0:
256,192,88184,1,0,0:0:0:0:
256,192,88299,1,8,0:0:0:0:
256,192,88530,1,0,0:0:0:0:
256,192,88645,1,8,0:0:0:0:
256,192,88760,1,0,0:0:0:0:
256,96,88991,1,12,0:0:0:0:
256,192,89222,1,0,0:0:0:0:
256,192,89337,1,8,0:0:0:0:
256,192,89453,1,0,0:0:0:0:
256,192,89568,1,0,0:0:0:0:
256,192,89684,1,8,0:0:0:0:
256,192,89799,1,8,0:0:0:0:
256,192,89914,1,0,0:0:0:0:
256,192,90030,1,0,0:0:0:0:
256,192,90145,1,8,0:0:0:0:
256,192,90376,1,0,0:0:0:0:
256,192,90491,1,0,0:0:0:0:
256,192,90607,1,8,0:0:0:0:
256,192,90722,1,8,0:0:0:0:
256,192,90837,1,0,0:0:0:0:
256,192,91068,1,8,0:0:0:0:
256,192,91184,1,0,0:0:0:0:
256,192,91414,1,0,0:0:0:0:
256,192,91530,1,8,0:0:0:0:
256,192,91645,1,8,0:0:0:0:
256,192,91760,1,0,0:0:0:0:
256,192,91991,1,8,0:0:0:0:
256,192,92107,1,0,0:0:0:0:
256,192,92222,1,8,0:0:0:0:
256,192,92337,1,8,0:0:0:0:
256,192,92453,1,8,0:0:0:0:
256,192,92568,1,8,0:0:0:0:
256,96,92914,1,12,0:0:0:0:
256,192,93145,1,0,0:0:0:0:
256,192,93260,1,0,0:0:0:0:
256,192,93376,1,8,0:0:0:0:
256,192,93607,1,8,0:0:0:0:
256,192,93722,1,0,0:0:0:0:
256,192,93837,1,8,0:0:0:0:
256,192,93953,1,8,0:0:0:0:
256,192,94068,1,0,0:0:0:0:
256,192,94184,1,0,0:0:0:0:
256,192,94299,1,8,0:0:0:0:
256,192,94414,1,0,0:0:0:0:
256,192,94530,1,8,0:0:0:0:
256,192,94760,1,0,0:0:0:0:
256,192,94876,1,0,0:0:0:0:
256,192,94991,1,8,0:0:0:0:
256,192,95107,1,8,0:0:0:0:
256,192,95222,1,0,0:0:0:0:
256,192,95337,1,8,0:0:0:0:
256,192,95453,1,0,0:0:0:0:
256,192,95568,1,0,0:0:0:0:
256,192,95684,1,8,0:0:0:0:
256,192,95799,1,8,0:0:0:0:
256,192,95914,1,0,0:0:0:0:
256,192,96030,1,8,0:0:0:0:
256,192,96145,1,8,0:0:0:0:
256,192,96260,1,8,0:0:0:0:
256,96,96376,1,4,0:0:0:0:
256,192,96607,1,8,0:0:0:0:
256,192,96722,1,0,0:0:0:0:
256,192,96953,1,0,0:0:0:0:
256,192,97068,1,8,0:0:0:0:
256,192,97184,1,8,0:0:0:0:
256,192,97299,1,0,0:0:0:0:
256,192,97530,1,8,0:0:0:0:
256,192,97645,1,8,0:0:0:0:
256,192,97760,1,0,0:0:0:0:
256,192,97876,1,0,0:0:0:0:
256,192,97991,1,8,0:0:0:0:
256,192,98107,1,0,0:0:0:0:
256,192,98222,1,8,0:0:0:0:
256,192,98453,1,8,0:0:0:0:
256,192,98568,1,0,0:0:0:0:
256,192,98799,1,0,0:0:0:0:
256,192,98914,1,8,0:0:0:0:
256,192,99145,1,0,0:0:0:0:
256,192,99376,1,8,0:0:0:0:
256,192,99491,1,0,0:0:0:0:
256,192,99607,1,8,0:0:0:0:
256,192,99722,1,8,0:0:0:0:
256,192,99837,1,8,0:0:0:0:
256,192,99953,1,8,0:0:0:0:
256,96,100068,1,4,0:0:0:0:
256,192,100299,1,8,0:0:0:0:
256,192,100414,1,0,0:0:0:0:
256,192,100530,1,8,0:0:0:0:
256,192,100607,1,0,0:0:0:0:
256,192,100684,1,0,0:0:0:0:
256,192,100760,1,8,0:0:0:0:
256,192,100991,1,0,0:0:0:0:
256,192,101222,1,8,0:0:0:0:
256,192,101337,1,0,0:0:0:0:
256,192,101453,1,8,0:0:0:0:
256,192,101568,1,8,0:0:0:0:
256,192,101684,1,8,0:0:0:0:
256,192,101799,1,8,0:0:0:0:
256,96,101914,1,4,0:0:0:0:
256,192,102145,1,0,0:0:0:0:
256,192,102260,1,8,0:0:0:0:
256,192,102376,1,0,0:0:0:0:
256,192,102453,1,0,0:0:0:0:
256,192,102530,1,0,0:0:0:0:
256,192,102607,1,8,0:0:0:0:
256,192,102837,1,0,0:0:0:0:
256,192,103068,1,8,0:0:0:0:
256,192,103184,1,0,0:0:0:0:
256,192,103299,1,8,0:0:0:0:
256,192,103414,1,8,0:0:0:0:
256,192,103530,1,8,0:0:0:0:
256,192,103645,1,8,0:0:0:0:
256,96,103760,1,4,0:0:0:0:
256,192,103991,1,8,0:0:0:0:
256,192,104107,1,0,0:0:0:0:
256,192,104222,1,8,0:0:0:0:
256,192,104299,1,8,0:0:0:0:
256,192,104376,1,8,0:0:0:0:
256,192,104453,1,0,0:0:0:0:
256,192,104684,1,0,0:0:0:0:
256,192,104914,1,8,0:0:0:0:
256,192,105030,1,0,0:0:0:0:
256,192,105145,1,8,0:0:0:0:
256,192,105260,1,8,0:0:0:0:
256,192,105376,1,8,0:0:0:0:
256,192,105491,1,8,0:0:0:0:
256,96,105607,1,4,0:0:0:0:
256,192,105837,1,0,0:0:0:0:
256,192,105953,1,8,0:0:0:0:
256,192,106068,1,0,0:0:0:0:
256,192,106145,1,8,0:0:0:0:
256,192,106222,1,8,0:0:0:0:
256,192,106299,1,0,0:0:0:0:
256,192,106530,1,0,0:0:0:0:
256,192,106760,1,8,0:0:0:0:
256,192,106876,1,0,0:0:0:0:
256,192,106991,1,8,0:0:0:0:
256,192,107107,1,8,0:0:0:0:
256,192,107222,1,8,0:0:0:0:
256,192,107337,1,8,0:0:0:0:
256,96,107453,1,4,0:0:0:0:
256,192,107684,1,8,0:0:0:0:
256,192,107799,1,0,0:0:0:0:
256,192,107857,1,0,0:0:0:0:
256,192,107914,1,8,0:0:0:0:
256,192,108030,1,0,0:0:0:0:
256,192,108145,1,8,0:0:0:0:
256,192,108203,1,8,0:0:0:0:
256,192,108260,1,0,0:0:0:0:
256,192,108318,1,0,0:0:0:0:
256,192,108376,1,8,0:0:0:0:
256,192,108491,1,0,0:0:0:0:
256,192,108607,1,8,0:0:0:0:
256,192,108664,1,8,0:0:0:0:
256,192,108722,1,0,0:0:0:0:
256,192,108837,1,8,0:0:0:0:
256,192,108895,1,8,0:0:0:0:
256,192,108953,1,8,0:0:0:0:
256,192,109068,1,0,0:0:0:0:
256,192,109184,1,8,0:0:0:0:
256,96,109299,1,4,0:0:0:0:
256,192,109530,1,8,0:0:0:0:
256,192,109645,1,0,0:0:0:0:
256,192,109760,1,8,0:0:0:0:
256,192,109818,1,0,0:0:0:0:
256,192,109876,1,0,0:0:0:0:
256,192,109934,1,0,0:0:0:0:
256,192,109991,1,8,0:0:0:0:
256,192,110107,1,0,0:0:0:0:
256,192,110222,1,8,0:0:0:0:
256,192,110280,1,8,0:0:0:0:
256,192,110337,1,0,0:0:0:0:
256,192,110453,1,8,0:0:0:0:
256,192,110568,1,0,0:0:0:0:
256,192,110626,1,0,0:0:0:0:
256,192,110684,1,8,0:0:0:0:
256,192,110741,1,8,0:0:0:0:
256,192,110799,1,0,0:0:0:0:
256,192,110914,1,8,0:0:0:0:
256,192,111030,1,0,0:0:0:0:
256,192,111145,1,8,0:0:0:0:
256,192,111376,1,0,0:0:0:0:
256,192,111491,1,0,0:0:0:0:
256,192,111607,1,8,0:0:0:0:
256,192,111722,1,0,0:0:0:0:
256,192,111837,1,0,0:0:0:0:
256,192,111953,1,0,0:0:0:0:
256,192,112068,1,8,0:0:0:0:
256,192,112299,1,0,0:0:0:0:
256,192,112414,1,0,0:0:0:0:
256,192,112530,1,8,0:0:0:0:
256,192,112645,1,0,0:0:0:0:
256,192,112703,1,0,0:0:0:0:
256,192,112760,1,8,0:0:0:0:
256,192,112876,1,0,0:0:0:0:
256,96,112991,1,12,0:0:0:0:
256,192,113222,1,0,0:0:0:0:
256,192,113337,1,0,0:0:0:0:
256,192,113453,1,8,0:0:0:0:
256,192,113568,1,8,0:0:0:0:
256,192,113684,1,8,0:0:0:0:
256,192,113799,1,8,0:0:0:0:
256,192,113914,1,8,0:0:0:0:
256,192,114837,5,12,0:0:0:0:
256,192,114953,1,0,0:0:0:0:
256,192,115010,1,0,0:0:0:0:
256,192,115068,1,8,0:0:0:0:
256,192,115184,1,0,0:0:0:0:
256,192,115299,1,8,0:0:0:0:
256,192,115357,1,0,0:0:0:0:
256,192,115414,1,8,0:0:0:0:
256,192,115472,1,8,0:0:0:0:
256,192,115530,1,0,0:0:0:0:
256,192,115645,1,0,0:0:0:0:
256,192,115760,1,8,0:0:0:0:
256,192,115818,1,8,0:0:0:0:
256,192,115876,1,0,0:0:0:0:
256,192,115991,1,8,0:0:0:0:
256,192,116107,1,0,0:0:0:0:
256,192,116164,1,0,0:0:0:0:
256,192,116222,1,0,0:0:0:0:
256,192,116337,1,8,0:0:0:0:
256,192,116453,1,0,0:0:0:0:
256,192,116510,1,8,0:0:0:0:
256,192,116568,1,0,0:0:0:0:
256,192,116626,1,0,0:0:0:0:
256,192,116684,1,8,0:0:0:0:
256,192,116799,1,0,0:0:0:0:
256,192,116914,1,8,0:0:0:0:
256,192,116972,1,0,0:0:0:0:
256,192,117030,1,8,0:0:0:0:
256,192,117087,1,8,0:0:0:0:
256,192,117145,1,0,0:0:0:0:
256,192,117260,1,8,0:0:0:0:
256,192,117318,1,8,0:0:0:0:
256,192,117376,1,0,0:0:0:0:
256,192,117491,1,8,0:0:0:0:
256,192,117549,1,0,0:0:0:0:
256,192,117607,1,0,0:0:0:0:
256,192,117722,1,0,0:0:0:0:
256,192,117837,1,8,0:0:0:0:
256,192,117895,1,8,0:0:0:0:
256,192,117953,1,0,0:0:0:0:
256,192,118010,1,0,0:0:0:0:
256,192,118068,1,8,0:0:0:0:
256,192,118126,1,0,0:0:0:0:
256,192,118184,1,0,0:0:0:0:
256,192,118241,1,0,0:0:0:0:
256,192,118299,1,8,0:0:0:0:
256,192,118414,1,8,0:0:0:0:
256,192,118530,1,0,0:0:0:0:
256,192,118587,1,0,0:0:0:0:
256,192,118645,1,0,0:0:0:0:
256,192,118703,1,0,0:0:0:0:
256,192,118760,1,8,0:0:0:0:
256,192,118876,1,0,0:0:0:0:
256,192,118991,1,8,0:0:0:0:
256,192,119049,1,0,0:0:0:0:
256,192,119107,1,8,0:0:0:0:
256,192,119164,1,8,0:0:0:0:
256,192,119222,1,0,0:0:0:0:
256,192,119337,1,0,0:0:0:0:
256,192,119453,1,8,0:0:0:0:
256,192,119510,1,8,0:0:0:0:
256,192,119568,1,8,0:0:0:0:
256,192,119626,1,8,0:0:0:0:
256,192,119684,1,0,0:0:0:0:
256,192,119799,1,8,0:0:0:0:
256,192,119857,1,0,0:0:0:0:
256,192,119914,1,0,0:0:0:0:
256,192,120030,1,8,0:0:0:0:
256,192,120145,1,0,0:0:0:0:
256,192,120203,1,0,0:0:0:0:
256,192,120260,1,0,0:0:0:0:
256,192,120376,1,8,0:0:0:0:
256,192,120434,1,8,0:0:0:0:
256,192,120491,1,0,0:0:0:0:
256,192,120607,1,8,0:0:0:0:
256,192,120664,1,0,0:0:0:0:
256,192,120722,1,8,0:0:0:0:
256,192,120780,1,8,0:0:0:0:
256,192,120837,1,0,0:0:0:0:
256,192,120953,1,8,0:0:0:0:
256,192,121010,1,8,0:0:0:0:
256,192,121068,1,8,0:0:0:0:
256,192,121184,1,0,0:0:0:0:
256,192,121241,1,0,0:0:0:0:
256,192,121299,1,8,0:0:0:0:
256,192,121357,1,0,0:0:0:0:
256,192,121414,1,8,0:0:0:0:
256,192,121472,1,8,0:0:0:0:
256,192,121530,1,0,0:0:0:0:
256,192,121645,1,0,0:0:0:0:
256,192,121760,1,8,0:0:0:0:
256,192,121818,1,8,0:0:0:0:
256,192,121876,1,0,0:0:0:0:
256,192,121991,1,8,0:0:0:0:
256,192,122068,1,8,0:0:0:0:
256,192,122145,1,8,0:0:0:0:
256,192,122222,1,4,0:0:0:0:
256,192,122453,1,8,0:0:0:0:
256,192,122568,1,0,0:0:0:0:
256,192,122626,1,0,0:0:0:0:
256,192,122684,1,0,0:0:0:0:
256,192,122799,1,8,0:0:0:0:
256,192,122857,1,8,0:0:0:0:
256,192,122914,1,0,0:0:0:0:
256,192,123030,1,8,0:0:0:0:
256,192,123087,1,8,0:0:0:0:
256,192,123145,1,8,0:0:0:0:
256,192,123203,1,8,0:0:0:0:
256,192,123260,1,0,0:0:0:0:
256,192,123318,1,0,0:0:0:0:
256,192,123376,1,8,0:0:0:0:
256,192,123434,1,0,0:0:0:0:
256,192,123491,1,0,0:0:0:0:
256,192,123549,1,0,0:0:0:0:
256,192,123607,1,8,0:0:0:0:
256,192,123722,1,0,0:0:0:0:
256,192,123837,1,8,0:0:0:0:
256,192,123895,1,8,0:0:0:0:
256,192,123953,1,8,0:0:0:0:
256,192,124010,1,8,0:0:0:0:
256,192,124068,1,0,0:0:0:0:
256,192,124184,1,0,0:0:0:0:
256,192,124299,1,8,0:0:0:0:
256,192,124357,1,8,0:0:0:0:
256,192,124414,1,0,0:0:0:0:
256,192,124472,1,0,0:0:0:0:
256,192,124530,1,8,0:0:0:0:
256,192,124645,1,0,0:0:0:0:
256,192,124703,1,0,0:0:0:0:
256,192,124760,1,0,0:0:0:0:
256,192,124876,1,8,0:0:0:0:
256,192,124934,1,8,0:0:0:0:
256,192,124991,1,0,0:0:0:0:
256,192,125049,1,8,0:0:0:0:
256,192,125107,1,0,0:0:0:0:
256,192,125164,1,0,0:0:0:0:
256,192,125222,1,8,0:0:0:0:
256,192,125337,1,0,0:0:0:0:
256,192,125453,1,8,0:0:0:0:
256,192,125510,1,8,0:0:0:0:
256,192,125568,1,0,0:0:0:0:
256,192,125626,1,0,0:0:0:0:
256,192,125684,1,8,0:0:0:0:
256,192,125799,1,8,0:0:0:0:
256,192,125914,1,4,0:0:0:0:
256,192,126030,1,8,0:0:0:0:
256,192,126087,1,8,0:0:0:0:
256,192,126145,1,0,0:0:0:0:
256,192,126260,1,0,0:0:0:0:
256,192,126376,1,8,0:0:0:0:
256,192,126434,1,8,0:0:0:0:
256,192,126491,1,8,0:0:0:0:
256,192,126607,1,0,0:0:0:0:
256,192,126722,1,0,0:0:0:0:
256,192,126837,1,8,0:0:0:0:
256,192,126895,1,8,0:0:0:0:
256,192,126953,1,0,0:0:0:0:
256,192,127068,1,8,0:0:0:0:
256,192,127184,1,0,0:0:0:0:
256,192,127299,1,8,0:0:0:0:
256,192,127357,1,0,0:0:0:0:
256,192,127414,1,0,0:0:0:0:
256,192,127472,1,0,0:0:0:0:
256,192,127530,1,8,0:0:0:0:
256,192,127645,1,0,0:0:0:0:
256,192,127760,1,8,0:0:0:0:
256,192,127876,1,0,0:0:0:0:
256,192,127934,1,0,0:0:0:0:
256,192,127991,1,8,0:0:0:0:
256,192,128107,1,0,0:0:0:0:
256,192,128222,1,8,0:0:0:0:
256,192,128280,1,8,0:0:0:0:
256,192,128337,1,0,0:0:0:0:
256,192,128395,1,0,0:0:0:0:
256,192,128453,1,8,0:0:0:0:
256,192,128568,1,0,0:0:0:0:
256,192,128684,1,8,0:0:0:0:
256,192,128914,1,0,0:0:0:0:
256,192,128991,1,0,0:0:0:0:
256,192,129068,1,0,0:0:0:0:
256,192,129145,1,8,0:0:0:0:
256,192,129260,1,0,0:0:0:0:
256,192,129376,1,8,0:0:0:0:
256,192,129491,1,8,0:0:0:0:
256,192,129607,1,4,0:0:0:0:
256,192,129722,1,8,0:0:0:0:
256,192,129780,1,8,0:0:0:0:
256,192,129837,1,8,0:0:0:0:
256,192,129953,1,0,0:0:0:0:
256,192,130068,1,8,0:0:0:0:
256,192,130126,1,8,0:0:0:0:
256,192,130184,1,0,0:0:0:0:
256,192,130241,1,0,0:0:0:0:
256,192,130299,1,8,0:0:0:0:
256,192,130414,1,0,0:0:0:0:
256,192,130530,1,8,0:0:0:0:
256,192,130587,1,8,0:0:0:0:
256,192,130645,1,0,0:0:0:0:
256,192,130760,1,0,0:0:0:0:
256,192,130876,1,8,0:0:0:0:
256,192,130934,1,8,0:0:0:0:
256,192,130991,1,8,0:0:0:0:
256,192,131107,1,0,0:0:0:0:
256,192,131222,1,8,0:0:0:0:
256,192,131280,1,0,0:0:0:0:
256,192,131337,1,0,0:0:0:0:
256,192,131395,1,0,0:0:0:0:
256,192,131453,1,8,0:0:0:0:
256,192,131510,1,8,0:0:0:0:
256,192,131568,1,0,0:0:0:0:
256,192,131684,1,8,0:0:0:0:
256,192,131741,1,0,0:0:0:0:
256,192,131799,1,8,0:0:0:0:
256,192,131857,1,8,0:0:0:0:
256,192,131914,1,0,0:0:0:0:
256,192,132030,1,8,0:0:0:0:
256,192,132087,1,8,0:0:0:0:
256,192,132145,1,8,0:0:0:0:
256,192,132260,1,0,0:0:0:0:
256,192,132318,1,0,0:0:0:0:
256,192,132376,1,8,0:0:0:0:
256,192,132491,1,0,0:0:0:0:
256,192,132607,1,8,0:0:0:0:
256,192,132664,1,8,0:0:0:0:
256,192,132722,1,0,0:0:0:0:
256,192,132780,1,0,0:0:0:0:
256,192,132837,1,8,0:0:0:0:
256,192,132953,1,0,0:0:0:0:
256,192,133068,1,8,0:0:0:0:
256,192,133126,1,8,0:0:0:0:
256,192,133184,1,0,0:0:0:0:
256,192,133299,1,8,0:0:0:0:
256,192,133357,1,8,0:0:0:0:
256,192,133414,1,8,0:0:0:0:
256,192,133472,1,8,0:0:0:0:
256,192,133530,1,0,0:0:0:0:
256,192,133645,1,8,0:0:0:0:
256,192,133760,1,0,0:0:0:0:
256,192,133818,1,0,0:0:0:0:
256,192,133876,1,0,0:0:0:0:
256,192,133991,1,8,0:0:0:0:
256,192,134107,1,0,0:0:0:0:
256,192,134222,1,8,0:0:0:0:
256,192,134280,1,0,0:0:0:0:
256,192,134337,1,0,0:0:0:0:
256,192,134395,1,0,0:0:0:0:
256,192,134453,1,8,0:0:0:0:
256,192,134568,1,0,0:0:0:0:
256,192,134626,1,0,0:0:0:0:
256,192,134684,1,8,0:0:0:0:
256,192,134799,1,0,0:0:0:0:
256,192,134914,1,8,0:0:0:0:
256,192,134972,1,8,0:0:0:0:
256,192,135030,1,8,0:0:0:0:
256,192,135145,1,0,0:0:0:0:
256,192,135203,1,0,0:0:0:0:
256,192,135260,1,0,0:0:0:0:
256,192,135376,1,8,0:0:0:0:
256,192,135434,1,0,0:0:0:0:
256,192,135491,1,8,0:0:0:0:
256,192,135549,1,8,0:0:0:0:
256,192,135607,1,0,0:0:0:0:
256,192,135722,1,8,0:0:0:0:
256,192,135780,1,0,0:0:0:0:
256,192,135837,1,0,0:0:0:0:
256,192,135953,1,8,0:0:0:0:
256,192,136010,1,8,0:0:0:0:
256,192,136068,1,0,0:0:0:0:
256,192,136126,1,8,0:0:0:0:
256,192,136184,1,0,0:0:0:0:
256,192,136241,1,0,0:0:0:0:
256,192,136299,1,8,0:0:0:0:
256,192,136414,1,0,0:0:0:0:
256,192,136530,1,8,0:0:0:0:
256,192,136587,1,8,0:0:0:0:
256,192,136645,1,0,0:0:0:0:
256,192,136760,1,8,0:0:0:0:
256,192,136837,1,8,0:0:0:0:
256,192,136914,1,8,0:0:0:0:
256,192,136991,1,4,0:0:0:0:
256,192,137222,1,8,0:0:0:0:
256,192,137337,1,8,0:0:0:0:
256,192,137395,1,8,0:0:0:0:
256,192,137453,1,0,0:0:0:0:
256,192,137568,1,8,0:0:0:0:
256,192,137626,1,0,0:0:0:0:
256,192,137684,1,0,0:0:0:0:
256,192,137799,1,8,0:0:0:0:
256,192,137857,1,8,0:0:0:0:
256,192,137914,1,8,0:0:0:0:
256,192,137972,1,8,0:0:0:0:
256,192,138030,1,0,0:0:0:0:
256,192,138087,1,0,0:0:0:0:
256,192,138145,1,8,0:0:0:0:
256,192,138203,1,0,0:0:0:0:
256,192,138260,1,0,0:0:0:0:
256,192,138318,1,0,0:0:0:0:
256,192,138376,1,8,0:0:0:0:
256,192,138491,1,0,0:0:0:0:
256,192,138607,1,0,0:0:0:0:
256,192,138664,1,0,0:0:0:0:
256,192,138722,1,8,0:0:0:0:
256,192,138837,1,8,0:0:0:0:
256,192,138895,1,8,0:0:0:0:
256,192,138953,1,0,0:0:0:0:
256,192,139068,1,8,0:0:0:0:
256,192,139126,1,0,0:0:0:0:
256,192,139184,1,8,0:0:0:0:
256,192,139241,1,8,0:0:0:0:
256,192,139299,1,0,0:0:0:0:
256,192,139414,1,8,0:0:0:0:
256,192,139472,1,8,0:0:0:0:
256,192,139530,1,8,0:0:0:0:
256,192,139645,1,0,0:0:0:0:
256,192,139703,1,0,0:0:0:0:
256,192,139760,1,8,0:0:0:0:
256,192,139818,1,8,0:0:0:0:
256,192,139876,1,0,0:0:0:0:
256,192,139991,1,8,0:0:0:0:
256,192,140107,1,0,0:0:0:0:
256,192,140222,1,8,0:0:0:0:
256,192,140280,1,8,0:0:0:0:
256,192,140337,1,0,0:0:0:0:
256,192,140395,1,0,0:0:0:0:
256,192,140453,1,8,0:0:0:0:
256,192,140510,1,0,0:0:0:0:
256,192,140568,1,8,0:0:0:0:
256,192,140626,1,8,0:0:0:0:
256,192,140684,1,4,0:0:0:0:
256,192,140799,1,0,0:0:0:0:
256,192,140857,1,0,0:0:0:0:
256,192,140914,1,8,0:0:0:0:
256,192,141030,1,0,0:0:0:0:
256,192,141145,1,8,0:0:0:0:
256,192,141203,1,8,0:0:0:0:
256,192,141260,1,0,0:0:0:0:
256,192,141318,1,0,0:0:0:0:
256,192,141376,1,8,0:0:0:0:
256,192,141491,1,0,0:0:0:0:
256,192,141607,1,8,0:0:0:0:
256,192,141664,1,8,0:0:0:0:
256,192,141722,1,0,0:0:0:0:
256,192,141837,1,8,0:0:0:0:
256,192,141953,1,0,0:0:0:0:
256,192,142010,1,0,0:0:0:0:
256,192,142068,1,8,0:0:0:0:
256,192,142184,1,0,0:0:0:0:
256,192,142299,1,8,0:0:0:0:
256,192,142414,1,8,0:0:0:0:
256,192,142530,1,4,0:0:0:0:
256,192,142645,12,0,144145,0:0:0:0:
256,192,144376,5,0,0:0:0:0:
256,192,144606,1,0,0:0:0:0:
256,192,144837,1,8,0:0:0:0:
256,192,145068,1,0,0:0:0:0:
256,192,145299,1,8,0:0:0:0:
256,192,145529,1,0,0:0:0:0:
256,192,145760,1,8,0:0:0:0:
256,192,145991,1,8,0:0:0:0:
256,192,146222,1,0,0:0:0:0:
256,192,146452,1,8,0:0:0:0:
256,192,146683,1,0,0:0:0:0:
256,192,146914,1,0,0:0:0:0:
256,192,147145,1,0,0:0:0:0:
256,192,147222,1,0,0:0:0:0:
256,192,147299,1,8,0:0:0:0:
256,192,147376,1,8,0:0:0:0:
256,192,147606,1,0,0:0:0:0:
256,192,148068,1,8,0:0:0:0:
256,192,148529,1,0,0:0:0:0:
256,192,148760,1,8,0:0:0:0:
256,192,148991,1,8,0:0:0:0:
256,192,149452,1,0,0:0:0:0:
256,192,149683,1,0,0:0:0:0:
256,192,149914,1,8,0:0:0:0:
256,192,150606,1,0,0:0:0:0:
256,192,150837,1,8,0:0:0:0:
256,192,151068,1,8,0:0:0:0:
256,192,151299,1,0,0:0:0:0:
256,192,151760,1,8,0:0:0:0:
256,192,152222,1,0,0:0:0:0:
256,192,152452,1,8,0:0:0:0:
256,192,152683,1,8,0:0:0:0:
256,192,153145,1,0,0:0:0:0:
256,192,153376,1,0,0:0:0:0:
256,192,153606,1,8,0:0:0:0:
256,192,154068,1,0,0:0:0:0:
256,192,154529,1,0,0:0:0:0:
256,192,154760,1,8,0:0:0:0:
256,192,154991,1,8,0:0:0:0:
256,192,155222,1,0,0:0:0:0:
256,192,155452,1,8,0:0:0:0:
256,192,155683,1,0,0:0:0:0:
256,192,155914,1,0,0:0:0:0:
256,192,156145,1,8,0:0:0:0:
256,192,156376,1,8,0:0:0:0:
256,192,156837,1,0,0:0:0:0:
256,192,157068,1,8,0:0:0:0:
256,192,157299,1,8,0:0:0:0:
256,192,157991,1,0,0:0:0:0:
256,192,158222,1,8,0:0:0:0:
256,192,158452,1,0,0:0:0:0:
256,192,158683,1,8,0:0:0:0:
256,192,159145,1,8,0:0:0:0:
256,192,159606,1,0,0:0:0:0:
256,192,159837,1,8,0:0:0:0:
256,192,160068,1,8,0:0:0:0:
256,192,160529,1,0,0:0:0:0:
256,192,160760,1,0,0:0:0:0:
256,192,160991,1,8,0:0:0:0:
256,192,161683,1,8,0:0:0:0:
256,192,161799,1,8,0:0:0:0:
256,192,161914,1,8,0:0:0:0:
256,192,162145,1,0,0:0:0:0:
256,192,162376,1,8,0:0:0:0:
256,192,162606,1,0,0:0:0:0:
256,96,162837,1,12,0:0:0:0:
256,192,163299,1,8,0:0:0:0:
256,192,163529,1,0,0:0:0:0:
256,192,163760,1,8,0:0:0:0:
256,192,163991,1,0,0:0:0:0:
256,192,164222,1,8,0:0:0:0:
256,192,164568,1,8,0:0:0:0:
256,192,164683,1,0,0:0:0:0:
256,192,164914,1,0,0:0:0:0:
256,192,165145,1,8,0:0:0:0:
256,192,165376,1,0,0:0:0:0:
256,192,165606,1,8,0:0:0:0:
256,192,165837,1,8,0:0:0:0:
256,192,166068,1,0,0:0:0:0:
256,192,166299,1,8,0:0:0:0:
256,96,166529,1,4,0:0:0:0:
256,192,166876,1,8,0:0:0:0:
256,192,167222,1,0,0:0:0:0:
256,192,167452,1,8,0:0:0:0:
256,192,167683,1,0,0:0:0:0:
256,192,167914,1,8,0:0:0:0:
256,192,168145,1,8,0:0:0:0:
256,192,168376,1,0,0:0:0:0:
256,192,168837,1,8,0:0:0:0:
256,192,169068,1,0,0:0:0:0:
256,192,169183,1,8,0:0:0:0:
256,192,169299,1,8,0:0:0:0:
256,192,169529,1,0,0:0:0:0:
256,192,169760,1,8,0:0:0:0:
256,192,169991,1,0,0:0:0:0:
256,192,170106,1,0,0:0:0:0:
256,96,170222,1,12,0:0:0:0:
256,192,170683,1,0,0:0:0:0:
256,192,170914,1,0,0:0:0:0:
256,192,171145,1,8,0:0:0:0:
256,192,171376,1,0,0:0:0:0:
256,192,171606,1,8,0:0:0:0:
256,192,171952,1,8,0:0:0:0:
256,192,172068,1,0,0:0:0:0:
256,192,172299,1,8,0:0:0:0:
256,192,172529,1,8,0:0:0:0:
256,192,172760,1,0,0:0:0:0:
256,192,172991,1,8,0:0:0:0:
256,192,173222,1,8,0:0:0:0:
256,192,173452,1,0,0:0:0:0:
256,192,173683,1,8,0:0:0:0:
256,96,173914,1,4,0:0:0:0:
256,192,174260,1,8,0:0:0:0:
256,192,174606,1,0,0:0:0:0:
256,192,174837,1,8,0:0:0:0:
256,192,175068,1,0,0:0:0:0:
256,192,175299,1,8,0:0:0:0:
256,192,175529,1,8,0:0:0:0:
256,192,175760,1,0,0:0:0:0:
256,192,176222,1,8,0:0:0:0:
256,192,176452,1,0,0:0:0:0:
256,192,176683,1,8,0:0:0:0:
256,192,176799,1,8,0:0:0:0:
256,192,177029,1,0,0:0:0:0:
256,192,177145,1,8,0:0:0:0:
256,192,177260,1,8,0:0:0:0:
256,192,177376,1,8,0:0:0:0:
256,96,177491,5,4,0:0:0:0:
256,192,177721,5,0,0:0:0:0:
256,192,177836,1,8,0:0:0:0:
256,192,177952,1,0,0:0:0:0:
256,192,178009,1,0,0:0:0:0:
256,192,178067,1,8,0:0:0:0:
256,192,178182,1,0,0:0:0:0:
256,192,178298,1,8,0:0:0:0:
256,192,178356,1,8,0:0:0:0:
256,192,178413,1,0,0:0:0:0:
256,192,178529,1,8,0:0:0:0:
256,192,178586,1,0,0:0:0:0:
256,192,178644,1,0,0:0:0:0:
256,192,178702,1,0,0:0:0:0:
256,192,178759,1,8,0:0:0:0:
256,192,178875,1,0,0:0:0:0:
256,192,178990,1,8,0:0:0:0:
256,192,179048,1,8,0:0:0:0:
256,192,179106,1,0,0:0:0:0:
256,192,179221,1,8,0:0:0:0:
256,192,179279,1,0,0:0:0:0:
256,192,179336,1,8,0:0:0:0:
256,192,179394,1,8,0:0:0:0:
256,192,179452,1,0,0:0:0:0:
256,192,179682,1,8,0:0:0:0:
256,192,179798,1,0,0:0:0:0:
256,192,179856,1,0,0:0:0:0:
256,192,179913,1,8,0:0:0:0:
256,192,180029,1,0,0:0:0:0:
256,192,180144,1,8,0:0:0:0:
256,192,180202,1,8,0:0:0:0:
256,192,180259,1,0,0:0:0:0:
256,192,180375,1,8,0:0:0:0:
256,192,180432,1,0,0:0:0:0:
256,192,180490,1,0,0:0:0:0:
256,192,180606,1,8,0:0:0:0:
256,192,180663,1,0,0:0:0:0:
256,192,180721,1,8,0:0:0:0:
256,192,180779,1,0,0:0:0:0:
256,192,180836,1,8,0:0:0:0:
256,192,180952,1,0,0:0:0:0:
256,192,181067,1,8,0:0:0:0:
256,192,181125,1,0,0:0:0:0:
256,192,181182,1,8,0:0:0:0:
256,192,181240,1,8,0:0:0:0:
256,192,181298,1,4,0:0:0:0:
256,192,181529,1,8,0:0:0:0:
256,192,181644,1,0,0:0:0:0:
256,192,181759,1,8,0:0:0:0:
256,192,181817,1,8,0:0:0:0:
256,192,181875,1,0,0:0:0:0:
256,192,181932,1,0,0:0:0:0:
256,192,181990,1,8,0:0:0:0:
256,192,182106,1,0,0:0:0:0:
256,192,182221,1,8,0:0:0:0:
256,192,182279,1,8,0:0:0:0:
256,192,182336,1,0,0:0:0:0:
256,192,182452,1,8,0:0:0:0:
256,192,182509,1,8,0:0:0:0:
256,192,182567,1,8,0:0:0:0:
256,192,182682,1,0,0:0:0:0:
256,192,182740,1,0,0:0:0:0:
256,192,182798,1,8,0:0:0:0:
256,192,182856,1,0,0:0:0:0:
256,192,182913,1,8,0:0:0:0:
256,192,183029,1,0,0:0:0:0:
256,192,183144,1,8,0:0:0:0:
256,192,183202,1,8,0:0:0:0:
256,192,183259,1,0,0:0:0:0:
256,192,183375,1,8,0:0:0:0:
256,192,183490,1,0,0:0:0:0:
256,192,183548,1,0,0:0:0:0:
256,192,183606,1,8,0:0:0:0:
256,192,183721,1,0,0:0:0:0:
256,192,183836,1,8,0:0:0:0:
256,192,183894,1,8,0:0:0:0:
256,192,183952,1,0,0:0:0:0:
256,192,184009,1,0,0:0:0:0:
256,192,184067,1,8,0:0:0:0:
256,192,184125,1,8,0:0:0:0:
256,192,184182,1,0,0:0:0:0:
256,192,184298,1,8,0:0:0:0:
256,192,184413,1,8,0:0:0:0:
256,192,184471,1,8,0:0:0:0:
256,192,184529,1,0,0:0:0:0:
256,192,184586,1,0,0:0:0:0:
256,192,184644,1,8,0:0:0:0:
256,192,184702,1,0,0:0:0:0:
256,192,184759,1,8,0:0:0:0:
256,192,184817,1,8,0:0:0:0:
256,192,184875,1,0,0:0:0:0:
256,192,184932,1,0,0:0:0:0:
256,192,184990,1,12,0:0:0:0:
256,192,185221,1,8,0:0:0:0:
256,192,185336,1,0,0:0:0:0:
256,192,185452,1,8,0:0:0:0:
256,192,185509,1,8,0:0:0:0:
256,192,185567,1,0,0:0:0:0:
256,192,185625,1,0,0:0:0:0:
256,192,185682,1,8,0:0:0:0:
256,192,185798,1,0,0:0:0:0:
256,192,185913,1,8,0:0:0:0:
256,192,186029,1,0,0:0:0:0:
256,192,186086,1,0,0:0:0:0:
256,192,186144,1,8,0:0:0:0:
256,192,186259,1,0,0:0:0:0:
256,192,186375,1,8,0:0:0:0:
256,192,186490,1,0,0:0:0:0:
256,192,186606,1,8,0:0:0:0:
256,192,186663,1,0,0:0:0:0:
256,192,186721,1,8,0:0:0:0:
256,192,186779,1,8,0:0:0:0:
256,192,186836,1,0,0:0:0:0:
256,192,186952,1,0,0:0:0:0:
256,192,187009,1,0,0:0:0:0:
256,192,187067,1,8,0:0:0:0:
256,192,187182,1,8,0:0:0:0:
256,192,187298,1,0,0:0:0:0:
256,192,187413,1,8,0:0:0:0:
256,192,187529,1,0,0:0:0:0:
256,192,187586,1,8,0:0:0:0:
256,192,187644,1,0,0:0:0:0:
256,192,187702,1,0,0:0:0:0:
256,192,187759,1,8,0:0:0:0:
256,192,187875,1,0,0:0:0:0:
256,192,187932,1,0,0:0:0:0:
256,192,187990,1,8,0:0:0:0:
256,192,188106,1,0,0:0:0:0:
256,192,188221,1,8,0:0:0:0:
256,192,188279,1,8,0:0:0:0:
256,192,188336,1,8,0:0:0:0:
256,192,188394,1,8,0:0:0:0:
256,192,188452,1,0,0:0:0:0:
256,192,188567,1,8,0:0:0:0:
256,192,188682,1,4,0:0:0:0:
256,192,188798,1,8,0:0:0:0:
256,192,188913,1,0,0:0:0:0:
256,192,188971,1,0,0:0:0:0:
256,192,189029,1,8,0:0:0:0:
256,192,189086,1,0,0:0:0:0:
256,192,189144,1,8,0:0:0:0:
256,192,189259,1,0,0:0:0:0:
256,192,189375,1,8,0:0:0:0:
256,192,189490,1,0,0:0:0:0:
256,192,189548,1,0,0:0:0:0:
256,192,189606,1,8,0:0:0:0:
256,192,189721,1,0,0:0:0:0:
256,192,189836,1,8,0:0:0:0:
256,192,189894,1,8,0:0:0:0:
256,192,189952,1,0,0:0:0:0:
256,192,190067,1,8,0:0:0:0:
256,192,190182,1,0,0:0:0:0:
256,192,190298,1,8,0:0:0:0:
256,192,190356,1,8,0:0:0:0:
256,192,190413,1,8,0:0:0:0:
256,192,190471,1,8,0:0:0:0:
256,192,190529,1,0,0:0:0:0:
256,192,190644,1,0,0:0:0:0:
256,192,190759,1,8,0:0:0:0:
256,192,190817,1,8,0:0:0:0:
256,192,190875,1,0,0:0:0:0:
256,192,190932,1,0,0:0:0:0:
256,192,190990,1,8,0:0:0:0:
256,192,191048,1,0,0:0:0:0:
256,192,191106,1,0,0:0:0:0:
256,192,191163,1,0,0:0:0:0:
256,192,191221,1,8,0:0:0:0:
256,192,191279,1,0,0:0:0:0:
256,192,191336,1,8,0:0:0:0:
256,192,191394,1,8,0:0:0:0:
256,192,191452,1,0,0:0:0:0:
256,192,191509,1,0,0:0:0:0:
256,192,191567,1,8,0:0:0:0:
256,192,191682,1,8,0:0:0:0:
256,192,191740,1,8,0:0:0:0:
256,192,191798,1,0,0:0:0:0:
256,192,191913,1,0,0:0:0:0:
256,192,191971,1,0,0:0:0:0:
256,192,192029,1,8,0:0:0:0:
256,192,192086,1,0,0:0:0:0:
256,192,192144,1,8,0:0:0:0:
256,192,192202,1,8,0:0:0:0:
256,192,192259,1,0,0:0:0:0:
256,192,192317,1,0,0:0:0:0:
256,192,192375,1,12,0:0:0:0:
256,192,192606,1,8,0:0:0:0:
256,192,192721,1,0,0:0:0:0:
256,192,192836,1,8,0:0:0:0:
256,192,192952,1,0,0:0:0:0:
256,192,193009,1,0,0:0:0:0:
256,192,193067,1,8,0:0:0:0:
256,192,193182,1,0,0:0:0:0:
256,192,193298,1,8,0:0:0:0:
256,192,193356,1,8,0:0:0:0:
256,192,193413,1,0,0:0:0:0:
256,192,193471,1,0,0:0:0:0:
256,192,193529,1,8,0:0:0:0:
256,192,193644,1,0,0:0:0:0:
256,192,193759,1,8,0:0:0:0:
256,192,193817,1,8,0:0:0:0:
256,192,193875,1,0,0:0:0:0:
256,192,193932,1,8,0:0:0:0:
256,192,193990,1,0,0:0:0:0:
256,192,194048,1,0,0:0:0:0:
256,192,194106,1,8,0:0:0:0:
256,192,194221,1,0,0:0:0:0:
256,192,194279,1,0,0:0:0:0:
256,192,194336,1,8,0:0:0:0:
256,192,194394,1,0,0:0:0:0:
256,192,194452,1,8,0:0:0:0:
256,192,194567,1,0,0:0:0:0:
256,192,194682,1,8,0:0:0:0:
256,192,194740,1,8,0:0:0:0:
256,192,194798,1,0,0:0:0:0:
256,192,194856,1,0,0:0:0:0:
256,192,194913,1,8,0:0:0:0:
256,192,195029,1,8,0:0:0:0:
256,192,195144,1,0,0:0:0:0:
256,192,195202,1,0,0:0:0:0:
256,192,195259,1,8,0:0:0:0:
256,192,195317,1,0,0:0:0:0:
256,192,195375,1,8,0:0:0:0:
256,192,195432,1,8,0:0:0:0:
256,192,195490,1,0,0:0:0:0:
256,192,195548,1,0,0:0:0:0:
256,192,195606,1,8,0:0:0:0:
256,192,195721,1,0,0:0:0:0:
256,192,195836,1,8,0:0:0:0:
256,192,195894,1,8,0:0:0:0:
256,192,195952,1,8,0:0:0:0:
256,192,196009,1,8,0:0:0:0:
256,192,196067,1,4,0:0:0:0:
256,192,196182,1,0,0:0:0:0:
256,192,196240,1,0,0:0:0:0:
256,192,196298,1,8,0:0:0:0:
256,192,196413,1,0,0:0:0:0:
256,192,196529,1,8,0:0:0:0:
256,192,196586,1,8,0:0:0:0:
256,192,196644,1,0,0:0:0:0:
256,192,196759,1,8,0:0:0:0:
256,192,196817,1,0,0:0:0:0:
256,192,196875,1,0,0:0:0:0:
256,192,196932,1,0,0:0:0:0:
256,192,196990,1,8,0:0:0:0:
256,192,197106,1,0,0:0:0:0:
256,192,197221,1,8,0:0:0:0:
256,192,197279,1,8,0:0:0:0:
256,192,197336,1,8,0:0:0:0:
256,192,197394,1,8,0:0:0:0:
256,192,197452,1,0,0:0:0:0:
256,192,197567,1,0,0:0:0:0:
256,192,197682,1,8,0:0:0:0:
256,192,197740,1,8,0:0:0:0:
256,192,197798,1,0,0:0:0:0:
256,192,197856,1,0,0:0:0:0:
256,192,197913,1,8,0:0:0:0:
256,192,197971,1,0,0:0:0:0:
256,192,198029,1,0,0:0:0:0:
256,192,198086,1,0,0:0:0:0:
256,192,198144,1,8,0:0:0:0:
256,192,198259,1,0,0:0:0:0:
256,192,198375,1,8,0:0:0:0:
256,192,198432,1,8,0:0:0:0:
256,192,198490,1,0,0:0:0:0:
256,192,198548,1,0,0:0:0:0:
256,192,198606,1,8,0:0:0:0:
256,192,198663,1,0,0:0:0:0:
256,192,198721,1,8,0:0:0:0:
256,192,198779,1,8,0:0:0:0:
256,192,198836,1,0,0:0:0:0:
256,192,198952,1,0,0:0:0:0:
256,192,199067,1,8,0:0:0:0:
256,192,199125,1,8,0:0:0:0:
256,192,199182,1,0,0:0:0:0:
256,192,199298,1,8,0:0:0:0:
256,192,199356,1,8,0:0:0:0:
256,192,199413,1,0,0:0:0:0:
256,192,199471,1,0,0:0:0:0:
256,192,199529,1,8,0:0:0:0:
256,192,199586,1,0,0:0:0:0:
256,192,199644,1,8,0:0:0:0:
256,192,199759,1,0,0:0:0:0:
256,192,199990,1,12,0:0:0:0:
256,192,200221,1,8,0:0:0:0:
256,192,200336,1,0,0:0:0:0:
256,192,200452,1,8,0:0:0:0:
256,192,200509,1,0,0:0:0:0:
256,192,200567,1,0,0:0:0:0:
256,192,200625,1,0,0:0:0:0:
256,192,200682,1,8,0:0:0:0:
256,192,200798,1,0,0:0:0:0:
256,192,200913,1,8,0:0:0:0:
256,192,201029,1,0,0:0:0:0:
256,192,201086,1,0,0:0:0:0:
256,192,201144,1,8,0:0:0:0:
256,192,201259,1,0,0:0:0:0:
256,192,201375,1,8,0:0:0:0:
256,192,201432,1,8,0:0:0:0:
256,192,201490,1,0,0:0:0:0:
256,192,201548,1,0,0:0:0:0:
256,192,201606,1,8,0:0:0:0:
256,192,201721,1,0,0:0:0:0:
256,192,201836,1,8,0:0:0:0:
256,192,201894,1,0,0:0:0:0:
256,192,201952,1,0,0:0:0:0:
256,192,202067,1,8,0:0:0:0:
256,192,202125,1,8,0:0:0:0:
256,192,202182,1,8,0:0:0:0:
256,192,202240,1,8,0:0:0:0:
256,192,202298,1,0,0:0:0:0:
256,192,202356,1,0,0:0:0:0:
256,192,202413,1,8,0:0:0:0:
256,192,202471,1,0,0:0:0:0:
256,192,202529,1,8,0:0:0:0:
256,192,202644,1,0,0:0:0:0:
256,192,202759,1,8,0:0:0:0:
256,192,202817,1,0,0:0:0:0:
256,192,202875,1,0,0:0:0:0:
256,192,202932,1,0,0:0:0:0:
256,192,202990,1,8,0:0:0:0:
256,192,203048,1,8,0:0:0:0:
256,192,203106,1,8,0:0:0:0:
256,192,203163,1,8,0:0:0:0:
256,192,203221,1,0,0:0:0:0:
256,192,203279,1,8,0:0:0:0:
256,192,203336,1,0,0:0:0:0:
256,192,203394,1,0,0:0:0:0:
256,192,203452,1,12,0:0:0:0:
256,192,203682,1,8,0:0:0:0:
256,192,203798,1,0,0:0:0:0:
256,192,203856,1,0,0:0:0:0:
256,192,203913,1,8,0:0:0:0:
256,192,204029,1,0,0:0:0:0:
256,192,204144,1,8,0:0:0:0:
256,192,204202,1,8,0:0:0:0:
256,192,204259,1,0,0:0:0:0:
256,192,204375,1,8,0:0:0:0:
256,192,204432,1,0,0:0:0:0:
256,192,204490,1,8,0:0:0:0:
256,192,204548,1,8,0:0:0:0:
256,192,204606,1,0,0:0:0:0:
256,192,204663,1,8,0:0:0:0:
256,192,204721,1,0,0:0:0:0:
256,192,204779,1,0,0:0:0:0:
256,192,204836,1,8,0:0:0:0:
256,192,204894,1,0,0:0:0:0:
256,192,204952,1,0,0:0:0:0:
256,192,205009,1,0,0:0:0:0:
256,192,205067,1,8,0:0:0:0:
256,192,205125,1,0,0:0:0:0:
256,192,205182,1,8,0:0:0:0:
256,192,205240,1,8,0:0:0:0:
256,192,205298,1,0,0:0:0:0:
256,192,205413,1,8,0:0:0:0:
256,192,205529,1,0,0:0:0:0:
256,192,205586,1,8,0:0:0:0:
256,192,205644,1,0,0:0:0:0:
256,192,205702,1,0,0:0:0:0:
256,192,205759,1,8,0:0:0:0:
256,192,205875,1,0,0:0:0:0:
256,192,205990,1,8,0:0:0:0:
256,192,206048,1,8,0:0:0:0:
256,192,206106,1,0,0:0:0:0:
256,192,206163,1,0,0:0:0:0:
256,192,206221,1,8,0:0:0:0:
256,192,206279,1,8,0:0:0:0:
256,192,206336,1,8,0:0:0:0:
256,192,206394,1,8,0:0:0:0:
256,192,206452,1,0,0:0:0:0:
256,192,206567,1,0,0:0:0:0:
256,192,206682,1,8,0:0:0:0:
256,192,206740,1,0,0:0:0:0:
256,192,206798,1,8,0:0:0:0:
256,192,206856,1,0,0:0:0:0:
256,192,206913,1,8,0:0:0:0:
256,192,207029,1,0,0:0:0:0:
256,192,207144,1,12,0:0:0:0:
256,192,207259,12,0,210605,0:0:0:0:
256,192,210836,12,0,214297,0:0:0:0:
256,192,214528,5,8,0:0:0:0:
256,192,214990,1,8,0:0:0:0:
256,192,215451,1,0,0:0:0:0:
256,192,215913,1,0,0:0:0:0:
256,192,216374,1,8,0:0:0:0:
256,192,216836,1,0,0:0:0:0:
256,192,217297,1,8,0:0:0:0:
256,192,217759,1,0,0:0:0:0:
256,192,218220,1,8,0:0:0:0:
256,192,218682,1,8,0:0:0:0:
256,192,219144,1,8,0:0:0:0:
256,192,219605,1,8,0:0:0:0:
256,192,220067,1,0,0:0:0:0:
256,192,220528,1,0,0:0:0:0:
256,192,220990,1,0,0:0:0:0:
256,192,221451,1,0,0:0:0:0:
256,192,221913,1,8,0:0:0:0:
256,192,222374,1,8,0:0:0:0:
256,192,222836,1,8,0:0:0:0:
256,192,222951,1,8,0:0:0:0:
256,192,223067,1,8,0:0:0:0:
256,192,223182,1,8,0:0:0:0:
256,192,223297,1,8,0:0:0:0:
256,192,223528,1,0,0:0:0:0:
256,192,223644,1,0,0:0:0:0:
256,96,223759,1,12,0:0:0:0:
256,192,223989,1,8,0:0:0:0:
256,192,224105,1,0,0:0:0:0:
256,192,224220,1,8,0:0:0:0:
256,192,224297,1,0,0:0:0:0:
256,192,224374,1,0,0:0:0:0:
256,192,224451,1,8,0:0:0:0:
256,192,224682,1,0,0:0:0:0:
256,192,224912,1,8,0:0:0:0:
256,192,225028,1,0,0:0:0:0:
256,192,225143,1,8,0:0:0:0:
256,192,225259,1,8,0:0:0:0:
256,192,225374,1,8,0:0:0:0:
256,192,225489,1,8,0:0:0:0:
256,96,225605,1,4,0:0:0:0:
256,192,225835,1,0,0:0:0:0:
256,192,225951,1,8,0:0:0:0:
256,192,226066,1,0,0:0:0:0:
256,192,226143,1,0,0:0:0:0:
256,192,226220,1,0,0:0:0:0:
256,192,226297,1,8,0:0:0:0:
256,192,226528,1,0,0:0:0:0:
256,192,226759,1,8,0:0:0:0:
256,192,226874,1,0,0:0:0:0:
256,192,226989,1,8,0:0:0:0:
256,192,227105,1,8,0:0:0:0:
256,192,227220,1,8,0:0:0:0:
256,192,227335,1,8,0:0:0:0:
256,96,227451,1,4,0:0:0:0:
256,192,227682,1,8,0:0:0:0:
256,192,227797,1,0,0:0:0:0:
256,192,227912,1,8,0:0:0:0:
256,192,227989,1,8,0:0:0:0:
256,192,228066,1,8,0:0:0:0:
256,192,228143,1,0,0:0:0:0:
256,192,228374,1,0,0:0:0:0:
256,192,228605,1,8,0:0:0:0:
256,192,228720,1,0,0:0:0:0:
256,192,228835,1,8,0:0:0:0:
256,192,228951,1,8,0:0:0:0:
256,192,229066,1,8,0:0:0:0:
256,192,229182,1,8,0:0:0:0:
256,96,229297,1,4,0:0:0:0:
256,192,229528,1,0,0:0:0:0:
256,192,229643,1,8,0:0:0:0:
256,192,229759,1,0,0:0:0:0:
256,192,229835,1,8,0:0:0:0:
256,192,229912,1,8,0:0:0:0:
256,192,229989,1,0,0:0:0:0:
256,192,230220,1,0,0:0:0:0:
256,192,230451,1,8,0:0:0:0:
256,192,230566,1,0,0:0:0:0:
256,192,230682,1,8,0:0:0:0:
256,192,230797,5,8,0:0:0:0:
256,192,230912,1,8,0:0:0:0:
256,192,231028,1,8,0:0:0:0:
256,192,231143,5,4,0:0:0:0:
256,192,231374,1,8,0:0:0:0:
256,192,231489,1,0,0:0:0:0:
256,192,231547,1,0,0:0:0:0:
256,192,231605,1,8,0:0:0:0:
256,192,231720,1,0,0:0:0:0:
256,192,231835,1,8,0:0:0:0:
256,192,231893,1,8,0:0:0:0:
256,192,231951,1,0,0:0:0:0:
256,192,232009,1,0,0:0:0:0:
256,192,232066,1,8,0:0:0:0:
256,192,232182,1,0,0:0:0:0:
256,192,232239,1,0,0:0:0:0:
256,192,232297,1,8,0:0:0:0:
256,192,232412,1,0,0:0:0:0:
256,192,232528,1,8,0:0:0:0:
256,192,232585,1,0,0:0:0:0:
256,192,232643,1,8,0:0:0:0:
256,192,232701,1,8,0:0:0:0:
256,192,232759,1,0,0:0:0:0:
256,192,232874,1,8,0:0:0:0:
256,192,232989,1,0,0:0:0:0:
256,192,233047,1,0,0:0:0:0:
256,192,233105,1,0,0:0:0:0:
256,192,233220,1,8,0:0:0:0:
256,192,233335,1,0,0:0:0:0:
256,192,233451,1,8,0:0:0:0:
256,192,233509,1,8,0:0:0:0:
256,192,233566,1,0,0:0:0:0:
256,192,233682,1,8,0:0:0:0:
256,192,233797,1,0,0:0:0:0:
256,192,233855,1,0,0:0:0:0:
256,192,233912,1,8,0:0:0:0:
256,192,234028,1,0,0:0:0:0:
256,192,234143,1,8,0:0:0:0:
256,192,234259,1,0,0:0:0:0:
256,192,234316,1,0,0:0:0:0:
256,192,234374,1,8,0:0:0:0:
256,192,234432,1,0,0:0:0:0:
256,192,234489,1,0,0:0:0:0:
256,192,234547,1,0,0:0:0:0:
256,192,234605,1,8,0:0:0:0:
256,192,234720,1,0,0:0:0:0:
256,192,234835,1,8,0:0:0:0:
256,192,235066,1,0,0:0:0:0:
256,192,235182,1,0,0:0:0:0:
256,192,235297,1,8,0:0:0:0:
256,192,235412,1,0,0:0:0:0:
256,192,235528,1,0,0:0:0:0:
256,192,235643,1,0,0:0:0:0:
256,192,235759,1,8,0:0:0:0:
256,192,235989,1,0,0:0:0:0:
256,192,236105,1,0,0:0:0:0:
256,192,236220,1,8,0:0:0:0:
256,192,236335,1,0,0:0:0:0:
256,192,236393,1,0,0:0:0:0:
256,192,236451,1,8,0:0:0:0:
256,192,236566,1,0,0:0:0:0:
256,192,236682,1,8,0:0:0:0:
256,192,236912,1,0,0:0:0:0:
256,192,237028,1,0,0:0:0:0:
256,192,237143,1,8,0:0:0:0:
256,192,237259,1,0,0:0:0:0:
256,192,237374,1,0,0:0:0:0:
256,192,237489,1,0,0:0:0:0:
256,192,237605,1,8,0:0:0:0:
256,192,237835,1,8,0:0:0:0:
256,192,237951,1,0,0:0:0:0:
256,192,238066,1,8,0:0:0:0:
256,192,238182,1,0,0:0:0:0:
256,192,238239,1,0,0:0:0:0:
256,192,238297,1,8,0:0:0:0:
256,192,238412,1,8,0:0:0:0:
256,192,238528,1,4,0:0:0:0:
256,192,238759,1,8,0:0:0:0:
256,192,238874,1,8,0:0:0:0:
256,192,238989,1,0,0:0:0:0:
256,192,239066,1,0,0:0:0:0:
256,192,239143,1,8,0:0:0:0:
256,192,239220,1,8,0:0:0:0:
256,192,239335,1,0,0:0:0:0:
256,192,239451,1,8,0:0:0:0:
256,192,239682,1,8,0:0:0:0:
256,192,239797,1,0,0:0:0:0:
256,192,239855,1,0,0:0:0:0:
256,192,239912,1,8,0:0:0:0:
256,192,240028,1,8,0:0:0:0:
256,192,240143,1,8,0:0:0:0:
256,192,240259,1,8,0:0:0:0:
256,192,240374,1,0,0:0:0:0:
256,192,240605,1,0,0:0:0:0:
256,192,240720,1,0,0:0:0:0:
256,192,240835,1,8,0:0:0:0:
256,192,240912,1,8,0:0:0:0:
256,192,240989,1,8,0:0:0:0:
256,192,241066,1,8,0:0:0:0:
256,192,241182,1,0,0:0:0:0:
256,192,241297,1,8,0:0:0:0:
256,192,241528,1,8,0:0:0:0:
256,192,241759,1,0,0:0:0:0:
256,192,241874,1,8,0:0:0:0:
256,192,241989,1,8,0:0:0:0:
256,192,242105,1,8,0:0:0:0:
256,192,242220,1,4,0:0:0:0:
256,192,242451,1,0,0:0:0:0:
256,192,242566,1,0,0:0:0:0:
256,192,242682,1,8,0:0:0:0:
256,192,242759,1,0,0:0:0:0:
256,192,242835,1,0,0:0:0:0:
256,192,242912,1,8,0:0:0:0:
256,192,243028,1,0,0:0:0:0:
256,192,243143,1,8,0:0:0:0:
256,192,243374,1,8,0:0:0:0:
256,192,243489,1,0,0:0:0:0:
256,192,243547,1,0,0:0:0:0:
256,192,243605,1,8,0:0:0:0:
256,192,243720,1,8,0:0:0:0:
256,192,243835,1,8,0:0:0:0:
256,192,243951,1,8,0:0:0:0:
256,192,244066,1,4,0:0:0:0:
256,192,244297,1,8,0:0:0:0:
256,192,244412,1,0,0:0:0:0:
256,192,244528,1,8,0:0:0:0:
256,192,244605,1,8,0:0:0:0:
256,192,244682,1,8,0:0:0:0:
256,192,244759,1,8,0:0:0:0:
256,192,244874,1,0,0:0:0:0:
256,192,244989,1,8,0:0:0:0:
256,192,245220,1,8,0:0:0:0:
256,192,245451,1,0,0:0:0:0:
256,192,245566,1,8,0:0:0:0:
256,192,245682,1,8,0:0:0:0:
256,192,245797,1,8,0:0:0:0:
256,192,245912,1,4,0:0:0:0:
256,192,246143,1,8,0:0:0:0:
256,192,246259,1,0,0:0:0:0:
256,192,246316,1,0,0:0:0:0:
256,192,246374,1,8,0:0:0:0:
256,192,246489,1,0,0:0:0:0:
256,192,246605,1,8,0:0:0:0:
256,192,246662,1,8,0:0:0:0:
256,192,246720,1,0,0:0:0:0:
256,192,246778,1,0,0:0:0:0:
256,192,246835,1,8,0:0:0:0:
256,192,246951,1,0,0:0:0:0:
256,192,247009,1,0,0:0:0:0:
256,192,247066,1,8,0:0:0:0:
256,192,247182,1,0,0:0:0:0:
256,192,247297,1,8,0:0:0:0:
256,192,247355,1,0,0:0:0:0:
256,192,247412,1,0,0:0:0:0:
256,192,247470,1,0,0:0:0:0:
256,192,247528,1,8,0:0:0:0:
256,192,247643,1,8,0:0:0:0:
256,192,247759,1,0,0:0:0:0:
256,192,247816,1,0,0:0:0:0:
256,192,247874,1,0,0:0:0:0:
256,192,247989,1,8,0:0:0:0:
256,192,248105,1,0,0:0:0:0:
256,192,248220,1,8,0:0:0:0:
256,192,248278,1,0,0:0:0:0:
256,192,248335,1,0,0:0:0:0:
256,192,248451,1,8,0:0:0:0:
256,192,248566,1,0,0:0:0:0:
256,192,248682,1,8,0:0:0:0:
256,192,248739,1,8,0:0:0:0:
256,192,248797,1,0,0:0:0:0:
256,192,248912,1,8,0:0:0:0:
256,192,249028,1,0,0:0:0:0:
256,192,249143,1,8,0:0:0:0:
256,192,249201,1,8,0:0:0:0:
256,192,249259,1,0,0:0:0:0:
256,192,249316,1,0,0:0:0:0:
256,192,249374,1,8,0:0:0:0:
256,192,249489,1,0,0:0:0:0:
256,192,249605,1,8,0:0:0:0:
256,192,249835,1,0,0:0:0:0:
256,192,249951,1,0,0:0:0:0:
256,192,250066,1,8,0:0:0:0:
256,192,250182,1,0,0:0:0:0:
256,192,250297,1,0,0:0:0:0:
256,192,250412,1,0,0:0:0:0:
256,192,250528,1,8,0:0:0:0:
256,192,250759,1,0,0:0:0:0:
256,192,250874,1,0,0:0:0:0:
256,192,250989,1,8,0:0:0:0:
256,192,251105,1,0,0:0:0:0:
256,192,251162,1,0,0:0:0:0:
256,192,251220,1,8,0:0:0:0:
256,192,251335,1,0,0:0:0:0:
256,192,251451,1,12,0:0:0:0:
256,192,251682,1,0,0:0:0:0:
256,192,251797,1,0,0:0:0:0:
256,192,251912,1,8,0:0:0:0:
256,192,252028,1,8,0:0:0:0:
256,192,252143,1,8,0:0:0:0:
256,192,252259,1,8,0:0:0:0:
256,192,252374,1,8,0:0:0:0:
256,96,253297,1,12,0:0:0:0:
256,192,253412,1,0,0:0:0:0:
256,192,253470,1,0,0:0:0:0:
256,192,253528,1,8,0:0:0:0:
256,192,253643,1,0,0:0:0:0:
256,192,253759,1,8,0:0:0:0:
256,192,253816,1,8,0:0:0:0:
256,192,253874,1,0,0:0:0:0:
256,192,253932,1,0,0:0:0:0:
256,192,253989,1,8,0:0:0:0:
256,192,254105,1,0,0:0:0:0:
256,192,254220,1,8,0:0:0:0:
256,192,254278,1,8,0:0:0:0:
256,192,254335,1,0,0:0:0:0:
256,192,254393,1,0,0:0:0:0:
256,192,254451,1,0,0:0:0:0:
256,192,254566,1,8,0:0:0:0:
256,192,254624,1,8,0:0:0:0:
256,192,254682,1,8,0:0:0:0:
256,192,254739,1,8,0:0:0:0:
256,192,254797,1,0,0:0:0:0:
256,192,254912,1,8,0:0:0:0:
256,192,254970,1,0,0:0:0:0:
256,192,255028,1,0,0:0:0:0:
256,192,255085,1,0,0:0:0:0:
256,192,255143,1,8,0:0:0:0:
256,192,255201,1,8,0:0:0:0:
256,192,255259,1,0,0:0:0:0:
256,192,255374,1,8,0:0:0:0:
256,192,255432,1,0,0:0:0:0:
256,192,255489,1,8,0:0:0:0:
256,192,255547,1,8,0:0:0:0:
256,192,255605,1,0,0:0:0:0:
256,192,255720,1,8,0:0:0:0:
256,192,255778,1,8,0:0:0:0:
256,192,255835,1,8,0:0:0:0:
256,192,255951,1,0,0:0:0:0:
256,192,256009,1,0,0:0:0:0:
256,192,256066,1,8,0:0:0:0:
256,192,256182,1,0,0:0:0:0:
256,192,256297,1,8,0:0:0:0:
256,192,256355,1,8,0:0:0:0:
256,192,256412,1,0,0:0:0:0:
256,192,256470,1,0,0:0:0:0:
256,192,256528,1,8,0:0:0:0:
256,192,256585,1,0,0:0:0:0:
256,192,256643,1,0,0:0:0:0:
256,192,256701,1,0,0:0:0:0:
256,192,256759,1,8,0:0:0:0:
256,192,256874,1,8,0:0:0:0:
256,192,256989,1,0,0:0:0:0:
256,192,257047,1,0,0:0:0:0:
256,192,257105,1,0,0:0:0:0:
256,192,257162,1,0,0:0:0:0:
256,192,257220,1,8,0:0:0:0:
256,192,257335,1,0,0:0:0:0:
256,192,257451,1,8,0:0:0:0:
256,192,257509,1,0,0:0:0:0:
256,192,257566,1,0,0:0:0:0:
256,192,257624,1,0,0:0:0:0:
256,192,257682,1,8,0:0:0:0:
256,192,257797,1,0,0:0:0:0:
256,192,257912,1,8,0:0:0:0:
256,192,257970,1,8,0:0:0:0:
256,192,258028,1,8,0:0:0:0:
256,192,258085,1,8,0:0:0:0:
256,192,258143,1,0,0:0:0:0:
256,192,258259,1,8,0:0:0:0:
256,192,258316,1,8,0:0:0:0:
256,192,258374,1,0,0:0:0:0:
256,192,258432,1,0,0:0:0:0:
256,192,258489,1,8,0:0:0:0:
256,192,258605,1,0,0:0:0:0:
256,192,258662,1,0,0:0:0:0:
256,192,258720,1,0,0:0:0:0:
256,192,258835,1,8,0:0:0:0:
256,192,258893,1,8,0:0:0:0:
256,192,258951,1,0,0:0:0:0:
256,192,259009,1,0,0:0:0:0:
256,192,259066,1,8,0:0:0:0:
256,192,259124,1,0,0:0:0:0:
256,192,259182,1,8,0:0:0:0:
256,192,259239,1,8,0:0:0:0:
256,192,259297,1,0,0:0:0:0:
256,192,259412,1,8,0:0:0:0:
256,192,259470,1,8,0:0:0:0:
256,192,259528,1,8,0:0:0:0:
256,192,259643,1,0,0:0:0:0:
256,192,259701,1,0,0:0:0:0:
256,192,259759,1,8,0:0:0:0:
256,192,259816,1,0,0:0:0:0:
256,192,259874,1,8,0:0:0:0:
256,192,259932,1,8,0:0:0:0:
256,192,259989,1,0,0:0:0:0:
256,192,260105,1,0,0:0:0:0:
256,192,260220,1,8,0:0:0:0:
256,192,260278,1,8,0:0:0:0:
256,192,260335,1,0,0:0:0:0:
256,192,260451,1,8,0:0:0:0:
256,192,260528,1,8,0:0:0:0:
256,192,260605,1,8,0:0:0:0:
256,96,260682,1,4,0:0:0:0:
256,192,260912,1,8,0:0:0:0:
256,192,261028,1,0,0:0:0:0:
256,192,261085,1,0,0:0:0:0:
256,192,261143,1,8,0:0:0:0:
256,192,261259,1,0,0:0:0:0:
256,192,261374,1,8,0:0:0:0:
256,192,261432,1,0,0:0:0:0:
256,192,261489,1,8,0:0:0:0:
256,192,261547,1,8,0:0:0:0:
256,192,261605,1,0,0:0:0:0:
256,192,261662,1,0,0:0:0:0:
256,192,261720,1,8,0:0:0:0:
256,192,261835,1,0,0:0:0:0:
256,192,261893,1,0,0:0:0:0:
256,192,261951,1,0,0:0:0:0:
256,192,262066,1,8,0:0:0:0:
256,192,262182,1,0,0:0:0:0:
256,192,262297,1,8,0:0:0:0:
256,192,262355,1,8,0:0:0:0:
256,192,262412,1,0,0:0:0:0:
256,192,262470,1,8,0:0:0:0:
256,192,262528,1,0,0:0:0:0:
256,192,262585,1,0,0:0:0:0:
256,192,262643,1,8,0:0:0:0:
256,192,262759,1,0,0:0:0:0:
256,192,262874,1,8,0:0:0:0:
256,192,262932,1,8,0:0:0:0:
256,192,262989,1,8,0:0:0:0:
256,192,263047,1,8,0:0:0:0:
256,192,263105,1,0,0:0:0:0:
256,192,263162,1,0,0:0:0:0:
256,192,263220,1,8,0:0:0:0:
256,192,263278,1,0,0:0:0:0:
256,192,263335,1,8,0:0:0:0:
256,192,263451,1,0,0:0:0:0:
256,192,263566,1,8,0:0:0:0:
256,192,263624,1,8,0:0:0:0:
256,192,263682,1,0,0:0:0:0:
256,192,263797,1,8,0:0:0:0:
256,192,263912,1,0,0:0:0:0:
256,192,263970,1,0,0:0:0:0:
256,192,264028,1,8,0:0:0:0:
256,192,264085,1,8,0:0:0:0:
256,192,264143,1,0,0:0:0:0:
256,192,264259,1,8,0:0:0:0:
256,96,264374,1,4,0:0:0:0:
256,192,264489,1,8,0:0:0:0:
256,192,264547,1,8,0:0:0:0:
256,192,264605,1,0,0:0:0:0:
256,192,264720,1,0,0:0:0:0:
256,192,264835,1,8,0:0:0:0:
256,192,264893,1,8,0:0:0:0:
256,192,264951,1,8,0:0:0:0:
256,192,265066,1,0,0:0:0:0:
256,192,265182,1,0,0:0:0:0:
256,192,265297,1,8,0:0:0:0:
256,192,265355,1,8,0:0:0:0:
256,192,265412,1,0,0:0:0:0:
256,192,265528,1,8,0:0:0:0:
256,192,265643,1,0,0:0:0:0:
256,192,265701,1,0,0:0:0:0:
256,192,265759,1,8,0:0:0:0:
256,192,265816,1,0,0:0:0:0:
256,192,265874,1,0,0:0:0:0:
256,192,265932,1,0,0:0:0:0:
256,192,265989,1,8,0:0:0:0:
256,192,266105,1,0,0:0:0:0:
256,192,266220,1,8,0:0:0:0:
256,192,266335,1,0,0:0:0:0:
256,192,266393,1,0,0:0:0:0:
256,192,266451,1,8,0:0:0:0:
256,192,266566,1,0,0:0:0:0:
256,192,266682,1,8,0:0:0:0:
256,192,266739,1,8,0:0:0:0:
256,192,266797,1,0,0:0:0:0:
256,192,266855,1,0,0:0:0:0:
256,192,266912,1,8,0:0:0:0:
256,192,267028,1,0,0:0:0:0:
256,192,267143,1,8,0:0:0:0:
256,192,267374,1,0,0:0:0:0:
256,192,267451,1,0,0:0:0:0:
256,192,267528,1,0,0:0:0:0:
256,192,267605,1,8,0:0:0:0:
256,192,267720,1,0,0:0:0:0:
256,192,267835,1,8,0:0:0:0:
256,192,267951,1,8,0:0:0:0:
256,96,268066,1,4,0:0:0:0:
256,192,268182,1,8,0:0:0:0:
256,192,268239,1,8,0:0:0:0:
256,192,268297,1,8,0:0:0:0:
256,192,268412,1,0,0:0:0:0:
256,192,268528,1,8,0:0:0:0:
256,192,268585,1,8,0:0:0:0:
256,192,268643,1,0,0:0:0:0:
256,192,268701,1,0,0:0:0:0:
256,192,268759,1,8,0:0:0:0:
256,192,268874,1,0,0:0:0:0:
256,192,268989,1,8,0:0:0:0:
256,192,269047,1,8,0:0:0:0:
256,192,269105,1,0,0:0:0:0:
256,192,269162,1,0,0:0:0:0:
256,192,269220,1,0,0:0:0:0:
256,192,269335,1,8,0:0:0:0:
256,192,269393,1,8,0:0:0:0:
256,192,269451,1,8,0:0:0:0:
256,192,269509,1,8,0:0:0:0:
256,192,269566,1,0,0:0:0:0:
256,192,269682,1,8,0:0:0:0:
256,192,269739,1,0,0:0:0:0:
256,192,269797,1,0,0:0:0:0:
256,192,269855,1,0,0:0:0:0:
256,192,269912,1,8,0:0:0:0:
256,192,269970,1,8,0:0:0:0:
256,192,270028,1,0,0:0:0:0:
256,192,270143,1,8,0:0:0:0:
256,192,270201,1,0,0:0:0:0:
256,192,270259,1,8,0:0:0:0:
256,192,270316,1,8,0:0:0:0:
256,192,270374,1,0,0:0:0:0:
256,192,270489,1,8,0:0:0:0:
256,192,270547,1,8,0:0:0:0:
256,192,270605,1,8,0:0:0:0:
256,192,270720,1,0,0:0:0:0:
256,192,270778,1,0,0:0:0:0:
256,192,270835,1,8,0:0:0:0:
256,192,270951,1,0,0:0:0:0:
256,192,271066,1,8,0:0:0:0:
256,192,271124,1,8,0:0:0:0:
256,192,271182,1,0,0:0:0:0:
256,192,271239,1,0,0:0:0:0:
256,192,271297,1,8,0:0:0:0:
256,192,271355,1,0,0:0:0:0:
256,192,271412,1,0,0:0:0:0:
256,192,271470,1,0,0:0:0:0:
256,192,271528,1,8,0:0:0:0:
256,192,271585,1,8,0:0:0:0:
256,192,271643,1,0,0:0:0:0:
256,192,271759,1,8,0:0:0:0:
256,192,271816,1,8,0:0:0:0:
256,192,271874,1,8,0:0:0:0:
256,192,271932,1,8,0:0:0:0:
256,192,271989,1,0,0:0:0:0:
256,192,272105,1,0,0:0:0:0:
256,192,272220,1,8,0:0:0:0:
256,192,272278,1,8,0:0:0:0:
256,192,272335,1,0,0:0:0:0:
256,192,272393,1,0,0:0:0:0:
256,192,272451,1,0,0:0:0:0:
256,192,272566,1,8,0:0:0:0:
256,192,272682,1,0,0:0:0:0:
256,192,272739,1,0,0:0:0:0:
256,192,272797,1,0,0:0:0:0:
256,192,272855,1,0,0:0:0:0:
256,192,272912,1,8,0:0:0:0:
256,192,273028,1,0,0:0:0:0:
256,192,273085,1,0,0:0:0:0:
256,192,273143,1,8,0:0:0:0:
256,192,273201,1,8,0:0:0:0:
256,192,273259,1,0,0:0:0:0:
256,192,273374,1,8,0:0:0:0:
256,192,273432,1,8,0:0:0:0:
256,192,273489,1,8,0:0:0:0:
256,192,273605,1,0,0:0:0:0:
256,192,273662,1,8,0:0:0:0:
256,192,273720,1,0,0:0:0:0:
256,192,273778,1,0,0:0:0:0:
256,192,273835,1,8,0:0:0:0:
256,192,273893,1,0,0:0:0:0:
256,192,273951,1,8,0:0:0:0:
256,192,274009,1,8,0:0:0:0:
256,192,274066,1,0,0:0:0:0:
256,192,274182,1,8,0:0:0:0:
256,192,274239,1,0,0:0:0:0:
256,192,274297,1,0,0:0:0:0:
256,192,274412,1,8,0:0:0:0:
256,192,274470,1,8,0:0:0:0:
256,192,274528,1,0,0:0:0:0:
256,192,274585,1,8,0:0:0:0:
256,192,274643,1,0,0:0:0:0:
256,192,274701,1,0,0:0:0:0:
256,192,274759,1,8,0:0:0:0:
256,192,274874,1,0,0:0:0:0:
256,192,274989,1,8,0:0:0:0:
256,192,275047,1,8,0:0:0:0:
256,192,275105,1,0,0:0:0:0:
256,192,275220,1,8,0:0:0:0:
256,192,275297,1,8,0:0:0:0:
256,192,275374,1,8,0:0:0:0:
256,96,275451,1,4,0:0:0:0:
256,192,275682,1,0,0:0:0:0:
256,192,275797,1,8,0:0:0:0:
256,192,275855,1,8,0:0:0:0:
256,192,275912,1,0,0:0:0:0:
256,192,275970,1,0,0:0:0:0:
256,192,276028,1,8,0:0:0:0:
256,192,276143,1,0,0:0:0:0:
256,192,276259,1,8,0:0:0:0:
256,192,276316,1,0,0:0:0:0:
256,192,276374,1,8,0:0:0:0:
256,192,276432,1,8,0:0:0:0:
256,192,276489,1,0,0:0:0:0:
256,192,276547,1,0,0:0:0:0:
256,192,276605,1,8,0:0:0:0:
256,192,276662,1,0,0:0:0:0:
256,192,276720,1,8,0:0:0:0:
256,192,276835,1,0,0:0:0:0:
256,192,276951,1,8,0:0:0:0:
256,192,277066,1,0,0:0:0:0:
256,192,277124,1,0,0:0:0:0:
256,192,277182,1,8,0:0:0:0:
256,192,277239,1,0,0:0:0:0:
256,192,277297,1,8,0:0:0:0:
256,192,277355,1,8,0:0:0:0:
256,192,277412,1,0,0:0:0:0:
256,192,277528,1,8,0:0:0:0:
256,192,277585,1,0,0:0:0:0:
256,192,277643,1,8,0:0:0:0:
256,192,277701,1,8,0:0:0:0:
256,192,277759,1,0,0:0:0:0:
256,192,277874,1,8,0:0:0:0:
256,192,277932,1,8,0:0:0:0:
256,192,277989,1,8,0:0:0:0:
256,192,278105,1,0,0:0:0:0:
256,192,278162,1,0,0:0:0:0:
256,192,278220,1,8,0:0:0:0:
256,192,278278,1,8,0:0:0:0:
256,192,278335,1,8,0:0:0:0:
256,192,278393,1,8,0:0:0:0:
256,192,278451,1,0,0:0:0:0:
256,192,278566,1,0,0:0:0:0:
256,192,278682,1,8,0:0:0:0:
256,192,278739,1,8,0:0:0:0:
256,192,278797,1,0,0:0:0:0:
256,192,278855,1,0,0:0:0:0:
256,192,278912,1,8,0:0:0:0:
256,192,278970,1,0,0:0:0:0:
256,192,279028,1,8,0:0:0:0:
256,96,279143,1,4,0:0:0:0:
256,192,279374,1,8,0:0:0:0:
256,192,279489,1,0,0:0:0:0:
256,192,279605,1,8,0:0:0:0:
256,192,279662,1,8,0:0:0:0:
256,192,279720,1,0,0:0:0:0:
256,192,279778,1,0,0:0:0:0:
256,192,279835,1,8,0:0:0:0:
256,192,279951,1,0,0:0:0:0:
256,192,280066,1,8,0:0:0:0:
256,192,280124,1,8,0:0:0:0:
256,192,280182,1,0,0:0:0:0:
256,192,280297,1,8,0:0:0:0:
256,192,280412,1,0,0:0:0:0:
256,192,280470,1,0,0:0:0:0:
256,192,280528,1,8,0:0:0:0:
256,192,280585,1,8,0:0:0:0:
256,192,280643,1,0,0:0:0:0:
256,192,280759,1,8,0:0:0:0:
256,192,280874,1,8,0:0:0:0:
256,192,280989,1,4,0:0:0:0:
256,192,281104,12,0,282604,0:0:0:0:
256,192,282835,5,8,0:0:0:0:
256,192,282911,1,8,0:0:0:0:
256,192,282988,1,0,0:0:0:0:
256,192,283065,1,8,0:0:0:0:
256,192,283142,1,0,0:0:0:0:
256,192,283219,1,0,0:0:0:0:
256,192,283296,1,8,0:0:0:0:
256,192,283411,1,0,0:0:0:0:
256,192,283527,1,8,0:0:0:0:
256,192,283642,1,0,0:0:0:0:
256,192,283758,1,12,0:0:0:0:
256,192,284450,1,8,0:0:0:0:
256,192,284527,1,8,0:0:0:0:
256,192,284604,1,8,0:0:0:0:
256,192,284681,1,4,0:0:0:0:
256,192,284796,1,0,0:0:0:0:
256,192,284854,1,0,0:0:0:0:
256,192,284911,1,8,0:0:0:0:
256,192,284969,1,8,0:0:0:0:
256,192,285027,1,0,0:0:0:0:
256,192,285142,1,8,0:0:0:0:
256,192,285200,1,0,0:0:0:0:
256,192,285258,1,0,0:0:0:0:
256,192,285315,1,0,0:0:0:0:
256,192,285373,1,8,0:0:0:0:
256,192,285431,1,8,0:0:0:0:
256,192,285488,1,0,0:0:0:0:
256,192,285604,1,8,0:0:0:0:
256,192,285661,1,8,0:0:0:0:
256,192,285719,1,8,0:0:0:0:
256,192,285777,1,8,0:0:0:0:
256,192,285835,1,0,0:0:0:0:
256,192,285892,1,0,0:0:0:0:
256,192,285950,1,8,0:0:0:0:
256,192,286008,1,0,0:0:0:0:
256,192,286065,1,0,0:0:0:0:
256,192,286123,1,0,0:0:0:0:
256,192,286181,1,8,0:0:0:0:
256,192,286238,1,8,0:0:0:0:
256,192,286296,1,0,0:0:0:0:
256,192,286354,1,0,0:0:0:0:
256,192,286411,1,8,0:0:0:0:
256,192,286527,1,0,0:0:0:0:
256,192,286585,1,0,0:0:0:0:
256,192,286642,1,0,0:0:0:0:
256,192,286758,1,8,0:0:0:0:
256,192,286815,1,0,0:0:0:0:
256,192,286873,1,8,0:0:0:0:
256,192,286931,1,8,0:0:0:0:
256,192,286988,1,0,0:0:0:0:
256,192,287104,1,8,0:0:0:0:
256,192,287161,1,8,0:0:0:0:
256,192,287219,1,8,0:0:0:0:
256,192,287335,1,0,0:0:0:0:
256,192,287392,1,0,0:0:0:0:
256,192,287450,1,8,0:0:0:0:
256,192,287508,1,8,0:0:0:0:
256,192,287565,1,0,0:0:0:0:
256,192,287681,1,8,0:0:0:0:
256,192,287738,1,0,0:0:0:0:
256,192,287796,1,0,0:0:0:0:
256,192,287854,1,0,0:0:0:0:
256,192,287911,1,8,0:0:0:0:
256,192,287969,1,8,0:0:0:0:
256,192,288027,1,0,0:0:0:0:
256,192,288085,1,0,0:0:0:0:
256,192,288142,1,8,0:0:0:0:
256,192,288200,1,0,0:0:0:0:
256,192,288258,1,8,0:0:0:0:
256,192,288315,1,8,0:0:0:0:
256,192,288373,1,4,0:0:0:0:
256,192,288488,1,8,0:0:0:0:
256,192,288546,1,8,0:0:0:0:
256,192,288604,1,8,0:0:0:0:
256,192,288719,1,0,0:0:0:0:
256,192,288777,1,0,0:0:0:0:
256,192,288835,1,8,0:0:0:0:
256,192,288892,1,0,0:0:0:0:
256,192,288950,1,0,0:0:0:0:
256,192,289008,1,0,0:0:0:0:
256,192,289065,1,8,0:0:0:0:
256,192,289123,1,8,0:0:0:0:
256,192,289181,1,0,0:0:0:0:
256,192,289296,1,8,0:0:0:0:
256,192,289354,1,8,0:0:0:0:
256,192,289411,1,8,0:0:0:0:
256,192,289469,1,8,0:0:0:0:
256,192,289527,1,0,0:0:0:0:
256,192,289585,1,0,0:0:0:0:
256,192,289642,1,8,0:0:0:0:
256,192,289700,1,0,0:0:0:0:
256,192,289758,1,0,0:0:0:0:
256,192,289815,1,0,0:0:0:0:
256,192,289873,1,8,0:0:0:0:
256,192,289931,1,0,0:0:0:0:
256,192,289988,1,8,0:0:0:0:
256,192,290046,1,8,0:0:0:0:
256,192,290104,1,0,0:0:0:0:
256,192,290219,1,8,0:0:0:0:
256,192,290277,1,8,0:0:0:0:
256,192,290335,1,8,0:0:0:0:
256,192,290392,1,8,0:0:0:0:
256,192,290450,1,0,0:0:0:0:
256,192,290565,1,8,0:0:0:0:
256,192,290623,1,8,0:0:0:0:
256,192,290681,1,0,0:0:0:0:
256,192,290738,1,8,0:0:0:0:
256,192,290796,1,0,0:0:0:0:
256,192,290854,1,0,0:0:0:0:
256,192,290911,1,8,0:0:0:0:
256,192,291027,1,0,0:0:0:0:
256,192,291085,1,0,0:0:0:0:
256,192,291142,1,8,0:0:0:0:
256,192,291200,1,8,0:0:0:0:
256,192,291258,1,8,0:0:0:0:
256,192,291315,1,8,0:0:0:0:
256,192,291373,1,0,0:0:0:0:
256,192,291431,1,8,0:0:0:0:
256,192,291488,1,0,0:0:0:0:
256,192,291546,1,0,0:0:0:0:
256,192,291604,1,8,0:0:0:0:
256,192,291661,1,0,0:0:0:0:
256,192,291719,1,0,0:0:0:0:
256,192,291777,1,0,0:0:0:0:
256,192,291835,1,8,0:0:0:0:
256,192,291892,1,8,0:0:0:0:
256,192,291950,1,0,0:0:0:0:
256,192,292008,1,0,0:0:0:0:
256,192,292065,1,12,0:0:0:0:
256,192,292296,1,0,0:0:0:0:
256,192,292411,1,8,0:0:0:0:
256,192,292469,1,8,0:0:0:0:
256,192,292527,1,0,0:0:0:0:
256,192,292642,1,8,0:0:0:0:
256,192,292700,1,8,0:0:0:0:
256,192,292758,1,8,0:0:0:0:
256,192,292873,1,0,0:0:0:0:
256,192,292931,1,0,0:0:0:0:
256,192,292988,1,8,0:0:0:0:
256,192,293046,1,0,0:0:0:0:
256,192,293104,1,8,0:0:0:0:
256,192,293161,1,8,0:0:0:0:
256,192,293219,1,0,0:0:0:0:
256,192,293335,1,0,0:0:0:0:
256,192,293392,1,0,0:0:0:0:
256,192,293450,1,8,0:0:0:0:
256,192,293565,1,0,0:0:0:0:
256,192,293681,1,8,0:0:0:0:
256,192,293738,1,8,0:0:0:0:
256,192,293796,1,0,0:0:0:0:
256,192,293854,1,0,0:0:0:0:
256,192,293911,1,8,0:0:0:0:
256,192,294027,1,0,0:0:0:0:
256,192,294142,1,8,0:0:0:0:
256,192,294200,1,0,0:0:0:0:
256,192,294258,1,8,0:0:0:0:
256,192,294315,1,8,0:0:0:0:
256,192,294373,1,0,0:0:0:0:
256,192,294488,1,8,0:0:0:0:
256,192,294546,1,8,0:0:0:0:
256,192,294604,1,8,0:0:0:0:
256,192,294719,1,0,0:0:0:0:
256,192,294777,1,0,0:0:0:0:
256,192,294835,1,8,0:0:0:0:
256,192,294950,1,0,0:0:0:0:
256,192,295065,1,8,0:0:0:0:
256,192,295181,1,0,0:0:0:0:
256,192,295238,1,0,0:0:0:0:
256,192,295296,1,8,0:0:0:0:
256,192,295354,1,8,0:0:0:0:
256,192,295411,1,0,0:0:0:0:
256,192,295469,1,0,0:0:0:0:
256,192,295527,1,8,0:0:0:0:
256,192,295585,1,0,0:0:0:0:
256,192,295642,1,8,0:0:0:0:
256,192,295700,1,8,0:0:0:0:
256,192,295758,1,4,0:0:0:0:
256,192,295873,1,8,0:0:0:0:
256,192,295931,1,8,0:0:0:0:
256,192,295988,1,0,0:0:0:0:
256,192,296104,1,0,0:0:0:0:
256,192,296219,1,8,0:0:0:0:
256,192,296277,1,8,0:0:0:0:
256,192,296335,1,8,0:0:0:0:
256,192,296450,1,0,0:0:0:0:
256,192,296565,1,0,0:0:0:0:
256,192,296681,1,8,0:0:0:0:
256,192,296738,1,8,0:0:0:0:
256,192,296796,1,0,0:0:0:0:
256,192,296911,1,8,0:0:0:0:
256,192,297027,1,0,0:0:0:0:
256,192,297142,1,8,0:0:0:0:
256,192,297200,1,8,0:0:0:0:
256,192,297258,1,0,0:0:0:0:
256,192,297315,1,0,0:0:0:0:
256,192,297373,1,8,0:0:0:0:
256,192,297431,1,0,0:0:0:0:
256,192,297488,1,8,0:0:0:0:
256,192,297546,1,8,0:0:0:0:
256,192,297604,1,4,0:0:0:0:
256,192,297719,1,8,0:0:0:0:
256,192,297777,1,8,0:0:0:0:
256,192,297835,1,8,0:0:0:0:
256,192,297950,1,0,0:0:0:0:
256,192,298065,1,8,0:0:0:0:
256,192,298123,1,8,0:0:0:0:
256,192,298181,1,0,0:0:0:0:
256,192,298238,1,0,0:0:0:0:
256,192,298296,1,8,0:0:0:0:
256,192,298411,1,0,0:0:0:0:
256,192,298527,1,8,0:0:0:0:
256,192,298758,1,0,0:0:0:0:
256,192,298835,1,0,0:0:0:0:
256,192,298911,1,0,0:0:0:0:
256,192,298988,1,8,0:0:0:0:
256,192,299104,1,0,0:0:0:0:
256,192,299219,1,8,0:0:0:0:
256,192,299335,1,8,0:0:0:0:
256,192,299450,1,4,0:0:0:0:
256,96,300373,1,12,0:0:0:0:
256,96,300719,1,12,0:0:0:0:
256,96,301065,1,12,0:0:0:0:
256,96,301296,1,4,0:0:0:0:
256,96,302219,1,4,0:0:0:0:
256,192,302450,1,8,0:0:0:0:
256,192,302565,1,0,0:0:0:0:
256,192,302623,1,0,0:0:0:0:
256,192,302681,1,8,0:0:0:0:
256,192,302796,1,0,0:0:0:0:
256,192,302911,1,8,0:0:0:0:
256,96,303142,1,4,0:0:0:0:
256,96,304065,1,12,0:0:0:0:
256,192,304296,1,0,0:0:0:0:
256,96,304411,1,12,0:0:0:0:
256,192,304642,1,0,0:0:0:0:
256,96,304758,1,12,0:0:0:0:
256,96,304988,1,4,0:0:0:0:
256,192,305219,1,0,0:0:0:0:
256,192,305335,1,8,0:0:0:0:
256,192,305392,1,8,0:0:0:0:
256,192,305450,1,0,0:0:0:0:
256,192,305565,1,8,0:0:0:0:
256,192,305623,1,8,0:0:0:0:
256,192,305681,1,8,0:0:0:0:
256,192,305796,1,0,0:0:0:0:
256,192,305911,1,8,0:0:0:0:
256,192,305969,1,8,0:0:0:0:
256,192,306027,1,0,0:0:0:0:
256,192,306084,1,0,0:0:0:0:
256,192,306142,1,8,0:0:0:0:
256,192,306258,1,0,0:0:0:0:
256,192,306374,1,8,0:0:0:0:
256,192,306431,1,0,0:0:0:0:
256,192,306489,1,8,0:0:0:0:
256,192,306547,1,8,0:0:0:0:
256,192,306604,1,0,0:0:0:0:
256,192,306719,1,0,0:0:0:0:
256,96,306835,1,12,0:0:0:0:
256,192,307065,1,0,0:0:0:0:
256,192,307180,1,8,0:0:0:0:
256,192,307238,1,8,0:0:0:0:
256,192,307295,1,0,0:0:0:0:
256,192,307353,1,0,0:0:0:0:
256,192,307411,1,8,0:0:0:0:
256,192,307469,1,8,0:0:0:0:
256,192,307526,1,0,0:0:0:0:
256,192,307642,1,8,0:0:0:0:
256,192,307700,1,8,0:0:0:0:
256,192,307757,1,8,0:0:0:0:
256,192,307872,1,0,0:0:0:0:
256,192,307930,1,0,0:0:0:0:
256,192,307988,1,8,0:0:0:0:
256,192,308045,1,0,0:0:0:0:
256,192,308103,1,8,0:0:0:0:
256,192,308161,1,8,0:0:0:0:
256,192,308218,1,0,0:0:0:0:
256,192,308334,1,8,0:0:0:0:
256,192,308392,1,8,0:0:0:0:
256,192,308449,1,8,0:0:0:0:
256,192,308507,1,8,0:0:0:0:
256,192,308565,1,0,0:0:0:0:
256,192,308622,1,0,0:0:0:0:
256,192,308680,1,8,0:0:0:0:
256,192,308738,1,8,0:0:0:0:
256,192,308795,1,0,0:0:0:0:
256,192,308911,1,8,0:0:0:0:
256,192,308968,1,0,0:0:0:0:
256,192,309026,1,8,0:0:0:0:
256,192,309084,1,8,0:0:0:0:
256,192,309142,1,0,0:0:0:0:
256,192,309257,1,8,0:0:0:0:
256,192,309315,1,8,0:0:0:0:
256,192,309372,1,8,0:0:0:0:
256,192,309488,1,0,0:0:0:0:
256,192,309545,1,0,0:0:0:0:
256,192,309603,1,8,0:0:0:0:
256,192,309661,1,8,0:0:0:0:
256,192,309718,1,8,0:0:0:0:
256,192,309776,1,8,0:0:0:0:
256,192,309834,1,0,0:0:0:0:
256,192,309949,1,0,0:0:0:0:
256,192,310065,1,8,0:0:0:0:
256,192,310122,1,8,0:0:0:0:
256,192,310180,1,0,0:0:0:0:
256,192,310238,1,0,0:0:0:0:
256,192,310295,1,8,0:0:0:0:
256,192,310353,1,0,0:0:0:0:
256,192,310411,1,8,0:0:0:0:
256,96,310526,1,4,0:0:0:0:
256,192,310757,1,8,0:0:0:0:
256,192,310872,1,0,0:0:0:0:
256,192,310988,1,8,0:0:0:0:
256,192,311045,1,8,0:0:0:0:
256,192,311103,1,0,0:0:0:0:
256,192,311161,1,0,0:0:0:0:
256,192,311218,1,8,0:0:0:0:
256,192,311334,1,0,0:0:0:0:
256,192,311449,1,8,0:0:0:0:
256,192,311507,1,8,0:0:0:0:
256,192,311565,1,0,0:0:0:0:
256,192,311680,1,8,0:0:0:0:
256,192,311795,1,0,0:0:0:0:
256,192,311853,1,0,0:0:0:0:
256,192,311911,1,8,0:0:0:0:
256,192,311969,1,8,0:0:0:0:
256,192,312026,1,0,0:0:0:0:
256,192,312142,1,8,0:0:0:0:
256,192,312257,1,8,0:0:0:0:
256,96,312373,1,4,0:0:0:0:
256,192,312488,12,0,313988,0:0:0:0:
256,192,314219,5,4,0:0:0:0:
256,192,314450,1,8,0:0:0:0:
256,192,314565,1,8,0:0:0:0:
256,192,314623,1,8,0:0:0:0:
256,192,314681,1,0,0:0:0:0:
256,192,314795,1,0,0:0:0:0:
256,192,314911,1,8,0:0:0:0:
256,192,315142,1,0,0:0:0:0:
256,192,315373,1,8,0:0:0:0:
256,192,315488,1,8,0:0:0:0:
256,192,315604,1,0,0:0:0:0:
256,192,315719,1,0,0:0:0:0:
256,192,315835,1,8,0:0:0:0:
256,192,316065,1,0,0:0:0:0:
256,192,316296,1,8,0:0:0:0:
256,192,316411,1,0,0:0:0:0:
256,192,316469,1,0,0:0:0:0:
256,192,316527,1,8,0:0:0:0:
256,192,316642,1,0,0:0:0:0:
256,192,316758,1,8,0:0:0:0:
256,192,316873,1,8,0:0:0:0:
256,192,316988,1,0,0:0:0:0:
256,192,317219,1,8,0:0:0:0:
256,192,317335,1,8,0:0:0:0:
256,192,317450,1,0,0:0:0:0:
256,192,317565,1,0,0:0:0:0:
256,192,317681,1,8,0:0:0:0:
256,192,317796,1,0,0:0:0:0:
256,192,317911,1,12,0:0:0:0:
256,192,318142,1,8,0:0:0:0:
256,192,318258,1,0,0:0:0:0:
256,192,318315,1,0,0:0:0:0:
256,192,318373,1,8,0:0:0:0:
256,192,318488,1,0,0:0:0:0:
256,192,318604,1,8,0:0:0:0:
256,192,318835,1,0,0:0:0:0:
256,192,319065,1,8,0:0:0:0:
256,192,319181,1,0,0:0:0:0:
256,192,319296,1,0,0:0:0:0:
256,192,319411,1,0,0:0:0:0:
256,192,319527,1,8,0:0:0:0:
256,192,319758,1,0,0:0:0:0:
256,192,319988,1,8,0:0:0:0:
256,192,320104,1,8,0:0:0:0:
256,192,320161,1,8,0:0:0:0:
256,192,320219,1,0,0:0:0:0:
256,192,320335,1,0,0:0:0:0:
256,192,320450,1,8,0:0:0:0:
256,192,320681,1,0,0:0:0:0:
256,192,320796,1,8,0:0:0:0:
256,192,320911,1,8,0:0:0:0:
256,192,321027,1,0,0:0:0:0:
256,192,321142,1,8,0:0:0:0:
256,192,321258,1,8,0:0:0:0:
256,192,321373,1,8,0:0:0:0:
256,192,321488,1,8,0:0:0:0:
256,192,321604,1,4,0:0:0:0:
256,192,321835,1,8,0:0:0:0:
256,192,321950,1,0,0:0:0:0:
256,192,322008,1,0,0:0:0:0:
256,192,322065,1,8,0:0:0:0:
256,192,322181,1,0,0:0:0:0:
256,192,322296,1,8,0:0:0:0:
256,192,322354,1,8,0:0:0:0:
256,192,322411,1,0,0:0:0:0:
256,192,322527,1,8,0:0:0:0:
256,192,322642,1,0,0:0:0:0:
256,192,322758,1,8,0:0:0:0:
256,192,322815,1,8,0:0:0:0:
256,192,322873,1,0,0:0:0:0:
256,192,322931,1,0,0:0:0:0:
256,192,322988,1,8,0:0:0:0:
256,192,323104,1,0,0:0:0:0:
256,192,323219,1,8,0:0:0:0:
256,192,323277,1,0,0:0:0:0:
256,192,323335,1,8,0:0:0:0:
256,192,323392,1,8,0:0:0:0:
256,192,323450,1,0,0:0:0:0:
256,192,323565,1,0,0:0:0:0:
256,192,323681,1,8,0:0:0:0:
256,192,323796,1,8,0:0:0:0:
256,192,323854,1,8,0:0:0:0:
256,192,323911,1,0,0:0:0:0:
256,192,324027,1,0,0:0:0:0:
256,192,324085,1,0,0:0:0:0:
256,192,324142,1,8,0:0:0:0:
256,192,324258,1,0,0:0:0:0:
256,192,324373,1,8,0:0:0:0:
256,192,324431,1,8,0:0:0:0:
256,192,324488,1,8,0:0:0:0:
256,192,324604,1,0,0:0:0:0:
256,192,324719,1,8,0:0:0:0:
256,192,324777,1,8,0:0:0:0:
256,192,324835,1,0,0:0:0:0:
256,192,324950,1,0,0:0:0:0:
256,192,325008,1,0,0:0:0:0:
256,192,325065,1,8,0:0:0:0:
256,192,325123,1,0,0:0:0:0:
256,192,325181,1,8,0:0:0:0:
256,192,325238,1,8,0:0:0:0:
256,192,325296,1,0,0:0:0:0:
256,192,325527,1,8,0:0:0:0:
256,192,325642,1,8,0:0:0:0:
256,192,325700,1,8,0:0:0:0:
256,192,325758,1,0,0:0:0:0:
256,192,325873,1,0,0:0:0:0:
256,192,325931,1,0,0:0:0:0:
256,192,325988,1,8,0:0:0:0:
256,192,326104,1,0,0:0:0:0:
256,192,326219,1,8,0:0:0:0:
256,192,326335,1,0,0:0:0:0:
256,192,326392,1,0,0:0:0:0:
256,192,326450,1,8,0:0:0:0:
256,192,326565,1,0,0:0:0:0:
256,192,326681,1,8,0:0:0:0:
256,192,326738,1,8,0:0:0:0:
256,192,326796,1,0,0:0:0:0:
256,192,326854,1,0,0:0:0:0:
256,192,326911,1,8,0:0:0:0:
256,192,327027,1,0,0:0:0:0:
256,192,327142,1,8,0:0:0:0:
256,192,327200,1,8,0:0:0:0:
256,192,327258,1,0,0:0:0:0:
256,192,327315,1,0,0:0:0:0:
256,192,327373,1,8,0:0:0:0:
256,192,327431,1,0,0:0:0:0:
256,192,327488,1,0,0:0:0:0:
256,192,327546,1,0,0:0:0:0:
256,192,327604,1,8,0:0:0:0:
256,192,327719,1,0,0:0:0:0:
256,192,327777,1,0,0:0:0:0:
256,192,327835,1,8,0:0:0:0:
256,192,327950,1,0,0:0:0:0:
256,192,328065,1,8,0:0:0:0:
256,192,328123,1,0,0:0:0:0:
256,192,328181,1,0,0:0:0:0:
256,192,328238,1,0,0:0:0:0:
256,192,328296,1,8,0:0:0:0:
256,192,328354,1,8,0:0:0:0:
256,192,328411,1,0,0:0:0:0:
256,192,328527,1,0,0:0:0:0:
256,192,328585,1,0,0:0:0:0:
256,192,328642,1,8,0:0:0:0:
256,192,328700,1,0,0:0:0:0:
256,192,328758,1,8,0:0:0:0:
256,192,328815,1,8,0:0:0:0:
256,192,328873,1,0,0:0:0:0:
256,192,328931,1,0,0:0:0:0:
256,192,328988,1,12,0:0:0:0:
256,192,329219,1,8,0:0:0:0:
256,192,329334,1,8,0:0:0:0:
256,192,329392,1,8,0:0:0:0:
256,192,329450,1,0,0:0:0:0:
256,192,329564,1,0,0:0:0:0:
256,192,329680,1,8,0:0:0:0:
256,192,329911,1,0,0:0:0:0:
256,192,330142,1,8,0:0:0:0:
256,192,330257,1,8,0:0:0:0:
256,192,330373,1,0,0:0:0:0:
256,192,330488,1,0,0:0:0:0:
256,192,330604,1,8,0:0:0:0:
256,192,330834,1,0,0:0:0:0:
256,192,331065,1,8,0:0:0:0:
256,192,331180,1,0,0:0:0:0:
256,192,331238,1,0,0:0:0:0:
256,192,331296,1,8,0:0:0:0:
256,192,331411,1,0,0:0:0:0:
256,192,331527,1,8,0:0:0:0:
256,192,331642,1,8,0:0:0:0:
256,192,331699,1,8,0:0:0:0:
256,192,331757,1,0,0:0:0:0:
256,192,331988,1,8,0:0:0:0:
256,192,332104,1,8,0:0:0:0:
256,192,332219,1,0,0:0:0:0:
256,192,332334,1,0,0:0:0:0:
256,192,332450,1,8,0:0:0:0:
256,192,332565,1,0,0:0:0:0:
256,96,332680,1,12,0:0:0:0:
256,192,332911,1,8,0:0:0:0:
256,192,333027,1,0,0:0:0:0:
256,192,333084,1,0,0:0:0:0:
256,192,333142,1,8,0:0:0:0:
256,192,333257,1,0,0:0:0:0:
256,192,333373,1,8,0:0:0:0:
256,192,333604,1,0,0:0:0:0:
256,192,333834,1,8,0:0:0:0:
256,192,333950,1,0,0:0:0:0:
256,192,334065,1,0,0:0:0:0:
256,192,334180,1,0,0:0:0:0:
256,192,334296,1,8,0:0:0:0:
256,192,334527,1,0,0:0:0:0:
256,192,334757,1,8,0:0:0:0:
256,192,334873,1,8,0:0:0:0:
256,192,334930,1,8,0:0:0:0:
256,192,334988,1,0,0:0:0:0:
256,192,335104,1,0,0:0:0:0:
256,192,335219,1,8,0:0:0:0:
256,192,335450,1,0,0:0:0:0:
256,192,335565,1,8,0:0:0:0:
256,192,335680,1,8,0:0:0:0:
256,192,335796,1,0,0:0:0:0:
256,192,335911,1,8,0:0:0:0:
256,192,336027,1,8,0:0:0:0:
256,192,336142,1,8,0:0:0:0:
256,192,336257,1,8,0:0:0:0:
256,96,336372,1,4,0:0:0:0:
256,192,336604,1,8,0:0:0:0:
256,192,336719,1,0,0:0:0:0:
256,192,336777,1,0,0:0:0:0:
256,192,336834,1,8,0:0:0:0:
256,192,336950,1,0,0:0:0:0:
256,192,337065,1,8,0:0:0:0:
256,192,337123,1,8,0:0:0:0:
256,192,337180,1,0,0:0:0:0:
256,192,337296,1,8,0:0:0:0:
256,192,337411,1,0,0:0:0:0:
256,192,337527,1,8,0:0:0:0:
256,192,337584,1,8,0:0:0:0:
256,192,337642,1,0,0:0:0:0:
256,192,337700,1,0,0:0:0:0:
256,192,337757,1,8,0:0:0:0:
256,192,337873,1,0,0:0:0:0:
256,192,337988,1,8,0:0:0:0:
256,192,338046,1,0,0:0:0:0:
256,192,338104,1,8,0:0:0:0:
256,192,338161,1,8,0:0:0:0:
256,192,338219,1,0,0:0:0:0:
256,192,338334,1,0,0:0:0:0:
256,192,338450,1,8,0:0:0:0:
256,192,338565,1,0,0:0:0:0:
256,192,338623,1,0,0:0:0:0:
256,192,338680,1,0,0:0:0:0:
256,192,338796,1,0,0:0:0:0:
256,192,338911,1,8,0:0:0:0:
256,192,339027,1,0,0:0:0:0:
256,192,339142,1,8,0:0:0:0:
256,192,339200,1,8,0:0:0:0:
256,192,339257,1,0,0:0:0:0:
256,192,339373,1,8,0:0:0:0:
256,192,339488,1,0,0:0:0:0:
256,192,339546,1,0,0:0:0:0:
256,192,339604,1,8,0:0:0:0:
256,192,339719,1,0,0:0:0:0:
256,192,339834,1,8,0:0:0:0:
256,192,339892,1,0,0:0:0:0:
256,192,339950,1,8,0:0:0:0:
256,192,340007,1,8,0:0:0:0:
256,192,340065,1,0,0:0:0:0:
256,192,340295,1,8,0:0:0:0:
256,192,340410,1,0,0:0:0:0:
256,192,340468,1,0,0:0:0:0:
256,192,340526,1,8,0:0:0:0:
256,192,340641,1,0,0:0:0:0:
256,192,340756,1,8,0:0:0:0:
256,192,340815,1,8,0:0:0:0:
256,192,340872,1,0,0:0:0:0:
256,192,340987,1,8,0:0:0:0:
256,192,341103,1,0,0:0:0:0:
256,192,341218,1,8,0:0:0:0:
256,192,341333,1,0,0:0:0:0:
256,192,341392,1,0,0:0:0:0:
256,192,341449,1,8,0:0:0:0:
256,192,341507,1,0,0:0:0:0:
256,192,341564,1,8,0:0:0:0:
256,192,341622,1,8,0:0:0:0:
256,192,341680,1,0,0:0:0:0:
256,192,341795,1,0,0:0:0:0:
256,192,341910,1,8,0:0:0:0:
256,192,341968,1,8,0:0:0:0:
256,192,342026,1,0,0:0:0:0:
256,192,342083,1,0,0:0:0:0:
256,192,342141,1,8,0:0:0:0:
256,192,342199,1,0,0:0:0:0:
256,192,342256,1,8,0:0:0:0:
256,192,342315,1,8,0:0:0:0:
256,192,342372,1,0,0:0:0:0:
256,192,342488,1,8,0:0:0:0:
256,192,342603,1,0,0:0:0:0:
256,192,342661,1,0,0:0:0:0:
256,192,342718,1,8,0:0:0:0:
256,192,342834,1,0,0:0:0:0:
256,192,342949,1,0,0:0:0:0:
256,192,343065,1,8,0:0:0:0:
256,192,343180,1,0,0:0:0:0:
256,192,343295,1,8,0:0:0:0:
256,192,343353,1,0,0:0:0:0:
256,192,343411,1,8,0:0:0:0:
256,192,343469,1,8,0:0:0:0:
256,192,343526,1,0,0:0:0:0:
256,192,343584,1,0,0:0:0:0:
256,192,343642,1,8,0:0:0:0:
256,96,343759,1,4,0:0:0:0:
256,192,343909,12,0,347380,0:0:0:0:
