osu file format v14

[General]
AudioFilename: Kegare naki Bara zz.mp3
AudioLeadIn: 1000
PreviewTime: 252635
Countdown: 0
SampleSet: Normal
StackLeniency: 0.7
Mode: 0
LetterboxInBreaks: 0
WidescreenStoryboard: 0

[Editor]
Bookmarks: 37330,44714,59483,70560,100098,177636,192405,200020,207174,223846,249865,284712,314250,329019,336404,343789
DistanceSpacing: 1.9
BeatDivisor: 4
GridSize: 32
TimelineZoom: 2.199999

[Metadata]
Title:Kegare naki Bara Juuji
TitleUnicode:穢れなき薔薇十字
Artist:Ariabl'eyeS
ArtistUnicode:Ariabl'eyeS
Creator:Kibbleru
Version:pk's Rosicrucianism
Source:
Tags:瑠璃色のローゼンクロイツ Ruriiro no Rena Lyse リゼ Rosicrucian pkk pkmnyab
BeatmapID:759823
BeatmapSetID:291689

[Difficulty]
HPDrainRate:5.5
CircleSize:4
OverallDifficulty:9
ApproachRate:9.6
SliderMultiplier:1.7
SliderTickRate:1

[Events]
//Background and Video events
0,0,"BGty.jpg",0,0
//Break Periods
2,211066,214049
//Storyboard Layer 0 (Background)
//Storyboard Layer 1 (Fail)
//Storyboard Layer 2 (Pass)
//Storyboard Layer 3 (Foreground)
//Storyboard Sound Samples

[TimingPoints]
826,681.044267877412,4,2,1,30,1,0
1507,666.666666666667,4,2,1,30,1,8
2840,750,4,2,1,30,1,8
3215,666.666666666667,4,2,1,30,1,8
3548,600,4,2,1,30,1,0
4148,689.655172413793,4,2,1,30,1,8
4837,631.578947368421,4,2,1,30,1,8
5152,726.392251815981,4,2,1,30,1,8
5515,679.501698754247,4,2,1,30,1,8
6194,666.666666666667,4,2,1,30,1,0
6860,631.578947368421,4,2,1,30,1,8
7175,674.157303370787,4,2,1,30,1,8
8186,659.340659340659,4,2,1,30,1,8
8845,659.340659340659,4,2,1,30,1,0
9504,666.666666666667,4,2,1,30,1,8
10170,566.037735849057,4,2,1,30,1,8
10452,714.285714285714,4,2,1,40,1,8
11166,693.64161849711,4,2,1,40,1,8
11512,666.666666666667,4,2,1,40,1,0
12178,722.89156626506,4,2,1,40,1,8
12539,666.666666666667,4,2,1,40,1,8
12872,666.666666666667,4,2,1,40,1,8
13872,625,4,2,1,40,1,8
14184,722.89156626506,4,2,1,40,1,0
14726,666.666666666667,4,2,1,40,1,8
15559,526.315789473684,4,2,1,40,1,8
15822,740.740740740741,4,2,1,40,1,8
16192,666.666666666667,4,2,1,40,1,8
16858,631.578947368421,4,2,1,40,1,0
17489,645.161290322581,4,2,1,40,1,8
18134,697.674418604651,4,2,1,40,1,8
19180,661.521499448732,4,2,1,40,1,8
19510,666.666666666667,4,2,1,40,1,0
21510,710.059171597633,4,2,1,40,1,8
21865,681.818181818182,4,2,1,40,1,8
22205,633.579725448786,4,2,1,40,1,0
22680,664.451827242525,4,2,1,40,1,0
23510,665.926748057714,4,2,1,40,1,8
24175,645.161290322581,4,2,1,40,1,8
24820,645.161290322581,4,2,1,40,1,0
25303,645.161290322581,4,2,1,40,1,0
25948,444.444444444444,4,2,1,40,1,8
26170,630.252100840336,4,2,1,40,1,8
26800,689.655172413793,4,2,1,40,1,8
27489,676.437429537768,4,2,1,40,1,0
28841,-100,4,2,1,40,0,0
29180,697.674418604651,4,2,1,40,1,8
30226,645.161290322581,4,2,1,40,1,0
31193,659.340659340659,4,2,1,40,1,8
31522,666.666666666667,4,2,1,40,1,8
32855,657.390161060589,4,2,1,40,1,0
35155,-100,4,2,1,40,0,0
35484,461.538461538462,4,2,1,45,1,0
36407,-76.9230769230769,4,2,1,45,0,0
37330,-100,4,2,1,45,0,0
43791,-76.9230769230769,4,2,1,50,0,0
44714,230.769230769231,4,1,1,60,1,0
66867,-133.333333333333,4,1,1,50,0,0
70560,-133.333333333333,4,1,1,45,0,0
77944,-117.647058823529,4,1,1,45,0,0
100098,-111.111111111111,4,1,1,50,0,0
107483,-111.111111111111,4,1,1,50,0,0
111175,-111.111111111111,4,1,1,60,0,0
114867,-100,4,1,1,70,0,1
128714,-100,4,1,1,70,0,0
129637,-100,4,1,1,70,0,1
142617,-100,4,2,1,20,0,1
144406,461.538461538462,4,2,1,40,1,0
148098,-100,4,2,1,45,0,0
155252,-100,4,2,1,45,0,0
155482,-100,4,2,1,45,0,0
162867,-100,4,2,1,55,0,0
176713,-100,4,2,1,55,0,0
177636,230.769230769231,4,1,1,60,1,0
200020,-100,4,1,1,70,0,0
200078,-100,4,1,1,60,0,0
207174,461.538461538462,4,2,1,60,1,0
214558,-153.846153846154,4,2,1,45,0,0
222866,-153.846153846154,4,2,1,50,0,0
223789,230.769230769231,4,1,1,50,1,0
223789,-111.111111111111,4,1,1,50,0,0
234865,-111.111111111111,4,1,1,60,0,0
238558,-111.111111111111,4,1,1,50,0,0
249635,-111.111111111111,4,1,1,60,0,0
253327,-100,4,1,1,70,0,1
267173,-100,4,1,1,70,0,0
268096,-100,4,1,1,70,0,1
281019,-100,4,1,1,70,0,0
281077,-100,4,2,1,20,0,0
282865,-100,4,2,1,60,0,0
284481,-100,4,2,1,70,0,0
284712,-100,4,1,1,75,0,1
291865,-100,4,1,1,75,0,0
292096,-100,4,1,1,70,0,1
299481,-100,4,1,1,60,0,0
306865,-100,4,1,1,70,0,1
312462,-100,4,2,1,20,0,1
314250,-100,4,1,1,60,0,0
343789,461.538461538462,4,2,1,40,1,0
343789,-66.6666666666667,4,2,1,40,0,0
343970,461.538461538462,4,2,1,40,1,8
344276,461.538461538462,4,2,1,40,1,8
345663,461.538461538462,4,2,1,40,1,0
347047,-66.6666666666667,4,2,1,45,0,0

[Colours]
Combo1 : 238,200,174
Combo2 : 65,136,188
Combo3 : 155,73,175
Combo4 : 108,103,216

[HitObjects]
84,209,826,6,0,P|144:154|222:179,1,170,2|2,0:0|0:0,0:0:0:0:
449,106,2173,2,0,P|388:51|310:76,1,170,2|2,0:0|0:0,0:0:0:0:
222,179,3215,1,0,0:0:0:0:
55,46,3548,6,0,B|23:88|51:124|82:166|53:215,1,170,2|2,0:0|0:0,0:0:0:0:
145,294,4492,1,0,0:0:0:0:
308,180,4837,2,0,L|398:171,1,85,2|0,0:0|0:0,0:0:0:0:
454,325,5515,2,0,L|364:316,1,85,2|0,0:0|0:0,0:0:0:0:
235,245,6194,6,0,P|175:208|74:240,1,170,2|2,0:0|0:0,0:0:0:0:
27,119,7175,1,0,0:0:0:0:
147,40,7512,2,0,P|207:77|308:45,1,170,2|2,0:0|0:0,0:0:0:0:
344,330,8845,6,0,L|362:160,1,170,2|0,0:0|0:0,0:0:0:0:
362,160,10170,1,0,0:0:0:0:
250,250,10452,2,0,P|202:262|157:257,2,85,0|2|2,0:0|0:0|0:0,0:0:0:0:
81,94,11512,6,0,B|68:127|68:127|78:177|78:177|50:216|54:274,1,170,2|2,0:0|0:0,0:0:0:0:
166,338,12539,1,0,0:0:0:0:
273,236,12872,6,0,B|315:204|351:232|393:263|440:234,1,170,2|0,0:0|0:0,0:0:0:0:
512,159,13872,1,2,0:0:0:0:
399,51,14184,6,0,P|373:107|374:154,1,85,2|0,0:0|0:0,0:0:0:0:
285,113,14726,2,0,P|288:155|307:193,1,85,2|0,0:0|0:0,0:0:0:0:
224,288,15392,1,0,0:0:0:0:
78,149,15822,5,0,0:0:0:0:
199,31,16192,2,0,L|186:131,1,85,2|0,0:0|0:0,0:0:0:0:
323,323,16858,6,0,P|287:260|317:154,1,170,2|2,0:0|0:0,0:0:0:0:
104,204,18134,2,0,P|102:256|78:302,1,85,2|0,0:0|0:0,0:0:0:0:
89,285,18657,2,0,P|144:255|205:268,1,127.5,2|2,0:0|0:0,0:0:0:0:
272,80,19510,6,0,P|311:98|376:88,1,85,2|0,0:0|0:0,0:0:0:0:
352,97,20010,2,0,P|390:79|432:79,1,85,2|0,0:0|0:0,0:0:0:0:
432,79,20676,1,0,0:0:0:0:
432,79,20843,2,0,B|400:121|428:157|459:199|430:248,1,170,2|0,0:0|0:0,0:0:0:0:
280,308,21865,1,2,0:0:0:0:
174,216,22205,6,0,P|119:197|71:193,1,85,2|0,0:0|0:0,0:0:0:0:
76,170,22680,2,0,P|117:162|157:147,1,85,2|0,0:0|0:0,0:0:0:0:
331,56,23344,1,0,0:0:0:0:
331,56,23510,2,0,P|289:114|352:209,1,170,2|0,0:0|0:0,0:0:0:0:
483,177,24497,1,2,0:0:0:0:
355,323,24820,6,0,L|249:308,1,85,2|0,0:0|0:0,0:0:0:0:
214,278,25303,2,0,L|299:267,2,85,2|0|0,0:0|0:0|0:0,0:0:0:0:
76,165,26170,2,0,P|150:197|236:137,1,170,2|2,0:0|0:0,0:0:0:0:
314,81,27144,1,2,0:0:0:0:
466,158,27489,6,0,P|480:261|346:174,1,340,2|0,0:0|0:0,0:0:0:0:
158,167,29180,1,2,0:0:0:0:
282,50,29528,2,0,L|272:142,1,85,2|2,0:0|0:0,0:0:0:0:
167,251,30226,6,0,L|157:166,2,85,2|0|0,0:0|0:0|0:0,0:0:0:0:
281,317,31193,1,0,0:0:0:0:
358,200,31522,2,0,P|436:176|508:217,1,170,2|2,0:0|0:0,0:0:0:0:
255,89,32855,1,2,0:0:0:0:
256,192,33019,12,0,35155,0:0:0:0:
130,106,35484,5,0,3:0:0:0:
123,121,35945,1,0,0:0:0:0:
115,141,36407,5,8,0:3:0:0:
159,204,36522,1,8,0:3:0:0:
235,216,36637,1,4,0:3:0:0:
304,180,36753,1,4,0:3:0:0:
366,134,36868,2,0,P|407:123|431:123,1,55.2499974708558,8|8,0:1|0:1,0:0:0:0:
491,291,37099,2,0,P|463:288|437:279,1,55.2499974708558,8|8,0:1|0:1,0:0:0:0:
183,281,37330,6,0,P|225:318|333:287,1,170,12|2,0:0|0:0,0:0:0:0:
104,154,38022,1,0,0:0:0:0:
104,154,38137,1,0,0:0:0:0:
104,154,38253,2,0,L|74:342,1,170,10|2,0:1|0:0,0:0:0:0:
259,234,38945,1,8,0:0:0:0:
259,234,39060,1,0,0:0:0:0:
259,234,39176,6,0,L|276:133,1,85,10|0,0:0|0:0,0:0:0:0:
383,104,39522,2,0,L|368:187,1,85,10|0,0:0|0:0,0:0:0:0:
259,234,39868,1,8,0:0:0:0:
179,184,39984,1,8,0:0:0:0:
91,222,40099,6,0,P|61:269|115:372,1,170,8|8,0:1|0:1,0:0:0:0:
337,266,40791,1,8,0:1:0:0:
337,266,40868,1,8,0:1:0:0:
337,266,40945,1,8,0:1:0:0:
337,266,41022,6,0,P|299:309|190:285,1,170,12|2,0:0|0:0,0:0:0:0:
377,144,41714,1,10,0:0:0:0:
496,187,41945,2,0,L|479:275,1,85,8|8,0:1|0:0,0:0:0:0:
390,323,42291,1,8,0:0:0:0:
258,233,42407,2,0,L|275:321,1,85,10|8,0:1|0:0,0:0:0:0:
67,293,42868,6,0,P|84:255|90:213,1,85,10|8,0:0|0:0,0:0:0:0:
41,111,43214,1,8,0:0:0:0:
172,48,43330,2,0,P|177:89|195:128,1,85,10|8,0:1|0:0,0:0:0:0:
294,168,43676,1,0,0:0:0:0:
456,165,43791,6,0,P|448:191|444:218,1,55.2499974708558,2|8,0:0|0:1,0:0:0:0:
363,31,44022,2,0,P|389:24|415:13,1,55.2499974708558,10|8,0:0|0:0,0:0:0:0:
294,168,44253,2,0,P|274:148|252:131,1,55.2499974708558,10|8,0:1|0:1,0:0:0:0:
456,165,44484,1,10,0:1:0:0:
371,281,44599,1,8,0:1:0:0:
224,224,44714,6,0,P|160:193|55:218,1,170,12|8,0:2|0:0,0:0:0:0:
164,56,45060,2,0,P|228:87|333:62,1,170,10|8,0:2|0:2,0:0:0:0:
456,165,45406,2,0,P|488:120|494:83,1,85,10|0,0:0|0:0,0:0:0:0:
343,182,45637,6,0,P|368:231|329:350,1,170,10|8,0:2|0:0,0:0:0:0:
176,280,45983,2,0,P|146:202|174:124,1,170,10|8,0:2|0:2,0:0:0:0:
252,57,46329,1,10,0:0:0:0:
340,107,46444,1,0,0:0:0:0:
442,103,46560,6,0,L|411:270,1,170,10|8,0:2|0:0,0:0:0:0:
263,132,46906,1,10,0:2:0:0:
263,132,47021,2,0,L|273:222,1,85,0|8,0:0|0:2,0:0:0:0:
144,275,47252,2,0,L|153:190,1,85,10|0,0:0|0:0,0:0:0:0:
7,68,47483,6,0,B|43:97|86:69|128:42|169:66,1,170,10|8,0:2|0:0,0:0:0:0:
314,192,47830,2,0,B|278:221|235:193|193:166|152:190,1,170,10|8,0:2|0:2,0:0:0:0:
85,267,48175,1,10,0:0:0:0:
145,348,48290,1,0,0:0:0:0:
243,321,48406,6,0,P|311:284|411:319,1,170,10|8,0:2|0:0,0:0:0:0:
512,196,48752,1,10,0:2:0:0:
512,196,48867,2,0,L|499:299,1,85,0|8,0:0|0:2,0:0:0:0:
397,180,49098,2,0,L|407:95,1,85,10|0,0:0|0:0,0:0:0:0:
261,30,49329,6,0,B|286:79|286:79|270:194,1,170,10|8,0:2|0:0,0:0:0:0:
138,212,49675,1,10,0:2:0:0:
138,212,49790,2,0,P|116:255|112:301,1,85,0|8,0:0|0:2,0:0:0:0:
79,106,50021,2,0,P|33:120|-3:150,1,85,10|0,0:0|0:0,0:0:0:0:
138,212,50252,6,0,P|234:214|325:247,1,170,10|8,0:2|0:0,0:0:0:0:
427,168,50598,1,10,0:2:0:0:
427,168,50714,2,0,L|448:258,1,85,0|8,0:0|0:2,0:0:0:0:
316,112,50945,2,0,P|330:61|361:26,1,85,10|0,0:0|0:0,0:0:0:0:
303,236,51175,5,10,0:2:0:0:
218,276,51290,1,8,0:2:0:0:
137,229,51405,1,10,0:0:0:0:
148,135,51521,1,8,0:2:0:0:
238,108,51637,5,10,0:0:0:0:
228,192,51752,1,8,0:0:0:0:
218,276,51867,1,10,0:0:0:0:
209,361,51982,1,8,0:0:0:0:
311,277,52098,6,0,P|373:242|467:268,1,170,12|8,0:2|0:0,0:0:0:0:
500,122,52444,1,8,0:2:0:0:
500,122,52560,2,0,P|440:145|406:145,1,85,2|8,0:0|0:2,0:0:0:0:
309,23,52790,2,0,L|295:123,1,85,8|0,0:0|0:0,0:0:0:0:
86,188,53021,6,0,P|137:153|239:222,1,170,10|8,0:2|0:0,0:0:0:0:
331,225,53367,1,8,0:2:0:0:
394,136,53483,2,0,L|486:126,1,85,2|8,0:0|0:2,0:0:0:0:
480,290,53714,2,0,L|388:280,1,85,8|0,0:0|0:0,0:0:0:0:
193,318,53944,6,0,P|246:255|245:172,1,170,10|8,0:2|0:0,0:0:0:0:
85,114,54290,2,0,P|31:177|32:260,1,170,8|8,0:2|0:2,0:0:0:0:
139,217,54636,1,8,0:0:0:0:
139,217,54751,1,0,0:0:0:0:
236,150,54867,6,0,L|407:165,1,170,10|8,0:2|0:0,0:0:0:0:
506,257,55214,1,10,0:2:0:0:
420,338,55329,2,0,P|373:298|353:269,1,85,0|8,0:0|0:2,0:0:0:0:
246,351,55560,2,0,P|239:289|245:254,1,85,8|0,0:0|0:0,0:0:0:0:
126,54,55790,6,0,B|152:126|152:126|128:177|139:219,1,170,12|8,0:2|0:0,0:0:0:0:
243,267,56137,1,8,0:2:0:0:
336,180,56252,2,0,P|374:168|417:170,1,85,0|8,0:0|0:2,0:0:0:0:
477,274,56483,2,0,P|439:286|395:284,1,85,8|0,0:0|0:0,0:0:0:0:
243,267,56714,6,0,P|277:302|298:346,1,85,10|0,0:2|0:0,0:0:0:0:
254,162,56944,2,0,P|302:166|346:187,1,85,8|10,0:0|0:2,0:0:0:0:
182,76,57175,2,0,P|210:39|259:14,1,85,0|8,0:0|0:2,0:0:0:0:
124,176,57406,2,0,P|75:171|31:150,1,85,8|0,0:0|0:0,0:0:0:0:
0,300,57637,6,0,B|66:274|66:274|112:302|188:294,1,170,10|8,0:2|0:0,0:0:0:0:
250,203,57983,1,8,0:2:0:0:
331,298,58098,2,0,L|317:390,1,85,2|8,0:0|0:2,0:0:0:0:
434,332,58329,2,0,L|446:247,1,85,8|0,0:0|0:0,0:0:0:0:
370,100,58560,6,0,P|415:112|462:111,1,85,10|8,0:2|0:0,0:0:0:0:
250,203,58790,2,0,P|204:215|158:214,1,85,10|8,0:0|0:2,0:0:0:0:
280,121,59021,1,10,0:0:0:0:
334,186,59137,1,8,0:0:0:0:
310,267,59252,1,10,0:0:0:0:
227,284,59367,1,8,0:0:0:0:
164,226,59483,6,0,P|96:192|-3:210,1,170,12|8,0:2|0:0,0:0:0:0:
121,102,59829,2,0,P|187:135|283:118,1,170,10|8,0:2|0:2,0:0:0:0:
375,18,60175,2,0,L|398:135,1,85,10|0,0:0|0:0,0:0:0:0:
491,308,60406,6,0,L|512:133,1,170,10|8,0:2|0:0,0:0:0:0:
361,227,60752,1,10,0:2:0:0:
361,227,60867,2,0,P|332:178|302:149,1,85,0|8,0:0|0:2,0:0:0:0:
262,315,61098,2,0,P|226:293|175:281,1,85,10|0,0:0|0:0,0:0:0:0:
13,150,61329,6,0,B|62:188|125:182|125:182|185:135,1,170,10|8,0:2|0:0,0:0:0:0:
259,59,61675,1,10,0:2:0:0:
376,115,61790,2,0,L|390:211,1,85,0|8,0:0|0:2,0:0:0:0:
495,276,62022,2,0,L|508:192,1,85,10|0,0:0|0:0,0:0:0:0:
295,164,62252,6,0,B|265:207|282:251|282:251|311:279|311:321,1,170,10|8,0:2|0:0,0:0:0:0:
143,360,62598,2,0,B|173:317|156:273|156:273|127:245|126:202,1,170,10|8,0:2|0:2,0:0:0:0:
16,97,62944,2,0,P|-3:148|7:196,1,85,10|0,0:0|0:0,0:0:0:0:
133,99,63175,6,0,B|174:69|215:101|254:125|296:99,1,170,10|8,0:2|0:0,0:0:0:0:
402,46,63522,1,10,0:2:0:0:
295,99,63637,2,0,P|288:154|299:196,1,85,0|8,0:0|0:2,0:0:0:0:
457,226,63867,2,0,P|464:171|453:129,1,85,10|0,0:0|0:0,0:0:0:0:
327,271,64098,6,0,P|287:301|150:264,1,170,10|8,0:2|0:0,0:0:0:0:
54,147,64444,2,0,L|78:331,1,170,10|8,0:2|0:2,0:0:0:0:
173,85,64790,2,0,L|160:179,1,85,10|0,0:0|0:0,0:0:0:0:
269,27,65021,6,0,P|334:90|424:63,1,170,10|8,0:2|0:0,0:0:0:0:
260,166,65367,2,0,L|237:344,1,170,10|10,0:2|0:2,0:0:0:0:
367,228,65714,2,0,L|386:322,1,85,8|0,0:0|0:0,0:0:0:0:
457,166,65944,6,0,L|468:71,1,85,10|8,0:2|0:2,0:0:0:0:
372,33,66176,2,0,L|363:118,1,85,10|0,0:0|0:0,0:0:0:0:
285,171,66406,1,10,0:0:0:0:
191,174,66521,1,8,0:0:0:0:
108,128,66637,1,10,0:0:0:0:
80,38,66752,1,8,0:0:0:0:
14,107,66868,6,0,L|2:169,1,63.7500024318696,14|0,0:2|0:0,0:0:0:0:
103,280,67098,2,0,L|115:218,1,63.7500024318696,2|0,0:0|0:0,0:0:0:0:
257,97,67329,2,0,L|245:159,1,63.7500024318696,10|0,0:2|0:0,0:0:0:0:
346,270,67559,2,0,L|358:208,1,63.7500024318696,2|0,0:0|0:0,0:0:0:0:
244,259,67790,6,0,P|213:283|184:292,1,63.7500024318696,10|0,0:2|0:0,0:0:0:0:
112,149,68021,2,0,P|141:160|165:180,1,63.7500024318696,2|0,0:0|0:0,0:0:0:0:
321,195,68252,2,0,P|355:176|379:145,1,63.7500024318696,10|0,0:2|0:0,0:0:0:0:
262,34,68482,2,0,P|254:64|257:96,1,63.7500024318696,2|0,0:0|0:0,0:0:0:0:
166,181,68714,6,0,P|124:197|95:216,1,63.7500024318696,10|0,0:2|0:0,0:0:0:0:
244,259,68944,2,0,P|222:298|212:331,1,63.7500024318696,2|0,0:0|0:0,0:0:0:0:
321,195,69175,2,0,P|338:167|350:138,1,63.7500024318696,10|0,0:2|0:0,0:0:0:0:
396,272,69405,2,0,P|427:261|455:246,1,63.7500024318696,2|0,0:0|0:0,0:0:0:0:
429,75,69637,6,0,L|441:160,1,63.7500024318696,10|0,0:3|0:0,0:0:0:0:
321,195,69867,2,0,L|309:110,1,63.7500024318696,0|0,0:0|0:0,0:0:0:0:
194,74,70098,2,0,L|164:35,3,42.5000016212464,10|10|10|8,0:0|0:0|0:0|0:0,0:0:0:0:
201,84,70444,1,8,0:0:0:0:
112,165,70560,6,0,B|99:210|99:210|117:317,1,127.500004863739,12|10,0:2|0:0,0:0:0:0:
195,338,70906,1,0,0:0:0:0:
267,255,71021,2,0,L|352:247,1,63.7500024318696,2|8,0:0|0:2,0:0:0:0:
440,326,71252,2,0,L|377:332,1,63.7500024318696,10|0,0:0|0:0,0:0:0:0:
441,226,71483,6,0,B|469:189|469:189|471:99,1,127.500004863739,10|10,0:2|0:0,0:0:0:0:
341,35,71829,2,0,L|371:169,1,127.500004863739,2|8,0:0|0:2,0:0:0:0:
272,191,72175,2,0,L|266:260,1,63.7500024318696,10|0,0:0|0:0,0:0:0:0:
63,246,72406,6,0,P|125:236|179:269,1,127.500004863739,10|8,0:2|0:0,0:0:0:0:
293,292,72752,1,0,0:0:0:0:
293,292,72867,2,0,L|298:228,1,63.7500024318696,0|8,0:0|0:2,0:0:0:0:
134,129,73098,2,0,P|191:162|258:146,1,127.500004863739,8|10,0:0|0:2,0:0:0:0:
335,70,73444,1,0,0:0:0:0:
428,131,73560,2,0,L|418:193,1,63.7500024318696,8|10,0:0|0:2,0:0:0:0:
320,254,73790,2,0,L|329:191,1,63.7500024318696,0|8,0:0|0:2,0:0:0:0:
259,88,74021,2,0,L|249:150,1,63.7500024318696,10|0,0:0|0:0,0:0:0:0:
89,213,74252,6,0,P|150:201|202:236,1,127.500004863739,12|8,0:2|0:0,0:0:0:0:
275,323,74598,2,0,P|336:334|387:300,1,127.500004863739,2|8,0:0|0:2,0:0:0:0:
382,194,74944,1,10,0:0:0:0:
281,175,75060,1,0,0:0:0:0:
208,246,75175,6,0,P|169:259|129:257,1,63.7500024318696,10|0,0:2|0:0,0:0:0:0:
51,130,75406,2,0,P|78:146|109:153,1,63.7500024318696,10|0,0:0|0:0,0:0:0:0:
281,54,75637,2,0,P|249:56|219:67,1,63.7500024318696,2|8,0:0|0:2,0:0:0:0:
281,175,75868,2,0,P|320:186|352:211,1,63.7500024318696,10|0,0:0|0:0,0:0:0:0:
448,92,76098,6,0,B|443:141|443:141|466:180|460:216,1,127.500004863739,10|8,0:2|0:0,0:0:0:0:
351,322,76444,2,0,B|356:273|356:273|333:234|338:197,1,127.500004863739,0|8,0:0|0:2,0:0:0:0:
220,68,76790,2,0,L|164:37,2,42.5000016212464,8|0|0,0:0|0:0|0:0,0:0:0:0:
229,92,77021,6,0,L|215:226,1,127.500004863739,10|10,0:2|0:0,0:0:0:0:
126,255,77367,1,8,0:2:0:0:
199,317,77482,1,10,0:0:0:0:
295,311,77597,1,8,0:0:0:0:
360,240,77713,1,10,0:0:0:0:
356,144,77828,1,8,0:0:0:0:
287,77,77944,6,0,P|226:52|153:97,1,144.500002756119,12|8,0:2|0:0,0:0:0:0:
90,170,78290,1,2,0:0:0:0:
215,218,78406,2,0,P|233:271|237:304,1,72.2500013780594,0|8,0:0|0:2,0:0:0:0:
356,144,78637,2,0,P|339:197|321:223,1,72.2500013780594,10|0,0:0|0:0,0:0:0:0:
450,339,78867,6,0,P|423:280|454:206,1,144.500002756119,10|10,0:2|0:0,0:0:0:0:
512,123,79214,1,0,0:0:0:0:
512,123,79329,2,0,P|480:81|475:54,1,72.2500013780594,0|8,0:0|0:2,0:0:0:0:
361,89,79560,2,0,P|346:117|315:143,1,72.2500013780594,10|0,0:0|0:0,0:0:0:0:
132,60,79790,6,0,B|174:66|174:66|224:36|277:61,1,144.500002756119,10|8,0:2|0:0,0:0:0:0:
224,164,80137,1,0,0:0:0:0:
224,164,80252,2,0,P|204:202|202:254,1,72.2500013780594,2|8,0:0|0:2,0:0:0:0:
118,300,80483,2,0,P|98:262|98:211,1,72.2500013780594,10|0,0:0|0:0,0:0:0:0:
303,233,80714,6,0,B|306:274|289:305|289:305|306:334|308:371,1,144.500002756119,10|10,0:2|0:0,0:0:0:0:
415,352,81060,1,8,0:2:0:0:
448,251,81175,2,0,P|478:239|519:238,1,72.2500013780594,2|8,0:0|0:2,0:0:0:0:
423,152,81406,2,0,P|393:163|354:164,1,72.2500013780594,10|0,0:0|0:0,0:0:0:0:
182,47,81637,6,0,L|327:62,1,144.500002756119,12|8,0:2|0:0,0:0:0:0:
224,164,81983,2,0,L|76:182,1,144.500002756119,2|8,0:0|0:2,0:0:0:0:
172,325,82329,2,0,P|186:292|213:268,1,72.2500013780594,10|0,0:0|0:0,0:0:0:0:
314,257,82560,5,10,0:2:0:0:
397,303,82675,1,0,0:0:0:0:
482,260,82790,1,10,0:0:0:0:
486,163,82906,1,0,0:0:0:0:
405,109,83021,2,0,P|396:75|396:39,1,72.2500013780594,0|8,0:0|0:2,0:0:0:0:
315,155,83252,2,0,P|288:132|268:102,1,72.2500013780594,10|0,0:0|0:0,0:0:0:0:
79,222,83483,6,0,L|231:203,1,144.500002756119,10|8,0:2|0:0,0:0:0:0:
224,33,83829,1,0,0:0:0:0:
224,33,83944,2,0,P|199:59|185:104,1,72.2500013780594,0|8,0:0|0:2,0:0:0:0:
283,142,84175,2,0,P|321:121|356:119,1,72.2500013780594,10|0,0:0|0:0,0:0:0:0:
481,221,84406,6,0,P|415:246|350:218,1,144.500002756119,10|8,0:2|0:0,0:0:0:0:
283,142,84752,1,10,0:2:0:0:
207,208,84867,1,8,0:0:0:0:
117,159,84983,1,8,0:0:0:0:
42,227,85098,1,10,0:0:0:0:
82,320,85214,1,8,0:0:0:0:
183,307,85329,6,0,B|219:295|251:312|251:312|289:332|321:311,1,144.500002756119,12|10,0:2|0:0,0:0:0:0:
421,270,85675,1,0,0:0:0:0:
379,185,85790,2,0,P|329:213|312:229,1,72.2500013780594,0|8,0:0|0:2,0:0:0:0:
319,51,86021,2,0,P|353:67|391:100,1,72.2500013780594,10|0,0:0|0:0,0:0:0:0:
207,208,86252,6,0,L|219:64,1,144.500002756119,10|8,0:2|0:0,0:0:0:0:
110,232,86598,1,2,0:0:0:0:
110,232,86714,2,0,L|93:154,1,72.2500013780594,0|8,0:0|0:2,0:0:0:0:
55,335,86944,2,0,L|16:269,1,72.2500013780594,10|0,0:0|0:0,0:0:0:0:
151,318,87175,6,0,B|185:342|225:320|262:298|290:316,1,144.500002756119,10|10,0:2|0:0,0:0:0:0:
361,242,87521,1,0,0:0:0:0:
461,259,87637,2,0,P|483:301|490:342,1,72.2500013780594,2|8,0:0|0:2,0:0:0:0:
361,242,87867,2,0,P|370:207|388:176,1,72.2500013780594,10|0,0:0|0:0,0:0:0:0:
307,54,88098,6,0,L|300:147,1,72.2500013780594,10|0,0:2|0:0,0:0:0:0:
186,111,88330,2,0,L|193:204,1,72.2500013780594,8|0,0:0|0:0,0:0:0:0:
62,218,88560,2,0,L|67:145,1,72.2500013780594,0|8,0:0|0:2,0:0:0:0:
183,275,88791,2,0,L|177:202,1,72.2500013780594,10|0,0:0|0:0,0:0:0:0:
73,49,89021,6,0,P|133:78|214:52,1,144.500002756119,12|8,0:2|0:0,0:0:0:0:
305,115,89367,2,0,P|373:95|437:125,1,144.500002756119,2|8,0:0|0:2,0:0:0:0:
480,218,89714,1,10,0:0:0:0:
419,298,89829,1,0,0:0:0:0:
325,260,89944,6,0,P|276:243|249:243,1,72.2500013780594,10|0,0:2|0:0,0:0:0:0:
173,180,90175,2,0,L|150:271,1,72.2500013780594,10|0,0:0|0:0,0:0:0:0:
65,335,90406,2,0,P|59:263|34:195,1,144.500002756119,0|10,0:0|0:0,0:0:0:0:
77,103,90752,1,0,0:0:0:0:
173,180,90867,6,0,P|237:157|331:166,1,144.500002756119,10|8,0:2|0:0,0:0:0:0:
414,91,91214,1,2,0:0:0:0:
414,91,91329,2,0,L|438:186,1,72.2500013780594,0|8,0:0|0:2,0:0:0:0:
300,268,91560,2,0,L|312:160,1,108.375002067089,10|0,0:0|0:0,0:0:0:0:
329,85,91790,6,0,P|338:119|340:155,1,72.2500013780594,10|0,0:2|0:0,0:0:0:0:
162,250,92021,2,0,P|162:214|173:180,1,72.2500013780594,8|10,0:0|0:2,0:0:0:0:
330,65,92252,1,8,0:0:0:0:
181,41,92367,1,10,0:0:0:0:
324,50,92483,1,8,0:0:0:0:
173,51,92598,1,10,0:0:0:0:
165,60,92945,6,0,L|137:209,1,144.500002756119,12|0,0:0|0:0,0:0:0:0:
253,202,93290,1,8,0:2:0:0:
355,252,93406,2,0,P|388:227|411:187,1,72.2500013780594,10|0,0:0|0:0,0:0:0:0:
481,29,93637,6,0,P|500:96|503:180,1,144.500002756119,10|10,0:2|0:0,0:0:0:0:
406,202,93983,1,0,0:0:0:0:
305,112,94098,2,0,L|214:103,1,72.2500013780594,0|8,0:0|0:2,0:0:0:0:
144,215,94329,2,0,L|235:206,1,72.2500013780594,10|0,0:0|0:0,0:0:0:0:
93,307,94560,6,0,P|150:314|242:343,1,144.500002756119,10|8,0:2|0:0,0:0:0:0:
339,317,94906,1,2,0:0:0:0:
447,261,95021,2,0,P|465:302|471:335,1,72.2500013780594,0|8,0:0|0:2,0:0:0:0:
319,218,95252,2,0,P|327:183|343:151,1,72.2500013780594,10|0,0:0|0:0,0:0:0:0:
240,49,95483,6,0,L|232:129,1,72.2500013780594,10|0,0:2|0:0,0:0:0:0:
126,116,95714,2,0,L|118:196,1,72.2500013780594,8|10,0:0|0:2,0:0:0:0:
252,240,95944,2,0,P|305:219|342:221,1,72.2500013780594,0|8,0:0|0:2,0:0:0:0:
149,304,96175,2,0,P|96:283|59:285,1,72.2500013780594,10|0,0:0|0:0,0:0:0:0:
253,360,96406,6,0,P|312:363|387:322,1,144.500002756119,14|8,0:2|0:0,0:0:0:0:
466,240,96752,2,0,L|492:333,2,72.2500013780594,2|0|8,0:0|0:0|0:2,0:0:0:0:
364,83,97098,2,0,L|350:227,1,144.500002756119,10|10,0:0|0:2,0:0:0:0:
248,265,97444,5,0,0:0:0:0:
161,174,97560,2,0,P|126:164|90:161,1,72.2500013780594,10|0,0:0|0:0,0:0:0:0:
29,286,97790,2,0,P|64:282|99:273,1,72.2500013780594,0|10,0:0|0:2,0:0:0:0:
170,365,98021,2,0,P|197:328|208:291,1,72.2500013780594,8|0,0:0|0:0,0:0:0:0:
297,141,98252,6,0,B|283:189|316:217|352:246|325:291,1,144.500002756119,12|8,0:2|0:0,0:0:0:0:
455,273,98598,2,0,B|434:243|470:214|503:186|490:140,1,144.500002756119,2|8,0:0|0:2,0:0:0:0:
382,62,98944,2,0,L|462:45,1,72.2500013780594,10|0,0:0|0:0,0:0:0:0:
297,141,99175,6,0,L|135:126,1,144.500002756119,10|8,0:2|0:0,0:0:0:0:
68,217,99522,1,8,0:2:0:0:
193,306,99637,2,0,P|186:270|173:236,1,72.2500013780594,10|8,0:0|0:0,0:0:0:0:
334,190,99867,2,0,P|318:236|313:283,1,72.2500013780594,10|8,0:0|0:0,0:0:0:0:
359,167,100098,6,0,L|183:151,1,152.999995330811,12|10,0:2|0:0,0:0:0:0:
107,194,100444,1,0,0:0:0:0:
31,90,100559,2,0,L|11:18,3,50.9999984436036,10|0|0|8,0:0|0:0|0:0|0:0,0:0:0:0:
190,236,101021,6,0,P|169:286|144:312,1,76.4999976654053,10|0,0:2|0:0,0:0:0:0:
283,169,101251,2,0,P|336:162|371:170,1,76.4999976654053,10|0,0:0|0:0,0:0:0:0:
178,129,101482,2,0,P|145:85|135:51,1,76.4999976654053,10|8,0:0|0:0,0:0:0:0:
252,10,101713,1,8,0:0:0:0:
320,81,101828,1,8,0:0:0:0:
417,103,101944,6,0,L|508:91,1,76.4999976654053,14|0,0:2|0:0,0:0:0:0:
283,169,102174,2,0,L|192:157,1,76.4999976654053,10|8,0:0|0:2,0:0:0:0:
74,272,102405,1,10,0:0:0:0:
74,272,102482,1,0,0:0:0:0:
74,272,102560,2,0,L|144:266,1,50.9999984436036,0|8,0:0|0:0,0:0:0:0:
428,173,102867,6,0,B|338:147|338:147|262:177,1,152.999995330811,10|10,0:2|0:0,0:0:0:0:
201,226,103213,1,0,0:0:0:0:
116,174,103328,1,10,0:0:0:0:
139,76,103444,1,8,0:0:0:0:
237,67,103559,2,0,P|276:78|328:65,1,76.4999976654053,8|8,0:0|0:0,0:0:0:0:
452,252,103790,6,0,B|425:218|426:168|426:168|470:122,1,152.999995330811,12|10,0:2|0:0,0:0:0:0:
393,57,104136,1,8,0:2:0:0:
301,156,104252,2,0,L|291:208,3,50.9999984436036,10|0|0|8,0:0|0:0|0:0|0:0,0:0:0:0:
139,76,104713,6,0,L|110:252,1,152.999995330811,10|10,0:2|0:0,0:0:0:0:
185,307,105059,1,0,0:0:0:0:
273,247,105174,2,0,L|363:236,1,76.4999976654053,0|8,0:0|0:0,0:0:0:0:
289,126,105406,2,0,L|199:115,1,76.4999976654053,8|8,0:0|0:0,0:0:0:0:
5,110,105637,6,0,P|11:176|16:271,1,152.999995330811,12|0,0:2|0:0,0:0:0:0:
96,339,105983,1,8,0:2:0:0:
205,260,106098,1,10,0:0:0:0:
205,260,106174,1,8,0:0:0:0:
205,260,106252,2,0,L|183:311,1,50.9999984436036,8|8,0:0|0:0,0:0:0:0:
141,138,106560,6,0,L|224:145,1,76.4999976654053,10|0,0:2|0:0,0:0:0:0:
284,61,106790,2,0,L|367:54,1,76.4999976654053,8|0,0:0|0:0,0:0:0:0:
437,117,107021,1,10,0:0:0:0:
405,211,107137,1,8,0:0:0:0:
308,234,107252,1,10,0:0:0:0:
235,166,107367,1,8,0:0:0:0:
139,196,107483,6,0,B|124:253|124:253|152:358,1,152.999995330811,12|8,0:2|0:0,0:0:0:0:
265,355,107829,1,0,0:0:0:0:
332,276,107944,2,0,L|431:264,1,76.4999976654053,10|8,0:2|0:2,0:0:0:0:
215,205,108176,2,0,L|116:193,1,76.4999976654053,8|0,0:0|0:0,0:0:0:0:
233,87,108406,6,0,P|306:115|385:119,1,152.999995330811,10|8,0:2|0:0,0:0:0:0:
215,205,108752,2,0,P|138:209|67:237,1,152.999995330811,0|8,0:0|0:2,0:0:0:0:
18,135,109098,2,0,P|47:94|64:59,1,76.4999976654053,8|0,0:0|0:0,0:0:0:0:
209,22,109329,6,0,P|231:100|291:162,1,152.999995330811,12|8,0:2|0:0,0:0:0:0:
379,118,109675,1,0,0:0:0:0:
433,209,109790,2,0,P|485:198|517:201,1,76.4999976654053,10|8,0:2|0:2,0:0:0:0:
334,292,110021,2,0,P|282:281|250:284,1,76.4999976654053,8|0,0:0|0:0,0:0:0:0:
340,183,110252,6,0,P|364:149|381:111,1,76.4999976654053,10|0,0:2|0:0,0:0:0:0:
215,205,110483,2,0,P|192:173|176:139,1,76.4999976654053,8|10,0:0|0:2,0:0:0:0:
258,307,110714,2,0,L|348:289,1,76.4999976654053,0|8,0:0|0:2,0:0:0:0:
138,257,110944,2,0,L|48:239,1,76.4999976654053,10|8,0:0|0:0,0:0:0:0:
254,29,111175,6,0,P|269:85|269:125,1,76.4999976654053,12|0,0:0|0:0,0:0:0:0:
267,361,111406,2,0,P|252:305|252:265,1,76.4999976654053,10|8,0:2|0:2,0:0:0:0:
348,54,111637,6,0,P|327:107|304:139,1,76.4999976654053,10|0,0:0|0:0,0:0:0:0:
168,333,111868,2,0,P|188:278|210:246,1,76.4999976654053,10|8,0:2|0:2,0:0:0:0:
411,129,112098,6,0,P|363:161|326:175,1,76.4999976654053,10|0,0:0|0:0,0:0:0:0:
103,254,112329,2,0,P|150:220|188:207,1,76.4999976654053,10|8,0:2|0:2,0:0:0:0:
419,226,112560,6,0,P|361:225|322:215,1,76.4999976654053,10|0,0:0|0:0,0:0:0:0:
95,153,112791,2,0,P|152:153|191:163,1,76.4999976654053,10|8,0:2|0:2,0:0:0:0:
255,46,113021,6,0,B|230:84|254:114|283:157|257:192,1,152.999995330811,14|10,0:0|0:2,0:0:0:0:
259,284,113367,1,0,0:0:0:0:
396,251,113483,5,10,0:0:0:0:
332,209,113599,1,8,0:0:0:0:
257,192,113713,1,10,0:0:0:0:
183,209,113830,1,8,0:0:0:0:
119,251,113944,1,8,3:1:0:0:
37,91,114867,6,0,B|117:121|117:121|165:104|178:56,1,170,12|8,0:2|0:0,0:0:0:0:
280,24,115214,1,0,0:0:0:0:
372,83,115329,2,0,P|401:130|403:182,1,85,10|8,0:2|0:2,0:0:0:0:
240,248,115560,2,0,P|249:206|274:173,1,85,10|0,0:0|0:0,0:0:0:0:
107,190,115790,6,0,B|142:248|136:306|136:306|79:290,1,170,10|8,0:2|0:0,0:0:0:0:
240,248,116137,2,0,B|283:215|283:215|343:264|410:226,1,170,10|8,0:2|0:2,0:0:0:0:
476,163,116483,1,10,0:0:0:0:
434,60,116598,1,0,0:0:0:0:
323,67,116714,6,0,B|265:64|212:89|212:89|233:20,1,170,10|8,0:2|0:0,0:0:0:0:
107,190,117060,2,0,B|165:193|218:168|218:168|197:237,1,170,2|10,0:0|0:2,0:0:0:0:
168,327,117406,1,8,0:0:0:0:
281,296,117521,6,0,P|326:288|384:310,1,85,0|10,0:0|0:2,0:0:0:0:
448,128,117752,1,8,0:2:0:0:
448,128,117867,2,0,L|429:222,1,85,10|8,0:0|0:2,0:0:0:0:
266,126,118098,2,0,P|247:89|245:40,1,85,2|8,0:0|0:2,0:0:0:0:
189,247,118329,2,0,P|170:284|168:333,1,85,10|0,0:0|0:0,0:0:0:0:
11,239,118560,6,0,B|40:194|40:194|16:67,1,170,12|8,0:2|0:0,0:0:0:0:
115,20,118906,1,0,0:0:0:0:
215,82,119021,2,0,B|186:127|186:127|197:190,1,85,8|8,0:2|0:2,0:0:0:0:
284,219,119252,2,0,L|367:199,1,85,10|0,0:0|0:0,0:0:0:0:
481,40,119483,6,0,B|458:80|488:117|521:166|486:201,1,170,10|8,0:2|0:0,0:0:0:0:
289,289,119829,2,0,B|254:253|287:204|317:167|294:127,1,170,10|8,0:2|0:2,0:0:0:0:
173,40,120175,2,0,L|266:21,1,85,10|0,0:0|0:0,0:0:0:0:
162,155,120406,5,10,0:2:0:0:
162,155,120521,2,0,L|69:136,1,85,0|8,0:0|0:0,0:0:0:0:
108,257,120752,2,0,P|66:279|30:316,1,85,2|8,0:0|0:2,0:0:0:0:
218,297,120983,2,0,P|194:329|185:380,1,85,10|8,0:2|0:0,0:0:0:0:
349,229,121214,1,0,0:0:0:0:
349,229,121329,6,0,L|440:222,1,85,10|8,0:2|0:2,0:0:0:0:
162,155,121560,2,0,L|71:148,1,85,10|8,0:0|0:2,0:0:0:0:
350,50,121790,2,0,L|441:43,1,85,2|8,0:0|0:2,0:0:0:0:
185,74,122021,1,10,0:0:0:0:
177,101,122098,1,8,0:0:0:0:
169,128,122175,1,8,0:0:0:0:
162,155,122252,6,0,B|146:201|146:201|209:246|163:324,1,170,12|10,0:2|0:0,0:0:0:0:
274,265,122598,1,2,0:0:0:0:
385,265,122714,2,0,P|432:283|464:318,1,85,8|10,0:2|0:2,0:0:0:0:
323,181,122944,2,0,P|315:131|329:86,1,85,8|0,0:0|0:0,0:0:0:0:
76,67,123175,6,0,B|79:114|116:153|116:153|89:199|104:253,1,170,10|8,0:2|0:0,0:0:0:0:
246,311,123521,2,0,B|255:287|228:241|228:241|265:202|268:155,1,170,10|8,0:2|0:2,0:0:0:0:
407,82,123867,2,0,B|426:123|426:123|419:152|427:186,1,85,10|0,0:0|0:0,0:0:0:0:
323,266,124098,6,0,P|268:225|171:261,1,170,10|8,0:2|0:0,0:0:0:0:
86,316,124444,1,2,0:0:0:0:
13,216,124560,2,0,L|4:129,1,85,8|8,0:2|0:2,0:0:0:0:
138,53,124790,2,0,L|129:137,1,85,10|0,0:0|0:0,0:0:0:0:
284,130,125021,6,0,B|257:172|257:172|257:231|334:272,1,170,10|10,0:2|0:0,0:0:0:0:
477,147,125367,2,0,B|439:201|439:201|476:253|453:312,1,170,8|8,0:2|0:2,0:0:0:0:
332,352,125714,2,0,B|284:338|284:338|234:343,1,85,10|8,0:0|0:0,0:0:0:0:
149,157,125944,6,0,L|167:239,1,85,12|0,0:0|0:0,0:0:0:0:
363,157,126175,2,0,L|344:239,1,85,8|0,0:2|0:0,0:0:0:0:
134,150,126406,6,0,L|152:232,1,85,10|0,0:0|0:0,0:0:0:0:
377,150,126637,2,0,L|358:232,1,85,2|8,0:2|0:2,0:0:0:0:
120,146,126867,6,0,L|139:232,1,85,10|8,0:0|0:2,0:0:0:0:
390,146,127098,2,0,L|371:232,1,85,10|8,0:2|0:2,0:0:0:0:
106,142,127329,6,0,L|127:236,1,85,10|8,0:0|0:2,0:0:0:0:
404,142,127560,2,0,L|382:236,1,85,10|8,0:0|0:0,0:0:0:0:
229,292,127790,6,0,B|165:263|165:263|57:298,1,170,14|10,0:0|0:0,0:0:0:0:
26,130,128137,1,8,0:2:0:0:
26,130,128252,2,0,B|71:150|71:150|112:140,1,85,10|0,0:0|0:0,0:0:0:0:
276,39,128483,2,0,B|231:19|231:19|190:29,1,85,10|8,0:0|0:2,0:0:0:0:
247,195,128714,6,0,B|287:215|352:184|352:184|415:212,1,170,10|0,0:0|0:0,0:0:0:0:
408,209,129021,1,8,0:3:0:0:
408,209,129098,1,8,0:3:0:0:
408,209,129175,2,0,P|479:136|434:65,1,170,10|8,0:0|0:0,0:0:0:0:
375,21,129521,1,10,0:0:0:0:
265,62,129637,6,0,B|225:82|160:54|160:54|97:79,1,170,12|8,0:2|0:0,0:0:0:0:
72,234,129983,1,0,0:0:0:0:
72,234,130098,2,0,P|114:211|146:173,1,85,10|8,0:2|0:2,0:0:0:0:
236,255,130329,2,0,L|256:337,1,85,10|0,0:0|0:0,0:0:0:0:
377,135,130560,6,0,B|352:179|352:179|353:243|421:279,1,170,10|8,0:2|0:0,0:0:0:0:
462,91,130906,2,0,B|407:108|407:108|279:64,1,170,10|8,0:2|0:2,0:0:0:0:
154,156,131252,2,0,P|200:140|265:156,1,85,10|0,0:0|0:0,0:0:0:0:
149,260,131483,5,10,0:2:0:0:
149,260,131598,2,0,L|43:249,1,85,0|8,0:0|0:0,0:0:0:0:
236,168,131829,2,0,P|289:153|335:153,1,85,2|8,0:0|0:2,0:0:0:0:
141,71,132060,2,0,L|156:168,1,85,10|8,0:2|0:0,0:0:0:0:
282,325,132290,2,0,L|294:240,1,85,0|10,0:0|0:2,0:0:0:0:
389,183,132521,1,8,0:2:0:0:
376,72,132637,6,0,P|330:52|283:57,1,85,10|8,0:0|0:2,0:0:0:0:
156,187,132867,2,0,P|198:186|236:168,1,85,2|8,0:0|0:2,0:0:0:0:
86,285,133098,2,0,P|43:284|5:266,1,85,10|0,0:0|0:0,0:0:0:0:
184,354,133329,6,0,B|241:318|241:318|350:348,1,170,12|8,0:2|0:0,0:0:0:0:
460,316,133675,1,0,0:0:0:0:
358,233,133790,2,0,P|341:190|343:148,1,85,10|8,0:2|0:2,0:0:0:0:
156,187,134021,2,0,L|249:209,1,85,10|0,0:0|0:0,0:0:0:0:
418,10,134252,6,0,L|224:33,1,170,10|8,0:2|0:0,0:0:0:0:
147,92,134598,1,10,0:2:0:0:
236,168,134714,2,0,P|259:209|259:252,1,85,0|8,0:0|0:2,0:0:0:0:
378,206,134944,2,0,P|380:163|402:127,1,85,10|0,0:0|0:0,0:0:0:0:
467,328,135175,6,0,B|384:304|384:304|346:333|290:328,1,170,10|8,0:2|0:0,0:0:0:0:
212,268,135521,1,2,0:0:0:0:
98,321,135637,2,0,P|65:286|55:234,1,85,8|10,0:2|0:2,0:0:0:0:
157,178,135867,2,0,P|190:143|183:57,1,127.5,8|0,0:0|0:0,0:0:0:0:
178,37,136098,6,0,L|270:47,1,85,10|8,0:2|0:2,0:0:0:0:
512,131,136329,2,0,L|428:141,1,85,10|8,0:0|0:2,0:0:0:0:
212,268,136560,2,0,L|304:278,1,85,2|8,0:0|0:2,0:0:0:0:
146,70,136790,1,10,0:0:0:0:
135,96,136867,1,8,0:0:0:0:
125,122,136944,1,8,0:0:0:0:
115,147,137021,6,0,B|96:197|96:197|129:246|91:308,1,170,12|10,0:2|0:0,0:0:0:0:
191,355,137367,1,2,0:0:0:0:
283,293,137483,2,0,P|327:282|375:289,1,85,8|10,0:2|0:2,0:0:0:0:
270,185,137714,2,0,P|226:196|178:189,1,85,8|0,0:0|0:0,0:0:0:0:
318,78,137944,6,0,B|364:112|364:112|481:93,1,170,10|8,0:2|0:0,0:0:0:0:
508,229,138290,2,0,B|462:195|462:195|345:214,1,170,10|8,0:2|0:2,0:0:0:0:
200,177,138637,2,0,L|302:160,1,85,10|0,0:0|0:0,0:0:0:0:
114,116,138867,6,0,P|146:89|164:51,1,85,10|0,0:2|0:0,0:0:0:0:
52,210,139098,1,8,0:0:0:0:
52,210,139214,2,0,P|19:183|1:145,1,85,2|8,0:0|0:2,0:0:0:0:
146,277,139444,1,10,0:2:0:0:
146,277,139560,2,0,P|128:315|95:341,1,85,8|0,0:0|0:0,0:0:0:0:
243,298,139790,6,0,B|352:278|352:278|419:304,1,170,10|8,0:2|0:0,0:0:0:0:
509,345,140137,1,10,0:2:0:0:
371,180,140252,2,0,P|443:215|511:171,1,170,0|10,0:0|0:0,0:0:0:0:
480,62,140598,1,8,0:0:0:0:
307,71,140714,6,0,L|293:158,1,85,12|0,0:0|0:0,0:0:0:0:
146,277,140944,2,0,L|132:193,1,85,10|0,0:2|0:0,0:0:0:0:
320,281,141175,2,0,P|367:261|416:258,1,85,10|0,0:0|0:0,0:0:0:0:
132,193,141406,2,0,P|85:173|36:170,1,85,10|8,0:2|0:2,0:0:0:0:
371,180,141637,6,0,P|417:145|436:118,1,85,10|8,0:0|0:2,0:0:0:0:
126,85,141867,2,0,P|80:120|61:147,1,85,10|8,0:2|0:2,0:0:0:0:
371,135,142098,2,0,P|395:83|399:50,1,85,10|8,0:0|0:2,0:0:0:0:
123,131,142328,2,0,P|99:183|95:216,1,85,10|8,0:0|0:0,0:0:0:0:
255,338,142560,5,12,0:2:0:0:
256,192,142617,12,0,144175,0:0:0:0:
244,105,144406,6,0,L|441:91,1,170,2|2,0:0|0:0,0:0:0:0:
216,219,145329,2,0,L|46:206,1,170,2|2,0:0|0:0,0:0:0:0:
217,339,146252,6,0,P|272:317|318:319,1,85,2|0,0:0|0:0,0:0:0:0:
330,188,146713,2,0,P|275:210|229:208,1,85,2|0,0:0|0:0,0:0:0:0:
170,112,147175,6,0,L|183:77,3,28.3333333333333,2|2|2|2,0:0|0:0|0:0|0:0,0:0:0:0:
170,112,147636,1,2,0:0:0:0:
170,112,148098,6,0,L|153:211,1,85,2|0,0:0|0:0,0:0:0:0:
220,285,148559,1,2,0:0:0:0:
332,199,148790,2,0,L|349:298,1,85,0|2,0:0|0:0,0:0:0:0:
451,319,149252,1,0,0:0:0:0:
506,223,149482,1,2,0:0:0:0:
428,144,149713,2,0,L|360:128,1,42.5,0|0,0:0|0:0,0:0:0:0:
332,199,149944,6,0,P|274:221|180:160,1,170,2|2,0:0|0:0,0:0:0:0:
96,105,150636,1,0,0:0:0:0:
15,180,150867,2,0,L|22:264,1,85,2|0,0:0|0:0,0:0:0:0:
124,333,151329,2,0,L|132:249,1,85,2|0,0:0|0:0,0:0:0:0:
233,177,151790,6,0,B|217:224|217:224|277:183|348:202,1,170,2|0,0:0|0:0,0:0:0:0:
422,281,152482,1,0,0:0:0:0:
467,138,152713,2,0,P|413:89|321:107,1,170,2|2,0:0|0:0,0:0:0:0:
276,27,153636,6,0,L|298:196,1,170,2|0,0:0|0:0,0:0:0:0:
102,74,154559,1,2,0:0:0:0:
52,172,154790,1,0,0:0:0:0:
52,172,154906,1,2,0:0:0:0:
52,172,155021,1,0,0:0:0:0:
131,249,155252,1,2,0:0:0:0:
229,199,155482,6,0,P|281:173|394:215,1,170,2|0,0:0|0:0,0:0:0:0:
466,129,156175,1,2,0:0:0:0:
466,129,156406,2,0,P|447:83|445:40,1,85,0|2,0:0|0:0,0:0:0:0:
334,81,156867,2,0,P|291:59|243:61,1,85,0|0,0:0|0:0,0:0:0:0:
255,58,157213,1,0,0:0:0:0:
255,58,157329,6,0,B|195:89|195:89|86:57,1,170,2|2,0:0|0:0,0:0:0:0:
38,189,158021,1,0,0:0:0:0:
38,189,158252,2,0,B|98:158|98:158|207:190,1,170,2|2,0:0|0:0,0:0:0:0:
282,258,158944,1,0,0:0:0:0:
396,133,159175,6,0,B|365:175|398:210|433:249|399:292,1,170,2|0,0:0|0:0,0:0:0:0:
303,348,159867,1,0,0:0:0:0:
179,264,160098,2,0,L|89:255,1,85,2|0,0:0|0:0,0:0:0:0:
37,149,160559,2,0,L|127:140,1,85,2|0,0:0|0:0,0:0:0:0:
271,29,161021,6,0,B|247:86|247:86|292:144|254:189,1,170,2|2,0:0|0:0,0:0:0:0:
257,184,161713,1,2,0:0:0:0:
257,184,161829,1,0,0:0:0:0:
257,184,161944,2,0,L|402:165,1,127.5,2|2,0:0|0:0,0:0:0:0:
468,208,162406,2,0,P|431:241|420:301,1,85,0|2,0:0|0:0,0:0:0:0:
466,342,162752,1,0,0:0:0:0:
466,342,162867,6,0,B|419:319|419:319|382:340|382:340|346:312|291:336,1,170,12|0,0:0|0:0,0:0:0:0:
213,276,163559,1,8,0:0:0:0:
334,125,163790,2,0,P|324:168|316:226,1,85,10|0,0:0|0:0,0:0:0:0:
200,21,164252,2,0,P|214:88|226:158,1,127.5,8|0,0:1|0:0,0:0:0:0:
229,180,164713,6,0,P|161:133|70:165,1,170,10|0,0:0|0:0,0:0:0:0:
186,282,165406,1,8,0:0:0:0:
186,282,165636,2,0,P|249:266|291:272,1,85,10|0,0:0|0:0,0:0:0:0:
418,100,166098,2,0,P|411:157|343:222,1,127.5,8|0,0:1|0:0,0:0:0:0:
328,202,166559,6,0,B|221:169|221:169|153:197,1,170,12|0,0:0|0:0,0:0:0:0:
67,77,167252,1,8,0:0:0:0:
67,77,167482,2,0,L|46:168,1,85,10|0,0:0|0:0,0:0:0:0:
176,28,167944,2,0,P|217:72|307:66,1,127.5,8|0,0:1|0:0,0:0:0:0:
307,65,168406,6,0,B|409:37|409:37|464:71,1,170,10|0,0:0|0:0,0:0:0:0:
299,174,169098,1,8,0:0:0:0:
299,174,169329,2,0,L|280:269,1,85,10|0,0:0|0:0,0:0:0:0:
145,313,169790,2,0,L|128:229,1,85,8|8,0:1|0:3,0:0:0:0:
128,229,170136,1,4,0:3:0:0:
128,229,170252,6,0,B|86:181|86:181|140:116|88:53,1,170,12|0,0:0|0:0,0:0:0:0:
253,49,170944,1,8,0:0:0:0:
253,49,171174,2,0,B|211:96|211:96|265:161|213:224,1,170,10|8,0:0|0:1,0:0:0:0:
369,175,172098,6,0,B|431:155|431:155|472:205|446:265,1,170,10|0,0:0|0:0,0:0:0:0:
295,309,172790,1,8,0:0:0:0:
295,309,173021,2,0,P|231:287|194:286,1,85,10|0,0:0|0:0,0:0:0:0:
104,169,173482,2,0,P|145:162|184:145,1,85,8|0,0:1|0:0,0:0:0:0:
390,68,173944,6,0,P|335:128|356:208,1,170,12|0,0:0|0:0,0:0:0:0:
494,141,174636,1,8,0:0:0:0:
450,262,174867,2,0,L|268:241,1,170,10|8,0:0|0:1,0:0:0:0:
150,70,175559,1,0,0:0:0:0:
150,70,175790,2,0,B|119:112|150:149|184:183|153:230,1,170,10|0,0:0|0:0,0:0:0:0:
320,127,176713,6,0,L|338:75,1,42.5,10|8,0:0|0:1,0:0:0:0:
383,232,176944,2,0,L|401:284,1,42.5,8|4,0:3|0:3,0:0:0:0:
165,229,177175,1,10,0:1:0:0:
233,179,177290,1,8,0:1:0:0:
318,178,177406,1,8,0:1:0:0:
383,232,177521,1,12,0:0:0:0:
472,229,177636,6,0,P|505:165|446:77,1,170,0|8,0:0|0:0,0:0:0:0:
324,34,177982,1,0,0:0:0:0:
324,34,178097,2,0,L|415:20,1,85,2|8,0:0|0:2,0:0:0:0:
247,128,178328,2,0,L|156:114,1,85,8|0,0:0|0:0,0:0:0:0:
86,255,178559,6,0,P|129:232|173:230,1,85,10|0,0:2|0:0,0:0:0:0:
374,308,178789,2,0,P|331:285|287:283,1,85,10|0,0:0|0:0,0:0:0:0:
156,144,179020,2,0,L|167:259,1,85,2|8,0:0|0:2,0:0:0:0:
303,196,179251,2,0,L|295:281,1,85,10|0,0:0|0:0,0:0:0:0:
472,153,179482,6,0,B|421:167|421:167|366:115|380:63,1,170,10|8,0:2|0:0,0:0:0:0:
243,36,179828,1,0,0:0:0:0:
137,111,179943,2,0,P|88:111|39:91,1,85,0|8,0:0|0:2,0:0:0:0:
220,184,180174,2,0,P|269:184|318:204,1,85,10|0,0:0|0:0,0:0:0:0:
106,201,180405,6,0,P|122:240|130:281,1,85,10|0,0:2|0:0,0:0:0:0:
248,104,180636,2,0,P|238:145|221:183,1,85,8|10,0:0|0:2,0:0:0:0:
423,224,180866,2,0,P|407:185|399:144,1,85,0|8,0:0|0:2,0:0:0:0:
283,322,181097,2,0,P|292:280|309:242,1,85,10|0,0:0|0:0,0:0:0:0:
201,26,181328,6,0,P|170:70|242:156,1,170,12|8,0:2|0:0,0:0:0:0:
322,149,181674,1,2,0:0:0:0:
397,203,181789,1,0,0:0:0:0:
390,294,181904,1,8,0:2:0:0:
309,336,182019,1,10,0:0:0:0:
231,288,182135,1,0,0:0:0:0:
138,288,182251,6,0,P|95:293|44:307,1,85,10|0,0:2|0:0,0:0:0:0:
228,177,182482,2,0,P|268:193|309:202,1,85,10|0,0:0|0:0,0:0:0:0:
84,189,182712,2,0,P|43:176|5:157,1,85,2|8,0:0|0:2,0:0:0:0:
218,141,182943,2,0,P|258:128|296:109,1,85,10|0,0:0|0:0,0:0:0:0:
450,74,183174,6,0,P|463:156|432:235,1,170,10|8,0:2|0:0,0:0:0:0:
217,140,183520,2,0,P|203:223|235:302,1,170,2|8,0:0|0:2,0:0:0:0:
46,205,183866,1,10,0:0:0:0:
49,183,183943,1,0,0:0:0:0:
52,161,184020,1,0,0:0:0:0:
55,140,184098,6,0,B|128:116|128:116|174:139|235:142,1,170,10|8,0:2|0:0,0:0:0:0:
292,85,184443,1,10,0:2:0:0:
379,119,184559,1,8,0:0:0:0:
392,211,184674,1,8,0:0:0:0:
316,265,184789,1,10,0:0:0:0:
226,236,184905,1,8,0:0:0:0:
153,177,185020,6,0,B|105:146|105:146|41:149|-4:204,1,170,12|10,0:2|0:0,0:0:0:0:
170,296,185366,1,0,0:0:0:0:
252,217,185482,2,0,P|313:194|355:198,1,85,0|8,0:0|0:2,0:0:0:0:
481,130,185712,2,0,P|445:107|405:92,1,85,10|0,0:0|0:0,0:0:0:0:
227,122,185943,6,0,B|194:104|194:104|143:155|66:114,1,170,10|10,0:2|0:0,0:0:0:0:
201,207,186289,2,0,P|224:251|200:377,1,170,0|8,0:0|0:2,0:0:0:0:
328,299,186636,2,0,P|382:315|406:333,1,85,10|0,0:0|0:0,0:0:0:0:
488,202,186866,6,0,B|437:231|437:231|324:208,1,170,10|8,0:2|0:0,0:0:0:0:
262,129,187212,1,0,0:0:0:0:
184,196,187328,1,0,0:0:0:0:
90,155,187443,1,10,0:2:0:0:
24,233,187559,2,0,L|12:328,1,85,8|0,0:0|0:0,0:0:0:0:
194,280,187789,6,0,L|183:195,1,85,10|0,0:2|0:0,0:0:0:0:
391,198,188020,2,0,B|397:194|357:188|357:188|315:210,1,85,8|10,0:0|0:2,0:0:0:0:
212,87,188251,2,0,B|206:91|246:97|246:97|287:74,1,85,0|8,0:0|0:2,0:0:0:0:
79,70,188482,2,0,L|89:154,1,85,10|0,0:0|0:0,0:0:0:0:
186,340,188712,6,0,L|206:157,1,170,12|10,0:2|0:0,0:0:0:0:
297,93,189059,1,0,0:0:0:0:
361,192,189174,2,0,P|409:211|449:212,1,85,0|8,0:0|0:2,0:0:0:0:
489,74,189405,2,0,P|446:77|408:94,1,85,10|0,0:0|0:0,0:0:0:0:
285,41,189636,6,0,B|239:85|239:85|179:88|128:47,1,170,10|8,2:0|0:0,0:0:0:0:
53,197,189982,2,0,B|178:179|178:179|214:212,1,170,0|0,0:0|0:2,0:0:0:0:
311,243,190328,1,10,0:0:0:0:
311,243,190386,1,0,0:0:0:0:
311,243,190443,1,0,0:0:0:0:
394,131,190559,6,0,L|423:308,1,170,10|8,0:2|0:0,0:0:0:0:
336,355,190905,1,2,0:0:0:0:
231,291,191020,2,0,L|214:380,1,85,0|10,0:0|0:2,0:0:0:0:
106,298,191251,2,0,L|91:215,1,85,8|2,0:0|0:0,0:0:0:0:
291,107,191482,6,0,P|271:145|260:186,1,85,8|2,0:2|0:0,0:0:0:0:
133,204,191712,2,0,P|119:156|99:122,1,85,8|10,0:0|0:2,0:0:0:0:
260,185,191943,1,8,0:0:0:0:
344,230,192058,1,10,0:0:0:0:
434,197,192173,1,8,0:0:0:0:
470,107,192289,1,10,0:0:0:0:
374,96,192405,6,0,B|363:141|363:141|446:170|428:262,1,170,12|8,0:2|0:0,0:0:0:0:
360,318,192751,1,2,0:0:0:0:
257,277,192866,2,0,L|163:267,1,85,0|8,0:0|0:2,0:0:0:0:
86,148,193097,2,0,L|180:138,1,85,10|0,0:0|0:0,0:0:0:0:
358,50,193328,5,10,0:2:0:0:
406,137,193443,1,0,0:0:0:0:
351,214,193559,1,10,0:0:0:0:
260,185,193674,1,0,0:0:0:0:
230,93,193789,1,2,0:0:0:0:
134,93,193904,1,8,0:2:0:0:
105,185,194020,1,10,0:0:0:0:
182,240,194135,1,0,0:0:0:0:
260,185,194251,6,0,B|321:170|321:170|340:180,1,85,10|0,0:2|0:0,0:0:0:0:
446,342,194482,2,0,B|385:357|385:357|365:346,1,85,8|0,0:0|0:0,0:0:0:0:
109,259,194712,5,2,0:0:0:0:
153,345,194827,1,8,0:2:0:0:
249,350,194942,1,10,0:0:0:0:
303,270,195058,1,0,0:0:0:0:
260,185,195174,1,10,0:2:0:0:
311,102,195289,1,0,0:0:0:0:
409,109,195405,1,10,0:0:0:0:
452,194,195520,1,8,0:2:0:0:
408,280,195636,6,0,P|366:292|311:273,1,85,2|8,0:0|0:2,0:0:0:0:
138,126,195866,2,0,P|113:167|104:209,1,85,10|0,0:0|2:0,0:0:0:0:
299,137,196097,6,0,L|397:126,1,85,12|0,0:2|0:0,0:0:0:0:
189,213,196328,2,0,L|91:202,1,85,8|2,0:0|0:0,0:0:0:0:
195,309,196559,1,0,0:0:0:0:
288,348,196674,1,8,0:2:0:0:
366,283,196789,2,0,P|418:267|459:267,1,85,10|0,0:0|0:0,0:0:0:0:
443,139,197020,6,0,B|407:172|407:172|345:191|293:131,1,170,8|10,0:2|0:0,0:0:0:0:
207,72,197366,1,0,0:0:0:0:
97,158,197482,2,0,P|79:118|72:62,1,85,0|10,0:0|0:2,0:0:0:0:
189,213,197712,2,0,P|181:254|164:293,1,85,8|0,0:0|0:0,0:0:0:0:
404,209,197943,6,0,L|417:292,1,85,10|0,0:2|0:0,0:0:0:0:
316,353,198174,2,0,L|292:271,1,85,8|0,0:0|0:0,0:0:0:0:
176,163,198405,2,0,L|162:246,1,85,2|8,0:0|0:2,0:0:0:0:
263,306,198636,2,0,L|287:225,1,85,8|0,0:0|0:0,0:0:0:0:
398,120,198866,6,0,B|364:138|364:138|355:210|416:250,1,170,10|8,0:2|0:0,0:0:0:0:
512,160,199212,1,8,0:2:0:0:
475,27,199328,5,10,0:0:0:0:
382,38,199443,1,8,0:0:0:0:
290,50,199558,1,10,0:0:0:0:
199,62,199673,1,8,0:0:0:0:
105,74,199789,1,0,0:0:0:0:
105,74,200020,6,0,L|73:240,1,170,12|0,0:0|0:0,0:0:0:0:
154,316,200366,1,8,0:2:0:0:
242,250,200482,2,0,P|281:233|323:233,1,85,10|0,0:0|0:0,0:0:0:0:
443,354,200712,2,0,P|409:328|387:292,1,85,10|0,0:2|0:0,0:0:0:0:
439,130,200943,2,0,P|434:171|413:208,1,85,8|0,0:0|0:0,0:0:0:0:
295,148,201174,6,0,L|199:135,1,85,0|10,0:0|0:2,0:0:0:0:
69,215,201405,1,8,0:0:0:0:
145,281,201520,1,0,0:0:0:0:
242,250,201636,2,0,L|338:237,1,85,10|0,0:2|0:0,0:0:0:0:
406,110,201866,5,8,0:0:0:0:
497,156,201981,1,2,0:0:0:0:
502,258,202096,1,0,0:0:0:0:
417,315,202212,1,10,0:2:0:0:
324,268,202328,2,0,P|284:253|242:250,1,85,8|2,0:0|0:0,0:0:0:0:
97,110,202559,5,8,0:2:0:0:
6,156,202674,1,2,0:0:0:0:
1,258,202789,1,8,0:0:0:0:
86,315,202905,1,10,0:2:0:0:
179,268,203021,2,0,P|218:253|260:250,1,85,0|10,0:0|0:2,0:0:0:0:
392,151,203251,2,0,L|296:134,1,85,8|2,0:0|0:0,0:0:0:0:
22,149,203482,6,0,P|84:193|179:135,1,170,12|8,0:2|0:0,0:0:0:0:
286,45,203828,2,0,B|258:102|258:102|284:159|269:219,1,170,2|8,0:0|0:2,0:0:0:0:
97,110,204174,2,0,L|85:9,1,85,10|0,0:0|0:0,0:0:0:0:
164,161,204405,6,0,B|159:204|137:241|137:241|158:284|158:284|146:330,1,170,10|10,0:2|0:0,0:0:0:0:
301,374,204751,2,0,B|296:331|274:294|274:294|295:251|295:251|283:205,1,170,2|8,0:0|0:2,0:0:0:0:
425,186,205097,2,0,P|440:225|437:294,1,85,10|0,0:0|0:0,0:0:0:0:
349,142,205328,6,0,P|418:185|497:149,1,170,12|8,0:2|0:0,0:0:0:0:
501,48,205674,1,2,0:0:0:0:
366,47,205789,2,0,P|327:28|285:23,1,85,2|8,0:0|0:2,0:0:0:0:
117,165,206020,2,0,P|155:146|197:141,1,85,10|0,0:0|0:0,0:0:0:0:
338,239,206251,6,0,L|329:330,1,85,10|0,0:2|0:0,0:0:0:0:
182,323,206482,2,0,L|174:239,1,85,8|8,0:0|0:2,0:0:0:0:
261,48,206712,5,10,0:0:0:0:
350,116,206827,1,8,0:0:0:0:
315,221,206943,1,10,0:0:0:0:
206,222,207058,1,0,0:0:0:0:
171,116,207174,1,12,0:0:0:0:
256,192,207289,12,0,210866,0:0:0:0:
167,69,214558,6,0,P|223:47|289:58,1,110.499994941712,8|8,0:1|0:1,0:0:0:0:
343,333,215481,2,0,P|287:355|221:344,1,110.499994941712,8|8,0:1|0:1,0:0:0:0:
435,102,216404,6,0,P|457:158|446:224,1,110.499994941712,8|8,0:1|0:1,0:0:0:0:
75,275,217327,2,0,P|53:219|64:153,1,110.499994941712,8|8,0:1|0:1,0:0:0:0:
364,176,218250,5,8,0:1:0:0:
254,285,218712,1,8,0:1:0:0:
145,175,219174,1,8,0:1:0:0:
254,66,219635,1,8,0:1:0:0:
374,176,220097,5,8,0:1:0:0:
253,295,220559,1,8,0:1:0:0:
134,174,221021,1,8,0:1:0:0:
253,55,221482,1,8,0:1:0:0:
257,181,221943,5,8,0:1:0:0:
255,191,222404,1,8,0:1:0:0:
253,201,222866,5,10,0:1:0:0:
253,311,222981,1,8,0:1:0:0:
359,346,223097,1,8,0:1:0:0:
423,256,223212,1,8,0:1:0:0:
359,167,223327,1,10,0:1:0:0:
359,167,223558,1,10,0:3:0:0:
359,167,223674,1,4,0:3:0:0:
359,167,223789,6,0,L|183:151,1,152.999995330811,12|10,0:2|0:0,0:0:0:0:
109,200,224135,1,0,0:0:0:0:
100,324,224250,2,0,L|276:308,1,152.999995330811,0|8,0:0|0:0,0:0:0:0:
342,251,224596,1,0,0:0:0:0:
437,298,224712,6,0,P|463:269|472:232,1,76.4999976654053,10|0,0:2|0:0,0:0:0:0:
333,177,224942,2,0,P|346:213|342:251,1,76.4999976654053,10|0,0:0|0:0,0:0:0:0:
252,310,225173,2,0,P|233:276|202:254,1,76.4999976654053,10|8,0:0|0:0,0:0:0:0:
33,210,225404,2,0,L|129:197,1,76.4999976654053,8|8,0:0|0:0,0:0:0:0:
297,106,225635,6,0,P|221:132|156:85,1,152.999995330811,12|10,0:2|0:0,0:0:0:0:
287,15,225981,1,0,0:0:0:0:
401,71,226096,2,0,L|380:259,1,152.999995330811,10|8,0:0|0:0,0:0:0:0:
21,260,226558,6,0,P|90:286|154:250,1,152.999995330811,10|10,0:2|0:0,0:0:0:0:
249,166,226904,1,0,0:0:0:0:
286,257,227019,1,10,0:0:0:0:
373,285,227135,1,8,0:0:0:0:
451,237,227250,1,8,0:0:0:0:
465,147,227365,1,8,0:0:0:0:
394,75,227481,6,0,L|410:-4,1,76.4999976654053,12|0,0:2|0:0,0:0:0:0:
282,49,227712,2,0,L|297:123,1,76.4999976654053,10|0,0:0|0:0,0:0:0:0:
190,163,227942,2,0,P|133:127|37:144,1,152.999995330811,10|8,0:0|0:0,0:0:0:0:
74,241,228289,1,0,0:0:0:0:
74,241,228404,6,0,L|101:346,1,76.4999976654053,10|0,0:2|0:0,0:0:0:0:
256,326,228635,2,0,P|227:300|205:270,1,76.4999976654053,10|0,0:0|0:0,0:0:0:0:
288,185,228865,2,0,P|332:190|378:179,1,76.4999976654053,10|8,0:0|0:0,0:0:0:0:
313,30,229096,2,0,P|275:50|240:83,1,76.4999976654053,8|8,0:0|0:0,0:0:0:0:
102,33,229327,6,0,B|149:73|149:73|168:122|131:167,1,152.999995330811,12|10,0:2|0:0,0:0:0:0:
74,241,229673,1,8,0:2:0:0:
170,291,229789,2,0,B|210:264|243:289|281:318|318:290,1,152.999995330811,10|8,0:0|0:0,0:0:0:0:
396,231,230135,1,0,0:0:0:0:
334,92,230250,6,0,P|319:139|328:177,1,76.4999976654053,10|0,0:2|0:0,0:0:0:0:
209,209,230481,2,0,P|175:172|138:161,1,76.4999976654053,10|0,0:0|0:0,0:0:0:0:
177,45,230712,2,0,P|225:34|253:7,1,76.4999976654053,10|8,0:0|0:0,0:0:0:0:
71,91,230942,2,0,P|22:101|-6:128,1,76.4999976654053,8|8,0:0|0:0,0:0:0:0:
74,241,231173,6,0,L|235:226,1,152.999995330811,12|10,0:2|0:0,0:0:0:0:
306,155,231519,1,0,0:0:0:0:
390,221,231635,2,0,P|410:264|414:309,1,76.4999976654053,8|8,0:2|0:2,0:0:0:0:
478,156,231865,2,0,P|498:113|502:68,1,76.4999976654053,10|0,0:0|0:0,0:0:0:0:
323,39,232096,6,0,P|363:71|413:83,1,76.4999976654053,10|0,0:2|0:0,0:0:0:0:
215,110,232327,2,0,P|175:78|125:66,1,76.4999976654053,8|0,0:0|0:0,0:0:0:0:
244,231,232558,2,0,P|272:206|307:191,1,76.4999976654053,10|8,0:2|0:2,0:0:0:0:
135,161,232789,2,0,P|107:186|72:201,1,76.4999976654053,10|0,0:0|0:0,0:0:0:0:
112,345,233019,6,0,B|169:311|169:311|217:313|254:342,1,152.999995330811,12|8,0:2|0:0,0:0:0:0:
317,219,233365,1,0,0:0:0:0:
317,219,233481,2,0,B|255:235|255:235|219:222,1,76.4999976654053,10|8,0:2|0:2,0:0:0:0:
177,145,233712,1,8,0:0:0:0:
244,62,233827,1,0,0:0:0:0:
332,121,233942,6,0,P|374:128|435:107,1,76.4999976654053,10|0,0:2|0:0,0:0:0:0:
244,62,234173,2,0,P|202:55|141:76,1,76.4999976654053,8|10,0:0|0:2,0:0:0:0:
120,191,234404,2,0,P|164:172|200:171,1,76.4999976654053,0|8,0:2|0:2,0:2:0:0:
284,263,234635,1,8,0:0:0:0:
184,264,234750,1,8,0:0:0:0:
120,191,234865,6,0,P|107:147|109:111,1,76.4999976654053,12|0,0:0|0:0,0:0:0:0:
332,121,235096,2,0,P|331:159|319:195,1,76.4999976654053,10|0,0:2|0:0,0:0:0:0:
141,217,235326,6,0,P|128:173|130:137,1,76.4999976654053,10|0,0:0|0:0,0:0:0:0:
352,146,235557,2,0,P|351:184|339:220,1,76.4999976654053,10|8,0:2|0:2,0:0:0:0:
164,246,235789,6,0,P|151:202|153:166,1,76.4999976654053,10|0,0:0|0:0,0:0:0:0:
376,176,236020,2,0,P|375:214|363:250,1,76.4999976654053,10|0,0:2|0:0,0:0:0:0:
185,272,236250,6,0,P|172:228|174:192,1,76.4999976654053,10|0,0:0|0:0,0:0:0:0:
396,201,236481,2,0,P|395:239|383:275,1,76.4999976654053,10|8,0:2|0:2,0:0:0:0:
208,309,236712,6,0,B|120:285|120:285|50:311,1,152.999995330811,12|10,0:0|0:2,0:0:0:0:
32,160,237058,1,0,0:0:0:0:
32,160,237173,2,0,P|67:183|107:189,1,76.4999976654053,10|0,0:0|0:0,0:0:0:0:
186,124,237404,1,10,0:2:0:0:
292,134,237519,1,8,0:2:0:0:
358,218,237635,6,0,P|384:271|386:303,1,76.4999976654053,10|0,0:0|0:0,0:0:0:0:
204,320,237865,2,0,P|212:282|232:250,1,76.4999976654053,10|0,0:2|0:0,0:0:0:0:
105,131,238096,2,0,L|126:218,1,76.4999976654053,8|0,0:0|0:0,0:0:0:0:
218,177,238327,1,10,0:0:0:0:
312,145,238442,1,8,0:0:0:0:
407,114,238558,6,0,B|440:151|440:151|447:203|408:248,1,152.999995330811,12|10,0:2|0:0,0:0:0:0:
301,295,238904,1,0,0:0:0:0:
229,190,239019,2,0,P|196:171|158:169,1,76.4999976654053,10|0,0:0|0:0,0:0:0:0:
67,299,239250,2,0,P|104:296|137:278,1,76.4999976654053,8|0,0:0|0:0,0:0:0:0:
65,186,239481,6,0,B|39:74|39:74|69:44,1,152.999995330811,10|10,0:2|0:0,0:0:0:0:
174,35,239827,1,0,0:0:0:0:
242,118,239942,2,0,P|276:140|314:145,1,76.4999976654053,10|8,0:0|0:0,0:0:0:0:
436,25,240173,2,0,P|398:29|364:47,1,76.4999976654053,8|8,0:0|0:0,0:0:0:0:
417,149,240404,6,0,B|442:194|415:229|415:229|442:257|441:299,1,152.999995330811,12|10,0:2|0:0,0:0:0:0:
360,361,240750,1,8,0:2:0:0:
255,338,240865,2,0,B|230:293|257:258|257:258|230:230|231:188,1,152.999995330811,10|8,0:0|0:0,0:0:0:0:
320,134,241212,1,0,0:0:0:0:
245,57,241327,6,0,P|197:37|160:34,1,76.4999976654053,10|0,0:2|0:0,0:0:0:0:
63,152,241558,2,0,P|98:136|136:130,1,76.4999976654053,10|0,0:0|0:0,0:0:0:0:
293,183,241789,1,10,0:0:0:0:
232,264,241904,1,8,0:0:0:0:
135,231,242020,1,8,0:0:0:0:
136,129,242135,1,8,0:0:0:0:
235,98,242250,6,0,P|282:97|329:119,1,76.4999976654053,12|0,0:2|0:0,0:0:0:0:
409,223,242481,2,0,P|372:233|334:231,1,76.4999976654053,10|8,0:0|0:2,0:0:0:0:
108,222,242712,2,0,P|170:208|234:272,1,152.999995330811,10|8,0:0|0:0,0:0:0:0:
298,338,243058,1,0,0:0:0:0:
393,312,243173,6,0,L|474:298,1,76.4999976654053,10|0,0:2|0:0,0:0:0:0:
315,223,243404,2,0,L|227:208,1,76.4999976654053,10|0,0:0|0:0,0:0:0:0:
149,84,243635,1,10,0:0:0:0:
228,127,243750,1,8,0:0:0:0:
316,111,243865,1,8,0:0:0:0:
376,44,243981,1,8,0:0:0:0:
462,76,244096,6,0,L|460:164,1,76.4999976654053,12|0,0:2|0:0,0:0:0:0:
349,263,244327,2,0,L|351:175,1,76.4999976654053,10|8,0:0|0:2,0:0:0:0:
229,50,244558,2,0,L|224:202,1,152.999995330811,10|8,0:0|0:0,0:0:0:0:
157,286,244904,1,0,0:0:0:0:
63,165,245019,6,0,P|106:146|137:145,1,76.4999976654053,10|0,0:2|0:0,0:0:0:0:
277,242,245250,2,0,P|239:238|205:221,1,76.4999976654053,10|0,0:0|0:0,0:0:0:0:
413,148,245481,1,10,0:0:0:0:
443,245,245596,1,8,0:0:0:0:
359,304,245712,1,8,0:0:0:0:
277,242,245827,1,8,0:0:0:0:
311,145,245942,6,0,L|326:62,1,76.4999976654053,12|0,0:2|0:0,0:0:0:0:
176,20,246173,2,0,L|189:95,1,76.4999976654053,10|0,0:0|0:0,0:0:0:0:
53,204,246404,2,0,L|68:121,1,76.4999976654053,10|8,0:2|0:2,0:0:0:0:
181,229,246635,2,0,L|194:304,1,76.4999976654053,10|0,0:0|0:0,0:0:0:0:
330,227,246865,6,0,B|368:203|404:225|437:249|478:228,1,152.999995330811,10|8,0:2|0:0,0:0:0:0:
383,107,247212,2,0,B|345:131|309:109|276:85|234:105,1,152.999995330811,0|8,0:0|0:2,0:0:0:0:
155,171,247558,2,0,L|60:157,1,76.4999976654053,8|0,0:0|0:0,0:0:0:0:
110,300,247789,6,0,P|179:271|260:291,1,152.999995330811,12|10,0:2|0:0,0:0:0:0:
352,352,248135,1,0,0:0:0:0:
448,288,248250,2,0,L|460:189,1,76.4999976654053,10|8,0:2|0:2,0:0:0:0:
347,123,248481,2,0,L|337:198,1,76.4999976654053,8|0,0:0|0:0,0:0:0:0:
155,171,248712,6,0,P|123:149|86:140,1,76.4999976654053,10|0,0:2|0:0,0:0:0:0:
347,123,248942,2,0,P|378:101|415:92,1,76.4999976654053,8|10,0:0|0:2,0:0:0:0:
208,9,249173,2,0,P|218:63|233:92,1,76.4999976654053,0|8,0:0|0:2,0:0:0:0:
366,196,249404,2,0,P|356:142|341:113,1,76.4999976654053,10|8,0:0|0:0,0:0:0:0:
145,187,249635,6,0,B|93:208|93:208|60:198,1,76.4999976654053,12|0,0:0|0:0,0:0:0:0:
251,302,249865,2,0,B|272:354|272:354|265:375,1,76.4999976654053,10|0,0:2|0:0,0:0:0:0:
366,196,250096,2,0,B|418:175|418:175|451:185,1,76.4999976654053,10|0,0:0|0:0,0:0:0:0:
260,81,250326,2,0,B|239:29|239:29|245:7,1,76.4999976654053,10|8,0:2|0:2,0:0:0:0:
74,200,250558,6,0,B|95:207|95:207|148:186,1,76.4999976654053,10|0,0:0|0:0,0:0:0:0:
264,373,250788,2,0,B|271:352|271:352|250:299,1,76.4999976654053,10|0,0:2|0:0,0:0:0:0:
438,183,251019,2,0,B|417:176|417:176|364:197,1,76.4999976654053,10|0,0:0|0:0,0:0:0:0:
247,10,251249,2,0,B|240:31|240:31|261:84,1,76.4999976654053,10|8,0:2|0:2,0:0:0:0:
257,319,251481,6,0,B|232:281|256:251|285:208|259:173,1,152.999995330811,12|10,0:0|0:2,0:0:0:0:
261,82,251827,1,0,0:0:0:0:
398,114,251943,5,10,0:0:0:0:
334,156,252059,1,8,0:0:0:0:
259,173,252173,1,10,0:0:0:0:
185,156,252290,1,8,0:0:0:0:
121,114,252404,1,8,3:1:0:0:
121,114,253327,6,0,P|104:175|15:268,1,170,12|8,0:2|0:0,0:0:0:0:
132,313,253673,1,2,0:0:0:0:
230,261,253789,2,0,L|330:255,1,85,8|8,0:2|0:2,0:0:0:0:
408,144,254019,2,0,L|308:138,1,85,10|0,0:0|0:0,0:0:0:0:
76,187,254250,6,0,B|149:203|149:203|197:164|246:171,1,170,10|8,0:2|0:0,0:0:0:0:
390,244,254596,2,0,B|317:228|317:228|269:267|220:260,1,170,10|8,0:2|0:2,0:0:0:0:
132,207,254942,1,10,0:0:0:0:
168,102,255058,1,0,0:0:0:0:
278,104,255173,6,0,L|380:94,1,85,10|0,0:2|0:0,0:0:0:0:
466,215,255404,1,8,0:0:0:0:
466,215,255519,2,0,L|364:205,1,85,2|8,0:0|0:2,0:0:0:0:
238,299,255750,2,0,L|323:308,1,85,10|8,0:2|0:0,0:0:0:0:
278,104,255981,2,0,L|176:94,1,85,0|10,0:0|0:2,0:0:0:0:
82,230,256212,1,8,0:2:0:0:
82,230,256327,6,0,P|139:203|165:201,1,85,10|8,0:0|0:2,0:0:0:0:
384,261,256558,2,0,P|327:234|301:232,1,85,2|8,0:0|0:2,0:0:0:0:
179,357,256789,2,0,P|222:325|241:286,1,85,10|0,0:0|0:0,0:0:0:0:
199,60,257019,6,0,P|172:115|233:221,1,170,12|8,0:2|0:0,0:0:0:0:
320,235,257365,1,0,0:0:0:0:
418,165,257481,2,0,L|520:154,1,85,10|8,0:2|0:2,0:0:0:0:
315,80,257712,2,0,L|213:69,1,85,10|0,0:0|0:0,0:0:0:0:
61,246,257942,6,0,P|103:193|112:154,1,85,10|0,0:2|0:0,0:0:0:0:
190,334,258173,2,0,P|205:268|197:229,1,85,8|10,0:0|0:2,0:0:0:0:
334,152,258404,2,0,P|319:191|320:234,1,85,0|8,0:0|0:2,0:0:0:0:
462,239,258635,2,0,P|432:270|414:308,1,85,10|0,0:0|0:0,0:0:0:0:
235,222,258865,6,0,L|320:234,1,85,10|0,0:2|0:0,0:0:0:0:
399,91,259096,2,0,L|315:80,1,85,8|2,0:0|0:0,0:0:0:0:
56,131,259327,2,0,P|113:159|201:94,1,170,8|8,0:2|0:0,0:0:0:0:
293,29,259673,1,0,0:0:0:0:
400,100,259789,6,0,L|386:213,1,85,10|8,0:2|0:2,0:0:0:0:
186,318,260019,2,0,L|196:233,1,85,10|8,0:0|0:2,0:0:0:0:
410,114,260250,2,0,L|396:227,1,85,2|8,0:0|0:2,0:0:0:0:
196,332,260480,2,0,L|206:247,1,85,10|0,0:0|0:0,0:0:0:0:
420,129,260712,6,0,B|435:211|435:211|407:250|405:306,1,170,12|8,0:2|0:0,0:0:0:0:
309,346,261058,1,2,0:0:0:0:
200,227,261173,2,0,P|242:230|281:246,1,85,8|10,0:2|0:2,0:0:0:0:
410,114,261404,2,0,P|370:129|328:133,1,85,8|0,0:0|0:0,0:0:0:0:
107,52,261635,6,0,P|173:56|240:138,1,170,10|8,0:2|0:0,0:0:0:0:
199,380,261981,2,0,P|169:320|206:221,1,170,10|8,0:2|0:2,0:0:0:0:
389,214,262327,2,0,P|341:223|289:203,1,85,10|0,0:0|0:0,0:0:0:0:
58,155,262558,6,0,L|149:152,1,85,10|0,0:2|0:0,0:0:0:0:
348,117,262789,1,8,0:0:0:0:
275,33,262904,2,0,L|183:26,1,85,2|8,0:0|0:2,0:0:0:0:
267,218,263135,1,10,0:2:0:0:
267,218,263250,2,0,L|359:212,1,85,8|0,0:0|0:0,0:0:0:0:
473,335,263481,6,0,L|295:318,1,170,10|8,0:2|0:0,0:0:0:0:
97,234,263827,2,0,L|275:217,1,170,8|8,0:2|0:2,0:0:0:0:
348,117,264173,1,10,0:0:0:0:
434,199,264289,1,8,0:0:0:0:
386,307,264404,6,0,P|354:343|317:366,1,85,12|0,0:0|0:0,0:0:0:0:
210,256,264635,2,0,P|252:256|293:247,1,85,8|0,0:2|0:0,0:0:0:0:
308,131,264865,2,0,P|263:113|228:86,1,85,10|0,0:0|0:0,0:0:0:0:
356,1,265096,2,0,P|370:41|395:76,1,85,10|8,0:2|0:2,0:0:0:0:
116,76,265327,6,0,P|139:41|154:1,1,85,10|8,0:0|0:2,0:0:0:0:
278,90,265558,2,0,P|243:114|204:130,1,85,10|8,0:2|0:2,0:0:0:0:
216,245,265788,2,0,P|257:255|300:256,1,85,10|8,0:0|0:2,0:0:0:0:
187,361,266019,2,0,P|151:337|124:305,1,85,10|8,0:0|0:0,0:0:0:0:
437,204,266251,6,0,L|400:303,1,85,12|0,0:0|0:0,0:0:0:0:
322,140,266481,2,0,L|314:229,1,85,10|8,0:0|0:2,0:0:0:0:
190,140,266712,2,0,L|197:224,1,85,10|8,0:0|0:2,0:0:0:0:
75,204,266942,2,0,L|104:283,1,85,10|8,0:0|0:2,0:0:0:0:
333,299,267173,6,0,P|261:259|188:296,1,170,10|0,0:0|0:0,0:0:0:0:
190,140,267481,1,8,0:3:0:0:
190,140,267558,1,8,0:3:0:0:
190,140,267635,2,0,P|261:179|334:142,1,170,10|8,0:0|0:0,0:0:0:0:
263,32,267981,1,8,0:0:0:0:
104,36,268096,6,0,L|73:214,1,170,12|8,0:2|0:0,0:0:0:0:
155,291,268442,1,0,0:0:0:0:
246,214,268558,2,0,P|299:201|330:202,1,85,10|8,0:2|0:2,0:0:0:0:
403,339,268789,2,0,P|360:338|319:326,1,85,10|0,0:0|0:0,0:0:0:0:
431,233,269019,6,0,B|468:193|456:145|456:145|493:117|493:117|487:84,1,170,10|8,0:2|0:0,0:0:0:0:
272,58,269365,2,0,B|267:85|267:85|304:113|304:113|292:161|329:201,1,170,10|8,0:2|0:2,0:0:0:0:
262,310,269712,2,0,P|214:281|177:278,1,85,10|0,0:0|0:0,0:0:0:0:
63,204,269942,5,10,0:2:0:0:
63,204,270058,2,0,L|81:296,1,85,0|8,0:0|0:0,0:0:0:0:
175,167,270289,2,0,L|191:83,1,85,2|8,0:0|0:2,0:0:0:0:
368,139,270519,2,0,P|332:159|290:166,1,85,10|8,0:2|0:0,0:0:0:0:
183,282,270750,2,0,P|224:288|261:309,1,85,0|10,0:0|0:2,0:0:0:0:
379,360,270981,5,8,0:2:0:0:
473,274,271096,2,0,L|486:180,1,85,10|8,0:0|0:2,0:0:0:0:
380,54,271327,2,0,L|367:148,1,85,2|8,0:0|0:2,0:0:0:0:
217,241,271558,2,0,L|230:147,1,85,10|0,0:0|0:0,0:0:0:0:
50,50,271789,6,0,B|58:89|84:119|84:119|43:164|66:210,1,170,12|8,0:2|0:0,0:0:0:0:
145,289,272135,1,0,0:0:0:0:
240,218,272250,2,0,P|293:198|333:199,1,85,8|8,0:2|0:2,0:0:0:0:
434,318,272481,2,0,P|391:314|353:297,1,85,10|0,0:0|0:0,0:0:0:0:
437,72,272712,6,0,B|482:88|497:149|497:149|455:205,1,170,10|8,0:2|0:0,0:0:0:0:
362,279,273058,1,10,0:2:0:0:
274,199,273173,2,0,L|168:192,1,85,0|8,0:0|0:2,0:0:0:0:
115,75,273404,2,0,L|221:68,1,85,10|0,0:0|0:0,0:0:0:0:
390,161,273635,6,0,P|363:219|359:252,1,85,10|0,0:2|0:0,0:0:0:0:
223,316,273865,1,8,0:0:0:0:
223,316,273981,2,0,P|213:274|192:237,1,85,2|8,0:0|0:2,0:0:0:0:
286,85,274212,1,10,0:2:0:0:
286,85,274327,2,0,L|270:179,1,85,8|0,0:0|0:0,0:0:0:0:
373,259,274558,6,0,P|417:239|468:240,1,85,10|8,0:2|0:2,0:0:0:0:
223,316,274789,2,0,P|179:296|128:297,1,85,10|8,0:0|0:2,0:0:0:0:
260,90,275019,2,0,L|276:184,1,85,2|8,0:0|0:2,0:0:0:0:
80,175,275250,1,10,0:0:0:0:
87,147,275327,1,8,0:0:0:0:
95,119,275404,1,8,0:0:0:0:
103,91,275481,6,0,B|163:64|163:64|218:104|274:87,1,170,12|8,0:2|0:0,0:0:0:0:
363,28,275827,1,2,0:0:0:0:
455,101,275942,2,0,L|465:197,1,85,8|10,0:2|0:2,0:0:0:0:
364,265,276174,2,0,L|355:180,1,85,8|0,0:0|0:0,0:0:0:0:
198,201,276404,6,0,P|157:228|100:241,1,85,10|0,0:2|0:0,0:0:0:0:
142,347,276635,1,8,0:0:0:0:
248,321,276750,2,0,P|288:334|323:358,1,85,10|0,0:2|0:0,0:0:0:0:
371,222,276981,1,8,0:2:0:0:
371,222,277096,2,0,P|338:194|320:156,1,85,10|0,0:0|0:0,0:0:0:0:
472,50,277327,6,0,B|465:98|447:141|447:141|474:226,1,170,10|8,0:2|0:0,0:0:0:0:
400,321,277673,2,0,P|328:263|251:302,1,170,2|10,0:0|0:2,0:0:0:0:
113,212,278019,2,0,L|207:199,1,85,8|0,0:0|0:0,0:0:0:0:
369,63,278250,6,0,P|328:90|277:100,1,85,10|8,0:2|0:2,0:0:0:0:
132,12,278481,2,0,P|175:34|210:73,1,85,10|8,0:0|0:2,0:0:0:0:
199,238,278712,2,0,P|196:188|212:139,1,85,0|8,0:0|0:2,0:0:0:0:
362,144,278942,1,10,0:0:0:0:
441,221,279058,1,8,0:0:0:0:
390,318,279173,6,0,P|338:346|293:346,1,85,12|0,0:0|0:0,0:0:0:0:
122,208,279404,2,0,P|163:215|199:238,1,85,8|0,0:2|0:0,0:0:0:0:
408,214,279635,2,0,P|442:163|443:126,1,85,10|0,0:0|0:0,0:0:0:0:
174,62,279865,2,0,P|175:103|195:140,1,85,10|8,0:2|0:2,0:0:0:0:
428,241,280096,6,0,P|469:232|502:205,1,85,10|8,0:0|0:2,0:0:0:0:
199,238,280327,2,0,P|176:273|173:315,1,85,10|8,0:2|0:2,0:0:0:0:
362,144,280558,2,0,P|391:102|394:55,1,85,10|8,0:0|0:2,0:0:0:0:
164,162,280789,2,0,P|172:203|197:236,1,85,10|8,0:0|0:0,0:0:0:0:
368,257,281019,5,12,0:2:0:0:
256,192,281077,12,0,282635,0:0:0:0:
335,85,282865,6,0,L|358:20,2,56.6666666666667,8|8|4,0:0|0:3|0:3,0:0:0:0:
210,109,283096,2,0,L|187:44,2,56.6666666666667,8|8|4,0:2|0:3|0:3,0:0:0:0:
377,194,283327,5,8,0:0:0:0:
348,291,283442,1,8,0:2:0:0:
245,293,283558,1,8,0:0:0:0:
211,196,283673,1,8,0:2:0:0:
294,134,283788,1,8,3:2:0:0:
294,134,284481,5,8,0:0:0:0:
294,134,284558,1,8,0:0:0:0:
294,134,284635,1,8,0:0:0:0:
294,133,284712,6,0,P|251:129|212:112,1,85,12|8,0:0|0:2,0:0:0:0:
268,313,284942,2,0,P|307:296|349:291,1,85,10|8,0:0|0:2,0:0:0:0:
296,123,285173,2,0,P|254:114|216:94,1,85,10|8,0:0|0:2,0:0:0:0:
284,326,285404,2,0,P|324:313|366:312,1,85,10|8,0:0|0:2,0:0:0:0:
479,103,285635,6,0,L|464:198,1,85,10|8,0:0|0:2,0:0:0:0:
307,229,285865,2,0,L|294:146,1,85,10|8,0:0|0:2,0:0:0:0:
117,225,286096,2,0,L|103:308,1,85,10|8,0:0|0:2,0:0:0:0:
289,269,286326,2,0,L|275:185,1,85,10|8,0:0|0:2,0:0:0:0:
90,97,286558,6,0,P|142:130|171:138,1,85,10|8,0:0|0:2,0:0:0:0:
268,99,286789,1,10,0:0:0:0:
367,51,286904,2,0,P|423:45|460:60,1,85,8|10,0:2|0:0,0:0:0:0:
493,155,287135,1,8,0:2:0:0:
436,249,287250,2,0,P|380:255|343:240,1,85,10|8,0:0|0:2,0:0:0:0:
161,155,287481,6,0,B|135:267,1,85,10|8,0:0|0:2,0:0:0:0:
350,155,287712,2,0,B|376:267,1,85,10|8,0:0|0:2,0:0:0:0:
147,133,287942,2,0,B|123:235,1,85,10|8,0:0|0:2,0:0:0:0:
364,133,288173,2,0,B|388:235,1,85,10|8,0:0|0:2,0:0:0:0:
236,346,288404,6,0,P|201:322|159:312,1,85,12|8,0:0|0:2,0:0:0:0:
410,211,288635,2,0,P|386:246|376:288,1,85,10|8,0:0|0:2,0:0:0:0:
275,37,288865,2,0,P|310:61|352:71,1,85,10|8,0:0|0:2,0:0:0:0:
101,172,289096,2,0,P|125:137|135:95,1,85,10|8,0:0|0:2,0:0:0:0:
344,319,289327,6,0,P|302:325|265:345,1,85,10|8,0:0|0:2,0:0:0:0:
383,103,289558,2,0,P|389:145|409:182,1,85,10|8,0:0|0:2,0:0:0:0:
167,64,289788,2,0,P|209:58|246:38,1,85,10|8,0:0|0:2,0:0:0:0:
128,280,290019,2,0,P|122:238|102:201,1,85,10|8,0:0|0:2,0:0:0:0:
293,153,290250,6,0,L|304:256,1,85,12|8,0:0|0:2,0:0:0:0:
495,331,290481,2,0,L|485:246,1,85,10|8,0:0|0:2,0:0:0:0:
264,123,290712,2,0,L|274:208,1,85,10|8,0:0|0:2,0:0:0:0:
94,357,290943,2,0,L|84:272,1,85,10|8,0:0|0:2,0:0:0:0:
264,123,291173,6,0,P|310:98|346:94,1,85,10|8,0:0|0:2,0:0:0:0:
400,286,291404,2,0,P|365:261|324:251,1,85,10|8,0:0|0:0,0:0:0:0:
92,168,291635,1,10,0:0:0:0:
85,273,291751,1,8,0:0:0:0:
161,347,291866,1,10,0:0:0:0:
267,338,291981,1,8,0:0:0:0:
325,252,292096,6,0,B|380:225|380:225|499:266,1,170,12|8,0:2|0:0,0:0:0:0:
499,119,292442,1,2,0:0:0:0:
499,118,292558,2,0,P|461:137|418:138,1,85,8|10,0:2|0:2,0:0:0:0:
229,65,292789,2,0,P|267:46|310:46,1,85,8|0,0:0|0:0,0:0:0:0:
266,183,293019,6,0,B|222:160|182:187|143:217|102:190,1,170,10|8,0:2|0:0,0:0:0:0:
265,296,293365,2,0,B|309:273|349:300|388:330|428:303,1,170,10|8,0:2|0:2,0:0:0:0:
467,163,293712,2,0,L|509:253,1,85,10|0,0:0|0:0,0:0:0:0:
367,207,293942,6,0,P|353:153|428:65,1,170,10|8,0:2|0:0,0:0:0:0:
315,20,294289,1,2,0:0:0:0:
230,90,294404,2,0,P|177:115|129:114,1,85,8|10,0:2|0:2,0:0:0:0:
38,207,294635,2,0,P|79:213|116:233,1,85,8|0,0:0|0:0,0:0:0:0:
246,320,294865,6,0,P|214:246|268:182,1,170,10|8,0:2|0:0,0:0:0:0:
374,157,295212,1,8,0:2:0:0:
428,252,295327,2,0,P|485:262|518:252,1,85,2|8,0:0|0:2,0:0:0:0:
443,112,295558,2,0,P|413:142|374:157,1,85,10|8,0:0|0:0,0:0:0:0:
264,32,295789,6,0,L|285:143,1,85,12|0,0:0|0:0,0:0:0:0:
248,352,296019,2,0,L|227:241,1,85,10|0,0:2|0:0,0:0:0:0:
318,44,296250,6,0,L|300:155,1,85,10|0,0:0|0:0,0:0:0:0:
193,339,296480,2,0,L|211:228,1,85,8|8,0:2|0:2,0:0:0:0:
364,74,296712,6,0,L|309:173,1,85,10|8,0:0|0:2,0:0:0:0:
147,309,296942,2,0,L|202:210,1,85,10|8,0:2|0:2,0:0:0:0:
398,118,297173,6,0,L|312:192,1,85,10|8,0:0|0:2,0:0:0:0:
113,265,297403,2,0,L|199:191,1,85,10|8,0:0|0:0,0:0:0:0:
454,240,297635,6,0,P|383:281|307:251,1,170,14|10,0:0|0:0,0:0:0:0:
216,187,297981,1,8,0:2:0:0:
113,265,298096,2,0,L|100:372,1,85,10|8,0:0|0:2,0:0:0:0:
216,187,298327,2,0,L|226:102,1,85,10|8,0:0|0:2,0:0:0:0:
8,103,298558,6,0,P|50:139|146:80,1,170,10|8,0:0|0:3,0:0:0:0:
142,94,298865,1,8,0:3:0:0:
142,94,298942,1,4,0:3:0:0:
142,94,299019,6,0,L|250:88,1,85,10|0,0:0|0:0,0:0:0:0:
320,220,299250,2,0,L|235:214,1,85,8|8,0:0|0:0,0:0:0:0:
376,113,299481,5,12,0:2:0:0:
81,296,300404,5,10,0:2:0:0:
400,208,300750,1,10,0:2:0:0:
118,32,301096,1,10,0:2:0:0:
242,214,301327,5,10,0:2:0:0:
251,233,302250,5,10,0:2:0:0:
343,173,302365,1,8,0:2:0:0:
453,222,302481,2,0,L|473:308,1,85,8|10,0:0|0:2,0:0:0:0:
362,255,302712,2,0,L|343:173,1,85,0|8,0:0|0:2,0:0:0:0:
231,150,302942,2,0,L|251:236,1,85,10|0,0:0|0:0,0:0:0:0:
122,148,303173,5,12,0:2:0:0:
436,41,304096,5,12,0:0:0:0:
134,177,304442,1,12,0:0:0:0:
414,355,304789,1,12,0:0:0:0:
465,257,304904,1,8,0:2:0:0:
426,153,305019,6,0,P|386:138|344:141,1,85,12|8,0:0|0:2,0:0:0:0:
203,263,305250,2,0,P|245:265|284:251,1,85,8|8,0:2|0:2,0:0:0:0:
247,75,305481,2,0,L|234:171,1,85,10|8,0:0|0:2,0:0:0:0:
83,259,305712,2,0,L|71:174,1,85,10|8,0:0|0:2,0:0:0:0:
203,263,305942,6,0,L|192:348,1,85,10|8,0:0|0:2,0:0:0:0:
235,159,306172,5,10,0:0:0:0:
338,200,306288,1,8,0:0:0:0:
442,146,306403,5,10,0:0:0:0:
355,215,306519,1,8,0:0:0:0:
350,331,306634,5,10,0:0:0:0:
334,222,306749,1,8,0:0:0:0:
248,292,306865,6,0,B|138:320|138:320|73:287,1,170,12|8,0:2|0:0,0:0:0:0:
35,174,307212,1,2,0:0:0:0:
158,117,307327,2,0,P|182:163|186:198,1,85,10|8,0:2|0:2,0:0:0:0:
292,97,307558,2,0,P|298:55|320:18,1,85,10|0,0:0|0:0,0:0:0:0:
462,206,307789,6,0,L|279:185,1,170,10|8,0:2|0:0,0:0:0:0:
79,311,308135,2,0,L|262:290,1,170,10|8,0:2|0:2,0:0:0:0:
359,299,308481,2,0,P|324:340|309:377,1,85,10|0,0:0|0:0,0:0:0:0:
468,323,308712,6,0,B|493:277|454:230|454:230|460:185|460:185|444:166,1,170,10|8,0:2|0:0,0:0:0:0:
342,123,309058,1,2,0:0:0:0:
262,198,309173,2,0,P|222:213|181:211,1,85,8|10,0:2|0:2,0:0:0:0:
86,82,309404,2,0,P|128:79|167:94,1,85,8|0,0:0|0:0,0:0:0:0:
385,57,309635,6,0,P|309:88|240:44,1,170,10|8,0:2|0:0,0:0:0:0:
369,24,309981,1,10,0:2:0:0:
472,176,310096,2,0,P|440:245|419:140,1,255,0|8,0:0|0:0,0:0:0:0:
423,194,310558,6,0,P|418:238|395:275,1,85,12|0,0:0|0:0,0:0:0:0:
89,190,310789,2,0,P|94:146|117:109,1,85,10|0,0:2|0:0,0:0:0:0:
416,236,311019,6,0,P|400:278|367:307,1,85,10|0,0:0|0:0,0:0:0:0:
94,146,311250,2,0,P|110:104|143:75,1,85,10|8,0:2|0:2,0:0:0:0:
398,277,311481,6,0,P|372:312|333:332,1,85,10|8,0:0|0:2,0:0:0:0:
111,106,311712,2,0,P|138:70|176:50,1,85,10|8,0:2|0:2,0:0:0:0:
372,310,311942,6,0,P|337:338|294:348,1,85,10|8,0:0|0:2,0:0:0:0:
138,72,312173,2,0,P|173:44|216:34,1,85,10|8,0:0|0:0,0:0:0:0:
256,192,312404,5,12,0:2:0:0:
256,192,312462,12,0,314019,0:0:0:0:
153,89,314250,6,0,L|196:264,1,170,12|8,0:2|0:0,0:0:0:0:
295,297,314596,1,10,0:2:0:0:
376,222,314712,2,0,P|413:201|455:197,1,85,0|8,0:0|0:2,0:0:0:0:
373,321,314942,2,0,P|330:317|294:296,1,85,10|0,0:0|0:0,0:0:0:0:
271,140,315173,6,0,P|326:179|412:117,1,170,10|8,0:2|0:0,0:0:0:0:
220,50,315519,1,10,0:2:0:0:
123,121,315635,2,0,L|137:224,1,85,0|8,0:0|0:2,0:0:0:0:
234,322,315865,2,0,L|245:237,1,85,10|0,0:0|0:0,0:0:0:0:
390,117,316096,6,0,P|368:201|415:265,1,170,10|8,0:2|0:0,0:0:0:0:
209,174,316442,2,0,P|256:242|234:322,1,170,10|8,0:2|0:2,0:0:0:0:
105,325,316788,1,10,0:0:0:0:
105,325,316903,1,0,0:0:0:0:
121,197,317019,6,0,L|291:226,1,170,10|8,0:2|0:0,0:0:0:0:
387,172,317366,1,10,0:2:0:0:
475,237,317481,2,0,P|484:278|475:319,1,85,0|8,0:0|0:2,0:0:0:0:
387,172,317712,2,0,P|377:130|386:89,1,85,10|0,0:0|0:0,0:0:0:0:
236,26,317942,6,0,B|269:95|269:95|238:141|264:191,1,170,12|8,0:2|0:0,0:0:0:0:
337,264,318289,1,10,0:2:0:0:
242,319,318404,2,0,L|140:306,1,85,0|8,0:0|0:2,0:0:0:0:
83,225,318635,2,0,L|167:214,1,85,2|0,0:0|0:0,0:0:0:0:
207,106,318865,6,0,P|265:146|361:108,1,170,10|8,0:2|0:0,0:0:0:0:
440,46,319212,1,10,0:2:0:0:
505,134,319327,2,0,L|497:243,1,85,0|8,0:0|0:2,0:0:0:0:
403,304,319558,2,0,L|396:219,1,85,10|0,0:0|0:0,0:0:0:0:
285,164,319789,6,0,P|240:211|134:174,1,170,10|10,0:2|0:0,0:0:0:0:
273,62,320135,1,8,0:2:0:0:
366,120,320250,2,0,L|380:212,1,85,2|8,0:0|0:2,0:0:0:0:
254,330,320481,2,0,L|242:245,1,85,10|0,0:0|0:0,0:0:0:0:
122,142,320712,6,0,P|77:154|30:153,1,85,10|8,0:2|0:0,0:0:0:0:
242,245,320942,2,0,P|288:257|334:256,1,85,10|8,0:0|0:2,0:0:0:0:
212,163,321173,1,10,0:0:0:0:
158,228,321289,1,8,0:0:0:0:
182,309,321404,1,10,0:0:0:0:
265,326,321519,1,8,0:0:0:0:
328,268,321635,6,0,P|396:234|495:252,1,170,12|8,0:2|0:0,0:0:0:0:
391,102,321981,2,0,P|325:135|229:118,1,170,10|8,0:2|0:2,0:0:0:0:
137,18,322327,2,0,L|114:135,1,85,10|0,0:0|0:0,0:0:0:0:
21,308,322558,6,0,L|0:133,1,170,10|8,0:2|0:2,0:0:0:0:
151,227,322904,1,10,0:2:0:0:
151,227,323019,2,0,P|180:178|210:149,1,85,0|8,0:0|0:2,0:0:0:0:
250,315,323250,2,0,P|286:293|337:281,1,85,10|0,0:0|0:0,0:0:0:0:
494,195,323481,6,0,P|438:224|354:147,1,170,10|8,0:2|0:0,0:0:0:0:
294,77,323827,1,10,0:2:0:0:
193,121,323942,2,0,L|179:217,1,85,0|8,0:0|0:2,0:0:0:0:
48,181,324174,2,0,L|61:265,1,85,10|0,0:0|0:0,0:0:0:0:
134,54,324404,6,0,P|186:31|279:94,1,170,10|8,0:2|0:0,0:0:0:0:
367,187,324751,2,0,P|445:208|508:155,1,170,10|8,0:2|0:2,0:0:0:0:
280,129,325096,2,0,P|261:180|271:228,1,85,10|0,0:0|0:0,0:0:0:0:
407,306,325327,6,0,B|366:276|325:308|286:332|244:306,1,170,12|8,0:2|0:0,0:0:0:0:
162,229,325674,1,10,0:2:0:0:
228,140,325789,2,0,P|266:121|308:119,1,85,0|8,0:0|0:2,0:0:0:0:
448,208,326019,2,0,P|405:205|367:187,1,85,10|0,0:0|0:0,0:0:0:0:
209,44,326250,6,0,B|239:88|239:88|209:204,1,170,10|8,0:2|0:0,0:0:0:0:
366,344,326596,2,0,B|337:231|337:231|367:187,1,170,10|8,0:2|0:2,0:0:0:0:
209,201,326942,2,0,L|226:286,1,85,10|0,0:0|0:0,0:0:0:0:
39,313,327173,6,0,L|55:229,1,85,10|0,0:2|0:0,0:0:0:0:
119,139,327404,1,8,0:0:0:0:
209,201,327519,2,0,P|278:242|365:201,1,170,10|8,0:2|0:2,0:0:0:0:
305,63,327866,2,0,L|286:157,1,85,10|0,0:0|0:0,0:0:0:0:
135,262,328096,6,0,L|118:178,1,85,10|8,0:2|0:2,0:0:0:0:
276,263,328327,2,0,L|257:357,1,85,10|8,0:0|0:2,0:0:0:0:
437,178,328558,1,10,0:0:0:0:
368,242,328673,1,8,0:0:0:0:
276,263,328789,1,10,0:0:0:0:
195,216,328904,1,8,0:0:0:0:
159,129,329019,6,0,P|158:82|172:41,1,85,12|0,0:2|0:0,0:0:0:0:
317,98,329250,2,0,P|318:140|306:180,1,85,8|8,0:0|0:2,0:0:0:0:
456,335,329481,2,0,P|421:265|443:167,1,170,0|8,0:0|0:0,0:0:0:0:
504,89,329827,1,0,0:0:0:0:
415,23,329942,6,0,L|324:14,1,85,10|0,0:2|0:0,0:0:0:0:
196,129,330173,2,0,L|287:120,1,85,8|8,0:0|0:2,0:0:0:0:
422,207,330404,2,0,P|443:153|444:109,1,85,2|8,0:0|0:2,0:0:0:0:
303,225,330635,2,0,P|308:266|326:305,1,85,10|0,0:0|0:0,0:0:0:0:
217,325,330865,6,0,P|140:286|60:314,1,170,10|8,0:2|0:0,0:0:0:0:
21,166,331212,2,0,P|98:205|178:177,1,170,10|8,0:2|0:2,0:0:0:0:
255,105,331558,1,10,0:0:0:0:
364,112,331673,1,0,0:0:0:0:
422,207,331789,6,0,L|410:303,1,85,2|0,0:2|0:0,0:0:0:0:
315,236,332019,1,8,0:0:0:0:
217,297,332135,2,0,B|154:320|154:320|44:290,1,170,10|8,0:2|0:2,0:0:0:0:
98,142,332481,2,0,P|134:187|143:215,1,85,10|0,0:0|0:0,0:0:0:0:
249,164,332712,6,0,P|274:96|367:39,1,170,12|8,0:2|0:0,0:0:0:0:
453,86,333058,1,8,0:2:0:0:
502,184,333173,2,0,P|491:223|487:270,1,85,2|8,0:0|0:2,0:0:0:0:
374,244,333404,2,0,P|369:202|357:159,1,85,8|0,0:0|0:0,0:0:0:0:
216,247,333635,6,0,B|253:273|292:238|335:202|374:244,1,170,10|8,0:2|0:0,0:0:0:0:
284,135,333981,2,0,B|245:176|202:140|163:105|125:132,1,170,10|8,0:2|0:2,0:0:0:0:
63,297,334327,2,0,P|106:247|116:213,1,85,10|0,0:0|0:0,0:0:0:0:
269,314,334558,6,0,P|212:243|241:163,1,170,10|8,0:2|0:0,0:0:0:0:
320,107,334904,1,10,0:2:0:0:
408,172,335019,2,0,P|462:184|500:181,1,85,0|8,0:0|0:2,0:0:0:0:
333,73,335250,2,0,P|290:72|249:83,1,85,10|0,0:0|0:0,0:0:0:0:
142,222,335481,5,10,0:2:0:0:
183,303,335596,1,8,0:0:0:0:
274,308,335711,1,10,0:0:0:0:
325,231,335827,1,8,0:2:0:0:
284,151,335943,1,10,0:0:0:0:
333,73,336058,1,8,0:0:0:0:
426,79,336174,1,10,0:0:0:0:
467,160,336289,1,8,0:0:0:0:
422,241,336404,6,0,B|384:285|384:285|335:235|254:261,1,170,12|8,0:2|0:0,0:0:0:0:
187,313,336750,1,10,0:2:0:0:
87,266,336865,2,0,L|72:160,1,85,0|8,0:0|0:2,0:0:0:0:
173,104,337096,2,0,L|184:188,1,85,10|0,0:0|0:0,0:0:0:0:
284,151,337327,6,0,B|343:138|343:138|389:163|389:163|456:151,1,170,10|8,0:2|0:0,0:0:0:0:
425,43,337673,1,10,0:2:0:0:
315,59,337789,2,0,P|270:43|233:15,1,85,0|8,0:0|0:2,0:0:0:0:
97,141,338019,2,0,P|132:117|173:104,1,85,10|0,0:0|0:0,0:0:0:0:
332,222,338250,6,0,B|292:220|261:198|261:198|223:243|169:231,1,170,10|8,0:2|0:0,0:0:0:0:
328,313,338596,2,0,B|367:311|399:289|399:289|437:334|491:322,1,170,10|8,0:2|0:2,0:0:0:0:
456,153,338942,2,0,L|471:241,1,85,10|0,0:0|0:0,0:0:0:0:
332,222,339173,6,0,P|343:145|400:57,1,170,10|10,0:2|0:0,0:0:0:0:
234,63,339519,2,0,P|155:93|70:90,1,170,10|8,0:2|0:2,0:0:0:0:
174,258,339865,2,0,L|225:179,1,85,8|0,0:0|0:0,0:0:0:0:
408,301,340096,6,0,P|327:283|259:330,1,170,12|8,0:2|0:0,0:0:0:0:
97,234,340442,1,10,0:2:0:0:
96,233,340558,2,0,P|130:255|182:255,1,85,0|8,0:0|0:2,0:0:0:0:
294,129,340789,2,0,P|257:147|231:192,1,85,10|0,0:0|0:0,0:0:0:0:
337,232,341019,6,0,L|511:214,1,170,10|8,0:2|0:0,0:0:0:0:
377,100,341365,2,0,L|203:82,1,170,10|8,0:2|0:2,0:0:0:0:
97,234,341712,2,0,P|156:208|185:181,1,85,10|0,0:0|0:0,0:0:0:0:
402,174,341942,6,0,P|424:223|359:320,1,170,12|8,0:2|0:0,0:0:0:0:
230,255,342289,2,0,B|192:228|148:254|109:281|68:252,1,170,10|8,0:2|0:2,0:0:0:0:
221,90,342635,2,0,L|282:169,1,85,10|0,0:0|0:0,0:0:0:0:
408,145,342865,6,0,P|435:97|443:59,1,85,10|8,0:2|0:2,0:0:0:0:
351,245,343096,2,0,P|362:285|384:321,1,85,10|8,0:0|0:2,0:0:0:0:
252,203,343327,1,10,0:0:0:0:
175,255,343442,1,8,0:0:0:0:
95,204,343558,1,10,0:0:0:0:
125,115,343673,1,8,0:0:0:0:
218,110,343789,5,14,0:2:0:0:
346,45,344276,1,2,0:0:0:0:
410,169,344737,1,2,0:0:0:0:
282,234,345198,1,2,0:0:0:0:
144,164,345663,5,0,0:0:0:0:
152,316,346124,1,2,0:0:0:0:
305,316,346586,1,2,0:0:0:0:
354,157,347047,6,0,L|429:141,1,63.7500024318696,2|0,0:0|0:0,0:0:0:0:
483,220,347278,2,0,L|420:233,1,63.7500024318696,2|2,0:0|0:0,0:0:0:0:
