osu file format v14

[General]
AudioFilename: Kegare naki Bara zz.mp3
AudioLeadIn: 1000
PreviewTime: 252635
Countdown: 0
SampleSet: Normal
StackLeniency: 0.7
Mode: 0
LetterboxInBreaks: 0
WidescreenStoryboard: 0

[Editor]
DistanceSpacing: 2.3
BeatDivisor: 4
GridSize: 4
TimelineZoom: 2.299999

[Metadata]
Title:Kegare naki Bara Juuji
TitleUnicode:穢れなき薔薇十字
Artist:Ariabl'eyeS
ArtistUnicode:Ariabl'eyeS
Creator:Kibbleru
Version:Rosenkreuz
Source:
Tags:瑠璃色のローゼンクロイツ Ruriiro no Rena Lyse リゼ Rosicrucian pkk pkmnyab
BeatmapID:701018
BeatmapSetID:291689

[Difficulty]
HPDrainRate:7
CircleSize:4
OverallDifficulty:8.3
ApproachRate:9.7
SliderMultiplier:1.7
SliderTickRate:1

[Events]
//Background and Video events
0,0,"BGty.jpg",0,0
//Break Periods
2,211066,214063
//Storyboard Layer 0 (Background)
//Storyboard Layer 1 (Fail)
//Storyboard Layer 2 (Pass)
//Storyboard Layer 3 (Foreground)
//Storyboard Sound Samples

[TimingPoints]
826,681.044267877412,4,2,1,30,1,0
1507,666.666666666667,4,2,1,30,1,8
2840,750,4,2,1,30,1,8
3215,666.666666666667,4,2,1,30,1,8
3548,600,4,2,1,30,1,0
4148,689.655172413793,4,2,1,30,1,8
4837,631.578947368421,4,2,1,30,1,8
5152,726.392251815981,4,2,1,30,1,8
5515,679.501698754247,4,2,1,30,1,8
6194,666.666666666667,4,2,1,30,1,0
6860,631.578947368421,4,2,1,30,1,8
7175,674.157303370787,4,2,1,30,1,8
8186,659.340659340659,4,2,1,30,1,8
8845,659.340659340659,4,2,1,30,1,0
9504,666.666666666667,4,2,1,30,1,8
10170,566.037735849057,4,2,1,30,1,8
10452,714.285714285714,4,2,1,40,1,8
11166,693.64161849711,4,2,1,40,1,8
11512,666.666666666667,4,2,1,40,1,0
12178,722.89156626506,4,2,1,40,1,8
12539,666.666666666667,4,2,1,40,1,8
12872,666.666666666667,4,2,1,40,1,8
13872,625,4,2,1,40,1,8
14184,722.89156626506,4,2,1,40,1,0
14726,666.666666666667,4,2,1,40,1,8
15559,526.315789473684,4,2,1,40,1,8
15822,740.740740740741,4,2,1,40,1,8
16192,666.666666666667,4,2,1,40,1,8
16858,631.578947368421,4,2,1,40,1,0
17489,645.161290322581,4,2,1,40,1,8
18134,697.674418604651,4,2,1,40,1,8
19180,661.521499448732,4,2,1,40,1,8
19510,666.666666666667,4,2,1,40,1,0
21510,710.059171597633,4,2,1,40,1,8
21865,681.818181818182,4,2,1,40,1,8
22205,633.579725448786,4,2,1,40,1,0
22680,664.451827242525,4,2,1,40,1,0
23510,665.926748057714,4,2,1,40,1,8
24175,645.161290322581,4,2,1,40,1,8
24820,645.161290322581,4,2,1,40,1,0
25303,645.161290322581,4,2,1,40,1,0
25948,444.444444444444,4,2,1,40,1,8
26170,630.252100840336,4,2,1,40,1,8
26800,689.655172413793,4,2,1,40,1,8
27489,676.437429537768,4,2,1,40,1,0
29180,697.674418604651,4,2,1,40,1,8
30226,645.161290322581,4,2,1,40,1,0
31193,659.340659340659,4,2,1,40,1,8
31522,666.666666666667,4,2,1,40,1,8
32855,657.390161060589,4,2,1,40,1,0
35484,461.538461538462,4,2,1,45,1,0
36407,-76.9230769230769,4,2,1,45,0,0
37330,-100,4,2,1,45,0,0
43791,-76.9230769230769,4,2,1,50,0,0
44714,230.769230769231,4,1,1,60,1,0
66867,-100,4,1,1,50,0,0
70560,-133.333333333333,4,1,1,45,0,0
100098,-111.111111111111,4,1,1,50,0,0
107483,-111.111111111111,4,1,1,50,0,0
111175,-111.111111111111,4,1,1,60,0,0
114867,-100,4,1,1,70,0,1
128714,-100,4,1,1,70,0,0
129637,-100,4,1,1,70,0,1
142617,-100,4,2,1,20,0,1
144406,461.538461538462,4,2,1,40,1,0
148098,-100,4,2,1,45,0,0
162867,-100,4,2,1,55,0,0
176713,-76.9230769230769,4,2,1,55,0,0
177636,230.769230769231,4,1,1,60,1,0
200020,-100,4,1,1,70,0,0
200078,-100,4,1,1,60,0,0
207174,461.538461538462,4,2,1,60,1,0
214558,-100,4,2,1,45,0,0
222866,-76.9230769230769,4,2,1,50,0,0
223789,230.769230769231,4,1,1,50,1,0
223789,-111.111111111111,4,1,1,50,0,0
234865,-111.111111111111,4,1,1,60,0,0
238558,-111.111111111111,4,1,1,50,0,0
249635,-111.111111111111,4,1,1,60,0,0
253327,-100,4,1,1,70,0,1
267173,-100,4,1,1,70,0,0
268096,-100,4,1,1,70,0,1
281019,-100,4,1,1,70,0,0
281077,-100,4,2,1,20,0,0
282865,-100,4,2,1,60,0,0
284481,-100,4,2,1,70,0,0
284712,-100,4,1,1,75,0,1
292096,-100,4,1,1,70,0,1
299481,-100,4,1,1,60,0,0
306865,-100,4,1,1,70,0,1
312462,-100,4,2,1,20,0,1
314250,-100,4,1,1,60,0,0
343789,461.538461538462,4,2,1,40,1,0
343789,-66.6666666666667,4,2,1,40,0,0
343970,461.538461538462,4,2,1,40,1,8
344276,461.538461538462,4,2,1,40,1,8
345663,461.538461538462,4,2,1,40,1,0
347047,-66.6666666666667,4,2,1,40,0,0

[Colours]
Combo1 : 238,200,174
Combo2 : 65,136,188
Combo3 : 155,73,175
Combo4 : 108,103,216

[HitObjects]
100,168,826,6,0,P|143:163|185:159,1,85,2|0,0:0|0:0,0:0:0:0:
240,280,1507,2,0,P|197:284|148:289,1,85,2|0,0:0|0:0,0:0:0:0:
296,184,2173,1,2,0:0:0:0:
344,280,2507,1,0,0:0:0:0:
424,196,2840,2,0,P|427:153|432:111,1,85,2|0,0:0|0:0,0:0:0:0:
316,56,3548,6,0,P|233:52|177:113,1,170,2|2,0:0|0:0,0:0:0:0:
288,176,4492,1,0,0:0:0:0:
160,280,4837,2,0,P|167:238|175:196,1,85,2|0,0:0|0:0,0:0:0:0:
284,224,5515,2,0,L|388:216,1,85,2|0,0:0|0:0,0:0:0:0:
464,144,6194,5,2,0:0:0:0:
376,72,6527,1,0,0:0:0:0:
260,124,6860,2,0,L|175:117,1,85,2|0,0:0|0:0,0:0:0:0:
104,200,7512,2,0,P|105:242|107:284,1,85,2|0,0:0|0:0,0:0:0:0:
256,308,8186,2,0,B|256:304|254:265|253:220,1,85,2|0,0:0|0:0,0:0:0:0:
183,107,8845,6,0,P|267:103|345:135,1,170,2|0,0:0|0:0,0:0:0:0:
468,87,10170,2,0,P|460:128|451:170,1,85,0|2,0:0|0:0,0:0:0:0:
352,252,10809,1,2,0:0:0:0:
288,160,11166,1,2,0:0:0:0:
332,56,11512,6,0,P|284:40|164:76,1,170,2|2,0:0|0:0,0:0:0:0:
84,168,12539,1,0,0:0:0:0:
196,196,12872,2,0,P|176:256|164:319,2,127.5,2|2|2,0:0|0:0|0:0,0:0:0:0:
324,172,14184,2,0,P|324:224|332:276,1,85,2|0,0:0|0:0,0:0:0:0:
428,264,14726,2,0,P|428:212|420:160,2,85,2|0|0,0:0|0:0|0:0,0:0:0:0:
308,132,15822,5,0,0:0:0:0:
220,180,16192,1,2,0:0:0:0:
152,104,16525,1,0,0:0:0:0:
212,19,16858,2,0,P|294:10|365:54,1,170,2|2,0:0|0:0,0:0:0:0:
304,164,18134,2,0,P|276:220|268:304,2,127.5,2|2|2,0:0|0:0|0:0,0:0:0:0:
180,143,19510,6,0,P|142:163|110:191,1,85,2|0,0:0|0:0,0:0:0:0:
172,272,20010,2,0,P|209:252|241:224,2,85,2|0|0,0:0|0:0|0:0,0:0:0:0:
256,332,20843,2,0,P|324:332|432:288,1,170,2|0,0:0|0:0,0:0:0:0:
392,184,21865,1,2,0:0:0:0:
272,208,22205,6,0,P|277:168|280:123,1,85,2|0,0:0|0:0,0:0:0:0:
196,87,22680,2,0,P|187:129|182:171,2,85,2|0|0,0:0|0:0|0:0,0:0:0:0:
104,64,23510,2,0,P|60:100|48:216,1,170,2|0,0:0|0:0,0:0:0:0:
156,280,24497,1,2,0:0:0:0:
156,279,24820,6,0,P|196:267|237:257,1,85,2|0,0:0|0:0,0:0:0:0:
272,344,25303,2,0,P|231:356|190:366,2,85,2|0|0,0:0|0:0|0:0,0:0:0:0:
376,340,26170,2,0,P|388:255|398:171,1,170,2|2,0:0|0:0,0:0:0:0:
296,76,27144,1,2,0:0:0:0:
200,152,27489,5,2,0:0:0:0:
208,172,29180,2,0,L|124:158,2,85,2|2|2,0:0|0:0|0:0,0:0:0:0:
308,140,30226,2,0,B|329:220|287:220|309:308,1,170,2|0,0:0|0:0,0:0:0:0:
412,288,31193,1,0,0:0:0:0:
308,340,31522,2,0,L|138:324,2,170,2|2|2,0:0|0:0|0:0,0:0:0:0:
228,112,35484,5,0,3:0:0:0:
240,136,35945,1,0,0:0:0:0:
252,155,36407,6,0,P|245:182|240:209,1,55.2499974708558,8|8,0:3|0:3,0:0:0:0:
360,104,36637,2,0,P|353:77|343:51,1,55.2499974708558,4|4,0:3|0:3,0:0:0:0:
360,208,36868,2,0,P|386:214|413:221,1,55.2499974708558,8|8,0:1|0:1,0:0:0:0:
224,52,37099,2,0,P|198:59|171:67,1,55.2499974708558,8|8,0:1|0:1,0:0:0:0:
48,192,37330,6,0,B|89:199|132:214|132:214|168:198|212:192,1,170,12|2,0:0|0:0,0:0:0:0:
352,208,38022,2,0,P|343:227|335:247,1,42.5,0|0,0:0|0:0,0:0:0:0:
436,216,38253,2,0,P|422:257|410:297,2,85,10|0|2,0:1|0:0|0:0,0:0:0:0:
344,72,38945,1,8,0:0:0:0:
344,72,39022,1,0,0:0:0:0:
344,72,39099,1,0,0:0:0:0:
344,72,39176,6,0,P|281:77|236:120,1,127.5,10|10,0:0|0:0,0:0:0:0:
236,120,39637,2,0,P|241:163|246:205,1,85,0|8,0:0|0:0,0:0:0:0:
200,280,39984,2,0,L|189:330,1,42.5,8|8,0:0|0:1,0:0:0:0:
316,284,40330,1,2,0:0:0:0:
323,296,40407,1,0,0:0:0:0:
330,308,40484,1,0,0:0:0:0:
338,320,40560,1,8,0:1:0:0:
402,211,40791,1,8,0:1:0:0:
409,223,40868,1,8,0:1:0:0:
416,235,40945,1,8,0:1:0:0:
424,247,41022,6,0,P|431:165|376:103,1,170,12|2,0:0|0:0,0:0:0:0:
268,32,41714,1,10,0:0:0:0:
196,152,41945,2,0,P|238:155|280:160,1,85,8|8,0:1|0:0,0:0:0:0:
308,238,42291,2,0,L|304:298,1,42.5,8|10,0:0|0:1,0:0:0:0:
144,344,42637,1,8,0:0:0:0:
71,247,42868,2,0,P|76:205|80:162,1,85,10|8,0:0|0:0,0:0:0:0:
79,76,43214,2,0,P|71:55|65:35,1,42.5,8|10,0:0|0:1,0:0:0:0:
208,84,43560,1,8,0:0:0:0:
183,190,43791,6,0,P|173:216|165:243,1,55.2499974708558,2|8,0:0|0:1,0:0:0:0:
286,157,44022,2,0,P|313:164|341:168,1,55.2499974708558,10|8,0:0|0:0,0:0:0:0:
120,97,44253,2,0,P|93:106|67:115,1,55.2499974708558,10|8,0:1|0:1,0:0:0:0:
225,12,44484,1,10,0:1:0:0:
315,67,44599,1,8,0:1:0:0:
183,190,44714,6,0,P|147:246|167:346,1,170,12|8,0:2|0:0,0:0:0:0:
388,300,45060,2,0,B|364:212|412:212|388:133,1,170,10|8,0:2|0:2,0:0:0:0:
244,104,45406,1,10,0:0:0:0:
316,12,45521,1,0,0:0:0:0:
128,48,45637,6,0,B|93:113|123:170|123:170|165:175,1,170,10|8,0:2|0:0,0:0:0:0:
413,88,45983,2,0,L|243:103,1,170,10|8,0:2|0:2,0:0:0:0:
487,141,46329,1,10,0:0:0:0:
360,0,46444,1,0,0:0:0:0:
327,186,46560,6,0,B|347:262|303:262|324:353,1,170,10|8,0:2|0:0,0:0:0:0:
188,260,46906,2,0,B|168:216|168:216|46:204,1,170,10|8,0:2|0:2,0:0:0:0:
39,360,47252,2,0,L|131:352,1,85,10|0,0:0|0:0,0:0:0:0:
369,327,47483,6,0,L|285:313|201:299,1,170,10|8,0:2|0:0,0:0:0:0:
104,144,47829,2,0,P|172:100|265:122,1,170,10|8,0:2|0:2,0:0:0:0:
292,220,48175,2,0,P|333:210|374:201,1,85,10|0,0:0|0:0,0:0:0:0:
180,208,48406,6,0,P|152:301|144:376,1,170,10|8,0:2|0:0,0:0:0:0:
312,320,48752,2,0,P|396:302|478:282,1,170,10|8,0:2|0:2,0:0:0:0:
396,92,49098,1,10,0:0:0:0:
328,204,49214,1,0,0:0:0:0:
180,208,49329,6,0,B|147:192|136:167|136:167|156:55,1,170,10|8,0:2|0:0,0:0:0:0:
346,98,49675,2,0,P|428:115|504:80,1,170,10|8,0:2|0:2,0:0:0:0:
307,7,50021,1,10,0:0:0:0:
233,133,50137,1,0,0:0:0:0:
361,205,50252,6,0,L|385:373,1,170,10|8,0:2|0:0,0:0:0:0:
213,253,50598,2,0,P|265:205|381:217,1,170,10|8,0:2|0:2,0:0:0:0:
473,121,50944,2,0,P|481:185|461:217,1,85,10|0,0:0|0:0,0:0:0:0:
231,65,51175,5,10,0:2:0:0:
425,37,51290,1,8,0:2:0:0:
295,260,51406,1,10,0:0:0:0:
322,86,51521,1,8,0:2:0:0:
442,275,51637,5,10,0:0:0:0:
212,207,51752,1,8,0:0:0:0:
406,128,51867,1,10,0:0:0:0:
267,340,51983,1,8,0:0:0:0:
173,109,52098,6,0,B|293:133|293:133|311:176,1,170,12|8,0:2|0:0,0:0:0:0:
267,340,52444,1,8,0:2:0:0:
120,332,52560,2,0,P|129:290|139:249,1,85,2|8,0:0|0:2,0:0:0:0:
32,160,52790,2,0,L|22:201|12:242,1,85,8|0,0:0|0:0,0:0:0:0:
236,296,53021,6,0,P|296:304|380:244,1,170,10|8,0:2|0:0,0:0:0:0:
164,228,53367,1,8,0:2:0:0:
164,228,53483,2,0,P|148:267|136:308,1,85,2|8,0:0|0:2,0:0:0:0:
112,144,53714,2,0,P|78:169|46:197,1,85,8|0,0:0|0:0,0:0:0:0:
168,24,53944,6,0,P|84:41|3:67,1,170,10|8,0:2|0:0,0:0:0:0:
225,121,54290,2,0,B|342:143|342:143|369:129|372:104,1,170,8|8,0:2|0:2,0:0:0:0:
280,232,54637,1,8,0:0:0:0:
296,344,54752,1,0,0:0:0:0:
440,348,54867,6,0,P|427:263|412:180,1,170,10|8,0:2|0:0,0:0:0:0:
320,88,55214,2,0,P|357:68|396:51,1,85,10|0,0:2|0:0,0:0:0:0:
208,24,55444,1,8,0:2:0:0:
164,144,55560,2,0,P|121:137|80:129,1,85,8|0,0:0|0:0,0:0:0:0:
300,196,55790,6,0,P|312:276|248:352,1,170,12|8,0:2|0:0,0:0:0:0:
172,256,56137,2,0,B|92:236|92:276|3:258,1,170,8|8,0:2|0:2,0:0:0:0:
124,64,56483,2,0,P|110:104|114:146,1,85,8|0,0:0|0:0,0:0:0:0:
251,217,56714,5,10,0:2:0:0:
350,86,56829,1,0,0:0:0:0:
232,26,56944,1,8,0:0:0:0:
251,217,57060,2,0,B|291:265|363:253|363:253|363:206,1,170,10|8,0:2|0:2,0:0:0:0:
428,54,57406,2,0,P|388:69|349:86,1,85,8|0,0:0|0:0,0:0:0:0:
136,59,57637,6,0,P|130:101|126:143,1,85,10|0,0:2|0:0,0:0:0:0:
244,320,57867,1,8,0:0:0:0:
232,184,57983,1,8,0:2:0:0:
73,243,58098,2,0,P|77:286|83:328,1,85,2|8,0:0|0:2,0:0:0:0:
263,346,58329,1,8,0:0:0:0:
371,213,58444,1,0,0:0:0:0:
253,101,58560,6,0,P|241:141|232:183,1,85,10|8,0:2|0:0,0:0:0:0:
408,44,58790,1,10,0:0:0:0:
166,64,58906,1,8,0:2:0:0:
390,191,59021,5,10,0:0:0:0:
272,12,59137,1,8,0:0:0:0:
171,252,59252,1,10,0:0:0:0:
390,78,59367,1,8,0:0:0:0:
226,148,59483,6,0,B|144:166|144:130|57:145,1,170,12|8,0:2|0:0,0:0:0:0:
97,372,59829,2,0,P|168:333|171:252,1,170,10|8,0:2|0:2,0:0:0:0:
293,282,60175,2,0,P|335:277|377:274,1,85,10|0,0:0|0:0,0:0:0:0:
444,104,60406,6,0,B|407:111|369:130|369:130|326:119|279:117,1,170,10|8,0:2|0:0,0:0:0:0:
172,27,60752,2,0,B|137:30|120:55|120:55|136:169,1,170,10|8,0:2|0:2,0:0:0:0:
248,350,61098,1,10,0:0:0:0:
317,205,61214,1,0,0:0:0:0:
137,281,61329,6,0,P|85:285|-3:205,1,170,10|8,0:2|0:0,0:0:0:0:
234,223,61675,2,0,P|282:235|386:167,1,170,10|8,0:2|0:2,0:0:0:0:
151,38,62021,2,0,P|142:80|136:122,1,85,10|0,0:0|0:0,0:0:0:0:
364,84,62252,5,10,0:2:0:0:
249,13,62367,1,0,0:0:0:0:
220,172,62483,1,8,0:0:0:0:
432,170,62598,2,0,P|457:135|475:96,1,85,10|0,0:2|0:0,0:0:0:0:
270,104,62829,1,8,0:2:0:0:
340,268,62944,2,0,P|348:309|364:348,1,85,10|0,0:0|0:0,0:0:0:0:
225,195,63175,6,0,P|161:248|137:328,1,170,10|8,0:2|0:0,0:0:0:0:
75,164,63521,2,0,B|111:156|124:132|124:132|98:77|112:25,1,170,10|8,0:2|0:2,0:0:0:0:
337,21,63867,1,10,0:0:0:0:
236,122,63983,1,0,0:0:0:0:
420,108,64098,6,0,P|414:192|408:277,1,170,10|8,0:2|0:0,0:0:0:0:
264,240,64444,2,0,B|184:260|184:223|94:237,1,170,10|8,0:2|0:2,0:0:0:0:
319,160,64790,1,10,0:0:0:0:
214,345,64906,1,0,0:0:0:0:
145,143,65021,6,0,B|161:27|161:27|189:10|227:14,1,170,10|8,0:2|0:0,0:0:0:0:
428,80,65367,2,0,P|343:90|259:102,1,170,10|10,0:2|0:2,0:0:0:0:
420,268,65714,2,0,P|436:228|424:176,1,85,8|0,0:0|0:0,0:0:0:0:
180,256,65944,5,10,0:2:0:0:
352,336,66060,1,8,0:2:0:0:
208,140,66175,1,10,0:0:0:0:
252,344,66290,1,8,0:2:0:0:
316,128,66406,5,10,0:0:0:0:
92,256,66521,1,8,0:0:0:0:
325,249,66637,1,10,0:0:0:0:
92,126,66752,1,8,0:0:0:0:
205,251,66867,6,0,P|202:306|199:351,1,85,14|0,0:2|0:0,0:0:0:0:
35,369,67098,2,0,P|22:328|11:287,1,85,2|0,0:0|0:0,0:0:0:0:
240,112,67329,2,0,P|281:105|324:99,2,85,10|0|2,0:2|0:0|0:0,0:0:0:0:
205,251,67675,1,0,0:0:0:0:
55,179,67790,6,0,P|48:136|44:94,1,85,10|0,0:2|0:0,0:0:0:0:
229,27,68021,2,0,P|235:69|239:111,1,85,2|0,0:0|0:0,0:0:0:0:
150,264,68252,2,0,P|177:256|205:250,3,56.6666666666667,10|0|0|2,0:2|0:0|0:0|0:0,0:0:0:0:
303,333,68598,1,0,0:0:0:0:
420,282,68714,6,0,P|436:218|412:118,1,170,10|2,0:2|0:0,0:0:0:0:
288,48,69060,2,0,P|328:36|369:24,1,85,0|10,0:0|0:2,0:0:0:0:
304,152,69290,1,0,0:0:0:0:
184,152,69406,1,2,0:0:0:0:
164,32,69521,1,0,0:0:0:0:
64,128,69637,6,0,B|40:156|40:156|48:232,2,113.333333333333,10|8|4,0:3|0:3|0:3,0:0:0:0:
209,172,70098,1,10,0:0:0:0:
220,209,70175,1,10,0:0:0:0:
211,248,70252,1,10,0:0:0:0:
186,277,70329,2,0,P|176:318|167:360,1,85,8|8,0:0|0:0,0:0:0:0:
312,292,70560,6,0,P|372:300|420:364,1,127.500004863739,12|10,0:2|0:0,0:0:0:0:
488,104,71021,2,0,P|460:119|432:133,1,63.7500024318696,2|8,0:0|0:2,0:0:0:0:
308,128,71252,2,0,L|236:112,1,63.7500024318696,10|0,0:0|0:0,0:0:0:0:
184,204,71483,6,0,P|246:218|309:232,1,127.500004863739,10|10,0:2|0:0,0:0:0:0:
396,188,71829,2,0,P|413:249|429:311,1,127.500004863739,2|8,0:0|0:2,0:0:0:0:
316,328,72175,2,0,P|306:297|298:266,1,63.7500024318696,10|0,0:0|0:0,0:0:0:0:
265,101,72406,6,0,P|233:113|206:126,1,63.7500024318696,10|0,0:2|0:0,0:0:0:0:
91,65,72637,2,0,P|60:121|53:184,1,127.500004863739,8|0,0:0|0:0,0:0:0:0:
190,285,72983,2,0,P|182:253|174:223,1,63.7500024318696,8|8,0:2|0:0,0:0:0:0:
265,101,73214,1,0,0:0:0:0:
445,109,73329,6,0,P|421:131|398:152,1,63.7500024318696,10|0,0:2|0:0,0:0:0:0:
495,264,73560,2,0,P|464:258|433:253,1,63.7500024318696,8|10,0:0|0:2,0:0:0:0:
416,380,73790,2,0,P|393:357|370:335,1,63.7500024318696,0|8,0:0|0:2,0:0:0:0:
301,211,74021,2,0,P|289:240|277:270,1,63.7500024318696,10|0,0:0|0:0,0:0:0:0:
158,264,74252,6,0,P|154:204|202:140,1,127.500004863739,12|8,0:2|0:0,0:0:0:0:
437,73,74598,2,0,L|310:88,1,127.500004863739,2|8,0:0|0:2,0:0:0:0:
188,48,74944,1,10,0:0:0:0:
88,32,75060,1,0,0:0:0:0:
36,131,75175,6,0,P|42:163|50:194,1,63.7500024318696,10|0,0:2|0:0,0:0:0:0:
188,148,75406,2,0,L|272:144,1,63.7500024318696,10|0,0:0|0:0,0:0:0:0:
80,296,75637,2,0,P|72:327|65:358,1,63.7500024318696,2|8,0:0|0:2,0:0:0:0:
208,264,75867,2,0,L|288:260,1,63.7500024318696,10|0,0:0|0:0,0:0:0:0:
384,216,76098,6,0,P|373:278|363:341,1,127.500004863739,10|8,0:2|0:0,0:0:0:0:
480,272,76444,2,0,P|504:232|488:148,1,127.500004863739,0|8,0:0|0:2,0:0:0:0:
372,96,76790,1,8,0:0:0:0:
464,44,76906,1,2,0:0:0:0:
293,41,77021,6,0,P|229:33|166:29,1,127.500004863739,10|10,0:2|0:0,0:0:0:0:
142,164,77367,1,8,0:2:0:0:
256,141,77483,5,10,0:0:0:0:
24,178,77598,1,8,0:0:0:0:
202,245,77714,1,10,0:0:0:0:
67,82,77829,1,8,0:0:0:0:
139,330,77944,6,0,P|199:351|260:335,1,127.500004863739,12|8,0:2|0:0,0:0:0:0:
317,244,78290,1,2,0:0:0:0:
317,244,78406,2,0,P|344:249|379:255,1,63.7500024318696,0|8,0:0|0:2,0:0:0:0:
383,143,78637,2,0,P|351:137|320:131,1,63.7500024318696,10|0,0:0|0:0,0:0:0:0:
180,72,78867,6,0,P|117:85|54:96,1,127.500004863739,10|10,0:2|0:0,0:0:0:0:
68,197,79214,2,0,P|130:183|193:172,1,127.500004863739,0|8,0:0|0:2,0:0:0:0:
200,272,79560,2,0,P|189:297|178:332,1,63.7500024318696,10|0,0:0|0:0,0:0:0:0:
300,232,79790,6,0,P|319:292|342:352,1,127.500004863739,10|8,0:2|0:0,0:0:0:0:
436,108,80252,1,2,0:0:0:0:
360,168,80367,1,8,0:2:0:0:
268,112,80483,2,0,P|238:99|209:87,1,63.7500024318696,10|0,0:0|0:0,0:0:0:0:
124,184,80714,6,0,P|115:214|109:245,1,63.7500024318696,10|0,0:2|0:0,0:0:0:0:
268,340,80944,2,0,P|261:308|254:277,1,63.7500024318696,10|8,0:0|0:2,0:0:0:0:
412,240,81175,2,0,L|376:232|349:226,1,63.7500024318696,2|8,0:0|0:2,0:0:0:0:
416,84,81406,2,0,P|388:100|361:117,1,63.7500024318696,10|0,0:0|0:0,0:0:0:0:
256,48,81637,6,0,P|248:112|200:176,1,127.500004863739,12|8,0:2|0:0,0:0:0:0:
128,96,81983,2,0,L|2:73,1,127.500004863739,2|8,0:0|0:2,0:0:0:0:
64,176,82329,1,10,0:0:0:0:
16,272,82444,1,0,0:0:0:0:
104,336,82560,6,0,P|165:345|218:312,1,127.500004863739,10|10,0:2|0:0,0:0:0:0:
196,212,82906,2,0,B|264:200|264:228|322:214,1,127.500004863739,0|8,0:0|0:2,0:0:0:0:
328,49,83252,2,0,P|306:72|297:102,1,63.7500024318696,10|0,0:0|0:0,0:0:0:0:
449,214,83483,6,0,P|498:175|512:114,1,127.500004863739,10|8,0:2|0:0,0:0:0:0:
358,206,83829,2,0,P|352:269|347:333,1,127.500004863739,0|8,0:0|0:2,0:0:0:0:
246,286,84175,2,0,P|248:254|248:222,1,63.7500024318696,10|0,0:0|0:0,0:0:0:0:
192,42,84406,6,0,L|268:30,1,63.7500024318696,10|0,0:2|0:0,0:0:0:0:
421,96,84637,1,8,0:0:0:0:
358,206,84752,1,10,0:2:0:0:
233,128,84867,5,8,0:0:0:0:
442,296,84983,1,8,0:0:0:0:
225,316,85098,1,10,0:0:0:0:
465,191,85214,1,8,0:0:0:0:
223,222,85329,6,0,P|159:227|96:234,1,127.500004863739,12|10,0:2|0:0,0:0:0:0:
244,43,85790,2,0,P|231:73|219:102,1,63.7500024318696,0|8,0:0|0:2,0:0:0:0:
364,55,86021,2,0,P|361:87|360:119,1,63.7500024318696,10|0,0:0|0:0,0:0:0:0:
452,220,86252,6,0,P|420:264|340:276,1,127.500004863739,10|8,0:2|0:0,0:0:0:0:
264,192,86598,2,0,L|240:328,1,127.500004863739,2|8,0:0|0:2,0:0:0:0:
144,232,86944,2,0,P|116:215|91:195,1,63.7500024318696,10|0,0:0|0:0,0:0:0:0:
156,48,87175,6,0,P|181:64|208:84,1,63.7500024318696,10|0,0:2|0:0,0:0:0:0:
331,72,87406,2,0,L|393:55,1,63.7500024318696,10|0,0:0|0:0,0:0:0:0:
436,172,87637,2,0,L|374:188,1,63.7500024318696,2|8,0:0|0:2,0:0:0:0:
236,264,87867,2,0,P|245:233|255:203,1,63.7500024318696,10|0,0:0|0:0,0:0:0:0:
148,80,88098,6,0,P|128:128|168:212,1,127.500004863739,10|8,0:2|0:0,0:0:0:0:
332,288,88444,2,0,L|363:282|394:276,1,63.7500024318696,10|0,0:2|0:0,0:0:0:0:
248,372,88675,1,8,0:2:0:0:
144,288,88790,2,0,P|112:285|80:283,1,63.7500024318696,10|0,0:0|0:0,0:0:0:0:
44,180,89021,6,0,P|107:183|171:186,1,127.500004863739,12|8,0:2|0:0,0:0:0:0:
288,140,89367,2,0,L|424:120,1,127.500004863739,2|8,0:0|0:2,0:0:0:0:
378,270,89714,2,0,P|374:301|370:333,1,63.7500024318696,10|0,0:0|0:0,0:0:0:0:
146,278,89944,5,10,0:2:0:0:
273,222,90060,1,0,0:0:0:0:
261,345,90175,1,10,0:0:0:0:
171,186,90290,2,0,P|180:122|190:59,1,127.500004863739,0|8,0:0|0:2,0:0:0:0:
362,42,90637,2,0,P|330:49|299:56,1,63.7500024318696,10|0,0:0|0:0,0:0:0:0:
351,144,90867,6,0,P|379:184|379:280,1,127.500004863739,10|8,0:2|0:0,0:0:0:0:
305,340,91214,2,0,L|368:350|431:360,1,127.500004863739,2|8,0:0|0:2,0:0:0:0:
240,240,91560,1,10,0:0:0:0:
156,308,91675,1,0,0:0:0:0:
42,236,91790,6,0,P|48:204|57:174,1,63.7500024318696,10|0,0:2|0:0,0:0:0:0:
172,64,92021,1,8,0:0:0:0:
217,199,92137,1,10,0:2:0:0:
53,77,92252,5,8,0:0:0:0:
271,91,92367,1,10,0:0:0:0:
156,308,92483,1,8,0:0:0:0:
155,167,92598,1,10,0:0:0:0:
155,167,92944,6,0,P|216:184|277:166,1,127.500004863739,12|0,0:0|0:0,0:0:0:0:
430,64,93290,1,8,0:2:0:0:
330,69,93406,2,0,P|341:99|354:129,1,63.7500024318696,10|0,0:0|0:0,0:0:0:0:
418,291,93637,6,0,P|430:228|441:165,1,127.500004863739,10|10,0:2|0:0,0:0:0:0:
217,285,94098,2,0,L|281:277,1,63.7500024318696,0|8,0:0|0:2,0:0:0:0:
301,165,94329,1,10,0:0:0:0:
200,145,94444,1,0,0:0:0:0:
124,228,94560,6,0,P|88:228|16:172,1,127.500004863739,10|8,0:2|0:0,0:0:0:0:
76,76,94906,2,0,P|139:68|202:61,1,127.500004863739,2|8,0:0|0:2,0:0:0:0:
332,44,95252,2,0,P|320:73|310:104,1,63.7500024318696,10|0,0:0|0:0,0:0:0:0:
352,260,95483,6,0,P|337:231|322:203,1,63.7500024318696,10|0,0:2|0:0,0:0:0:0:
164,160,95714,2,0,P|151:189|142:220,1,63.7500024318696,8|10,0:0|0:2,0:0:0:0:
200,340,95944,2,0,P|230:331|261:324,1,63.7500024318696,0|8,0:0|0:2,0:0:0:0:
252,104,96175,2,0,P|232:77|217:50,1,63.7500024318696,10|0,0:0|0:0,0:0:0:0:
272,204,96406,6,0,P|328:216|396:184,1,127.500004863739,14|8,0:2|0:0,0:0:0:0:
508,120,96752,2,0,P|500:183|493:246,1,127.500004863739,2|8,0:0|0:2,0:0:0:0:
432,352,97098,2,0,L|372:332,1,63.7500024318696,10|0,0:0|0:0,0:0:0:0:
280,248,97329,6,0,P|224:264|152:312,1,127.500004863739,10|10,0:2|0:0,0:0:0:0:
84,216,97675,2,0,P|72:172|80:80,1,127.500004863739,0|10,0:0|0:2,0:0:0:0:
240,64,98021,1,8,0:0:0:0:
172,144,98137,1,0,0:0:0:0:
296,152,98252,6,0,P|344:164|416:124,1,127.500004863739,12|8,0:2|0:0,0:0:0:0:
296,152,98598,2,0,P|287:183|280:214,1,63.7500024318696,2|0,0:0|0:0,0:0:0:0:
240,64,98829,1,8,0:2:0:0:
147,120,98944,2,0,L|87:99,1,63.7500024318696,10|0,0:0|0:0,0:0:0:0:
155,236,99175,6,0,P|92:244|29:254,1,127.500004863739,10|8,0:2|0:0,0:0:0:0:
232,297,99521,1,8,0:2:0:0:
143,363,99637,5,10,0:0:0:0:
291,170,99752,1,8,0:0:0:0:
303,371,99867,1,10,0:0:0:0:
201,143,99983,1,8,0:0:0:0:
315,271,100098,6,0,B|419:295|419:295|439:283|448:260,1,152.999995330811,12|10,0:2|0:0,0:0:0:0:
388,76,100560,2,0,P|363:81|338:87,3,50.9999984436036,10|0|0|8,0:0|0:0|0:0|0:0,0:0:0:0:
182,137,101021,6,0,B|80:161|80:161|50:146|44:126,1,152.999995330811,10|10,0:2|0:0,0:0:0:0:
228,36,101483,1,10,0:0:0:0:
368,199,101598,1,8,0:0:0:0:
238,224,101714,1,8,0:0:0:0:
359,55,101829,1,8,0:0:0:0:
154,127,101944,6,0,P|116:191|122:266,1,152.999995330811,14|10,0:2|0:0,0:0:0:0:
123,267,102290,1,8,0:2:0:0:
257,307,102406,1,10,0:0:0:0:
257,307,102483,1,0,0:0:0:0:
257,307,102560,2,0,L|249:357,1,50.9999984436036,0|8,0:0|0:0,0:0:0:0:
376,110,102867,6,0,P|414:174|408:249,1,152.999995330811,10|10,0:2|0:0,0:0:0:0:
180,60,103329,1,10,0:0:0:0:
302,207,103444,1,8,0:0:0:0:
177,172,103560,1,8,0:0:0:0:
329,31,103675,1,8,0:0:0:0:
180,60,103790,6,0,B|108:76|108:44|28:58,1,152.999995330811,12|10,0:2|0:0,0:0:0:0:
223,164,104137,1,8,0:2:0:0:
104,252,104252,2,0,P|96:276|89:300,3,50.9999984436036,10|8|8|8,0:0|0:0|0:0|0:0,0:0:0:0:
365,181,104714,6,0,P|296:149|222:164,2,152.999995330811,10|10|10,0:2|0:0|0:0,0:0:0:0:
340,364,105290,1,8,0:0:0:0:
454,245,105406,1,8,0:0:0:0:
239,278,105521,1,8,0:0:0:0:
454,245,105637,6,0,B|474:229|483:208|483:208|458:105,1,152.999995330811,12|0,0:2|0:0,0:0:0:0:
368,40,105983,1,8,0:2:0:0:
252,161,106098,1,10,0:0:0:0:
252,161,106175,1,0,0:0:0:0:
252,161,106252,2,0,L|257:110,1,50.9999984436036,0|8,0:0|0:0,0:0:0:0:
140,236,106560,6,0,B|90:268|32:236|32:236|44:188,1,152.999995330811,10|8,0:2|0:0,0:0:0:0:
171,5,107021,1,10,0:0:0:0:
201,158,107137,1,8,0:0:0:0:
361,58,107252,1,10,0:0:0:0:
122,96,107367,1,8,0:0:0:0:
286,279,107483,6,0,B|266:199|302:199|287:127,2,152.999995330811,12|8|10,0:2|0:0|0:2,0:0:0:0:
391,232,108060,1,8,0:2:0:0:
168,152,108175,2,0,P|130:145|92:137,1,76.4999976654053,8|0,0:0|0:0,0:0:0:0:
45,315,108406,6,0,P|101:331|177:275,1,152.999995330811,10|8,0:2|0:0,0:0:0:0:
215,75,108752,1,0,0:0:0:0:
88,227,108867,1,10,0:2:0:0:
277,262,108983,1,8,0:2:0:0:
323,116,109098,2,0,P|314:78|305:41,1,76.4999976654053,8|0,0:0|0:0,0:0:0:0:
196,216,109329,6,0,B|178:238|180:268|180:268|277:261,1,152.999995330811,12|8,0:2|0:0,0:0:0:0:
112,36,109790,2,0,P|118:73|125:111,1,76.4999976654053,10|8,0:2|0:2,0:0:0:0:
336,164,110021,2,0,L|329:126|322:88,1,76.4999976654053,8|0,0:0|0:0,0:0:0:0:
114,222,110252,6,0,P|65:277|70:352,1,152.999995330811,10|8,0:2|0:0,0:0:0:0:
230,308,110598,2,0,B|214:326|215:353|215:353|279:333|317:342,1,152.999995330811,10|8,0:2|0:2,0:0:0:0:
429,271,110944,1,10,0:0:0:0:
260,114,111060,1,8,0:0:0:0:
148,192,111175,6,0,P|126:160|124:122,1,76.4999976654053,12|0,0:0|0:0,0:0:0:0:
387,122,111406,2,0,P|384:160|364:192,1,76.4999976654053,10|8,0:2|0:2,0:0:0:0:
85,24,111637,2,0,L|122:32|160:40,1,76.4999976654053,10|0,0:0|0:0,0:0:0:0:
426,24,111867,2,0,P|389:31|352:40,1,76.4999976654053,10|8,0:2|0:2,0:0:0:0:
160,224,112098,6,0,P|147:259|134:296,1,76.4999976654053,10|0,0:0|0:0,0:0:0:0:
377,296,112329,2,0,P|364:259|352:224,1,76.4999976654053,10|8,0:2|0:2,0:0:0:0:
64,68,112560,2,0,P|71:105|81:142,1,76.4999976654053,10|0,0:0|0:0,0:0:0:0:
430,142,112790,2,0,P|440:105|448:68,1,76.4999976654053,10|8,0:2|0:2,0:0:0:0:
256,95,113021,6,0,B|272:171|240:171|254:246,1,152.999995330811,14|10,0:0|0:2,0:0:0:0:
355,33,113483,1,10,0:0:0:0:
115,193,113598,1,8,0:0:0:0:
383,222,113714,1,10,0:0:0:0:
132,89,113829,1,8,0:0:0:0:
408,126,113944,5,8,3:1:0:0:
240,135,114867,6,0,B|176:171|112:139|112:139|116:103,1,170,12|8,0:2|0:0,0:0:0:0:
252,32,115214,1,0,0:0:0:0:
330,211,115329,1,10,0:2:0:0:
186,251,115444,1,8,0:2:0:0:
361,81,115560,2,0,P|404:85|446:92,1,85,10|0,0:0|0:0,0:0:0:0:
380,195,115790,6,0,P|367:279|355:363,1,170,10|8,0:2|0:0,0:0:0:0:
152,309,116137,2,0,B|163:257|163:257|224:238|277:275,1,170,10|8,0:2|0:2,0:0:0:0:
80,188,116483,2,0,P|39:202|0:216,1,85,10|0,0:0|0:0,0:0:0:0:
147,91,116714,6,0,B|235:75|235:115|315:95,1,170,10|8,0:2|0:0,0:0:0:0:
452,56,117060,2,0,P|444:97|436:139,1,85,2|8,0:0|0:2,0:0:0:0:
447,339,117290,2,0,L|410:317|373:295,1,85,10|8,0:2|0:0,0:0:0:0:
309,120,117521,1,0,0:0:0:0:
161,289,117637,5,10,0:2:0:0:
375,216,117752,1,8,0:2:0:0:
164,128,117867,1,10,0:0:0:0:
262,330,117983,1,8,0:2:0:0:
309,120,118098,2,0,P|313:77|316:35,1,85,2|8,0:0|0:2,0:0:0:0:
119,25,118329,2,0,P|122:67|126:109,1,85,10|0,0:0|0:0,0:0:0:0:
41,281,118560,6,0,B|158:260|158:260|183:272|190:297,1,170,12|8,0:2|0:0,0:0:0:0:
468,236,119021,2,0,P|426:245|385:254,1,85,8|8,0:2|0:2,0:0:0:0:
340,114,119252,2,0,P|381:104|422:95,1,85,10|0,0:0|0:0,0:0:0:0:
272,200,119483,6,0,P|228:200|144:112,1,170,10|8,0:2|0:0,0:0:0:0:
60,244,119829,2,0,B|97:236|114:267|114:267|93:308|95:374,1,170,10|8,0:2|0:2,0:0:0:0:
235,289,120175,1,10,0:0:0:0:
314,372,120290,1,0,0:0:0:0:
448,346,120406,6,0,B|477:226|477:226|450:187,1,170,10|8,0:2|0:0,0:0:0:0:
343,122,120752,2,0,P|385:118|417:91,1,85,2|8,0:0|0:2,0:0:0:0:
265,32,120983,1,10,0:2:0:0:
194,143,121098,2,0,P|151:137|109:131,1,85,8|0,0:0|0:0,0:0:0:0:
246,356,121329,5,10,0:2:0:0:
287,187,121444,1,8,0:2:0:0:
126,234,121560,1,10,0:0:0:0:
388,228,121675,5,8,0:2:0:0:
235,60,121790,1,2,0:0:0:0:
212,265,121906,1,8,0:2:0:0:
485,140,122021,5,10,0:0:0:0:
445,108,122098,1,8,0:0:0:0:
396,95,122175,1,8,0:0:0:0:
347,104,122252,6,0,P|262:93|178:81,1,170,12|10,0:2|0:0,0:0:0:0:
9,218,122598,1,2,0:0:0:0:
187,203,122714,1,8,0:2:0:0:
65,96,122829,1,10,0:2:0:0:
84,334,122944,2,0,L|93:293|102:252,1,85,8|0,0:0|0:0,0:0:0:0:
285,305,123175,6,0,B|372:290|372:326|452:306,1,170,10|8,0:2|0:0,0:0:0:0:
298,85,123521,2,0,P|236:145|243:227,1,170,10|8,0:2|0:2,0:0:0:0:
459,153,123867,1,10,0:0:0:0:
401,33,123983,1,0,0:0:0:0:
206,129,124098,6,0,B|90:149|90:149|62:133|56:111,1,170,10|8,0:2|0:0,0:0:0:0:
140,274,124444,2,0,L|149:316|158:358,1,85,2|8,0:0|0:2,0:0:0:0:
294,233,124675,2,0,P|284:274|275:315,2,85,8|10|0,0:2|0:0|0:0,0:0:0:0:
440,308,125021,6,0,P|409:337|379:367,1,85,10|8,0:2|0:2,0:0:0:0:
440,151,125252,1,10,0:0:0:0:
294,233,125367,2,0,P|242:241|142:173,1,170,8|8,0:2|0:2,0:0:0:0:
275,17,125714,1,10,0:0:0:0:
353,162,125829,1,8,0:0:0:0:
160,76,125944,6,0,P|117:70|75:64,1,85,12|0,0:0|0:0,0:0:0:0:
352,76,126175,2,0,L|394:70|436:64,1,85,8|0,0:2|0:0,0:0:0:0:
111,246,126406,2,0,P|93:209|98:168,1,85,10|0,0:0|0:0,0:0:0:0:
413,166,126637,2,0,P|418:207|400:244,1,85,2|8,0:2|0:2,0:0:0:0:
255,355,126867,6,0,P|255:313|256:271,1,85,10|8,0:0|0:2,0:0:0:0:
256,24,127098,2,0,P|256:66|255:108,1,85,10|8,0:2|0:2,0:0:0:0:
391,169,127329,2,0,P|407:130|424:91,1,85,10|8,0:0|0:2,0:0:0:0:
87,91,127560,2,0,P|104:131|121:170,1,85,10|8,0:0|0:0,0:0:0:0:
308,234,127790,5,14,0:0:0:0:
120,340,127906,1,8,0:2:0:0:
217,187,128021,1,10,0:2:0:0:
333,347,128137,1,0,0:0:0:0:
392,169,128252,6,0,P|401:127|410:86,1,85,10|0,0:0|0:0,0:0:0:0:
120,169,128483,2,0,P|110:127|101:86,1,85,10|0,0:0|0:0,0:0:0:0:
256,120,128714,6,0,B|272:200|240:200|255:288,1,170,10|0,0:0|0:0,0:0:0:0:
223,372,129021,2,0,P|250:376|279:374,1,56.6666666666667,8|8,0:3|0:3,0:0:0:0:
331,295,129175,2,0,B|300:268|300:268|255:285|212:268|212:268|181:291,1,170,10|8,0:0|0:0,0:0:0:0:
108,165,129521,1,10,0:0:0:0:
295,47,129637,6,0,P|360:98|444:105,2,170,12|8|10,0:2|0:0|0:2,0:0:0:0:
208,136,130214,1,8,0:2:0:0:
316,292,130329,2,0,P|321:249|327:207,1,85,10|0,0:0|0:0,0:0:0:0:
184,264,130560,6,0,B|197:289|187:317|187:317|125:295|74:300,1,170,10|8,0:2|0:0,0:0:0:0:
44,204,130906,2,0,P|36:288|28:373,1,170,10|8,0:2|0:2,0:0:0:0:
84,96,131252,2,0,P|42:102|0:111,1,85,10|0,0:0|0:0,0:0:0:0:
180,216,131483,6,0,P|250:260|331:244,1,170,10|8,0:2|0:0,0:0:0:0:
464,184,131829,2,0,P|459:224|453:268,1,85,2|8,0:0|0:2,0:0:0:0:
269,146,132060,2,0,P|273:103|279:61,2,85,10|8|0,0:2|0:0|0:0,0:0:0:0:
387,117,132406,5,10,0:2:0:0:
190,15,132521,1,8,0:2:0:0:
176,208,132637,1,10,0:0:0:0:
369,31,132752,1,8,0:2:0:0:
141,95,132867,1,2,0:0:0:0:
306,232,132983,1,8,0:2:0:0:
459,174,133098,2,0,P|475:134|471:92,1,85,10|0,0:0|0:0,0:0:0:0:
141,95,133329,6,0,B|263:118|263:118|289:104|291:84,1,170,12|8,0:2|0:0,0:0:0:0:
315,312,133790,2,0,P|321:270|305:231,1,85,10|8,0:2|0:2,0:0:0:0:
107,280,134021,2,0,P|100:321|116:360,1,85,10|0,0:0|0:0,0:0:0:0:
245,127,134252,6,0,B|220:157|220:157|173:151|127:170|127:170|94:150,1,170,10|8,0:2|0:0,0:0:0:0:
327,219,134598,2,0,P|407:228|495:238,1,170,10|8,0:2|0:2,0:0:0:0:
392,60,134944,1,10,0:0:0:0:
418,181,135060,1,0,0:0:0:0:
263,297,135175,6,0,P|182:285|134:218,1,170,10|8,0:2|0:0,0:0:0:0:
263,297,135521,2,0,P|268:340|274:382,1,85,2|8,0:0|0:2,0:0:0:0:
408,303,135752,1,10,0:2:0:0:
305,148,135867,2,0,P|276:179|235:188,1,85,8|0,0:0|0:0,0:0:0:0:
44,93,136098,5,10,0:2:0:0:
221,91,136214,1,8,0:2:0:0:
117,281,136329,1,10,0:0:0:0:
156,9,136444,5,8,0:2:0:0:
284,185,136560,1,2,0:0:0:0:
72,202,136675,1,8,0:2:0:0:
362,84,136790,5,10,0:0:0:0:
393,125,136867,1,8,0:0:0:0:
403,175,136944,1,8,0:0:0:0:
391,224,137021,6,0,B|354:236|354:236|386:299|374:365,1,170,12|10,0:2|0:0,0:0:0:0:
252,125,137367,2,0,P|214:112|173:118,1,85,2|8,0:0|0:2,0:0:0:0:
36,320,137598,2,0,P|77:327|119:334,1,85,10|8,0:2|0:0,0:0:0:0:
55,176,137829,1,0,0:0:0:0:
218,252,137944,6,0,P|278:264|370:200,1,170,10|8,0:2|0:0,0:0:0:0:
314,55,138290,2,0,L|483:39,1,170,10|8,0:2|0:2,0:0:0:0:
180,80,138637,2,0,P|141:74|88:68,1,85,10|0,0:0|0:0,0:0:0:0:
106,196,138867,6,0,B|78:205|65:225|65:225|79:343,1,170,10|8,0:2|0:0,0:0:0:0:
278,254,139214,2,0,L|186:246,1,85,2|8,0:0|0:2,0:0:0:0:
385,319,139444,2,0,L|469:326,1,85,10|8,0:2|0:0,0:0:0:0:
406,150,139675,1,0,0:0:0:0:
266,357,139790,5,10,0:2:0:0:
279,133,139906,1,8,0:2:0:0:
444,237,140021,1,8,0:0:0:0:
224,216,140137,2,0,B|144:232|144:196|55:211,1,170,10|8,0:2|0:2,0:0:0:0:
148,24,140483,2,0,L|232:34,1,85,10|8,0:0|0:0,0:0:0:0:
376,112,140714,6,0,P|394:74|392:32,1,85,12|0,0:0|0:0,0:0:0:0:
188,256,140944,2,0,P|180:298|171:340,1,85,10|0,0:2|0:0,0:0:0:0:
136,112,141175,2,0,P|117:74|119:32,1,85,10|0,0:0|0:0,0:0:0:0:
324,256,141406,2,0,P|331:297|340:339,1,85,10|8,0:2|0:2,0:0:0:0:
275,143,141637,5,10,0:0:0:0:
188,256,141752,1,8,0:2:0:0:
408,227,141867,1,10,0:2:0:0:
237,42,141983,1,8,0:2:0:0:
246,329,142098,5,10,0:0:0:0:
351,53,142214,1,8,0:2:0:0:
116,158,142329,1,10,0:0:0:0:
436,313,142444,1,8,0:0:0:0:
275,143,142560,5,12,0:2:0:0:
256,192,142617,12,0,144175,0:0:0:0:
160,144,144406,5,2,0:0:0:0:
364,88,144867,1,2,0:0:0:0:
288,248,145329,1,2,0:0:0:0:
240,76,145790,1,2,0:0:0:0:
256,260,146252,5,2,0:0:0:0:
348,120,146713,1,2,0:0:0:0:
192,192,147175,2,0,L|152:184,3,28.3333333333333,2|2|2|2,0:0|0:0|0:0|0:0,0:0:0:0:
108,256,147636,1,2,0:0:0:0:
280,332,148098,6,0,B|280:328|286:290|292:247,1,85,2|0,0:0|0:0,0:0:0:0:
240,152,148559,2,0,B|328:132|328:172|408:151,1,170,2|2,0:0|0:0,0:0:0:0:
136,64,149482,2,0,B|120:156|120:156|138:184,1,127.5,2|0,0:0|0:0,0:0:0:0:
168,256,149944,6,0,P|156:296|141:337,1,85,2|0,0:0|0:0,0:0:0:0:
288,328,150406,2,0,P|336:344|384:328,1,85,2|0,0:0|0:0,0:0:0:0:
424,228,150867,2,0,P|407:189|367:164,1,85,2|0,0:0|0:0,0:0:0:0:
260,112,151329,1,2,0:0:0:0:
216,220,151559,1,0,0:0:0:0:
92,168,151790,6,0,P|104:104|117:43,1,127.5,2|2,0:0|0:0,0:0:0:0:
104,36,152252,2,0,P|146:32|198:28,1,85,0|0,0:0|0:0,0:0:0:0:
284,104,152713,2,0,B|304:184|260:184|281:272,1,170,2|2,0:0|0:0,0:0:0:0:
392,200,153406,1,0,0:0:0:0:
352,32,153636,6,0,P|300:8|196:44,2,170,2|0|2,0:0|0:0|0:0,0:0:0:0:
259,156,154790,2,0,P|254:176|250:197,1,42.5,0|2,0:0|0:0,0:0:0:0:
176,192,155021,2,0,P|182:234|190:275,1,85,0|2,0:0|0:0,0:0:0:0:
308,368,155482,6,0,P|321:327|334:287,1,85,2|0,0:0|0:0,0:0:0:0:
303,184,155944,2,0,P|344:172|385:161,1,85,0|2,0:0|0:0,0:0:0:0:
244,76,156406,1,0,0:0:0:0:
160,148,156636,1,2,0:0:0:0:
52,119,156867,2,0,P|22:175|27:238,1,127.5,0|0,0:0|0:0,0:0:0:0:
92,304,157329,6,0,L|176:288,1,85,2|0,0:0|0:0,0:0:0:0:
344,312,157790,2,0,L|260:328,1,85,2|0,0:0|0:0,0:0:0:0:
300,184,158252,2,0,B|349:198|390:177|390:177|428:204|417:259,1,170,2|2,0:0|0:0,0:0:0:0:
340,92,158944,1,0,0:0:0:0:
200,160,159175,6,0,P|128:136|72:132,1,127.5,2|2,0:0|0:0,0:0:0:0:
55,112,159636,2,0,P|27:143|10:182,1,85,0|0,0:0|0:0,0:0:0:0:
120,332,160098,2,0,P|148:300|165:261,1,85,2|0,0:0|0:0,0:0:0:0:
272,96,160559,2,0,P|231:108|191:121,1,85,2|0,0:0|0:0,0:0:0:0:
288,228,161021,6,0,B|338:230|353:217|353:217|384:224|393:232|393:232|427:237|450:219,1,170,2|2,0:0|0:0,0:0:0:0:
472,240,161713,2,0,L|482:198,1,42.5,2|0,0:0|0:0,0:0:0:0:
436,132,161944,2,0,B|424:92|424:92|437:38,1,85,2|0,0:0|0:0,0:0:0:0:
364,12,162290,2,0,L|353:53,1,42.5,2|0,0:0|0:0,0:0:0:0:
336,68,162636,6,0,L|232:56,1,85,2|12,0:0|0:0,0:0:0:0:
80,160,163559,1,8,0:0:0:0:
161,220,163790,2,0,B|211:231|211:231|218:304|159:338,1,170,10|8,0:0|0:1,0:0:0:0:
336,120,164713,6,0,B|291:222|291:222|296:252|319:271,1,170,10|0,0:0|0:0,0:0:0:0:
444,232,165406,1,8,0:0:0:0:
415,48,165636,2,0,P|341:85|258:73,1,170,10|8,0:0|0:1,0:0:0:0:
47,156,166559,6,0,B|114:176|173:149|173:149|165:190,1,170,12|0,0:0|0:0,0:0:0:0:
200,288,167252,1,8,0:0:0:0:
319,212,167482,2,0,P|343:132|298:63,1,170,10|8,0:0|0:1,0:0:0:0:
168,324,168406,6,0,L|183:154,1,170,10|0,0:0|0:0,0:0:0:0:
104,32,169098,1,8,0:0:0:0:
104,31,169329,2,0,P|36:78|31:160,1,170,10|8,0:0|0:1,0:0:0:0:
192,160,170021,1,8,0:3:0:0:
248,104,170136,1,4,0:3:0:0:
296,168,170252,6,0,B|404:168|404:168|408:136|385:110,1,170,12|0,0:0|0:0,0:0:0:0:
254,254,170944,1,8,0:0:0:0:
404,359,171175,2,0,P|410:275|376:197,1,170,10|8,0:0|0:1,0:0:0:0:
107,232,172098,6,0,L|276:238,1,170,10|0,0:0|0:0,0:0:0:0:
360,160,172790,1,8,0:0:0:0:
268,64,173021,2,0,B|272:96|252:119|252:119|196:92|145:101,1,170,10|8,0:0|0:1,0:0:0:0:
208,380,173944,6,0,P|196:295|184:211,1,170,12|0,0:0|0:0,0:0:0:0:
352,136,174636,1,8,0:0:0:0:
352,136,174867,2,0,B|338:242|328:324,1,170,10|8,0:0|0:1,0:0:0:0:
219,64,175790,6,0,P|302:55|367:107,1,170,10|0,0:0|0:0,0:0:0:0:
240,180,176482,1,8,0:0:0:0:
128,128,176713,6,0,P|100:120|74:116,1,55.2499974708558,10|8,0:0|0:1,0:0:0:0:
104,228,176944,2,0,L|107:255|110:282,1,55.2499974708558,8|4,0:3|0:3,0:0:0:0:
260,188,177175,2,0,P|286:181|313:172,1,55.2499974708558,10|8,0:1|0:1,0:0:0:0:
204,15,177406,2,0,P|201:43|199:71,1,55.2499974708558,8|12,0:1|0:0,0:0:0:0:
220,92,177866,6,0,P|206:175|192:259,1,170,8|2,0:0|0:0,0:0:0:0:
402,217,178212,1,8,0:2:0:0:
440,80,178328,2,0,P|399:91|358:104,1,85,8|0,0:0|0:0,0:0:0:0:
191,259,178559,6,0,P|231:270|273:280,1,85,10|0,0:2|0:0,0:0:0:0:
290,141,178789,2,0,P|249:129|207:119,1,85,10|0,0:0|0:0,0:0:0:0:
16,288,179020,1,2,0:0:0:0:
136,184,179136,1,8,0:2:0:0:
3,66,179251,1,10,0:0:0:0:
37,187,179366,1,0,0:0:0:0:
156,47,179482,6,0,B|206:12|280:25|280:25|273:65,1,170,10|8,0:2|0:0,0:0:0:0:
368,179,179828,2,0,P|419:115|410:33,1,170,0|8,0:0|0:2,0:0:0:0:
269,276,180174,2,0,P|280:316|292:357,1,85,10|0,0:0|0:0,0:0:0:0:
144,168,180405,6,0,P|102:157|61:146,1,85,10|0,0:2|0:0,0:0:0:0:
290,104,180636,2,0,P|310:67|331:29,1,85,8|10,0:0|0:2,0:0:0:0:
402,162,180866,1,0,0:0:0:0:
252,187,180982,1,8,0:2:0:0:
376,280,181097,2,0,P|392:315|407:358,1,85,10|0,0:0|0:0,0:0:0:0:
255,266,181328,6,0,B|139:249|139:249|119:266|117:295,1,170,12|8,0:2|0:0,0:0:0:0:
7,299,181674,2,0,P|13:337|40:373,1,85,2|0,0:0|0:0,0:0:0:0:
119,166,181905,1,8,0:2:0:0:
8,108,182020,2,0,P|16:66|25:24,1,85,10|0,0:0|0:0,0:0:0:0:
212,32,182251,6,0,P|172:48|133:63,1,85,10|0,0:2|0:0,0:0:0:0:
239,194,182482,2,0,P|200:178|161:161,1,85,10|0,0:0|0:0,0:0:0:0:
99,320,182712,2,0,P|88:278|80:237,1,85,2|8,0:0|0:2,0:0:0:0:
311,122,182943,1,10,0:0:0:0:
244,286,183059,1,0,0:0:0:0:
400,315,183174,6,0,P|440:243|421:162,1,170,10|8,0:2|0:0,0:0:0:0:
316,72,183520,2,0,B|447:52|447:52|475:76,1,170,2|8,0:0|0:2,0:0:0:0:
316,208,183866,1,10,0:0:0:0:
208,120,183982,1,0,0:0:0:0:
75,191,184097,6,0,P|43:112|52:23,1,170,10|8,0:2|0:0,0:0:0:0:
208,120,184443,1,10,0:2:0:0:
133,269,184559,1,8,0:0:0:0:
300,172,184674,1,8,0:0:0:0:
137,63,184789,1,10,0:0:0:0:
232,290,184905,1,8,0:0:0:0:
443,97,185020,6,0,B|413:68|413:68|372:80|322:65|322:65|288:96,1,170,12|10,0:2|0:0,0:0:0:0:
370,365,185366,2,0,P|373:280|377:195,1,170,0|8,0:0|0:2,0:0:0:0:
255,11,185712,2,0,P|214:22|173:34,1,85,10|0,0:0|0:0,0:0:0:0:
39,197,185943,5,10,0:2:0:0:
221,150,186059,1,0,0:0:0:0:
80,17,186174,1,10,0:0:0:0:
132,200,186289,2,0,B|156:281|112:281|131:367,1,170,0|8,0:0|0:2,0:0:0:0:
311,265,186636,2,0,P|279:241|223:241,1,85,10|0,0:0|0:0,0:0:0:0:
324,96,186866,6,0,B|308:135|338:157|338:157|382:135|437:145,1,170,10|8,0:2|0:0,0:0:0:0:
228,23,187212,2,0,P|168:80|169:164,1,170,0|10,0:0|0:2,0:0:0:0:
184,296,187559,2,0,P|225:282|266:277,1,85,8|0,0:0|0:0,0:0:0:0:
508,220,187789,6,0,P|424:205|340:189,1,170,10|8,0:2|0:0,0:0:0:0:
162,114,188136,1,10,0:2:0:0:
368,20,188251,2,0,P|360:66|350:103,1,85,0|8,0:0|0:2,0:0:0:0:
162,114,188482,2,0,P|150:72|144:30,1,85,10|0,0:0|0:0,0:0:0:0:
253,177,188712,5,12,0:2:0:0:
182,273,188828,1,0,0:0:0:0:
310,330,188943,2,0,B|434:346|434:346|457:307,1,170,10|0,0:0|0:0,0:0:0:0:
408,117,189289,1,8,0:2:0:0:
290,172,189405,2,0,P|247:165|205:160,1,85,10|0,0:0|0:0,0:0:0:0:
64,208,189636,6,0,P|92:287|93:372,2,170,10|8|0,2:0|0:0|0:0,0:0:0:0:
120,9,190212,1,0,0:2:0:0:
205,160,190328,1,10,0:0:0:0:
38,102,190443,1,0,0:0:0:0:
190,73,190559,6,0,L|290:57,1,85,10|0,0:2|0:0,0:0:0:0:
416,16,190789,2,0,P|400:55|385:95,1,85,8|2,0:0|0:0,0:0:0:0:
195,262,191020,1,0,0:0:0:0:
255,143,191136,1,10,0:2:0:0:
405,294,191251,1,8,0:0:0:0:
381,168,191366,1,2,0:0:0:0:
195,262,191482,6,0,P|147:270|107:246,1,85,8|2,0:2|0:0,0:0:0:0:
378,63,191712,2,0,P|385:104|373:145,1,85,8|10,0:0|0:2,0:0:0:0:
181,69,191943,5,8,0:0:0:0:
328,316,192059,1,10,0:0:0:0:
282,90,192174,1,8,0:0:0:0:
156,337,192289,1,10,0:0:0:0:
237,190,192405,6,0,P|152:182|67:175,1,170,12|8,0:2|0:0,0:0:0:0:
33,297,192751,2,0,B|38:347|38:347|92:326|156:337,1,170,2|8,0:0|0:2,0:0:0:0:
296,279,193097,2,0,P|312:331|292:375,1,85,10|0,0:0|0:0,0:0:0:0:
322,116,193328,6,0,P|326:68|362:36,1,85,10|0,0:2|0:0,0:0:0:0:
188,85,193559,2,0,L|146:90|104:95,1,85,10|0,0:0|0:0,0:0:0:0:
172,248,193789,1,2,0:0:0:0:
263,185,193905,1,8,0:2:0:0:
78,188,194020,1,10,0:0:0:0:
177,352,194136,1,0,0:0:0:0:
288,266,194251,6,0,L|275:225|262:184,1,85,10|0,0:2|0:0,0:0:0:0:
173,43,194482,2,0,B|197:11|197:11|255:21|324:34,1,170,8|2,0:0|0:0,0:0:0:0:
394,212,194828,1,8,0:2:0:0:
186,225,194943,1,10,0:0:0:0:
317,108,195059,1,0,0:0:0:0:
334,347,195174,6,0,P|291:344|249:340,1,85,10|0,0:2|0:0,0:0:0:0:
105,252,195405,2,0,P|145:238|185:225,1,85,10|8,0:0|0:2,0:0:0:0:
158,50,195636,2,0,P|135:85|112:121,1,85,2|8,0:0|0:2,0:0:0:0:
320,192,195866,2,0,B|348:208|348:208|366:197|398:193,1,85,10|0,0:0|2:0,0:0:0:0:
428,76,196097,6,0,B|396:76|374:89|374:89|360:76|320:76|320:76|305:84|263:75,1,170,12|8,0:2|0:0,0:0:0:0:
170,184,196443,2,0,B|163:204|146:224|146:224|186:262|184:338,1,170,2|8,0:0|0:2,0:0:0:0:
337,272,196789,2,0,P|338:229|340:187,1,85,10|0,0:0|0:0,0:0:0:0:
152,56,197020,5,8,0:2:0:0:
261,130,197136,1,0,0:0:0:0:
386,31,197251,2,0,P|438:80|434:198,1,170,10|0,0:0|0:0,0:0:0:0:
468,328,197597,2,0,P|429:309|391:290,1,85,10|8,0:2|0:0,0:0:0:0:
162,232,197943,6,0,P|159:271|156:317,1,85,10|0,0:2|0:0,0:0:0:0:
334,241,198174,1,8,0:0:0:0:
305,120,198289,1,0,0:0:0:0:
160,100,198405,2,0,P|126:125|92:152,1,85,2|8,0:0|0:2,0:0:0:0:
250,192,198636,1,8,0:0:0:0:
187,11,198751,1,0,0:0:0:0:
27,93,198866,6,0,P|3:141|47:249,1,170,10|8,0:2|0:0,0:0:0:0:
250,192,199212,1,8,0:2:0:0:
146,220,199328,1,10,0:0:0:0:
326,276,199443,1,8,0:0:0:0:
138,328,199559,1,10,0:0:0:0:
246,372,199674,1,8,0:0:0:0:
246,372,200020,6,0,P|255:287|265:203,1,170,12|0,0:0|0:0,0:0:0:0:
195,88,200366,1,8,0:2:0:0:
331,64,200482,2,0,P|372:76|412:65,1,85,10|0,0:0|0:0,0:0:0:0:
492,184,200712,6,0,B|457:158|416:176|416:176|406:264,1,170,10|8,0:2|0:0,0:0:0:0:
287,248,201059,2,0,P|203:245|131:201,1,170,0|10,0:0|0:2,0:0:0:0:
40,272,201405,2,0,L|44:314|48:356,1,85,8|0,0:0|0:0,0:0:0:0:
39,140,201636,6,0,P|35:97|30:55,1,85,10|0,0:2|0:0,0:0:0:0:
236,90,201866,1,8,0:0:0:0:
131,201,201982,1,2,0:0:0:0:
304,218,202097,1,0,0:0:0:0:
140,34,202212,1,10,0:2:0:0:
210,255,202328,1,8,0:0:0:0:
345,57,202443,1,2,0:0:0:0:
177,119,202559,6,0,L|133:111|93:103,1,85,8|2,0:2|0:0,0:0:0:0:
298,130,202789,1,8,0:0:0:0:
210,255,202905,2,0,L|213:297|216:339,1,85,10|0,0:2|0:0,0:0:0:0:
379,343,203136,1,10,0:2:0:0:
379,343,203251,2,0,L|376:301|373:259,1,85,8|2,0:0|0:0,0:0:0:0:
396,109,203482,6,0,P|321:147|224:149,1,170,12|8,0:2|0:0,0:0:0:0:
40,52,203828,2,0,B|78:18|148:31|148:31|142:86,1,170,2|8,0:0|0:2,0:0:0:0:
64,252,204174,2,0,L|73:167,1,85,10|0,0:0|0:0,0:0:0:0:
256,140,204405,6,0,B|249:204|249:204|238:232|243:256|243:256|237:308,1,170,10|10,0:2|0:0,0:0:0:0:
352,246,204751,2,0,P|412:262|512:198,1,170,2|8,0:0|0:2,0:0:0:0:
256,140,205097,2,0,L|216:124|176:108,1,85,10|0,0:0|0:0,0:0:0:0:
376,16,205328,6,0,P|373:58|369:100,1,85,12|0,0:2|0:0,0:0:0:0:
252,252,205559,1,8,0:0:0:0:
379,216,205674,1,2,0:0:0:0:
151,188,205789,2,0,P|109:197|68:208,1,85,2|8,0:0|0:2,0:0:0:0:
227,277,206020,2,0,P|208:315|190:353,1,85,10|0,0:0|0:0,0:0:0:0:
379,216,206251,6,0,P|365:299|359:384,1,170,10|8,0:2|0:0,0:0:0:0:
480,264,206597,1,8,0:2:0:0:
241,146,206712,1,10,0:0:0:0:
436,27,206828,1,8,0:0:0:0:
283,228,206943,1,10,0:0:0:0:
283,228,207174,5,12,0:0:0:0:
256,192,207289,12,0,210866,0:0:0:0:
184,108,214558,5,8,0:1:0:0:
148,224,215020,1,8,0:1:0:0:
320,104,215481,1,8,0:1:0:0:
252,300,215943,1,8,0:1:0:0:
360,228,216404,5,8,0:1:0:0:
168,180,216866,1,8,0:1:0:0:
280,128,217327,1,8,0:1:0:0:
300,332,217789,1,8,0:1:0:0:
180,304,218250,5,8,0:1:0:0:
380,252,218712,1,8,0:1:0:0:
188,180,219174,1,8,0:1:0:0:
304,348,219635,1,8,0:1:0:0:
304,152,220097,5,8,0:1:0:0:
184,228,220558,1,8,0:1:0:0:
232,364,221020,1,8,0:1:0:0:
380,372,221481,1,8,0:1:0:0:
432,240,221943,5,8,0:1:0:0:
300,272,222404,1,8,0:1:0:0:
256,108,222866,6,0,P|260:80|265:53,1,55.2499974708558,10|8,0:1|0:1,0:0:0:0:
268,288,223097,2,0,L|263:315|258:342,1,55.2499974708558,8|8,0:1|0:1,0:0:0:0:
228,204,223327,1,10,0:1:0:0:
52,152,223558,2,0,P|78:144|105:136,1,55.2499974708558,10|4,0:3|0:3,0:0:0:0:
151,232,223789,6,0,P|119:300|119:376,1,152.999995330811,12|10,0:2|0:0,0:0:0:0:
304,284,224250,1,0,0:0:0:0:
304,284,224327,1,0,0:0:0:0:
304,284,224404,2,0,P|328:278|353:273,1,50.9999984436036,10|8,0:0|0:0,0:0:0:0:
356,128,224712,6,0,B|244:148|244:148|213:123,1,152.999995330811,10|10,0:2|0:0,0:0:0:0:
40,296,225173,1,10,0:0:0:0:
151,232,225289,1,8,0:0:0:0:
256,364,225404,2,0,P|261:326|267:288,1,76.4999976654053,8|8,0:0|0:0,0:0:0:0:
487,284,225635,6,0,P|439:340|365:339,1,152.999995330811,12|10,0:2|0:0,0:0:0:0:
100,308,226096,2,0,P|124:314|149:318,3,50.9999984436036,10|8|8|8,0:0|0:0|0:0|0:0,0:0:0:0:
224,168,226558,6,0,P|162:126|89:144,1,152.999995330811,10|10,0:2|0:0,0:0:0:0:
280,272,227019,1,10,0:0:0:0:
345,184,227135,1,8,0:0:0:0:
160,248,227250,1,8,0:0:0:0:
296,368,227365,1,8,0:0:0:0:
429,231,227481,6,0,B|446:124|446:124|429:103|407:105,1,152.999995330811,12|10,0:2|0:0,0:0:0:0:
407,104,227827,1,0,0:0:0:0:
261,27,227942,2,0,P|267:51|275:76,3,50.9999984436036,10|8|8|8,0:0|0:0|0:0|0:0,0:0:0:0:
161,139,228404,6,0,P|149:214|138:290,1,152.999995330811,10|10,0:2|0:0,0:0:0:0:
423,136,228865,1,10,0:0:0:0:
240,204,228981,1,8,0:0:0:0:
396,260,229096,1,8,0:0:0:0:
296,88,229212,1,8,0:0:0:0:
332,205,229327,6,0,B|352:292|352:292|336:323|298:325,1,152.999995330811,12|10,0:2|0:0,0:0:0:0:
189,323,229673,1,8,0:2:0:0:
52,228,229789,2,0,P|76:232|101:238,3,50.9999984436036,10|8|8|8,0:0|0:0|0:0|0:0,0:0:0:0:
260,88,230250,6,0,P|185:83|126:130,1,152.999995330811,10|10,0:2|0:0,0:0:0:0:
340,296,230712,1,10,0:0:0:0:
288,216,230827,2,0,L|211:210,1,76.4999976654053,8|8,0:0|0:0,0:0:0:0:
372,136,231058,1,8,0:0:0:0:
448,308,231173,6,0,P|493:249|481:176,1,152.999995330811,12|10,0:2|0:0,0:0:0:0:
372,136,231519,1,0,0:0:0:0:
412,43,231635,2,0,P|445:39|478:15,1,76.4999976654053,8|8,0:2|0:2,0:0:0:0:
272,77,231865,2,0,P|235:72|197:67,1,76.4999976654053,10|0,0:0|0:0,0:0:0:0:
129,152,232096,6,0,P|141:216|153:312,1,152.999995330811,10|8,0:2|0:0,0:0:0:0:
234,373,232442,1,0,0:0:0:0:
229,233,232558,1,10,0:2:0:0:
69,326,232673,1,8,0:2:0:0:
305,305,232789,2,0,L|381:301,1,76.4999976654053,10|0,0:0|0:0,0:0:0:0:
432,156,233019,6,0,B|392:161|357:177|357:177|319:164|283:161,1,152.999995330811,12|8,0:2|0:0,0:0:0:0:
167,135,233365,2,0,P|179:98|191:62,1,76.4999976654053,0|10,0:0|0:2,0:0:0:0:
54,169,233596,1,8,0:2:0:0:
143,250,233712,2,0,P|149:287|156:325,1,76.4999976654053,8|0,0:0|0:0,0:0:0:0:
368,268,233942,6,0,B|315:243|254:263|254:263|259:298,1,152.999995330811,10|8,0:2|0:0,0:0:0:0:
465,309,234289,2,0,B|481:229|445:229|462:157,1,152.999995330811,10|8,0:2|0:2,0:0:0:0:
452,32,234635,2,0,L|379:56,1,76.4999976654053,8|8,0:0|0:0,0:0:0:0:
140,148,234865,6,0,P|118:117|117:79,1,76.4999976654053,12|0,0:0|0:0,0:0:0:0:
394,79,235096,2,0,P|393:117|371:148,1,76.4999976654053,10|0,0:2|0:0,0:0:0:0:
92,240,235327,2,0,P|54:233|16:225,1,76.4999976654053,10|0,0:0|0:0,0:0:0:0:
420,240,235558,2,0,P|457:233|495:225,1,76.4999976654053,10|8,0:2|0:2,0:0:0:0:
168,312,235789,6,0,P|147:344|127:378,1,76.4999976654053,10|0,0:0|0:0,0:0:0:0:
384,378,236019,2,0,P|364:344|344:312,1,76.4999976654053,10|0,0:2|0:0,0:0:0:0:
128,140,236250,2,0,P|120:102|116:64,1,76.4999976654053,10|0,0:0|0:0,0:0:0:0:
395,64,236481,2,0,P|391:102|384:140,1,76.4999976654053,10|8,0:2|0:2,0:0:0:0:
256,280,236712,6,0,B|236:200|276:200|257:128,1,152.999995330811,12|10,0:0|0:2,0:0:0:0:
352,348,237173,1,10,0:0:0:0:
157,277,237289,1,0,0:0:0:0:
368,224,237404,1,10,0:2:0:0:
220,370,237519,1,8,0:2:0:0:
142,144,237635,6,0,P|216:149|269:202,2,152.999995330811,10|10|8,0:0|0:2|0:0,0:0:0:0:
232,48,238212,1,0,0:0:0:0:
364,48,238327,2,0,P|353:85|344:122,1,76.4999976654053,10|8,0:0|0:0,0:0:0:0:
448,184,238558,6,0,P|491:126|494:51,1,152.999995330811,12|10,0:2|0:0,0:0:0:0:
385,253,239019,1,10,0:0:0:0:
385,253,239096,1,8,0:0:0:0:
385,253,239173,2,0,P|391:277|398:302,1,50.9999984436036,8|8,0:0|0:0,0:0:0:0:
180,144,239481,6,0,P|255:153|331:162,1,152.999995330811,10|10,0:2|0:0,0:0:0:0:
112,320,239942,2,0,P|122:283|136:247,1,76.4999976654053,10|8,0:0|0:0,0:0:0:0:
288,256,240173,1,8,0:0:0:0:
192,372,240289,1,8,0:0:0:0:
40,228,240404,6,0,P|20:164|44:60,1,152.999995330811,12|10,0:2|0:0,0:0:0:0:
33,80,240750,1,8,0:2:0:0:
184,153,240865,2,0,L|188:204,3,50.9999984436036,10|8|8|8,0:0|0:0|0:0|0:0,0:0:0:0:
355,84,241327,6,0,P|368:158|348:231,1,152.999995330811,10|10,0:2|0:0,0:0:0:0:
104,20,241789,1,10,0:0:0:0:
267,64,241904,1,8,0:0:0:0:
108,194,242019,1,8,0:0:0:0:
180,67,242135,1,8,0:0:0:0:
251,211,242250,6,0,P|258:287|266:363,1,152.999995330811,12|10,0:2|0:0,0:0:0:0:
317,135,242596,1,8,0:2:0:0:
140,216,242712,1,10,0:0:0:0:
140,216,242789,1,8,0:0:0:0:
140,216,242865,2,0,P|142:241|145:266,1,50.9999984436036,8|8,0:0|0:0,0:0:0:0:
175,94,243173,6,0,B|63:74|63:74|43:84|31:106,1,152.999995330811,10|10,0:2|0:0,0:0:0:0:
288,76,243635,2,0,P|274:111|261:147,1,76.4999976654053,10|8,0:0|0:0,0:0:0:0:
392,88,243865,2,0,P|402:124|413:161,1,76.4999976654053,8|8,0:0|0:0,0:0:0:0:
400,304,244096,6,0,P|332:272|232:276,1,152.999995330811,12|10,0:2|0:0,0:0:0:0:
164,344,244442,1,8,0:2:0:0:
72,220,244558,2,0,P|64:244|61:269,3,50.9999984436036,10|8|8|8,0:0|0:0|0:0|0:0,0:0:0:0:
192,172,245019,6,0,B|176:96|208:96|192:20,1,152.999995330811,10|10,0:2|0:0,0:0:0:0:
375,148,245481,2,0,P|338:141|300:135,1,76.4999976654053,10|8,0:0|0:0,0:0:0:0:
280,264,245712,2,0,P|317:270|355:276,1,76.4999976654053,8|8,0:0|0:0,0:0:0:0:
167,208,245942,6,0,P|105:250|30:247,1,152.999995330811,12|10,0:2|0:0,0:0:0:0:
16,60,246404,2,0,P|52:70|82:93,1,76.4999976654053,10|8,0:2|0:2,0:0:0:0:
183,31,246635,2,0,P|195:68|192:106,1,76.4999976654053,10|0,0:0|0:0,0:0:0:0:
316,116,246865,6,0,P|300:150|272:176,1,76.4999976654053,10|0,0:2|0:0,0:0:0:0:
96,292,247096,2,0,B|157:281|210:310|210:310|214:270,1,152.999995330811,8|10,0:0|0:2,0:0:0:0:
348,248,247442,1,8,0:2:0:0:
348,248,247558,2,0,P|356:284|350:322,1,76.4999976654053,8|0,0:0|0:0,0:0:0:0:
276,136,247789,6,0,B|388:117|388:117|416:148,1,152.999995330811,12|10,0:2|0:0,0:0:0:0:
100,32,248250,1,10,0:2:0:0:
184,112,248365,1,8,0:2:0:0:
96,200,248481,2,0,L|88:276,1,76.4999976654053,8|0,0:0|0:0,0:0:0:0:
239,347,248712,6,0,P|278:283|268:209,1,152.999995330811,10|8,0:2|0:0,0:0:0:0:
184,112,249058,2,0,L|364:88,1,152.999995330811,10|8,0:2|0:2,0:0:0:0:
452,96,249404,1,10,0:0:0:0:
372,216,249519,1,8,0:0:0:0:
136,112,249635,6,0,L|99:101|62:90,1,76.4999976654053,12|0,0:0|0:0,0:0:0:0:
376,324,249865,2,0,P|412:334|449:345,1,76.4999976654053,10|0,0:2|0:0,0:0:0:0:
136,324,250096,2,0,P|99:334|62:345,1,76.4999976654053,10|0,0:0|0:0,0:0:0:0:
376,112,250327,2,0,P|412:101|449:90,1,76.4999976654053,10|8,0:2|0:2,0:0:0:0:
128,156,250558,6,0,P|123:193|120:232,1,76.4999976654053,10|0,0:0|0:0,0:0:0:0:
391,232,250789,2,0,P|388:193|384:156,1,76.4999976654053,10|0,0:2|0:0,0:0:0:0:
256,112,251019,2,0,B|266:143|262:170|262:170|248:208|260:232|260:232|252:252|254:261,1,152.999995330811,10|10,0:0|0:2,0:0:0:0:
256,16,251365,1,8,0:2:0:0:
40,100,251481,6,0,B|72:136|145:123|145:123|141:82,1,152.999995330811,12|10,0:0|0:2,0:0:0:0:
100,344,251942,1,10,0:0:0:0:
344,200,252058,1,8,0:0:0:0:
321,365,252173,1,10,0:0:0:0:
138,208,252289,1,8,0:0:0:0:
239,306,252404,5,8,3:1:0:0:
239,306,253327,6,0,P|252:223|267:138,1,170,12|8,0:2|0:0,0:0:0:0:
169,2,253673,1,2,0:0:0:0:
139,164,253789,1,8,0:2:0:0:
297,49,253904,1,8,0:2:0:0:
112,73,254019,2,0,P|69:67|27:62,1,85,10|0,0:0|0:0,0:0:0:0:
38,239,254250,6,0,B|96:246|96:246|106:307|74:359,1,170,10|8,0:2|0:0,0:0:0:0:
239,277,254596,2,0,P|303:293|415:241,1,170,10|8,0:2|0:2,0:0:0:0:
364,68,254942,1,10,0:0:0:0:
319,187,255058,1,0,0:0:0:0:
200,176,255173,6,0,B|180:88|220:88|200:8,1,170,10|8,0:2|0:0,0:0:0:0:
314,141,255519,2,0,P|355:152|396:162,1,85,2|8,0:0|0:2,0:0:0:0:
100,48,255750,2,0,P|58:37|17:27,1,85,10|8,0:2|0:0,0:0:0:0:
72,176,255981,6,0,P|49:211|49:253,1,85,0|10,0:0|0:2,0:0:0:0:
248,296,256212,1,8,0:2:0:0:
168,208,256327,1,10,0:0:0:0:
132,356,256442,1,8,0:2:0:0:
368,344,256558,2,0,L|380:303|392:262,1,85,2|8,0:0|0:2,0:0:0:0:
216,112,256789,2,0,P|203:152|191:193,1,85,10|0,0:0|0:0,0:0:0:0:
368,172,257019,6,0,B|400:164|412:139|412:139|376:84|388:31,1,170,12|8,0:2|0:0,0:0:0:0:
128,44,257481,2,0,P|188:40|224:12,1,85,10|8,0:2|0:2,0:0:0:0:
156,164,257712,2,0,P|184:200|236:218,1,85,10|0,0:0|0:0,0:0:0:0:
40,168,257942,6,0,B|13:180|0:209|0:209|30:324,1,170,10|8,0:2|0:0,0:0:0:0:
272,364,258289,2,0,P|257:282|186:240,1,170,10|8,0:2|0:2,0:0:0:0:
324,188,258635,2,0,P|365:180|407:171,1,85,10|0,0:0|0:0,0:0:0:0:
276,48,258865,6,0,B|236:37|200:60|200:60|208:180,1,170,10|8,0:2|0:0,0:0:0:0:
204,284,259212,2,0,B|204:280|162:273|121:263,1,85,2|8,0:0|0:2,0:0:0:0:
348,284,259442,1,10,0:2:0:0:
348,284,259558,2,0,L|389:294|430:304,1,85,8|0,0:0|0:0,0:0:0:0:
262,83,259789,5,10,0:2:0:0:
204,284,259904,1,8,0:2:0:0:
400,180,260019,1,10,0:0:0:0:
151,73,260135,5,8,0:2:0:0:
299,201,260250,1,2,0:0:0:0:
364,20,260365,1,8,0:2:0:0:
186,162,260481,5,10,0:0:0:0:
172,199,260558,1,8,0:0:0:0:
159,236,260635,1,8,0:0:0:0:
146,274,260712,6,0,P|214:338|314:330,1,170,12|8,0:2|0:0,0:0:0:0:
456,256,261058,2,0,P|440:295|427:336,1,85,2|8,0:0|0:2,0:0:0:0:
299,201,261289,2,0,P|314:161|327:120,1,85,10|8,0:2|0:0,0:0:0:0:
238,47,261519,1,0,0:0:0:0:
148,136,261635,6,0,B|32:108|32:108|11:121|0:147,1,170,10|8,0:2|0:0,0:0:0:0:
148,256,261981,2,0,B|199:240|199:240|179:304|191:354,1,170,10|8,0:2|0:2,0:0:0:0:
324,304,262327,2,0,P|366:298|408:291,1,85,10|0,0:0|0:0,0:0:0:0:
307,127,262558,6,0,P|231:94|151:117,1,170,10|8,0:2|0:0,0:0:0:0:
424,120,262904,2,0,P|459:96|493:71,1,85,2|8,0:0|0:2,0:0:0:0:
364,240,263135,2,0,L|369:282|374:324,2,85,10|8|0,0:2|0:0|0:0,0:0:0:0:
160,224,263481,5,10,0:2:0:0:
276,292,263596,1,8,0:2:0:0:
271,141,263712,1,8,0:0:0:0:
167,331,263827,1,8,0:2:0:0:
384,348,263942,2,0,P|424:336|465:325,1,85,2|8,0:0|0:2,0:0:0:0:
341,205,264173,1,10,0:0:0:0:
243,378,264289,1,8,0:0:0:0:
80,296,264404,6,0,P|67:256|76:215,1,85,12|0,0:0|0:0,0:0:0:0:
435,215,264635,2,0,P|444:256|431:296,1,85,8|0,0:2|0:0,0:0:0:0:
136,128,264865,2,0,P|94:117|54:105,1,85,10|0,0:0|0:0,0:0:0:0:
376,128,265096,2,0,P|417:117|457:105,1,85,10|8,0:2|0:2,0:0:0:0:
180,263,265327,6,0,P|163:303|147:342,1,85,10|8,0:0|0:2,0:0:0:0:
364,342,265558,2,0,P|348:303|331:263,1,85,10|8,0:2|0:2,0:0:0:0:
130,27,265789,2,0,P|135:70|140:112,1,85,10|8,0:0|0:2,0:0:0:0:
372,111,266019,2,0,P|377:69|383:26,1,85,10|8,0:0|0:0,0:0:0:0:
194,242,266250,5,12,0:0:0:0:
267,62,266365,1,8,0:2:0:0:
63,107,266481,1,10,0:0:0:0:
290,174,266596,1,8,0:2:0:0:
96,228,266712,2,0,P|81:267|67:308,1,85,10|8,0:0|0:2,0:0:0:0:
416,228,266942,2,0,L|430:268|444:308,1,85,10|8,0:0|0:2,0:0:0:0:
256,368,267173,6,0,B|256:336|264:316|264:316|264:288|248:264|248:264|260:232|256:203,1,170,10|0,0:0|0:0,0:0:0:0:
228,123,267481,2,0,P|255:118|286:123,1,56.6666666666667,8|8,0:3|0:3,0:0:0:0:
338,38,267635,2,0,P|256:16|176:36,1,170,10|8,0:0|0:0,0:0:0:0:
116,232,267981,1,8,0:0:0:0:
220,152,268096,6,0,P|133:140|51:128,2,170,12|8|10,0:2|0:0|0:2,0:0:0:0:
313,238,268673,1,8,0:2:0:0:
448,152,268789,2,0,P|438:110|427:69,1,85,10|0,0:0|0:0,0:0:0:0:
313,238,269019,6,0,P|255:297|245:380,1,170,10|8,0:2|0:0,0:0:0:0:
376,355,269365,2,0,B|432:383|497:363|497:363|485:318,1,170,10|8,0:2|0:2,0:0:0:0:
417,200,269712,2,0,B|413:200|458:189|499:177,1,85,10|0,0:0|0:0,0:0:0:0:
268,120,269942,6,0,B|144:94|144:94|124:103|111:122,1,170,10|8,0:2|0:0,0:0:0:0:
129,278,270289,2,0,P|106:313|103:355,1,85,2|8,0:0|0:2,0:0:0:0:
308,256,270519,1,10,0:2:0:0:
185,201,270635,1,8,0:0:0:0:
284,349,270750,1,0,0:0:0:0:
380,184,270865,6,0,P|372:142|365:100,1,85,10|8,0:2|0:2,0:0:0:0:
248,48,271096,1,10,0:0:0:0:
185,201,271212,1,8,0:2:0:0:
88,104,271327,2,0,P|46:94|5:85,1,85,2|8,0:0|0:2,0:0:0:0:
8,268,271558,2,0,L|49:277|90:286,1,85,10|0,0:0|0:0,0:0:0:0:
340,177,271789,6,0,L|168:195,1,170,12|8,0:2|0:0,0:0:0:0:
426,234,272250,2,0,P|446:196|444:154,1,85,8|8,0:2|0:2,0:0:0:0:
212,80,272481,2,0,P|192:117|194:159,1,85,10|0,0:0|0:0,0:0:0:0:
314,261,272712,6,0,B|298:173|342:173|317:93,1,170,10|8,0:2|0:0,0:0:0:0:
134,29,273058,2,0,B|104:30|86:23|86:23|107:89|93:143,1,170,10|8,0:2|0:2,0:0:0:0:
64,302,273404,1,10,0:0:0:0:
188,249,273519,1,0,0:0:0:0:
280,359,273635,6,0,P|349:315|362:234,1,170,10|8,0:2|0:0,0:0:0:0:
352,114,273981,2,0,P|316:137|280:159,1,85,2|8,0:0|0:2,0:0:0:0:
192,64,274212,1,10,0:2:0:0:
192,64,274327,2,0,P|225:41|264:18,1,85,8|0,0:0|0:0,0:0:0:0:
77,82,274558,5,10,0:2:0:0:
28,276,274673,1,8,0:2:0:0:
211,239,274789,1,10,0:0:0:0:
103,197,274904,5,8,0:2:0:0:
208,371,275019,1,2,0:0:0:0:
312,160,275135,1,8,0:2:0:0:
224,272,275250,5,10,0:0:0:0:
254,296,275327,1,8,0:0:0:0:
291,310,275404,1,8,0:0:0:0:
331,308,275481,6,0,P|396:258|479:268,1,170,12|8,0:2|0:0,0:0:0:0:
281,54,275827,1,2,0:0:0:0:
181,165,275942,1,8,0:2:0:0:
331,192,276058,1,10,0:2:0:0:
158,64,276173,2,0,L|116:56|74:48,1,85,8|0,0:0|0:0,0:0:0:0:
38,177,276404,6,0,B|67:172|89:193|89:193|59:249|75:311,1,170,10|8,0:2|0:0,0:0:0:0:
363,230,276750,2,0,P|278:240|194:251,1,170,10|8,0:2|0:2,0:0:0:0:
239,383,277096,2,0,L|277:377|323:371,1,85,10|0,0:0|0:0,0:0:0:0:
439,165,277327,5,10,0:2:0:0:
390,316,277442,1,0,0:0:0:0:
512,248,277558,1,8,0:0:0:0:
353,63,277673,2,0,P|348:105|344:147,1,85,2|8,0:0|0:2,0:0:0:0:
134,195,277904,2,0,P|130:152|125:110,2,85,10|8|0,0:2|0:0|0:0,0:0:0:0:
306,259,278250,5,10,0:2:0:0:
236,131,278365,1,8,0:2:0:0:
181,316,278481,1,10,0:0:0:0:
411,334,278596,2,0,B|448:302|448:302|427:182,1,170,8|8,0:2|0:2,0:0:0:0:
436,40,278942,2,0,P|395:51|366:81,1,85,10|8,0:0|0:0,0:0:0:0:
135,130,279173,6,0,P|123:90|112:49,1,85,12|0,0:0|0:0,0:0:0:0:
367,248,279404,2,0,P|406:265|446:281,1,85,8|0,0:2|0:0,0:0:0:0:
144,248,279635,2,0,P|104:265|65:281,1,85,10|0,0:0|0:0,0:0:0:0:
376,131,279865,2,0,B|376:129|387:91|398:50,1,85,10|8,0:2|0:2,0:0:0:0:
238,173,280096,5,10,0:0:0:0:
210,306,280212,1,8,0:2:0:0:
390,214,280327,1,10,0:2:0:0:
188,86,280442,1,8,0:2:0:0:
290,366,280558,5,10,0:0:0:0:
293,81,280673,1,8,0:2:0:0:
98,249,280789,1,10,0:0:0:0:
446,278,280904,1,8,0:0:0:0:
238,173,281019,5,12,0:2:0:0:
256,192,281077,12,0,282635,0:0:0:0:
196,104,282865,5,8,0:0:0:0:
196,104,282942,2,0,P|189:131|183:159,1,56.6666666666667,8|4,0:3|0:3,0:0:0:0:
280,180,283096,1,8,0:2:0:0:
280,180,283173,2,0,P|286:207|293:234,1,56.6666666666667,8|4,0:3|0:3,0:0:0:0:
176,268,283327,6,0,P|136:267|93:294,1,85,8|8,0:0|0:2,0:0:0:0:
299,324,283558,2,0,P|341:328|374:355,1,85,8|8,0:0|0:2,0:0:0:0:
212,352,283789,5,8,3:2:0:0:
300,208,284481,5,8,0:0:0:0:
244,218,284558,1,8,0:0:0:0:
188,228,284635,1,8,0:0:0:0:
132,238,284712,6,0,P|106:205|98:164,1,85,12|8,0:0|0:2,0:0:0:0:
284,24,284942,2,0,P|290:65|281:106,1,85,10|8,0:0|0:2,0:0:0:0:
140,72,285173,2,0,P|98:63|56:56,1,85,10|8,0:0|0:2,0:0:0:0:
3,244,285404,2,0,P|45:237|87:227,1,85,10|8,0:0|0:2,0:0:0:0:
236,260,285635,6,0,P|226:301|218:343,1,85,10|8,0:0|0:2,0:0:0:0:
368,224,285865,2,0,L|390:260|412:296,1,85,10|8,0:0|0:2,0:0:0:0:
408,112,286096,2,0,P|450:104|492:100,1,85,10|8,0:0|0:2,0:0:0:0:
280,84,286327,2,0,P|252:116|224:147,1,85,10|8,0:0|0:2,0:0:0:0:
40,40,286558,6,0,P|80:52|120:67,1,85,10|8,0:0|0:2,0:0:0:0:
104,260,286789,2,0,P|63:247|23:232,1,85,10|8,0:0|0:2,0:0:0:0:
228,159,287019,2,0,P|249:195|247:237,1,85,10|8,0:0|0:2,0:0:0:0:
28,320,287250,2,0,P|6:284|8:242,1,85,10|8,0:0|0:2,0:0:0:0:
176,336,287481,6,0,L|217:346|258:356,1,85,10|8,0:0|0:2,0:0:0:0:
352,236,287712,2,0,P|371:273|390:311,1,85,10|8,0:0|0:2,0:0:0:0:
512,200,287942,2,0,P|492:162|473:124,1,85,10|8,0:0|0:2,0:0:0:0:
264,120,288173,2,0,P|306:126|347:133,1,85,10|8,0:0|0:2,0:0:0:0:
140,208,288404,6,0,P|98:218|57:228,1,85,12|8,0:0|0:2,0:0:0:0:
256,268,288635,2,0,P|285:298|315:329,1,85,10|8,0:0|0:2,0:0:0:0:
248,136,288865,2,0,P|259:95|271:54,1,85,10|8,0:0|0:2,0:0:0:0:
56,24,289096,2,0,P|66:64|79:105,1,85,10|8,0:0|0:2,0:0:0:0:
272,228,289327,6,0,P|314:228|351:209,1,85,10|8,0:0|0:2,0:0:0:0:
160,152,289558,2,0,P|144:192|134:232,1,85,10|8,0:0|0:2,0:0:0:0:
400,108,289789,2,0,P|413:67|425:27,1,85,10|8,0:0|0:2,0:0:0:0:
200,32,290019,2,0,P|242:31|279:50,1,85,10|8,0:0|0:2,0:0:0:0:
232,264,290250,6,0,P|191:276|150:289,1,85,12|8,0:0|0:2,0:0:0:0:
348,292,290481,2,0,P|388:304|429:317,1,85,10|8,0:0|0:2,0:0:0:0:
232,132,290712,2,0,P|214:93|198:53,1,85,10|8,0:0|0:2,0:0:0:0:
393,81,290942,2,0,P|377:121|359:159,1,85,10|8,0:0|0:2,0:0:0:0:
298,359,291173,5,10,0:0:0:0:
285,215,291289,1,8,0:2:0:0:
138,298,291404,1,10,0:0:0:0:
202,157,291519,1,8,0:0:0:0:
48,195,291635,5,10,0:0:0:0:
173,48,291750,1,8,0:0:0:0:
138,298,291865,2,0,P|127:339|118:380,1,85,10|8,0:0|0:0,0:0:0:0:
276,304,292096,6,0,B|364:284|364:328|443:306,1,170,12|8,0:2|0:0,0:0:0:0:
361,130,292442,2,0,P|335:163|334:210,1,85,2|8,0:0|0:2,0:0:0:0:
469,141,292673,1,10,0:2:0:0:
352,12,292789,1,8,0:0:0:0:
251,124,292904,1,0,0:0:0:0:
172,44,293019,6,0,P|87:32|3:19,1,170,10|8,0:2|0:0,0:0:0:0:
40,224,293365,2,0,B|98:234|98:234|116:176|87:126,1,170,10|8,0:2|0:2,0:0:0:0:
225,234,293712,2,0,P|198:266|191:308,1,85,10|0,0:0|0:0,0:0:0:0:
336,381,293942,6,0,P|376:337|372:225,1,170,10|8,0:2|0:0,0:0:0:0:
274,161,294289,1,2,0:0:0:0:
387,82,294404,1,8,0:2:0:0:
264,60,294519,1,10,0:2:0:0:
449,174,294635,1,8,0:0:0:0:
403,0,294750,1,0,0:0:0:0:
189,105,294865,6,0,P|148:96|106:88,1,85,10|8,0:2|0:2,0:0:0:0:
17,285,295096,1,8,0:0:0:0:
163,226,295212,1,8,0:2:0:0:
29,158,295327,1,2,0:0:0:0:
235,291,295442,1,8,0:2:0:0:
189,105,295558,1,10,0:0:0:0:
80,230,295673,1,8,0:0:0:0:
401,383,295789,6,0,P|391:341|380:300,1,85,12|0,0:0|0:0,0:0:0:0:
131,301,296019,2,0,P|119:342|110:383,1,85,10|0,0:2|0:0,0:0:0:0:
256,356,296250,2,0,B|236:268|276:268|256:187,1,170,10|8,0:0|0:2,0:0:0:0:
256,60,296596,1,8,0:2:0:0:
156,200,296712,6,0,P|114:209|73:219,1,85,10|8,0:0|0:2,0:0:0:0:
356,200,296942,2,0,P|397:209|438:219,1,85,10|8,0:2|0:2,0:0:0:0:
144,96,297173,2,0,L|103:84|62:72,1,85,10|8,0:0|0:2,0:0:0:0:
368,96,297404,2,0,L|409:84|450:72,1,85,10|8,0:0|0:0,0:0:0:0:
185,184,297635,5,14,0:0:0:0:
384,280,297750,1,8,0:2:0:0:
147,286,297865,1,10,0:0:0:0:
320,173,297981,1,8,0:2:0:0:
240,304,298096,2,0,P|219:341|201:379,1,85,10|8,0:0|0:2,0:0:0:0:
376,239,298327,2,0,P|418:234|460:231,1,85,10|8,0:0|0:2,0:0:0:0:
185,184,298558,6,0,P|156:152|128:120,1,85,10|8,0:0|0:2,0:0:0:0:
284,115,298789,2,0,L|269:59,2,56.6666666666667,8|8|4,0:3|0:3|0:3,0:0:0:0:
153,21,299019,6,0,P|65:34|18:104,1,170,10|8,0:0|0:0,0:0:0:0:
96,279,299365,1,8,0:0:0:0:
222,205,299481,5,12,0:2:0:0:
212,80,300404,5,10,0:2:0:0:
76,184,300750,1,10,0:2:0:0:
316,232,301096,1,10,0:2:0:0:
200,184,301327,5,10,0:2:0:0:
188,276,302250,5,10,0:2:0:0:
188,276,302365,2,0,P|147:263|106:253,1,85,8|8,0:2|0:0,0:0:0:0:
284,188,302596,2,0,P|302:270|317:354,1,170,10|8,0:2|0:2,0:0:0:0:
416,240,302942,2,0,P|446:210|479:183,1,85,10|0,0:0|0:0,0:0:0:0:
265,179,303173,5,12,0:2:0:0:
416,136,304096,5,12,0:0:0:0:
416,136,304212,2,0,L|397:174|378:212,1,85,8|8,0:2|0:2,0:0:0:0:
276,76,304442,1,12,0:0:0:0:
276,75,304558,2,0,P|271:118|268:160,1,85,8|8,0:2|0:2,0:0:0:0:
128,128,304789,2,0,P|147:165|168:202,1,85,12|8,0:0|0:2,0:0:0:0:
320,308,305019,6,0,P|278:300|235:295,1,85,12|8,0:0|0:2,0:0:0:0:
320,112,305250,2,0,P|361:119|404:124,1,85,8|8,0:2|0:2,0:0:0:0:
236,176,305481,1,10,0:0:0:0:
166,66,305596,1,8,0:2:0:0:
57,247,305712,1,10,0:0:0:0:
44,64,305827,1,8,0:2:0:0:
150,229,305942,6,0,L|144:271|138:313,1,85,10|8,0:0|0:2,0:0:0:0:
252,48,306173,1,10,0:0:0:0:
123,139,306289,1,8,0:0:0:0:
384,180,306404,5,10,0:0:0:0:
237,143,306519,1,8,0:0:0:0:
295,280,306635,1,10,0:0:0:0:
364,40,306750,1,8,0:0:0:0:
123,139,306865,6,0,B|74:171|9:155|9:155|16:103,1,170,12|8,0:2|0:0,0:0:0:0:
244,72,307212,2,0,P|253:113|262:155,1,85,2|10,0:0|0:2,0:0:0:0:
420,260,307442,2,0,P|428:218|438:176,1,85,8|10,0:2|0:0,0:0:0:0:
304,240,307673,1,0,0:0:0:0:
212,328,307789,6,0,P|128:336|55:290,1,170,10|8,0:2|0:0,0:0:0:0:
112,184,308135,2,0,B|92:96|132:96|110:15,1,170,10|8,0:2|0:2,0:0:0:0:
300,64,308481,1,10,0:0:0:0:
208,136,308596,1,0,0:0:0:0:
319,229,308712,6,0,B|439:237|439:237|464:216|466:196,1,170,10|8,0:2|0:0,0:0:0:0:
394,15,309058,1,2,0:0:0:0:
346,128,309173,1,8,0:2:0:0:
488,80,309289,1,10,0:2:0:0:
264,48,309404,2,0,L|176:32,1,85,8|0,0:0|0:0,0:0:0:0:
88,136,309635,5,10,0:2:0:0:
208,264,309750,1,8,0:2:0:0:
272,144,309865,2,0,P|228:152|188:161,1,85,8|10,0:0|0:2,0:0:0:0:
52,304,310096,1,0,0:0:0:0:
184,356,310212,1,8,0:2:0:0:
303,256,310327,2,0,P|345:264|387:273,1,85,10|8,0:0|0:0,0:0:0:0:
120,128,310558,6,0,P|106:88|113:46,1,85,12|0,0:0|0:0,0:0:0:0:
398,46,310789,2,0,P|405:88|391:128,1,85,10|0,0:2|0:0,0:0:0:0:
140,220,311019,2,0,P|98:228|57:238,1,85,10|0,0:0|0:0,0:0:0:0:
372,220,311250,2,0,P|413:228|454:238,1,85,10|8,0:2|0:2,0:0:0:0:
172,316,311481,5,10,0:0:0:0:
280,132,311596,1,8,0:2:0:0:
344,324,311712,1,10,0:2:0:0:
238,227,311827,1,8,0:2:0:0:
419,116,311942,5,10,0:0:0:0:
251,373,312058,1,8,0:2:0:0:
176,103,312173,1,10,0:0:0:0:
428,311,312289,1,8,0:0:0:0:
238,227,312404,5,12,0:2:0:0:
256,192,312462,12,0,314019,0:0:0:0:
84,168,314250,6,0,L|268:184,1,170,12|8,0:2|0:0,0:0:0:0:
368,240,314596,2,0,P|412:196|416:84,1,170,10|8,0:2|0:2,0:0:0:0:
319,32,314942,2,0,P|360:19|401:7,1,85,10|0,0:0|0:0,0:0:0:0:
256,144,315173,6,0,P|240:208|228:312,1,170,10|8,0:2|0:0,0:0:0:0:
376,328,315519,1,10,0:2:0:0:
464,200,315635,2,0,P|423:212|383:226,1,85,0|8,0:0|0:2,0:0:0:0:
332,64,315865,2,0,P|372:51|412:37,1,85,10|0,0:0|0:0,0:0:0:0:
248,164,316096,6,0,B|245:199|213:212|213:212|167:182|111:187,1,170,10|8,0:2|0:0,0:0:0:0:
160,368,316442,2,0,L|153:326|146:284,1,85,10|0,0:2|0:0,0:0:0:0:
284,308,316673,1,8,0:2:0:0:
284,308,316789,2,0,P|326:313|368:320,1,85,10|0,0:0|0:0,0:0:0:0:
400,180,317019,6,0,B|368:193|335:180|335:180|316:78,1,170,10|8,0:2|0:0,0:0:0:0:
208,88,317365,2,0,P|144:64|44:72,1,170,10|8,0:2|0:2,0:0:0:0:
96,192,317712,1,10,0:0:0:0:
48,300,317827,1,0,0:0:0:0:
172,380,317942,6,0,P|228:364|276:264,1,170,12|8,0:2|0:0,0:0:0:0:
184,184,318289,2,0,L|380:164,1,170,10|8,0:2|0:2,0:0:0:0:
256,80,318635,2,0,P|237:41|214:6,1,85,2|0,0:0|0:0,0:0:0:0:
88,116,318865,6,0,B|112:196|68:196|86:284,1,170,10|8,0:2|0:0,0:0:0:0:
227,341,319212,1,10,0:2:0:0:
324,272,319327,2,0,L|432:256,1,85,0|8,0:0|0:2,0:0:0:0:
227,341,319558,2,0,L|142:350,1,85,10|0,0:0|0:0,0:0:0:0:
231,127,319789,6,0,P|258:160|262:202,1,85,10|0,0:2|0:0,0:0:0:0:
68,92,320019,1,10,0:0:0:0:
195,29,320135,1,8,0:2:0:0:
116,216,320250,2,0,P|73:210|31:205,1,85,2|8,0:0|0:2,0:0:0:0:
32,336,320481,2,0,L|74:341|116:346,1,85,10|0,0:0|0:0,0:0:0:0:
262,200,320712,5,10,0:2:0:0:
336,384,320827,1,8,0:0:0:0:
405,218,320942,1,10,0:0:0:0:
230,316,321058,1,8,0:2:0:0:
194,90,321173,5,10,0:0:0:0:
321,295,321289,1,8,0:0:0:0:
136,288,321404,1,10,0:0:0:0:
341,106,321519,1,8,0:0:0:0:
240,180,321635,6,0,B|127:204|127:204|94:191|89:167,1,170,12|8,0:2|0:0,0:0:0:0:
341,106,321981,2,0,B|337:106|454:129|454:129|487:116|492:93,1,170,10|8,0:2|0:2,0:0:0:0:
252,3,322327,2,0,L|244:45|236:86,1,85,10|0,0:0|0:0,0:0:0:0:
332,351,322558,6,0,P|345:270|295:204,1,170,10|8,0:2|0:2,0:0:0:0:
84,300,322904,2,0,B|153:295|210:333|210:333|215:296,1,170,10|8,0:2|0:2,0:0:0:0:
174,104,323250,1,10,0:0:0:0:
108,195,323365,1,0,0:0:0:0:
294,203,323481,6,0,P|305:118|316:34,1,170,10|8,0:2|0:0,0:0:0:0:
182,52,323827,2,0,B|174:104|174:104|102:104|73:54,1,170,10|8,0:2|0:2,0:0:0:0:
31,221,324173,2,0,P|68:197|116:196,1,85,10|0,0:0|0:0,0:0:0:0:
278,324,324404,6,0,P|193:313|109:304,1,170,10|8,0:2|0:0,0:0:0:0:
313,118,324750,2,0,P|357:190|346:273,1,170,10|8,0:2|0:2,0:0:0:0:
232,213,325096,1,10,0:0:0:0:
178,72,325212,1,0,0:0:0:0:
92,163,325327,6,0,B|39:137|39:137|53:26,1,170,12|8,0:2|0:0,0:0:0:0:
26,284,325673,2,0,P|105:308|177:267,1,170,10|8,0:2|0:2,0:0:0:0:
270,30,326019,1,10,0:0:0:0:
183,136,326135,1,0,0:0:0:0:
308,199,326250,6,0,P|329:281|339:365,1,170,10|8,0:2|0:0,0:0:0:0:
424,220,326596,2,0,P|455:192|489:165,1,85,10|0,0:2|0:0,0:0:0:0:
400,52,326827,1,8,0:2:0:0:
400,52,326942,2,0,P|368:79|334:106,1,85,10|0,0:0|0:0,0:0:0:0:
180,96,327173,6,0,P|56:76|0:56,1,170,10|8,0:2|0:0,0:0:0:0:
16,228,327519,2,0,B|62:184|128:196|128:196|144:256,1,170,10|8,0:2|0:2,0:0:0:0:
319,192,327865,2,0,L|297:109,1,85,10|0,0:0|0:0,0:0:0:0:
139,336,328096,5,10,0:2:0:0:
307,282,328212,1,8,0:2:0:0:
173,134,328327,1,10,0:0:0:0:
222,354,328442,1,8,0:2:0:0:
436,171,328558,5,10,0:0:0:0:
189,221,328673,1,8,0:0:0:0:
434,321,328789,1,10,0:0:0:0:
383,88,328904,1,8,0:0:0:0:
307,282,329019,6,0,P|223:302|147:254,1,170,12|8,0:2|0:0,0:0:0:0:
59,132,329365,2,0,B|79:212|39:212|55:300,1,170,8|8,0:2|0:2,0:0:0:0:
208,128,329712,2,0,P|220:88|196:24,1,85,8|0,0:0|0:0,0:0:0:0:
367,115,329942,6,0,P|331:151|315:275,1,170,10|8,0:2|0:0,0:0:0:0:
464,288,330289,1,8,0:2:0:0:
335,377,330404,2,0,P|293:369|251:363,1,85,2|8,0:0|0:2,0:0:0:0:
192,192,330635,2,0,P|233:185|275:178,1,85,10|0,0:0|0:0,0:0:0:0:
172,296,330865,6,0,P|87:298|10:265,1,170,10|8,0:2|0:0,0:0:0:0:
48,17,331212,2,0,P|57:101|67:185,1,170,10|8,0:2|0:2,0:0:0:0:
188,104,331558,1,10,0:0:0:0:
296,160,331673,1,0,0:0:0:0:
408,84,331789,6,0,B|440:204|440:204|429:229|405:240,1,170,2|8,0:2|0:0,0:0:0:0:
296,304,332135,2,0,L|196:280,1,85,10|0,0:2|0:0,0:0:0:0:
99,116,332365,1,8,0:2:0:0:
99,116,332481,2,0,L|131:212,1,85,10|0,0:0|0:0,0:0:0:0:
85,294,332712,6,0,P|144:233|212:182,1,170,12|8,0:2|0:0,0:0:0:0:
412,144,333058,1,8,0:2:0:0:
436,264,333173,2,0,P|394:254|353:245,1,85,2|8,0:0|0:2,0:0:0:0:
344,40,333404,2,0,L|385:49|426:58,1,85,8|0,0:0|0:0,0:0:0:0:
468,168,333635,6,0,P|384:152|301:134,1,170,10|8,0:2|0:0,0:0:0:0:
184,60,333981,1,10,0:2:0:0:
88,168,334096,2,0,P|64:128|68:84,1,85,0|8,0:0|0:2,0:0:0:0:
176,260,334327,2,0,P|168:304|136:336,1,85,10|0,0:0|0:0,0:0:0:0:
240,152,334558,5,10,0:2:0:0:
364,152,334673,1,0,0:0:0:0:
376,280,334789,2,0,P|371:322|365:364,1,85,8|10,0:0|0:2,0:0:0:0:
265,246,335019,1,0,0:0:0:0:
362,69,335135,1,8,0:2:0:0:
470,192,335250,2,0,P|483:233|495:274,1,85,10|0,0:0|0:0,0:0:0:0:
280,164,335481,5,10,0:2:0:0:
436,32,335596,1,8,0:0:0:0:
256,68,335712,1,10,0:0:0:0:
448,128,335827,1,8,0:2:0:0:
329,0,335942,5,10,0:0:0:0:
180,160,336058,1,8,0:0:0:0:
390,242,336173,1,10,0:0:0:0:
340,102,336289,1,8,0:0:0:0:
232,248,336404,6,0,B|222:278|195:293|195:293|79:266,1,170,12|8,0:2|0:0,0:0:0:0:
40,188,336750,2,0,P|51:272|63:352,1,170,10|8,0:2|0:2,0:0:0:0:
328,368,337096,2,0,L|320:322|312:284,1,85,10|0,0:0|0:0,0:0:0:0:
144,140,337327,6,0,P|180:184|300:188,1,170,10|8,0:2|0:0,0:0:0:0:
416,56,337673,2,0,B|336:80|336:36|248:54,1,170,10|8,0:2|0:2,0:0:0:0:
128,8,338019,2,0,P|98:37|88:77,1,85,10|0,0:0|0:0,0:0:0:0:
234,206,338250,6,0,P|306:165|326:85,1,170,10|8,0:2|0:0,0:0:0:0:
149,161,338596,2,0,B|149:159|137:246|129:330,1,170,10|8,0:2|0:2,0:0:0:0:
368,260,338942,2,0,L|355:219|342:178,1,85,10|0,0:0|0:0,0:0:0:0:
334,364,339173,5,10,0:2:0:0:
457,244,339289,1,0,0:0:0:0:
257,269,339404,1,10,0:0:0:0:
342,178,339519,2,0,P|386:107|377:24,1,170,10|8,0:2|0:2,0:0:0:0:
232,52,339865,2,0,L|136:44,1,85,8|0,0:0|0:0,0:0:0:0:
64,148,340096,6,0,P|45:228|29:314,1,170,12|8,0:2|0:0,0:0:0:0:
272,184,340442,2,0,P|233:110|155:92,1,170,10|8,0:2|0:2,0:0:0:0:
156,240,340789,2,0,P|153:282|151:324,1,85,10|0,0:0|0:0,0:0:0:0:
280,280,341019,6,0,B|368:264|368:300|448:281,1,170,10|8,0:2|0:0,0:0:0:0:
392,176,341365,2,0,L|412:8,1,170,10|8,0:2|0:2,0:0:0:0:
203,172,341712,1,10,0:0:0:0:
316,64,341827,1,0,0:0:0:0:
174,63,341942,6,0,P|95:35|10:31,1,170,12|8,0:2|0:0,0:0:0:0:
60,144,342289,2,0,P|80:224|88:316,1,170,10|8,0:2|0:2,0:0:0:0:
273,177,342635,2,0,P|235:196|200:220,1,85,10|0,0:0|0:0,0:0:0:0:
455,297,342865,5,10,0:2:0:0:
392,204,342981,1,8,0:2:0:0:
295,331,343096,1,10,0:0:0:0:
304,144,343212,1,8,0:2:0:0:
184,288,343327,5,10,0:0:0:0:
389,90,343442,1,8,0:0:0:0:
162,82,343558,1,10,0:0:0:0:
369,287,343673,1,8,0:0:0:0:
211,164,343789,5,14,0:2:0:0:
283,108,344276,1,2,0:0:0:0:
379,152,344737,1,2,0:0:0:0:
387,260,345199,1,2,0:0:0:0:
231,280,345660,5,0,0:0:0:0:
219,184,346124,1,2,0:0:0:0:
299,116,346586,1,2,0:0:0:0:
400,160,347047,2,0,P|416:186|428:216,1,63.7500024318696,2|0,0:0|0:0,0:0:0:0:
347,272,347278,2,0,P|331:246|319:216,1,63.7500024318696,2|2,0:0|0:0,0:0:0:0:
