osu file format v14

[General]
AudioFilename: fsefewtesrweart45478577.mp3
AudioLeadIn: 0
PreviewTime: 78652
Countdown: 0
SampleSet: Soft
StackLeniency: 0.3
Mode: 0
LetterboxInBreaks: 0
WidescreenStoryboard: 0

[Editor]
Bookmarks: 92325,115402,130171
DistanceSpacing: 2
BeatDivisor: 4
GridSize: 8
TimelineZoom: 2.8

[Metadata]
Title:Kegare Naki Bara Juuji (Short ver.)
TitleUnicode:穢れなき薔薇十字 (Short ver.)
Artist:Ariabl'eyeS
ArtistUnicode:Ariabl'eyeS
Creator:My Angel RangE
Version:Walao's Extra
Source:
Tags:瑠璃色のローゼンクロイツ Ruriiro no Rena Luna Lyse リゼ rosicrucian Left walaowey Neoskylove Regou Daletto Volta dakemoto Gyukari Jakads -Eat_Sparingly- Underflow Sylphi 404
BeatmapID:1177387
BeatmapSetID:535277

[Difficulty]
HPDrainRate:6
CircleSize:4
OverallDifficulty:8.5
ApproachRate:9.6
SliderMultiplier:1.6
SliderTickRate:1

[Events]
//Background and Video events
0,0,"248.png",0,0
//Break Periods
//Storyboard Layer 0 (Background)
//Storyboard Layer 1 (Fail)
//Storyboard Layer 2 (Pass)
//Storyboard Layer 3 (Foreground)
//Storyboard Sound Samples

[TimingPoints]
18,230.769230769231,4,2,2,40,1,0
18,-133.333333333333,4,2,2,30,0,0
1864,-133.333333333333,4,2,2,40,0,0
9248,-100,4,2,2,50,0,0
31402,-111.111111111111,4,2,2,40,0,0
35094,-100,4,2,2,50,0,0
57248,-166.666666666667,4,2,2,50,0,0
57421,-166.666666666667,4,2,2,20,0,0
57479,-100,4,2,2,50,0,0
64633,-133.333333333333,4,2,2,45,0,0
72018,-100,4,2,2,60,0,0
75710,-100,4,2,2,70,0,0
77556,-100,4,2,2,80,0,0
79402,-100,4,2,2,70,0,1
92325,-100,4,2,2,80,0,1
93248,-100,4,2,2,70,0,1
94171,-100,4,2,2,80,0,1
94287,-100,4,2,2,70,0,1
105248,-100,4,2,2,80,0,1
107094,-172.413793103448,4,2,2,80,0,1
108941,-100,4,2,2,50,0,0
138479,468.75,4,2,2,40,1,0
139416,461.538461538462,4,2,2,40,1,0
140339,472.44094488189,4,2,2,40,1,0

[Colours]
Combo1 : 255,149,255
Combo2 : 0,0,181
Combo3 : 179,217,255
Combo4 : 108,0,217

[HitObjects]
54,124,18,6,0,P|96:86|172:75,1,120.000004577637,4|0,0:0|0:0,0:0:0:0:
353,71,479,2,0,P|406:85|453:131,1,120.000004577637,4|0,0:0|0:0,0:0:0:0:
280,291,941,6,0,P|250:298|219:288,1,60.0000022888184,8|4,0:3|0:3,0:3:0:0:
226,147,1171,2,0,P|256:140|295:156,1,60.0000022888184,8|4,0:3|0:3,0:3:0:0:
387,230,1402,1,8,0:0:0:0:
253,220,1518,1,8,0:0:0:0:
365,151,1633,1,8,0:0:0:0:
318,275,1749,1,8,0:0:0:0:
204,150,1864,5,4,0:0:0:0:
183,156,2325,2,0,L|162:283,1,120.000004577637
282,223,2671,1,0,0:0:0:0:
282,223,2787,6,0,P|306:182|299:111,1,120.000004577637,8|0,0:0|0:0,0:0:0:0:
208,37,3133,1,0,0:0:0:0:
208,37,3248,2,0,B|169:14|120:23|120:23|141:74,1,120.000004577637,0|4,0:0|0:3,0:0:0:0:
184,159,3594,1,4,0:3:0:0:
184,159,3710,6,0,P|128:175|60:145,1,120.000004577637,4|0,0:3|0:0,0:0:0:0:
3,59,4056,1,4,0:3:0:0:
3,59,4171,2,0,L|-4:142,1,60.0000022888184
5,201,4402,2,0,P|23:223|53:237,1,60.0000022888184
170,248,4633,6,0,P|232:242|275:287,1,120.000004577637
188,369,4979,1,0,0:0:0:0:
188,369,5094,2,0,L|206:312,1,60.0000022888184,8|0,0:0|0:0,0:0:0:0:
273,184,5325,2,0,P|254:185|229:196,2,40.000001525879,8|8|8,0:0|0:0|0:0,0:0:0:0:
320,201,5556,6,0,B|348:211|363:268|363:268|378:326|417:350,1,180.000006866455,4|0,0:0|0:0,0:0:0:0:
487,245,6018,2,0,L|494:177,1,60.0000022888184
437,66,6248,2,0,L|430:135,1,60.0000022888184,4|0,0:3|0:0,0:0:0:0:
416,292,6479,6,0,P|361:278|306:235,1,120.000004577637,8|4,0:0|0:3,0:0:0:0:
346,120,6825,1,4,0:3:0:0:
346,120,6941,2,0,P|364:176|413:209,1,120.000004577637,8|0,0:0|0:0,0:0:0:0:
437,66,7287,1,0,0:0:0:0:
437,66,7402,6,0,L|317:21,1,120.000004577637,4|4,0:3|0:3,0:0:0:0:
161,59,7748,1,4,0:3:0:0:
160,58,7864,2,0,P|192:101|252:87,1,120.000004577637,8|4,0:0|0:3,0:0:0:0:
317,214,8210,1,4,0:3:0:0:
316,213,8325,6,0,P|306:244|263:274,1,60.0000022888184,0|8,0:0|0:0,0:0:0:0:
189,170,8556,2,0,P|219:180|249:219,1,60.0000022888184
150,298,8787,2,0,P|160:267|201:234,1,60.0000022888184,8|8,0:0|0:0,0:0:0:0:
277,338,9018,2,0,P|246:327|217:291,1,60.0000022888184,8|8,0:0|0:0,0:0:0:0:
114,201,9248,6,0,P|111:141|200:93,1,160,4|8,0:0|0:0,0:0:0:0:
320,179,9594,2,0,P|269:211|183:158,1,160
261,58,9941,2,0,P|270:94|254:139,1,80,8|0,0:0|0:0,0:0:0:0:
117,130,10171,6,0,L|45:85,2,80,0|0|8,0:0|0:0|0:0,0:0:0:0:
255,213,10518,1,0,0:0:0:0:
187,91,10633,2,0,L|111:43,1,80
119,209,10864,1,8,0:0:0:0:
257,134,10979,1,0,0:0:0:0:
46,169,11094,6,0,P|42:242|112:293,1,160,0|8,0:0|0:0,0:0:0:0:
252,291,11441,2,0,B|290:295|320:259|320:259|359:221|396:231,1,160
454,344,11787,2,0,L|384:307,1,80,8|0,0:0|0:0,0:0:0:0:
255,213,12018,6,0,L|257:131,1,80
394,133,12248,2,0,L|324:172,1,80,8|0,0:0|0:0,0:0:0:0:
257,52,12479,2,0,L|326:92,1,80
325,253,12710,1,8,0:0:0:0:
185,173,12825,1,0,0:0:0:0:
394,133,12941,6,0,P|430:208|375:200,1,160,0|8,0:0|0:0,0:0:0:0:
256,133,13287,2,0,P|257:69|328:104,1,160
325,253,13633,2,0,L|237:307,1,80,8|0,0:0|0:0,0:0:0:0:
185,173,13864,6,0,P|180:99|249:50,1,160,0|8,0:0|0:0,0:0:0:0:
395,133,14210,2,0,B|377:164|333:170|333:170|256:133,1,160
119,48,14556,1,8,0:0:0:0:
113,211,14671,1,0,0:0:0:0:
326,91,14787,6,0,B|392:69|432:100|432:100|388:139,1,160,0|8,0:0|0:0,0:0:0:0:
255,213,15133,2,0,B|189:235|148:204|148:204|190:169,1,160
326,91,15479,1,8,0:0:0:0:
325,253,15594,1,0,0:0:0:0:
187,91,15710,6,0,L|107:44,1,80
44,168,15941,2,0,L|121:214,1,80,8|0,0:0|0:0,0:0:0:0:
325,253,16171,1,8,0:0:0:0:
326,91,16287,1,8,0:0:0:0:
184,250,16402,1,8,0:0:0:0:
324,172,16518,1,8,0:0:0:0:
117,130,16633,6,0,P|119:206|195:250,1,160,4|8,0:0|0:0,0:0:0:0:
325,253,16979,1,0,0:0:0:0:
256,133,17094,2,0,L|254:212,1,80
393,212,17325,2,0,L|316:166,1,80,8|0,0:0|0:0,0:0:0:0:
263,374,17556,6,0,P|326:329|324:252,1,160,0|8,0:0|0:0,0:0:0:0:
256,133,17902,1,0,0:0:0:0:
187,253,18018,2,0,L|260:296,1,80
324,170,18248,2,0,L|242:220,1,80,8|0,0:0|0:0,0:0:0:0:
41,245,18479,6,0,B|-15:251|-15:251|5:186|57:159,1,160,0|8,0:0|0:0,0:0:0:0:
187,91,18825,1,0,0:0:0:0:
187,253,18941,2,0,L|187:347,1,80
324,252,19171,2,0,L|255:211,1,80,8|0,0:0|0:0,0:0:0:0:
42,167,19402,6,0,P|53:238|114:196,1,160,0|8,0:0|0:0,0:0:0:0:
187,91,19748,1,0,0:0:0:0:
49,87,19864,2,0,L|128:136,1,80
257,54,20094,2,0,L|186:91,1,80,8|0,0:0|0:0,0:0:0:0:
119,289,20325,6,0,P|177:331|257:288,1,160,4|8,0:0|0:0,0:0:0:0:
324,170,20671,1,0,0:0:0:0:
187,253,20787,2,0,L|265:207,1,80
186,90,21018,2,0,L|186:169,1,80,8|0,0:0|0:0,0:0:0:0:
397,213,21248,6,0,B|421:168|397:128|397:128|464:84,1,160,0|8,0:0|0:0,0:0:0:0:
466,251,21594,1,0,0:0:0:0:
324,170,21710,2,0,L|250:129,1,80
256,294,21941,2,0,P|300:283|330:241,1,80,8|0,0:0|0:0,0:0:0:0:
187,91,22171,6,0,P|186:169|261:211,1,160,0|8,0:0|0:0,0:0:0:0:
397,213,22518,1,0,0:0:0:0:
256,294,22633,2,0,L|182:335,1,80
41,245,22864,2,0,P|34:199|47:163,1,80,8|0,0:0|0:0,0:0:0:0:
257,54,23094,6,8,L|257:143,1,80
119,289,23325,2,8,L|118:195,1,80,8|8,0:0|0:0,0:0:0:0:
326,91,23556,5,8,0:0:0:0:
400,295,23671,1,8,0:0:0:0:
255,223,23787,1,8,0:0:0:0:
466,153,23902,1,8,0:0:0:0:
290,331,24018,6,0,P|214:330|154:274,1,160,4|8,0:0|0:0,0:0:0:0:
218,90,24364,2,0,P|269:146|254:222,1,160
111,177,24711,2,0,L|191:169,1,80,8|0,0:0|0:0,0:0:0:0:
79,250,24941,6,0,P|40:220|31:177,2,80,0|0|8,0:0|0:0|0:0,0:0:0:0:
191,169,25288,1,0,0:0:0:0:
104,34,25403,2,0,L|64:121,1,80
157,242,25634,1,8,0:0:0:0:
224,97,25749,1,0,0:0:0:0:
284,292,25864,6,0,P|212:301|155:231,1,160,0|8,0:0|0:0,0:0:0:0:
224,97,26210,2,0,P|296:88|353:158,1,160
284,292,26556,2,0,L|233:219,1,80,8|0,0:0|0:0,0:0:0:0:
390,55,26787,6,0,B|420:99|420:99|436:153|436:153|466:197,1,160,0|8,0:0|0:0,0:0:0:0:
322,269,27133,2,0,B|291:224|291:224|275:170|275:170|245:126,1,160
94,183,27480,1,8,0:0:0:0:
215,286,27595,1,0,0:0:0:0:
185,78,27711,6,0,P|253:49|327:112,1,160,0|8,0:0|0:0,0:0:0:0:
232,206,28057,2,0,P|189:145|255:135,1,160
368,232,28403,2,0,L|441:293,1,80,8|0,0:0|0:0,0:0:0:0:
277,340,28633,6,0,L|216:288,1,80
308,180,28864,1,8,0:0:0:0:
353,309,28979,2,0,P|379:343|426:359,2,80
383,150,29326,1,8,0:0:0:0:
429,283,29441,1,0,0:0:0:0:
232,206,29556,6,0,B|122:200|122:200|163:242,1,160,0|8,0:0|0:0,0:0:0:0:
296,259,29902,2,0,B|356:166|356:166|299:181,1,160
216,288,30249,1,8,0:0:0:0:
353,309,30364,1,0,0:0:0:0:
167,159,30480,6,0,L|99:111,1,80
81,267,30710,2,0,L|149:321,1,80,8|0,0:0|0:0,0:0:0:0:
368,232,30941,5,8,0:0:0:0:
156,235,31057,1,8,0:0:0:0:
323,356,31172,1,8,0:0:0:0:
257,157,31288,1,8,0:0:0:0:
188,360,31402,6,0,L|99:375,1,71.9999978027344,2|0,0:0|0:0,0:0:0:0:
44,225,31633,2,0,L|99:179,1,71.9999978027344
186,342,31864,6,0,L|97:357,1,71.9999978027344,2|0,0:0|0:0,0:0:0:0:
31,213,32095,2,0,L|86:167,1,71.9999978027344
241,196,32325,5,2,0:0:0:0:
102,275,32441,1,0,0:0:0:0:
233,183,32556,1,0,0:0:0:0:
94,262,32672,1,0,0:0:0:0:
203,111,32787,6,0,P|236:106|280:122,1,71.9999978027344,2|0,0:0|0:0,0:0:0:0:
239,276,33018,2,0,P|193:259|173:237,1,71.9999978027344
201,128,33248,6,0,P|234:123|278:139,1,71.9999978027344,2|0,0:0|0:0,0:0:0:0:
237,293,33479,2,0,P|191:276|171:254,1,71.9999978027344,8|0,0:0|0:0,0:0:0:0:
356,222,33710,5,2,0:0:0:0:
298,368,33825,1,0,0:0:0:0:
346,205,33941,1,8,0:0:0:0:
288,351,34056,1,0,0:0:0:0:
336,186,34171,6,0,L|357:102,1,71.9999978027344,2|0,0:0|0:0,0:0:0:0:
464,188,34402,2,0,L|443:277,1,71.9999978027344,8|0,0:0|0:0,0:0:0:0:
281,276,34633,2,0,L|236:292,2,47.9999985351563,8|8|8,0:0|0:0|0:0,0:0:0:0:
240,233,34864,2,0,L|185:179,1,71.9999978027344,8|8,0:0|0:0,0:0:0:0:
62,58,35094,6,0,P|123:91|193:36,1,160,4|8,0:0|0:0,0:0:0:0:
306,117,35441,1,0,0:0:0:0:
188,182,35556,2,0,B|108:231,1,80
259,304,35787,2,0,L|337:257,1,80,8|0,0:0|0:0,0:0:0:0:
258,143,36018,6,0,P|189:101|111:161,1,160,0|8,0:0|0:0,0:0:0:0:
187,263,36364,1,0,0:0:0:0:
327,262,36479,2,0,L|329:173,1,80
188,182,36710,1,8,0:0:0:0:
259,304,36825,1,0,0:0:0:0:
397,221,36941,6,0,L|476:172,1,80
389,305,37171,2,0,P|352:292|327:262,1,80,8|0,0:0|0:0,0:0:0:0:
330,102,37402,2,0,P|287:113|254:154,1,80
187,263,37633,1,8,0:0:0:0:
328,182,37748,1,0,0:0:0:0:
188,102,37864,6,0,L|187:181,1,80
259,304,38094,2,0,L|260:215,1,80,8|0,0:0|0:0,0:0:0:0:
330,102,38325,2,0,L|329:191,1,80
396,300,38556,2,0,L|397:207,1,80,8|0,0:0|0:0,0:0:0:0:
258,143,38787,6,0,P|258:220|338:263,1,160,4|8,0:0|0:0,0:0:0:0:
464,178,39133,2,0,P|395:143|328:184,1,160
396,300,39479,2,0,L|397:217,1,80,8|0,0:0|0:0,0:0:0:0:
330,102,39710,6,0,L|252:53,1,80
187,180,39941,2,0,L|257:142,1,80,8|0,0:0|0:0,0:0:0:0:
196,21,40171,1,0,0:0:0:0:
121,135,40287,1,0,0:0:0:0:
262,59,40402,2,0,L|339:19,1,80,8|0,0:0|0:0,0:0:0:0:
328,182,40633,6,0,P|262:208|257:142,1,160,0|8,0:0|0:0,0:0:0:0:
399,142,40979,1,0,0:0:0:0:
327,262,41094,2,0,L|255:308,1,80
115,226,41325,2,0,L|186:262,1,80,8|0,0:0|0:0,0:0:0:0:
52,352,41556,6,0,B|34:311|48:277|48:277|21:235|42:188,1,160,0|8,0:0|0:0,0:0:0:0:
176,101,41902,1,0,0:0:0:0:
121,305,42018,5,8,0:0:0:0:
110,144,42133,1,8,0:0:0:0:
189,343,42248,5,8,0:0:0:0:
246,138,42364,1,8,0:0:0:0:
50,271,42479,6,0,P|51:191|116:142,1,160,4|8,0:0|0:0,0:0:0:0:
252,216,42826,1,0,0:0:0:0:
241,58,42941,2,0,B|168:19,1,80
177,178,43172,2,0,L|245:137,1,80,8|0,0:0|0:0,0:0:0:0:
382,54,43403,6,0,B|436:32|487:49|487:49|451:93,1,160,0|8,0:0|0:0,0:0:0:0:
317,173,43749,1,0,0:0:0:0:
241,58,43864,2,0,L|314:14,1,80
386,133,44095,1,8,0:0:0:0:
245,136,44210,1,0,0:0:0:0:
387,211,44326,6,0,P|428:201|459:162,1,80
317,173,44556,2,0,L|222:232,1,80,8|0,0:0|0:0,0:0:0:0:
322,328,44787,2,0,P|330:289|319:252,1,80
177,178,45018,1,8,0:0:0:0:
252,294,45133,1,0,0:0:0:0:
245,136,45248,6,0,B|219:80|184:49|184:49|175:109,1,160,0|8,0:0|0:0,0:0:0:0:
180,256,45594,1,0,0:0:0:0:
319,252,45710,2,0,L|394:207,1,80
249,215,45941,2,0,L|252:301,1,80,8|0,0:0|0:0,0:0:0:0:
457,249,46172,6,0,B|504:242|493:149|493:149|432:184,1,160,4|8,0:0|0:0,0:0:0:0:
319,252,46518,2,0,B|272:259|283:352|283:352|344:317,1,160
387,210,46864,2,0,L|310:169,1,80,8|0,0:0|0:0,0:0:0:0:
180,256,47095,6,0,L|264:204,1,80
242,56,47326,2,0,L|244:135,1,80,8|0,0:0|0:0,0:0:0:0:
319,252,47556,1,0,0:0:0:0:
386,133,47672,1,0,0:0:0:0:
244,135,47787,2,0,L|172:179,1,80,8|0,0:0|0:0,0:0:0:0:
193,339,48018,6,0,P|254:291|248:214,1,160,0|8,0:0|0:0,0:0:0:0:
105,142,48364,1,0,0:0:0:0:
180,255,48479,2,0,L|175:176,1,80
104,225,48710,2,0,L|32:189,1,80,8|0,0:0|0:0,0:0:0:0:
109,304,48941,6,0,L|42:348,1,80
184,337,49171,2,0,L|253:292,1,80,8|0,0:0|0:0,0:0:0:0:
241,58,49403,5,8,0:0:0:0:
180,256,49518,1,8,0:0:0:0:
314,96,49633,5,8,0:0:0:0:
251,293,49749,1,8,0:0:0:0:
169,100,49864,6,0,P|100:65|30:125,1,160,4|8,0:0|0:0,0:0:0:0:
104,225,50211,1,0,0:0:0:0:
245,136,50326,2,0,L|313:95,1,80
387,210,50557,2,0,L|388:295,1,80,8|0,0:0|0:0,0:0:0:0:
258,375,50788,6,0,P|199:335|254:294,1,160,0|8,0:0|0:0,0:0:0:0:
392,367,51134,1,0,0:0:0:0:
319,252,51249,2,0,P|286:223|232:216,1,80
184,337,51480,1,8,0:0:0:0:
319,331,51595,1,0,0:0:0:0:
180,256,51711,6,0,L|106:217,1,80
174,97,51941,2,0,L|244:135,1,80,8|0,0:0|0:0,0:0:0:0:
250,293,52172,2,0,L|174:344,1,80
246,211,52403,1,8,0:0:0:0:
387,289,52518,1,0,0:0:0:0:
250,293,52634,6,0,L|328:240,1,80
175,172,52864,2,0,L|271:224,1,80,8|0,0:0|0:0,0:0:0:0:
112,299,53095,2,0,L|204:239,1,80
39,180,53326,2,0,L|130:230,1,80,8|0,0:0|0:0,0:0:0:0:
250,293,53557,6,0,P|311:261|314:164,1,160,4|8,0:0|0:0,0:0:0:0:
175,172,53902,2,0,B|179:257|179:257|157:295|186:344,1,160
250,213,54249,2,0,L|247:133,1,80,8|0,0:0|0:0,0:0:0:0:
394,73,54480,6,0,P|438:93|459:120,1,80
321,103,54711,2,0,L|247:133,1,80,8|0,0:0|0:0,0:0:0:0:
330,26,54941,1,0,0:0:0:0:
386,153,55056,1,0,0:0:0:0:
255,55,55172,2,0,L|174:87,1,80,8|0,0:0|0:0,0:0:0:0:
313,184,55403,6,0,P|367:166|305:110,1,160,0|8,0:0|0:0,0:0:0:0:
175,170,55749,1,0,0:0:0:0:
306,263,55864,2,0,L|313:184,1,80
231,297,56094,2,0,L|296:342,1,80,8|0,0:0|0:0,0:0:0:0:
239,216,56326,6,0,P|167:248|166:348,1,160,0|8,0:0|0:0,0:0:0:0:
306,263,56672,1,0,0:0:0:0:
176,88,56788,5,8,0:0:0:0:
231,297,56903,1,8,0:0:0:0:
321,102,57018,5,8,0:0:0:0:
104,126,57134,1,8,0:0:0:0:
313,183,57248,6,0,B|345:183|345:183|368:166|368:166|397:166,1,71.9999978027344
454,188,57479,6,0,P|434:222|393:244,1,80,4|0,0:0|0:0,0:0:0:0:
436,111,57710,2,0,P|475:111|510:130,1,80
379,166,57941,2,0,P|359:131|359:91,1,80,8|0,0:0|0:0,0:0:0:0:
494,50,58172,6,0,P|436:101|359:91,1,160,0|8,0:0|0:0,0:0:0:0:
199,65,58518,1,0,0:0:0:0:
255,214,58633,2,0,L|342:231,1,80
225,139,58864,1,8,0:0:0:0:
199,272,58979,1,0,0:0:0:0:
303,154,59095,6,0,P|299:111|265:71,1,80
176,198,59325,2,0,L|269:216,1,80,8|0,0:0|0:0,0:0:0:0:
381,168,59556,2,0,L|291:151,1,80
199,272,59787,1,8,0:0:0:0:
329,227,59902,1,0,0:0:0:0:
226,136,60018,6,0,L|175:197,1,80
306,106,60248,2,0,L|228:44,1,80,8|0,0:0|0:0,0:0:0:0:
335,187,60479,2,0,L|386:124,1,80
254,213,60710,2,0,L|316:264,1,80,8|0,0:0|0:0,0:0:0:0:
243,56,60941,6,0,B|173:35|131:55|131:55|184:92,1,160,4|8,0:0|0:0,0:0:0:0:
306,106,61287,2,0,B|376:127|418:107|418:107|365:70,1,160
226,136,61633,2,0,L|252:211,1,80,8|0,0:0|0:0,0:0:0:0:
389,244,61864,6,0,L|334:186,1,80
238,292,62095,2,0,P|277:290|311:270,2,80,8|0|0,0:0|0:0|0:0,0:0:0:0:
226,136,62441,1,0,0:0:0:0:
385,124,62556,2,0,L|326:197,1,80,8|0,0:0|0:0,0:0:0:0:
171,198,62787,6,0,P|146:115|209:57,1,160,0|8,0:0|0:0,0:0:0:0:
275,64,63133,1,0,0:0:0:0:
290,183,63248,2,0,L|225:135,1,80
339,111,63479,2,0,L|373:183,1,80,8|0,0:0|0:0,0:0:0:0:
217,272,63710,6,0,P|180:287|136:280,1,80
123,122,63941,2,0,P|160:107|204:114,1,80,8|0,0:0|0:0,0:0:0:0:
381,213,64172,5,8,0:0:0:0:
171,198,64287,1,8,0:0:0:0:
347,89,64402,1,8,0:0:0:0:
271,283,64518,1,8,0:0:0:0:
221,84,64633,6,0,L|206:20,1,60.0000022888184,4|0,0:0|0:0,0:0:0:0:
333,30,64864,2,0,L|350:101,1,60.0000022888184,0|4,0:0|0:3,0:0:0:0:
280,201,65094,1,8,0:0:0:0:
265,207,65171,1,8,0:0:0:0:
251,214,65248,1,8,0:0:0:0:
235,219,65325,2,0,L|172:223,1,60.0000022888184,8|0,0:0|0:0,0:0:0:0:
101,93,65556,6,0,L|228:83,1,120.000004577637,0|8,0:0|0:0,0:0:0:0:
295,193,65902,1,0,0:0:0:0:
210,294,66018,2,0,L|145:299,1,60.0000022888184,8|8,0:0|0:0,0:0:0:0:
205,178,66248,1,8,0:0:0:0:
294,276,66364,1,8,0:0:0:0:
294,144,66479,6,0,P|310:112|332:91,1,60.0000022888184,4|0,0:0|0:0,0:0:0:0:
416,195,66710,2,0,P|400:227|378:248,1,60.0000022888184,0|4,0:0|0:3,0:0:0:0:
403,117,66940,1,8,0:0:0:0:
418,116,67017,1,8,0:0:0:0:
433,116,67094,1,8,0:0:0:0:
448,120,67171,2,0,P|479:144|498:182,1,60.0000022888184
335,178,67402,6,0,P|305:228|330:308,1,120.000004577637,0|8,0:0|0:0,0:0:0:0:
388,331,67748,1,0,0:0:0:0:
441,255,67864,2,8,L|383:244,1,60.0000022888184
251,246,68094,1,8,0:0:0:0:
320,310,68210,1,8,0:0:0:0:
318,178,68325,6,0,L|273:135,1,60.0000022888184,4|0,0:0|0:0,0:0:0:0:
206,205,68556,2,0,L|255:250,1,60.0000022888184,0|4,0:0|0:3,0:0:0:0:
185,317,68786,1,8,0:0:0:0:
172,306,68863,1,8,0:0:0:0:
159,295,68940,1,8,0:0:0:0:
147,284,69017,2,0,L|95:234,1,60.0000022888184,8|0,0:0|0:0,0:0:0:0:
174,109,69248,6,0,B|226:72|257:78|257:78|241:117,1,120.000004577637,0|8,0:0|0:0,0:0:0:0:
139,176,69594,1,0,0:0:0:0:
36,115,69710,2,8,L|96:111,1,60.0000022888184
219,175,69940,1,8,0:0:0:0:
103,242,70056,1,8,0:0:0:0:
174,109,70171,6,0,L|206:53,1,60.0000022888184,4|0,0:0|0:0,0:0:0:0:
324,112,70402,2,0,L|287:182,1,60.0000022888184,0|4,0:0|0:3,0:0:0:0:
244,285,70632,1,8,0:0:0:0:
244,301,70709,1,8,0:0:0:0:
245,316,70786,1,8,0:0:0:0:
246,331,70863,2,0,L|291:380,1,60.0000022888184,8|0,0:0|0:0,0:0:0:0:
371,257,71094,6,0,L|295:164,1,120.000004577637,0|8,0:0|0:0,0:0:0:0:
155,187,71440,1,0,0:0:0:0:
244,274,71556,2,8,L|309:228,1,60.0000022888184
272,83,71786,1,8,0:0:0:0:
155,187,71902,1,8,0:0:0:0:
356,106,72018,6,0,B|436:74|452:42|452:42|388:26,2,160,4|8|0,0:0|0:0|0:0,0:0:0:0:
230,156,72594,1,0,0:0:0:0:
331,31,72710,1,8,0:0:0:0:
390,178,72825,1,0,0:0:0:0:
280,92,72941,6,0,L|191:80,1,80
181,219,73171,2,0,L|271:231,1,80,8|0,0:0|0:0,0:0:0:0:
390,178,73402,1,0,0:0:0:0:
230,156,73518,1,0,0:0:0:0:
293,306,73633,2,0,L|352:228,1,80,8|0,0:0|0:0,0:0:0:0:
200,81,73864,6,0,P|154:126|183:221,1,160,4|8,0:0|0:0,0:0:0:0:
293,306,74210,1,0,0:0:0:0:
309,167,74325,2,0,L|225:155,1,80
209,291,74556,2,0,L|259:228,1,80,8|0,0:0|0:0,0:0:0:0:
358,101,74787,6,0,P|392:162|342:244,1,160,0|8,0:0|0:0,0:0:0:0:
230,156,75133,1,0,0:0:0:0:
331,31,75248,2,0,P|373:27|417:53,1,80
384,178,75479,2,0,P|342:182|298:156,1,80,8|0,0:0|0:0,0:0:0:0:
106,64,75710,6,0,P|62:137|93:223,1,160,12|0,0:0|0:0,0:0:0:0:
250,161,76056,1,0,0:0:0:0:
126,68,76171,6,0,P|82:141|113:227,1,160,8|0,0:0|0:0,0:0:0:0:
270,165,76517,1,0,0:0:0:0:
146,73,76633,6,0,P|102:146|133:232,1,160,8|0,0:0|0:0,0:0:0:0:
290,170,76979,1,0,0:0:0:0:
166,77,77094,6,0,P|122:150|153:236,1,160,8|0,0:0|0:0,0:0:0:0:
310,174,77440,1,0,0:0:0:0:
85,59,77556,6,0,L|54:219,1,160,4|8,0:0|0:0,0:0:0:0:
164,290,77902,1,0,0:0:0:0:
394,219,78018,5,8,0:0:0:0:
165,149,78133,1,8,0:0:0:0:
312,337,78248,1,8,0:0:0:0:
306,97,78364,1,8,0:0:0:0:
164,290,78479,1,12,0:0:0:0:
164,290,79402,6,0,P|227:322|297:280,1,160,4|8,0:0|0:0,0:0:0:0:
366,158,79748,1,0,0:0:0:0:
228,160,79864,2,0,L|228:240,1,80
366,318,80094,2,0,L|367:209,1,80,8|0,0:0|0:0,0:0:0:0:
226,80,80325,6,0,P|154:127|162:205,1,160,0|8,0:0|0:0,0:0:0:0:
366,238,80671,2,0,B|301:199|301:199|326:145|286:101,1,160
228,240,81018,1,8,0:0:0:0:
366,318,81133,1,0,0:0:0:0:
228,160,81248,6,0,P|184:172|158:202,1,80
225,316,81479,2,0,P|236:271|223:234,1,80,8|0,0:0|0:0,0:0:0:0:
86,315,81710,2,0,L|156:277,1,80
92,155,81941,2,0,L|88:240,1,80,8|0,0:0|0:0,0:0:0:0:
228,160,82171,5,0,0:0:0:0:
95,75,82287,1,0,0:0:0:0:
156,277,82402,2,0,L|241:331,1,80,8|0,0:0|0:0,0:0:0:0:
365,247,82633,2,0,L|283:288,1,80
159,197,82864,2,0,L|233:243,1,80,8|0,0:0|0:0,0:0:0:0:
442,131,83094,6,0,P|399:91|304:117,1,160,4|8,0:0|0:0,0:0:0:0:
226,239,83441,1,0,0:0:0:0:
365,247,83556,2,0,L|298:203,1,80
223,319,83787,2,0,L|297:366,1,80,8|0,0:0|0:0,0:0:0:0:
228,160,84018,6,0,P|171:198|241:230,1,160,0|8,0:0|0:0,0:0:0:0:
436,209,84364,2,0,P|431:140|368:185,1,160
293,283,84710,1,8,0:0:0:0:
434,288,84825,1,0,0:0:0:0:
299,123,84941,6,0,L|224:160,1,80
364,247,85171,2,0,L|367:167,1,80,8|0,0:0|0:0,0:0:0:0:
226,239,85402,2,0,L|302:288,1,80
442,131,85633,1,8,0:0:0:0:
299,123,85748,1,0,0:0:0:0:
434,288,85864,5,0,0:0:0:0:
366,167,85979,1,0,0:0:0:0:
293,282,86094,2,0,L|368:331,1,80,8|0,0:0|0:0,0:0:0:0:
436,209,86325,1,0,0:0:0:0:
299,123,86441,1,0,0:0:0:0:
213,272,86556,1,0,0:0:0:0:
216,288,86633,1,0,0:0:0:0:
219,303,86710,1,0,0:0:0:0:
223,319,86787,6,0,L|297:368,1,80,6|0,0:0|0:0,0:0:0:0:
364,245,87018,2,0,L|288:283,1,80,8|0,0:0|0:0,0:0:0:0:
227,158,87248,2,0,L|293:202,1,80
370,87,87479,2,0,L|297:122,1,80,8|0,0:0|0:0,0:0:0:0:
156,277,87710,6,0,P|144:328|223:309,1,160,0|8,0:0|0:0,0:0:0:0:
293,202,88056,1,0,0:0:0:0:
159,197,88171,2,0,P|114:208|86:238,1,80
223,240,88402,2,0,L|292:201,1,80,8|0,0:0|0:0,0:0:0:0:
94,75,88633,6,0,B|34:76|34:76|42:121|100:162,1,160,0|8,0:0|0:0,0:0:0:0:
228,160,88979,1,0,0:0:0:0:
165,39,89094,2,0,L|82:80,1,80
159,197,89325,1,8,0:0:0:0:
299,123,89441,1,0,0:0:0:0:
161,119,89556,6,0,P|96:152|93:237,1,160,0|8,0:0|0:0,0:0:0:0:
222,318,89902,1,0,0:0:0:0:
293,202,90018,2,0,L|299:109,1,80
436,209,90248,1,8,0:0:0:0:
292,280,90364,1,0,0:0:0:0:
370,87,90479,6,0,P|417:56|426:141,1,160,12|0,0:0|0:0,0:0:0:0:
228,160,90825,1,0,0:0:0:0:
442,131,90941,6,0,P|445:187|367:152,1,160,8|0,0:0|0:0,0:0:0:0:
447,23,91287,1,0,0:0:0:0:
367,171,91402,6,0,P|316:145|385:95,1,160,8|0,0:0|0:0,0:0:0:0:
512,170,91748,1,0,0:0:0:0:
359,325,91864,6,0,L|285:362,1,80,8|0,0:0|0:0,0:0:0:0:
159,197,92094,2,0,L|236:160,1,80,8|8,0:0|0:0,0:0:0:0:
506,252,92325,5,8,0:0:0:0:
292,280,92441,1,0,0:0:0:0:
512,170,92556,5,8,0:0:0:0:
293,202,92671,1,0,0:0:0:0:
501,292,92787,5,8,0:0:0:0:
287,320,92902,1,0,0:0:0:0:
507,210,93018,5,8,0:0:0:0:
288,242,93133,1,0,0:0:0:0:
501,331,93248,6,0,L|507:234,1,80,4|0,0:0|0:0,0:0:0:0:
367,170,93479,2,0,L|362:262,1,80,8|0,0:0|0:0,0:0:0:0:
217,318,93710,2,0,L|222:238,1,80
368,86,93941,1,8,0:0:0:0:
434,288,94056,1,0,0:0:0:0:
224,161,94171,6,0,P|159:191|157:284,1,160,4|8,0:0|0:0,0:0:0:0:
289,363,94517,1,0,0:0:0:0:
293,200,94633,2,0,L|203:249,1,80
359,325,94863,2,0,L|362:245,1,80,8|0,0:0|0:0,0:0:0:0:
161,119,95094,6,0,B|102:105|54:121|54:121|105:169,1,160,0|8,0:0|0:0,0:0:0:0:
293,200,95440,2,0,P|350:151|292:124,1,160
159,197,95787,1,8,0:0:0:0:
292,280,95902,1,0,0:0:0:0:
231,80,96017,6,0,L|150:124,1,80
293,200,96248,2,0,L|377:253,1,80,8|0,0:0|0:0,0:0:0:0:
221,319,96479,2,0,L|151:358,1,80
159,197,96710,2,0,L|234:245,1,80,8|0,0:0|0:0,0:0:0:0:
83,316,96940,5,0,0:0:0:0:
91,156,97056,1,0,0:0:0:0:
221,319,97171,2,0,L|297:365,1,80,8|0,0:0|0:0,0:0:0:0:
226,240,97402,2,0,L|156:278,1,80
294,280,97633,2,0,L|295:174,1,80,8|0,0:0|0:0,0:0:0:0:
88,234,97863,6,0,P|161:271|228:238,1,160,4|8,0:0|0:0,0:0:0:0:
367,164,98210,1,0,0:0:0:0:
226,158,98325,2,0,L|294:199,1,80
366,81,98556,2,0,L|296:120,1,80,8|0,0:0|0:0,0:0:0:0:
434,288,98787,6,0,B|480:305|480:305|477:235|433:206,1,160,0|8,0:0|0:0,0:0:0:0:
226,158,99133,2,0,B|180:141|180:141|183:211|227:240,1,160
367,164,99479,1,8,0:0:0:0:
231,80,99594,1,0,0:0:0:0:
221,319,99710,6,0,P|259:309|292:276,1,80
154,201,99941,2,0,P|143:238|155:283,1,80,8|0,0:0|0:0,0:0:0:0:
295,201,100171,2,0,P|267:173|222:161,1,80
148,357,100402,1,8,0:0:0:0:
288,281,100517,1,0,0:0:0:0:
88,234,100633,5,0,0:0:0:0:
229,161,100748,1,0,0:0:0:0:
152,277,100863,2,0,L|49:332,1,80,8|0,0:0|0:0,0:0:0:0:
91,156,101094,1,0,0:0:0:0:
226,240,101210,1,0,0:0:0:0:
142,82,101325,1,8,0:0:0:0:
126,79,101402,1,8,0:0:0:0:
110,77,101479,1,8,0:0:0:0:
94,75,101556,6,0,P|50:85|18:120,1,80,6|0,0:0|0:0,0:0:0:0:
85,235,101787,2,0,L|91:156,1,80,8|0,0:0|0:0,0:0:0:0:
226,166,102017,2,0,L|219:273,1,80
161,122,102248,2,0,L|256:72,1,80,8|0,0:0|0:0,0:0:0:0:
361,253,102479,6,0,B|391:312|381:366|381:366|341:311,1,160,0|8,0:0|0:0,0:0:0:0:
295,210,102825,1,0,0:0:0:0:
430,215,102940,2,0,L|509:267,1,80
361,253,103171,2,0,L|365:173,1,80,8|0,0:0|0:0,0:0:0:0:
161,122,103402,6,0,P|106:178|175:188,1,160,0|8,0:0|0:0,0:0:0:0:
295,210,103748,1,0,0:0:0:0:
231,84,103863,2,0,L|226:172,1,80
434,134,104094,1,8,0:0:0:0:
301,42,104210,1,0,0:0:0:0:
361,253,104325,6,0,P|296:290|222:243,1,160,0|8,0:0|0:0,0:0:0:0:
299,127,104671,1,0,0:0:0:0:
428,296,104787,2,0,P|401:326|366:348,1,80
226,163,105017,1,8,0:0:0:0:
430,215,105133,1,0,0:0:0:0:
227,252,105248,6,0,B|154:262|115:231|115:231|163:205,1,160,12|0,0:0|0:0,0:0:0:0:
364,173,105594,1,0,0:0:0:0:
236,286,105710,6,0,L|61:296,1,160,8|0,0:0|0:0,0:0:0:0:
0,120,106056,1,0,0:0:0:0:
152,210,106171,6,0,L|160:369,1,160,8|0,0:0|0:0,0:0:0:0:
335,337,106517,1,0,0:0:0:0:
231,204,106633,6,0,L|152:210,1,80,8|0,0:0|0:0,0:0:0:0:
389,250,106864,1,0,0:0:0:0:
298,119,106979,1,8,0:0:0:0:
232,333,107094,6,0,B|128:405|176:301|176:301|88:229|200:245|200:245|232:133|264:245|264:245|376:221|289:300|289:300|336:405|264:349,1,649.600019824219,2|0,0:0|0:0,0:0:0:0:
232,333,108941,6,0,B|187:311|187:311|127:323|127:323|83:299,1,160,4|8,0:0|0:0,0:0:0:0:
29,148,109287,1,0,0:0:0:0:
137,239,109402,2,0,L|84:299,1,80
111,162,109633,2,0,L|162:101,1,80,8|0,0:0|0:0,0:0:0:0:
293,270,109864,6,0,P|238:323|142:302,1,160,0|8,0:0|0:0,0:0:0:0:
190,175,110210,1,0,0:0:0:0:
322,138,110326,2,0,L|403:154,1,80
293,269,110556,2,0,L|267:193,1,80,8|0,0:0|0:0,0:0:0:0:
84,87,110787,6,0,P|43:131|117:156,1,160,0|8,0:0|0:0,0:0:0:0:
245,120,111133,1,0,0:0:0:0:
215,253,111249,2,0,L|131:238,1,80
245,120,111479,2,0,L|328:136,1,80,8|0,0:0|0:0,0:0:0:0:
316,346,111710,6,0,P|233:315|215:249,1,160,0|8,0:0|0:0,0:0:0:0:
245,120,112056,1,0,0:0:0:0:
347,209,112172,2,0,L|251:191,1,80
296,59,112402,2,0,L|324:137,1,80,8|0,0:0|0:0,0:0:0:0:
137,239,112633,6,0,B|81:269|23:251|23:251|52:240|70:209,1,160,4|8,0:0|0:0,0:0:0:0:
162,101,112979,1,0,0:0:0:0:
214,253,113095,2,0,L|252:353,1,80
350,209,113326,2,0,L|322:133,1,80,8|0,0:0|0:0,0:0:0:0:
316,346,113556,6,0,P|388:365|449:309,1,160,0|8,0:0|0:0,0:0:0:0:
400,144,113902,1,0,0:0:0:0:
292,268,114018,2,0,L|371:284,1,80
268,194,114249,2,0,L|233:98,1,80,8|0,0:0|0:0,0:0:0:0:
57,227,114479,6,0,P|89:288|134:231,1,160,0|8,0:0|0:0,0:0:0:0:
162,101,114826,1,0,0:0:0:0:
268,194,114941,2,0,L|297:282,1,80
160,314,115172,2,0,L|133:231,1,80,8|0,0:0|0:0,0:0:0:0:
296,59,115402,5,8,0:0:0:0:
430,221,115518,1,8,0:0:0:0:
240,118,115633,1,8,0:0:0:0:
242,327,115748,1,8,0:0:0:0:
400,144,115864,5,8,0:0:0:0:
463,294,115979,1,8,0:0:0:0:
322,133,116094,1,8,0:0:0:0:
242,327,116210,1,8,0:0:0:0:
57,227,116325,6,0,P|25:152|74:84,1,160,4|8,0:0|0:0,0:0:0:0:
233,97,116671,2,0,P|188:159|111:160,1,160
214,253,117019,2,0,L|296:269,1,80,8|0,0:0|0:0,0:0:0:0:
400,144,117248,6,0,P|392:102|363:66,2,80,0|0|8,0:0|0:0|0:0,0:0:0:0:
371,281,117594,1,0,0:0:0:0:
268,194,117711,2,0,L|366:212,1,80
238,329,117942,1,8,0:0:0:0:
190,175,118057,1,0,0:0:0:0:
371,281,118172,6,0,P|391:340|311:337,1,160,0|8,0:0|0:0,0:0:0:0:
268,194,118519,2,0,B|278:115|326:95|326:95|321:143,1,160
292,268,118864,2,0,L|235:332,1,80,8|0,0:0|0:0,0:0:0:0:
135,237,119094,6,0,P|92:218|53:226,1,80
168,104,119325,2,0,P|173:150|199:180,1,80,8|0,0:0|0:0,0:0:0:0:
41,144,119556,2,0,P|78:116|91:78,1,80
243,116,119788,1,8,0:0:0:0:
214,253,119903,1,0,0:0:0:0:
218,42,120019,6,0,P|292:55|318:135,1,160,4|8,0:0|0:0,0:0:0:0:
450,295,120365,2,0,P|494:249|480:149,1,160
346,208,120711,2,0,L|286:275,1,80,8|0,0:0|0:0,0:0:0:0:
160,312,120941,6,0,L|219:247,1,80
346,208,121172,1,8,0:0:0:0:
320,345,121287,2,0,L|241:329,2,80
268,194,121633,1,8,0:0:0:0:
160,312,121749,1,0,0:0:0:0:
371,281,121865,6,0,B|429:255|429:255|394:220|339:206,1,160,0|8,0:0|0:0,0:0:0:0:
188,179,122210,2,0,B|130:205|130:205|165:240|220:254,1,160
321,134,122557,1,8,0:0:0:0:
169,101,122672,1,0,0:0:0:0:
291,268,122788,6,0,L|370:280,1,80
241,119,123018,2,0,L|187:178,1,80,8|0,0:0|0:0,0:0:0:0:
422,222,123249,5,8,0:0:0:0:
296,59,123365,1,8,0:0:0:0:
291,268,123479,1,8,0:0:0:0:
374,71,123594,1,8,0:0:0:0:
370,280,123710,6,0,P|323:342|228:318,1,160,4|8,0:0|0:0,0:0:0:0:
187,176,124056,1,0,0:0:0:0:
344,208,124171,2,0,L|291:268,1,80
134,235,124402,2,0,L|228:255,1,80,8|0,0:0|0:0,0:0:0:0:
400,144,124633,6,0,P|443:106|361:99,1,160,0|8,0:0|0:0,0:0:0:0:
241,119,124979,1,0,0:0:0:0:
344,208,125095,2,0,L|435:225,1,80
320,134,125325,2,0,L|245:221,1,80,8|0,0:0|0:0,0:0:0:0:
57,227,125556,6,0,P|108:174|207:184,1,160,0|8,0:0|0:0,0:0:0:0:
291,268,125902,1,0,0:0:0:0:
321,134,126018,2,0,L|292:48,1,80
190,174,126248,2,0,L|219:260,1,80,8|0,0:0|0:0,0:0:0:0:
400,144,126479,6,0,B|430:108|422:43|422:43|371:74,1,160,0|8,0:0|0:0,0:0:0:0:
267,194,126825,1,0,0:0:0:0:
422,222,126941,2,0,P|460:198|480:152,1,80
320,134,127171,2,0,L|235:117,1,80,8|0,0:0|0:0,0:0:0:0:
241,329,127402,6,0,P|283:286|261:189,1,160,4|8,0:0|0:0,0:0:0:0:
110,159,127748,1,0,0:0:0:0:
160,312,127864,2,0,L|216:249,1,80
57,227,128095,2,0,L|80:303,1,80,8|0,0:0|0:0,0:0:0:0:
266,194,128325,6,0,P|261:140|192:182,1,160,0|8,0:0|0:0,0:0:0:0:
241,329,128671,1,0,0:0:0:0:
370,280,128787,2,0,L|423:219,1,80
317,133,129018,2,0,L|259:201,1,80,8|0,0:0|0:0,0:0:0:0:
398,358,129248,6,0,B|472:375|472:375|478:318|431:277,1,160,0|8,0:0|0:0,0:0:0:0:
344,208,129595,1,0,0:0:0:0:
315,345,129710,2,0,L|220:326,1,80
190,174,129941,2,0,L|247:114,1,80,8|0,0:0|0:0,0:0:0:0:
315,345,130171,5,8,0:0:0:0:
134,235,130287,1,8,0:0:0:0:
370,280,130402,5,8,0:0:0:0:
160,312,130518,1,8,0:0:0:0:
322,133,130633,5,8,0:0:0:0:
315,345,130748,1,8,0:0:0:0:
245,116,130864,5,8,0:0:0:0:
370,280,130979,1,8,0:0:0:0:
134,235,131095,6,0,P|107:170|160:94,1,160,4|8,0:0|0:0,0:0:0:0:
360,71,131441,2,0,P|387:136|334:212,1,160
190,173,131788,2,0,L|256:104,1,80,8|0,0:0|0:0,0:0:0:0:
400,144,132018,6,0,L|426:230,2,80,0|0|8,0:0|0:0|0:0,0:0:0:0:
295,58,132365,1,0,0:0:0:0:
266,194,132480,2,0,L|335:121,1,80
164,101,132711,1,8,0:0:0:0:
213,252,132826,1,0,0:0:0:0:
295,58,132941,6,0,B|321:26|321:26|361:96|321:136,1,160,0|8,0:0|0:0,0:0:0:0:
292,271,133287,2,0,B|266:303|266:303|226:233|266:193,1,160
376,70,133633,2,0,L|403:156,1,80,8|0,0:0|0:0,0:0:0:0:
190,173,133864,6,0,B|145:155|116:93|116:93|142:104|186:100,1,160,0|8,0:0|0:0,0:0:0:0:
322,133,134210,2,0,B|367:151|396:213|396:213|370:202|326:206,1,160
213,252,134549,1,8,0:0:0:0:
362,283,134672,1,0,0:0:0:0:
190,173,134788,6,0,P|131:245|165:318,1,160,0|8,0:0|0:0,0:0:0:0:
245,115,135134,2,0,P|178:93|114:147,1,160
213,252,135480,2,0,L|319:273,1,80,8|0,0:0|0:0,0:0:0:0:
245,115,135710,6,0,L|192:175,1,80
322,133,135941,1,8,0:0:0:0:
216,38,136056,2,0,L|156:105,2,80
267,194,136403,1,8,0:0:0:0:
110,159,136518,1,0,0:0:0:0:
295,58,136633,6,0,P|362:102|302:128,1,160,0|8,0:0|0:0,0:0:0:0:
190,173,136979,2,0,P|123:129|183:103,1,160
267,194,137326,1,8,0:0:0:0:
134,235,137441,1,0,0:0:0:0:
322,132,137557,6,0,L|420:152,1,80
372,284,137787,2,0,L|293:267,1,80,8|0,0:0|0:0,0:0:0:0:
67,215,138018,5,0,0:0:0:0:
237,116,138134,1,0,0:0:0:0:
209,250,138248,1,8,0:0:0:0:
108,82,138365,1,0,0:0:0:0:
237,116,138479,6,0,P|271:124|302:138,1,40,4|0,0:0|0:0,0:0:0:0:
280,255,138713,2,0,P|246:247|215:233,1,40
251,138,138947,6,0,P|270:141|289:147,1,40,2|0,0:0|0:0,0:0:0:0:
283,281,139181,2,0,P|264:278|245:272,1,40
440,178,139416,6,0,P|474:166|495:148,1,40,2|0,0:0|0:0,0:0:0:0:
393,50,139646,2,0,P|379:77|373:106,1,40
411,169,139877,6,0,P|445:157|466:139,1,40,2|0,0:0|0:0,0:0:0:0:
364,40,140107,2,0,P|350:67|344:96,1,40
359,245,140339,6,0,P|365:275|363:308,1,40,2|0,0:0|0:0,0:0:0:0:
209,307,140575,2,0,P|202:281|208:248,1,40
375,220,140811,6,0,P|381:250|379:283,1,40,2|0,0:0|0:0,0:0:0:0:
225,282,141047,2,0,P|218:256|224:223,1,40
275,99,141283,6,0,P|257:87|225:79,1,40,2|0,0:0|0:0,0:0:0:0:
118,131,141520,2,0,P|110:158|114:182,1,40
155,235,141756,5,2,0:0:0:0:
227,269,141874,1,0,0:0:0:0:
263,198,141992,1,0,0:0:0:0:
191,164,142110,1,0,0:0:0:0:
