osu file format v14

[General]
AudioFilename: fsefewtesrweart45478577.mp3
AudioLeadIn: 0
PreviewTime: 78652
Countdown: 0
SampleSet: Normal
StackLeniency: 0.3
Mode: 1
LetterboxInBreaks: 0
WidescreenStoryboard: 1

[Editor]
DistanceSpacing: 2
BeatDivisor: 4
GridSize: 32
TimelineZoom: 2

[Metadata]
Title:Kegare Naki Bara Juuji (Short ver.)
TitleUnicode:穢れなき薔薇十字 (Short ver.)
Artist:Ariabl'eyeS
ArtistUnicode:Ariabl'eyeS
Creator:My Angel RangE
Version:Ufw's Oni
Source:
Tags:瑠璃色のローゼンクロイツ Ruriiro no Rena Luna Lyse リゼ rosicrucian Left walaowey Neoskylove Regou Daletto Volta dakemoto Gyukari Jakads -Eat_Sparingly- Underflow Sylphi 404
BeatmapID:1286691
BeatmapSetID:535277

[Difficulty]
HPDrainRate:5
CircleSize:4
OverallDifficulty:5
ApproachRate:5
SliderMultiplier:1.4
SliderTickRate:1

[Events]
//Background and Video events
0,0,"24.jpg",0,0
//Break Periods
//Storyboard Layer 0 (Background)
//Storyboard Layer 1 (Fail)
//Storyboard Layer 2 (Pass)
//Storyboard Layer 3 (Foreground)
//Storyboard Sound Samples

[TimingPoints]
18,230.769230769231,4,1,0,60,1,0
7402,-100,4,1,0,70,0,0
9248,-100,4,1,0,80,0,0
16633,-100,4,1,0,70,0,0
24018,-100,4,1,0,80,0,0
35094,-100,4,1,0,70,0,0
64633,-100,4,1,0,60,0,0
72018,-100,4,1,0,70,0,0
78479,-100,4,1,0,50,0,0
79402,-100,4,1,0,90,0,1
108941,-100,4,1,0,70,0,0
116325,-100,4,1,0,80,0,0
123710,-100,4,1,0,70,0,0
131094,-100,4,1,0,80,0,0
138479,468.75,4,1,0,70,1,0
138479,-49.2610837438424,4,1,0,70,0,0
139416,461.538461538462,4,1,0,70,1,0
139416,-51.2820512820513,4,1,0,70,0,0
140339,472.44094488189,4,1,0,55,1,0
140339,-52.9100529100529,4,1,0,45,0,0
141283,-57.1428571428571,4,1,0,45,0,0

[HitObjects]
256,192,18,5,2,0:0:0:0:
256,192,479,1,0,0:0:0:0:
256,192,941,1,2,0:0:0:0:
256,192,1056,1,2,0:0:0:0:
256,192,1171,1,0,0:0:0:0:
256,192,1287,1,0,0:0:0:0:
256,192,1402,1,2,0:0:0:0:
256,192,1518,1,2,0:0:0:0:
256,192,1633,1,2,0:0:0:0:
256,192,1864,1,4,0:0:0:0:
256,192,2325,1,2,0:0:0:0:
256,192,2556,1,0,0:0:0:0:
256,192,2671,1,0,0:0:0:0:
256,192,2787,1,2,0:0:0:0:
256,192,3248,1,2,0:0:0:0:
256,192,3479,1,0,0:0:0:0:
256,192,3710,1,0,0:0:0:0:
256,192,4056,1,0,0:0:0:0:
256,192,4402,1,0,0:0:0:0:
256,192,4518,1,0,0:0:0:0:
256,192,4633,1,2,0:0:0:0:
256,192,5094,1,2,0:0:0:0:
256,192,5325,1,2,0:0:0:0:
256,192,5402,1,2,0:0:0:0:
256,192,5479,1,2,0:0:0:0:
256,192,5556,1,0,0:0:0:0:
256,192,6248,1,0,0:0:0:0:
256,192,6479,1,2,0:0:0:0:
256,192,6710,1,0,0:0:0:0:
256,192,6825,1,0,0:0:0:0:
256,192,6941,1,2,0:0:0:0:
256,192,7171,1,0,0:0:0:0:
256,192,7402,1,0,0:0:0:0:
256,192,7633,1,0,0:0:0:0:
256,192,7748,1,0,0:0:0:0:
256,192,7864,1,2,0:0:0:0:
256,192,8094,1,0,0:0:0:0:
256,192,8325,1,2,0:0:0:0:
256,192,8441,1,0,0:0:0:0:
256,192,8556,1,2,0:0:0:0:
256,192,8671,1,2,0:0:0:0:
256,192,8787,1,0,0:0:0:0:
256,192,8902,1,0,0:0:0:0:
256,192,9018,1,2,0:0:0:0:
256,192,9248,1,4,0:0:0:0:
256,192,9479,1,2,0:0:0:0:
256,192,9594,1,0,0:0:0:0:
256,192,9941,1,2,0:0:0:0:
256,192,10171,1,0,0:0:0:0:
256,192,10402,1,2,0:0:0:0:
256,192,10518,1,0,0:0:0:0:
256,192,10864,1,2,0:0:0:0:
256,192,11094,1,0,0:0:0:0:
256,192,11325,1,2,0:0:0:0:
256,192,11441,1,0,0:0:0:0:
256,192,11787,1,2,0:0:0:0:
256,192,11902,1,2,0:0:0:0:
256,192,12018,1,0,0:0:0:0:
256,192,12248,1,2,0:0:0:0:
256,192,12364,1,0,0:0:0:0:
256,192,12710,1,2,0:0:0:0:
256,192,12941,1,0,0:0:0:0:
256,192,13171,1,2,0:0:0:0:
256,192,13287,1,0,0:0:0:0:
256,192,13633,1,2,0:0:0:0:
256,192,13864,1,0,0:0:0:0:
256,192,14094,1,2,0:0:0:0:
256,192,14210,1,0,0:0:0:0:
256,192,14556,1,2,0:0:0:0:
256,192,14787,1,0,0:0:0:0:
256,192,15018,1,2,0:0:0:0:
256,192,15133,1,0,0:0:0:0:
256,192,15479,1,2,0:0:0:0:
256,192,15710,1,0,0:0:0:0:
256,192,15825,1,0,0:0:0:0:
256,192,15941,1,2,0:0:0:0:
256,192,16056,1,0,0:0:0:0:
256,192,16171,1,2,0:0:0:0:
256,192,16287,1,2,0:0:0:0:
256,192,16402,1,2,0:0:0:0:
256,192,16633,1,4,0:0:0:0:
256,192,16864,1,2,0:0:0:0:
256,192,16979,1,0,0:0:0:0:
256,192,17325,1,2,0:0:0:0:
256,192,17556,1,0,0:0:0:0:
256,192,17787,1,2,0:0:0:0:
256,192,17902,1,0,0:0:0:0:
256,192,18133,1,0,0:0:0:0:
256,192,18248,1,2,0:0:0:0:
256,192,18479,1,0,0:0:0:0:
256,192,18710,1,2,0:0:0:0:
256,192,18825,1,0,0:0:0:0:
256,192,19171,1,2,0:0:0:0:
256,192,19402,1,0,0:0:0:0:
256,192,19633,1,2,0:0:0:0:
256,192,19748,1,0,0:0:0:0:
256,192,19979,1,0,0:0:0:0:
256,192,20094,1,2,0:0:0:0:
256,192,20325,1,4,0:0:0:0:
256,192,20556,1,2,0:0:0:0:
256,192,20671,1,0,0:0:0:0:
256,192,21018,1,2,0:0:0:0:
256,192,21248,1,0,0:0:0:0:
256,192,21479,1,2,0:0:0:0:
256,192,21594,1,0,0:0:0:0:
256,192,21825,1,0,0:0:0:0:
256,192,21941,1,2,0:0:0:0:
256,192,22171,1,0,0:0:0:0:
256,192,22402,1,2,0:0:0:0:
256,192,22518,1,0,0:0:0:0:
256,192,22864,1,2,0:0:0:0:
256,192,23094,1,2,0:0:0:0:
256,192,23210,1,0,0:0:0:0:
256,192,23325,1,2,0:0:0:0:
256,192,23441,1,2,0:0:0:0:
256,192,23556,1,0,0:0:0:0:
256,192,23671,1,0,0:0:0:0:
256,192,23787,1,2,0:0:0:0:
256,192,24018,1,4,0:0:0:0:
256,192,24248,1,2,0:0:0:0:
256,192,24364,1,0,0:0:0:0:
256,192,24710,1,2,0:0:0:0:
256,192,24941,1,0,0:0:0:0:
256,192,25171,1,2,0:0:0:0:
256,192,25287,1,0,0:0:0:0:
256,192,25633,1,2,0:0:0:0:
256,192,25748,1,2,0:0:0:0:
256,192,25864,1,0,0:0:0:0:
256,192,26094,1,2,0:0:0:0:
256,192,26210,1,0,0:0:0:0:
256,192,26556,1,2,0:0:0:0:
256,192,26787,1,2,0:0:0:0:
256,192,26902,1,0,0:0:0:0:
256,192,27018,1,2,0:0:0:0:
256,192,27133,1,0,0:0:0:0:
256,192,27248,1,2,0:0:0:0:
256,192,27479,1,2,0:0:0:0:
256,192,27710,1,0,0:0:0:0:
256,192,27941,1,2,0:0:0:0:
256,192,28056,1,0,0:0:0:0:
256,192,28402,1,2,0:0:0:0:
256,192,28633,1,0,0:0:0:0:
256,192,28864,1,2,0:0:0:0:
256,192,28979,1,0,0:0:0:0:
256,192,29325,1,2,0:0:0:0:
256,192,29441,1,2,0:0:0:0:
256,192,29556,1,0,0:0:0:0:
256,192,29787,1,2,0:0:0:0:
256,192,29902,1,0,0:0:0:0:
256,192,30248,1,2,0:0:0:0:
256,192,30479,1,0,0:0:0:0:
256,192,30594,1,0,0:0:0:0:
256,192,30710,1,2,0:0:0:0:
256,192,30825,1,0,0:0:0:0:
256,192,30941,1,2,0:0:0:0:
256,192,31056,1,2,0:0:0:0:
256,192,31171,1,2,0:0:0:0:
256,192,31402,1,6,0:0:0:0:
256,192,31864,1,2,0:0:0:0:
256,192,32325,1,2,0:0:0:0:
256,192,32787,1,2,0:0:0:0:
256,192,33248,1,2,0:0:0:0:
256,192,33710,1,2,0:0:0:0:
256,192,34171,1,2,0:0:0:0:
256,192,34633,1,2,0:0:0:0:
256,192,34710,1,2,0:0:0:0:
256,192,34787,1,2,0:0:0:0:
256,192,34864,1,2,0:0:0:0:
256,192,35094,1,4,0:0:0:0:
256,192,35325,1,2,0:0:0:0:
256,192,35556,1,0,0:0:0:0:
256,192,35671,1,0,0:0:0:0:
256,192,35787,1,2,0:0:0:0:
256,192,36018,1,0,0:0:0:0:
256,192,36248,1,2,0:0:0:0:
256,192,36479,1,0,0:0:0:0:
256,192,36710,1,2,0:0:0:0:
256,192,36825,1,0,0:0:0:0:
256,192,37171,1,2,0:0:0:0:
256,192,37402,1,0,0:0:0:0:
256,192,37518,1,0,0:0:0:0:
256,192,37633,1,2,0:0:0:0:
256,192,37864,1,0,0:0:0:0:
256,192,38094,1,2,0:0:0:0:
256,192,38210,1,0,0:0:0:0:
256,192,38441,1,0,0:0:0:0:
256,192,38556,1,2,0:0:0:0:
256,192,38787,1,4,0:0:0:0:
256,192,39018,1,2,0:0:0:0:
256,192,39133,1,0,0:0:0:0:
256,192,39479,1,2,0:0:0:0:
256,192,39710,1,0,0:0:0:0:
256,192,39941,1,2,0:0:0:0:
256,192,40171,1,2,0:0:0:0:
256,192,40287,1,0,0:0:0:0:
256,192,40402,1,2,0:0:0:0:
256,192,40633,1,0,0:0:0:0:
256,192,40864,1,2,0:0:0:0:
256,192,40979,1,0,0:0:0:0:
256,192,41325,1,0,0:0:0:0:
256,192,41402,1,2,0:0:0:0:
256,192,41479,1,2,0:0:0:0:
256,192,41556,1,2,0:0:0:0:
256,192,41787,1,2,0:0:0:0:
256,192,42018,1,2,0:0:0:0:
256,192,42133,1,2,0:0:0:0:
256,192,42248,1,2,0:0:0:0:
256,192,42479,1,4,0:0:0:0:
256,192,42710,1,2,0:0:0:0:
256,192,42941,1,0,0:0:0:0:
256,192,43056,1,0,0:0:0:0:
256,192,43171,1,2,0:0:0:0:
256,192,43402,1,0,0:0:0:0:
256,192,43633,1,2,0:0:0:0:
256,192,43864,1,0,0:0:0:0:
256,192,44094,1,2,0:0:0:0:
256,192,44210,1,0,0:0:0:0:
256,192,44556,1,2,0:0:0:0:
256,192,44787,1,0,0:0:0:0:
256,192,44902,1,0,0:0:0:0:
256,192,45018,1,2,0:0:0:0:
256,192,45248,1,0,0:0:0:0:
256,192,45479,1,2,0:0:0:0:
256,192,45594,1,0,0:0:0:0:
256,192,45825,1,0,0:0:0:0:
256,192,45941,1,2,0:0:0:0:
256,192,46171,1,4,0:0:0:0:
256,192,46402,1,2,0:0:0:0:
256,192,46518,1,0,0:0:0:0:
256,192,46864,1,2,0:0:0:0:
256,192,47094,1,0,0:0:0:0:
256,192,47325,1,2,0:0:0:0:
256,192,47556,1,2,0:0:0:0:
256,192,47671,1,0,0:0:0:0:
256,192,47787,1,2,0:0:0:0:
256,192,48018,1,0,0:0:0:0:
256,192,48248,1,2,0:0:0:0:
256,192,48364,1,0,0:0:0:0:
256,192,48710,1,2,0:0:0:0:
256,192,48941,1,0,0:0:0:0:
256,192,49171,1,2,0:0:0:0:
256,192,49402,1,2,0:0:0:0:
256,192,49518,1,2,0:0:0:0:
256,192,49633,1,2,0:0:0:0:
256,192,49864,1,4,0:0:0:0:
256,192,50094,1,2,0:0:0:0:
256,192,50325,1,0,0:0:0:0:
256,192,50441,1,0,0:0:0:0:
256,192,50556,1,2,0:0:0:0:
256,192,50787,1,0,0:0:0:0:
256,192,51018,1,2,0:0:0:0:
256,192,51248,1,0,0:0:0:0:
256,192,51364,1,0,0:0:0:0:
256,192,51479,1,2,0:0:0:0:
256,192,51594,1,2,0:0:0:0:
256,192,51941,1,2,0:0:0:0:
256,192,52171,1,0,0:0:0:0:
256,192,52287,1,0,0:0:0:0:
256,192,52402,1,2,0:0:0:0:
256,192,52633,1,0,0:0:0:0:
256,192,52864,1,2,0:0:0:0:
256,192,52979,1,0,0:0:0:0:
256,192,53210,1,0,0:0:0:0:
256,192,53325,1,2,0:0:0:0:
256,192,53556,1,4,0:0:0:0:
256,192,53787,1,2,0:0:0:0:
256,192,53902,1,0,0:0:0:0:
256,192,54248,1,2,0:0:0:0:
256,192,54479,1,0,0:0:0:0:
256,192,54710,1,2,0:0:0:0:
256,192,54941,1,2,0:0:0:0:
256,192,55056,1,0,0:0:0:0:
256,192,55171,1,2,0:0:0:0:
256,192,55402,1,0,0:0:0:0:
256,192,55633,1,2,0:0:0:0:
256,192,55748,1,0,0:0:0:0:
256,192,56094,1,0,0:0:0:0:
256,192,56171,1,2,0:0:0:0:
256,192,56248,1,2,0:0:0:0:
256,192,56325,1,2,0:0:0:0:
256,192,56556,1,2,0:0:0:0:
256,192,56787,1,2,0:0:0:0:
256,192,56902,1,2,0:0:0:0:
256,192,57018,1,2,0:0:0:0:
256,192,57133,1,2,0:0:0:0:
256,192,57479,1,4,0:0:0:0:
256,192,57710,1,2,0:0:0:0:
256,192,57825,1,0,0:0:0:0:
256,192,57941,1,2,0:0:0:0:
256,192,58171,1,0,0:0:0:0:
256,192,58402,1,2,0:0:0:0:
256,192,58633,1,0,0:0:0:0:
256,192,58748,1,0,0:0:0:0:
256,192,58864,1,2,0:0:0:0:
256,192,58979,1,2,0:0:0:0:
256,192,59325,1,2,0:0:0:0:
256,192,59556,1,0,0:0:0:0:
256,192,59671,1,0,0:0:0:0:
256,192,59787,1,2,0:0:0:0:
256,192,60018,1,0,0:0:0:0:
256,192,60248,1,2,0:0:0:0:
256,192,60364,1,0,0:0:0:0:
256,192,60594,1,0,0:0:0:0:
256,192,60710,1,2,0:0:0:0:
256,192,60941,1,4,0:0:0:0:
256,192,61171,1,2,0:0:0:0:
256,192,61287,1,0,0:0:0:0:
256,192,61633,1,2,0:0:0:0:
256,192,61864,1,0,0:0:0:0:
256,192,62094,1,2,0:0:0:0:
256,192,62325,1,2,0:0:0:0:
256,192,62441,1,0,0:0:0:0:
256,192,62556,1,2,0:0:0:0:
256,192,62787,1,0,0:0:0:0:
256,192,63018,1,2,0:0:0:0:
256,192,63133,1,0,0:0:0:0:
256,192,63479,1,2,0:0:0:0:
256,192,63710,1,0,0:0:0:0:
256,192,63941,1,2,0:0:0:0:
256,192,64056,1,0,0:0:0:0:
256,192,64171,1,2,0:0:0:0:
256,192,64287,1,2,0:0:0:0:
256,192,64402,1,2,0:0:0:0:
256,192,64633,1,4,0:0:0:0:
256,192,65094,1,2,0:0:0:0:
256,192,65325,1,0,0:0:0:0:
256,192,65556,1,2,0:0:0:0:
256,192,65787,1,0,0:0:0:0:
256,192,66018,1,2,0:0:0:0:
256,192,66133,1,2,0:0:0:0:
256,192,66248,1,2,0:0:0:0:
256,192,66479,1,0,0:0:0:0:
256,192,66941,1,2,0:0:0:0:
256,192,67171,1,0,0:0:0:0:
256,192,67402,1,2,0:0:0:0:
256,192,67633,1,0,0:0:0:0:
256,192,67864,1,2,0:0:0:0:
256,192,67979,1,2,0:0:0:0:
256,192,68094,1,2,0:0:0:0:
256,192,68210,1,2,0:0:0:0:
256,192,68325,1,0,0:0:0:0:
256,192,68787,1,2,0:0:0:0:
256,192,69018,1,0,0:0:0:0:
256,192,69248,1,2,0:0:0:0:
256,192,69479,1,0,0:0:0:0:
256,192,69710,1,2,0:0:0:0:
256,192,69825,1,2,0:0:0:0:
256,192,69941,1,2,0:0:0:0:
256,192,70171,1,0,0:0:0:0:
256,192,70633,1,2,0:0:0:0:
256,192,70864,1,0,0:0:0:0:
256,192,71094,1,2,0:0:0:0:
256,192,71325,1,0,0:0:0:0:
256,192,71556,1,2,0:0:0:0:
256,192,71671,1,2,0:0:0:0:
256,192,71787,1,2,0:0:0:0:
256,192,71902,1,2,0:0:0:0:
256,192,72018,1,0,0:0:0:0:
256,192,72248,1,2,0:0:0:0:
256,192,72479,1,0,0:0:0:0:
256,192,72594,1,0,0:0:0:0:
256,192,72710,1,2,0:0:0:0:
256,192,72941,1,0,0:0:0:0:
256,192,73171,1,2,0:0:0:0:
256,192,73287,1,0,0:0:0:0:
256,192,73518,1,0,0:0:0:0:
256,192,73633,1,2,0:0:0:0:
256,192,73864,1,0,0:0:0:0:
256,192,74094,1,2,0:0:0:0:
256,192,74325,1,0,0:0:0:0:
256,192,74441,1,0,0:0:0:0:
256,192,74556,1,2,0:0:0:0:
256,192,74787,1,0,0:0:0:0:
256,192,75018,1,2,0:0:0:0:
256,192,75248,1,0,0:0:0:0:
256,192,75364,1,0,0:0:0:0:
256,192,75479,1,2,0:0:0:0:
256,192,75594,1,2,0:0:0:0:
256,192,75710,1,2,0:0:0:0:
256,192,75941,1,0,0:0:0:0:
256,192,76171,1,2,0:0:0:0:
256,192,76402,1,0,0:0:0:0:
256,192,76633,1,2,0:0:0:0:
256,192,76864,1,0,0:0:0:0:
256,192,77094,1,2,0:0:0:0:
256,192,77325,1,0,0:0:0:0:
256,192,77556,1,2,0:0:0:0:
256,192,77787,1,0,0:0:0:0:
256,192,78018,1,2,0:0:0:0:
256,192,78133,1,2,0:0:0:0:
256,192,78248,1,2,0:0:0:0:
256,192,78364,1,2,0:0:0:0:
256,192,78479,1,2,0:0:0:0:
256,192,79402,1,4,0:0:0:0:
256,192,79633,1,2,0:0:0:0:
256,192,79864,1,0,0:0:0:0:
256,192,79979,1,0,0:0:0:0:
256,192,80094,1,2,0:0:0:0:
256,192,80325,1,0,0:0:0:0:
256,192,80556,1,2,0:0:0:0:
256,192,80671,1,0,0:0:0:0:
256,192,80902,1,0,0:0:0:0:
256,192,81018,1,2,0:0:0:0:
256,192,81248,1,2,0:0:0:0:
256,192,81479,1,2,0:0:0:0:
256,192,81594,1,0,0:0:0:0:
256,192,81825,1,0,0:0:0:0:
256,192,81941,1,2,0:0:0:0:
256,192,82056,1,2,0:0:0:0:
256,192,82171,1,0,0:0:0:0:
256,192,82402,1,2,0:0:0:0:
256,192,82518,1,0,0:0:0:0:
256,192,82633,1,2,0:0:0:0:
256,192,82864,1,2,0:0:0:0:
256,192,83094,1,0,0:0:0:0:
256,192,83325,1,2,0:0:0:0:
256,192,83556,1,0,0:0:0:0:
256,192,83671,1,0,0:0:0:0:
256,192,83787,1,2,0:0:0:0:
256,192,84018,1,2,0:0:0:0:
256,192,84248,1,2,0:0:0:0:
256,192,84364,1,0,0:0:0:0:
256,192,84594,1,0,0:0:0:0:
256,192,84710,1,2,0:0:0:0:
256,192,84941,1,2,0:0:0:0:
256,192,85171,1,2,0:0:0:0:
256,192,85287,1,0,0:0:0:0:
256,192,85518,1,0,0:0:0:0:
256,192,85633,1,2,0:0:0:0:
256,192,85748,1,2,0:0:0:0:
256,192,85864,1,0,0:0:0:0:
256,192,86094,1,2,0:0:0:0:
256,192,86210,1,0,0:0:0:0:
256,192,86325,1,2,0:0:0:0:
256,192,86556,1,2,0:0:0:0:
256,192,86787,1,0,0:0:0:0:
256,192,87018,1,2,0:0:0:0:
256,192,87133,1,2,0:0:0:0:
256,192,87248,1,0,0:0:0:0:
256,192,87364,1,0,0:0:0:0:
256,192,87479,1,2,0:0:0:0:
256,192,87710,1,0,0:0:0:0:
256,192,87941,1,2,0:0:0:0:
256,192,88056,1,0,0:0:0:0:
256,192,88287,1,0,0:0:0:0:
256,192,88402,1,2,0:0:0:0:
256,192,88633,1,0,0:0:0:0:
256,192,88864,1,2,0:0:0:0:
256,192,88979,1,2,0:0:0:0:
256,192,89094,1,0,0:0:0:0:
256,192,89210,1,0,0:0:0:0:
256,192,89325,1,2,0:0:0:0:
256,192,89556,1,0,0:0:0:0:
256,192,89787,1,2,0:0:0:0:
256,192,89902,1,0,0:0:0:0:
256,192,90018,1,2,0:0:0:0:
256,192,90248,1,2,0:0:0:0:
256,192,90364,1,2,0:0:0:0:
256,192,90479,1,2,0:0:0:0:
256,192,90710,1,0,0:0:0:0:
256,192,90941,1,2,0:0:0:0:
256,192,91171,1,0,0:0:0:0:
256,192,91402,1,2,0:0:0:0:
256,192,91633,1,0,0:0:0:0:
256,192,91748,1,0,0:0:0:0:
256,192,91864,1,2,0:0:0:0:
256,192,92094,1,2,0:0:0:0:
256,192,92325,1,2,0:0:0:0:
256,192,92441,1,0,0:0:0:0:
256,192,92556,1,2,0:0:0:0:
256,192,92671,1,0,0:0:0:0:
256,192,92787,1,2,0:0:0:0:
256,192,92902,1,0,0:0:0:0:
256,192,93018,1,2,0:0:0:0:
256,192,93133,1,0,0:0:0:0:
256,192,93248,1,2,0:0:0:0:
256,192,93710,1,2,0:0:0:0:
256,192,93941,1,2,0:0:0:0:
256,192,94056,1,2,0:0:0:0:
256,192,94171,1,0,0:0:0:0:
256,192,94402,1,2,0:0:0:0:
256,192,94633,1,0,0:0:0:0:
256,192,94748,1,0,0:0:0:0:
256,192,94863,1,2,0:0:0:0:
256,192,95094,1,0,0:0:0:0:
256,192,95325,1,2,0:0:0:0:
256,192,95440,1,0,0:0:0:0:
256,192,95671,1,0,0:0:0:0:
256,192,95787,1,2,0:0:0:0:
256,192,96017,1,2,0:0:0:0:
256,192,96248,1,2,0:0:0:0:
256,192,96363,1,0,0:0:0:0:
256,192,96594,1,0,0:0:0:0:
256,192,96710,1,2,0:0:0:0:
256,192,96825,1,2,0:0:0:0:
256,192,96941,1,0,0:0:0:0:
256,192,97171,1,2,0:0:0:0:
256,192,97287,1,0,0:0:0:0:
256,192,97402,1,2,0:0:0:0:
256,192,97633,1,2,0:0:0:0:
256,192,97863,1,0,0:0:0:0:
256,192,98094,1,2,0:0:0:0:
256,192,98325,1,0,0:0:0:0:
256,192,98440,1,0,0:0:0:0:
256,192,98556,1,2,0:0:0:0:
256,192,98787,1,2,0:0:0:0:
256,192,99017,1,2,0:0:0:0:
256,192,99133,1,0,0:0:0:0:
256,192,99363,1,0,0:0:0:0:
256,192,99479,1,2,0:0:0:0:
256,192,99710,1,2,0:0:0:0:
256,192,99940,1,2,0:0:0:0:
256,192,100056,1,0,0:0:0:0:
256,192,100287,1,0,0:0:0:0:
256,192,100402,1,2,0:0:0:0:
256,192,100518,1,2,0:0:0:0:
256,192,100633,1,0,0:0:0:0:
256,192,100863,1,2,0:0:0:0:
256,192,100979,1,0,0:0:0:0:
256,192,101094,1,2,0:0:0:0:
256,192,101325,1,2,0:0:0:0:
256,192,101556,1,0,0:0:0:0:
256,192,101787,1,2,0:0:0:0:
256,192,101902,1,2,0:0:0:0:
256,192,102018,1,0,0:0:0:0:
256,192,102133,1,0,0:0:0:0:
256,192,102248,1,2,0:0:0:0:
256,192,102479,1,0,0:0:0:0:
256,192,102710,1,2,0:0:0:0:
256,192,102825,1,0,0:0:0:0:
256,192,103056,1,0,0:0:0:0:
256,192,103171,1,2,0:0:0:0:
256,192,103402,1,0,0:0:0:0:
256,192,103633,1,2,0:0:0:0:
256,192,103748,1,2,0:0:0:0:
256,192,103864,1,0,0:0:0:0:
256,192,103979,1,0,0:0:0:0:
256,192,104094,1,2,0:0:0:0:
256,192,104325,1,0,0:0:0:0:
256,192,104556,1,2,0:0:0:0:
256,192,104671,1,2,0:0:0:0:
256,192,104787,1,0,0:0:0:0:
256,192,105017,1,2,0:0:0:0:
256,192,105133,1,2,0:0:0:0:
256,192,105248,1,2,0:0:0:0:
256,192,105479,1,0,0:0:0:0:
256,192,105710,1,2,0:0:0:0:
256,192,105940,1,0,0:0:0:0:
256,192,106171,1,2,0:0:0:0:
256,192,106402,1,0,0:0:0:0:
256,192,106518,1,0,0:0:0:0:
256,192,106633,1,2,0:0:0:0:
256,192,106748,1,0,0:0:0:0:
256,192,106863,1,2,0:0:0:0:
256,192,107094,1,0,0:0:0:0:
256,192,107210,12,0,108594,0:0:0:0:
256,192,108941,5,4,0:0:0:0:
256,192,109171,1,2,0:0:0:0:
256,192,109287,1,0,0:0:0:0:
256,192,109633,1,2,0:0:0:0:
256,192,109864,1,0,0:0:0:0:
256,192,110094,1,2,0:0:0:0:
256,192,110210,1,0,0:0:0:0:
256,192,110441,1,0,0:0:0:0:
256,192,110556,1,2,0:0:0:0:
256,192,110787,1,0,0:0:0:0:
256,192,111018,1,2,0:0:0:0:
256,192,111133,1,0,0:0:0:0:
256,192,111479,1,2,0:0:0:0:
256,192,111710,1,0,0:0:0:0:
256,192,111941,1,2,0:0:0:0:
256,192,112056,1,0,0:0:0:0:
256,192,112287,1,0,0:0:0:0:
256,192,112402,1,2,0:0:0:0:
256,192,112633,1,4,0:0:0:0:
256,192,112864,1,2,0:0:0:0:
256,192,112979,1,0,0:0:0:0:
256,192,113325,1,2,0:0:0:0:
256,192,113556,1,0,0:0:0:0:
256,192,113787,1,2,0:0:0:0:
256,192,113902,1,0,0:0:0:0:
256,192,114133,1,0,0:0:0:0:
256,192,114248,1,2,0:0:0:0:
256,192,114479,1,0,0:0:0:0:
256,192,114710,1,2,0:0:0:0:
256,192,114825,1,0,0:0:0:0:
256,192,115171,1,2,0:0:0:0:
256,192,115402,1,2,0:0:0:0:
256,192,115518,1,0,0:0:0:0:
256,192,115633,1,2,0:0:0:0:
256,192,115748,1,2,0:0:0:0:
256,192,115864,1,0,0:0:0:0:
256,192,115979,1,0,0:0:0:0:
256,192,116094,1,2,0:0:0:0:
256,192,116325,1,4,0:0:0:0:
256,192,116556,1,2,0:0:0:0:
256,192,116671,1,0,0:0:0:0:
256,192,117018,1,2,0:0:0:0:
256,192,117248,1,0,0:0:0:0:
256,192,117479,1,2,0:0:0:0:
256,192,117594,1,0,0:0:0:0:
256,192,117941,1,2,0:0:0:0:
256,192,118056,1,2,0:0:0:0:
256,192,118171,1,0,0:0:0:0:
256,192,118402,1,2,0:0:0:0:
256,192,118518,1,0,0:0:0:0:
256,192,118864,1,2,0:0:0:0:
256,192,119094,1,0,0:0:0:0:
256,192,119325,1,2,0:0:0:0:
256,192,119441,1,0,0:0:0:0:
256,192,119671,1,0,0:0:0:0:
256,192,119787,1,2,0:0:0:0:
256,192,120018,1,0,0:0:0:0:
256,192,120248,1,2,0:0:0:0:
256,192,120364,1,0,0:0:0:0:
256,192,120710,1,2,0:0:0:0:
256,192,120941,1,0,0:0:0:0:
256,192,121171,1,2,0:0:0:0:
256,192,121287,1,0,0:0:0:0:
256,192,121633,1,2,0:0:0:0:
256,192,121748,1,2,0:0:0:0:
256,192,121864,1,0,0:0:0:0:
256,192,122094,1,2,0:0:0:0:
256,192,122210,1,0,0:0:0:0:
256,192,122556,1,2,0:0:0:0:
256,192,122787,1,0,0:0:0:0:
256,192,122902,1,0,0:0:0:0:
256,192,123018,1,2,0:0:0:0:
256,192,123133,1,0,0:0:0:0:
256,192,123248,1,2,0:0:0:0:
256,192,123364,1,2,0:0:0:0:
256,192,123479,1,2,0:0:0:0:
256,192,123710,1,4,0:0:0:0:
256,192,123941,1,2,0:0:0:0:
256,192,124056,1,0,0:0:0:0:
256,192,124402,1,2,0:0:0:0:
256,192,124633,1,0,0:0:0:0:
256,192,124864,1,2,0:0:0:0:
256,192,124979,1,0,0:0:0:0:
256,192,125210,1,0,0:0:0:0:
256,192,125325,1,2,0:0:0:0:
256,192,125556,1,0,0:0:0:0:
256,192,125787,1,2,0:0:0:0:
256,192,125902,1,0,0:0:0:0:
256,192,126248,1,2,0:0:0:0:
256,192,126479,1,0,0:0:0:0:
256,192,126710,1,2,0:0:0:0:
256,192,126825,1,0,0:0:0:0:
256,192,126941,1,0,0:0:0:0:
256,192,127056,1,0,0:0:0:0:
256,192,127171,1,2,0:0:0:0:
256,192,127402,1,4,0:0:0:0:
256,192,127633,1,2,0:0:0:0:
256,192,127748,1,0,0:0:0:0:
256,192,128094,1,2,0:0:0:0:
256,192,128325,1,0,0:0:0:0:
256,192,128556,1,2,0:0:0:0:
256,192,128671,1,0,0:0:0:0:
256,192,128902,1,0,0:0:0:0:
256,192,129018,1,2,0:0:0:0:
256,192,129248,1,0,0:0:0:0:
256,192,129479,1,2,0:0:0:0:
256,192,129594,1,0,0:0:0:0:
256,192,129941,1,2,0:0:0:0:
256,192,130171,1,2,0:0:0:0:
256,192,130287,1,0,0:0:0:0:
256,192,130402,1,2,0:0:0:0:
256,192,130518,1,2,0:0:0:0:
256,192,130633,1,0,0:0:0:0:
256,192,130748,1,0,0:0:0:0:
256,192,130864,1,2,0:0:0:0:
256,192,131094,1,4,0:0:0:0:
256,192,131325,1,2,0:0:0:0:
256,192,131441,1,0,0:0:0:0:
256,192,131787,1,2,0:0:0:0:
256,192,132018,1,0,0:0:0:0:
256,192,132248,1,2,0:0:0:0:
256,192,132364,1,0,0:0:0:0:
256,192,132594,1,0,0:0:0:0:
256,192,132710,1,2,0:0:0:0:
256,192,132941,1,0,0:0:0:0:
256,192,133171,1,2,0:0:0:0:
256,192,133287,1,0,0:0:0:0:
256,192,133633,1,2,0:0:0:0:
256,192,133864,1,0,0:0:0:0:
256,192,133979,1,2,0:0:0:0:
256,192,134094,1,2,0:0:0:0:
256,192,134210,1,2,0:0:0:0:
256,192,134325,1,0,0:0:0:0:
256,192,134556,1,2,0:0:0:0:
256,192,134787,1,0,0:0:0:0:
256,192,135018,1,2,0:0:0:0:
256,192,135133,1,0,0:0:0:0:
256,192,135479,1,2,0:0:0:0:
256,192,135710,1,0,0:0:0:0:
256,192,135941,1,2,0:0:0:0:
256,192,136056,1,0,0:0:0:0:
256,192,136287,1,0,0:0:0:0:
256,192,136402,1,2,0:0:0:0:
256,192,136633,1,0,0:0:0:0:
256,192,136864,1,2,0:0:0:0:
256,192,136979,1,0,0:0:0:0:
256,192,137325,1,2,0:0:0:0:
256,192,137556,1,0,0:0:0:0:
256,192,137671,1,0,0:0:0:0:
256,192,137787,1,2,0:0:0:0:
256,192,137902,1,0,0:0:0:0:
256,192,138018,1,2,0:0:0:0:
256,192,138133,1,2,0:0:0:0:
256,192,138248,1,2,0:0:0:0:
256,192,138479,1,4,0:0:0:0:
256,192,139416,1,0,0:0:0:0:
256,192,140339,1,0,0:0:0:0:
256,192,141283,1,0,0:0:0:0:
256,192,141756,1,2,0:0:0:0:
