osu file format v14

[General]
AudioFilename: fsefewtesrweart45478577.mp3
AudioLeadIn: 0
PreviewTime: 78652
Countdown: 0
SampleSet: Soft
StackLeniency: 0.3
Mode: 2
LetterboxInBreaks: 0
WidescreenStoryboard: 0

[Editor]
DistanceSpacing: 1.9
BeatDivisor: 4
GridSize: 4
TimelineZoom: 3.599999

[Metadata]
Title:Kegare Naki Bara Juuji (Short ver.)
TitleUnicode:穢れなき薔薇十字 (Short ver.)
Artist:Ariabl'eyeS
ArtistUnicode:Ariabl'eyeS
Creator:My Angel RangE
Version:Overdose
Source:
Tags:瑠璃色のローゼンクロイツ Ruriiro no Rena Luna Lyse リゼ rosicrucian Left walaowey Neoskylove Regou Daletto Volta dakemoto Gyukari Jakads -Eat_Sparingly- Underflow Sylphi 404
BeatmapID:1218745
BeatmapSetID:535277

[Difficulty]
HPDrainRate:6
CircleSize:4
OverallDifficulty:9.4
ApproachRate:9.4
SliderMultiplier:1.35
SliderTickRate:1

[Events]
//Background and Video events
0,0,"58.jpg",0,0
//Break Periods
//Storyboard Layer 0 (Background)
//Storyboard Layer 1 (Fail)
//Storyboard Layer 2 (Pass)
//Storyboard Layer 3 (Foreground)
//Storyboard Sound Samples

[TimingPoints]
18,230.769230769231,4,2,2,80,1,0
79402,-100,4,2,2,80,0,1
108941,-100,4,2,2,80,0,0
138479,468.75,4,2,2,80,1,0
139416,461.538461538462,4,2,2,80,1,0
140339,472.44094488189,4,2,2,80,1,0

[Colours]
Combo1 : 255,149,255
Combo2 : 0,0,181
Combo3 : 179,217,255
Combo4 : 108,0,217

[HitObjects]
416,192,479,5,8,0:0:0:0:
156,192,941,5,8,0:0:0:0:
120,192,1056,1,0,0:0:0:0:
356,192,1171,5,8,0:0:0:0:
392,192,1286,1,0,0:0:0:0:
128,224,1402,2,0,L|56:224,1,67.5,8|8,0:0|0:0,0:0:0:0:
312,160,1633,2,0,L|396:160,1,67.5,8|8,0:0|0:0,0:0:0:0:
136,192,1864,6,0,P|80:180|176:88,1,270,4|0,0:0|0:0,0:0:0:0:
456,192,2556,1,0,0:0:0:0:
440,192,2671,1,0,0:0:0:0:
184,200,2787,6,0,L|336:200,1,135,8|0,0:0|0:0,0:0:0:0:
248,168,3133,1,0,0:0:0:0:
112,168,3248,2,0,P|60:156|48:72,1,135,0|8,0:0|0:0,0:0:0:0:
184,76,3594,1,0,0:0:0:0:
8,80,3710,6,0,L|16:236,1,135,8|0,0:0|0:0,0:0:0:0:
124,296,4056,1,0,0:0:0:0:
232,240,4171,2,0,L|238:105,1,135,0|0,0:0|0:0,0:0:0:0:
128,96,4518,1,0,0:0:0:0:
260,100,4633,6,0,L|336:96,1,67.5,8|0,0:0|0:0,0:0:0:0:
468,168,4864,2,0,L|392:164,1,67.5,0|0,0:0|0:0,0:0:0:0:
236,204,5094,1,8,0:0:0:0:
208,204,5210,1,0,0:0:0:0:
388,304,5325,1,8,0:0:0:0:
424,304,5402,1,8,0:0:0:0:
440,304,5479,1,8,0:0:0:0:
360,304,5556,6,0,P|312:296|368:148,1,270,12|0,0:0|0:0,0:0:0:0:
116,168,6248,1,0,0:0:0:0:
92,168,6364,1,0,0:0:0:0:
336,224,6479,6,0,L|480:224,1,135,8|0,0:0|0:0,0:0:0:0:
336,168,6825,1,0,0:0:0:0:
160,220,6941,2,0,L|16:220,1,135,0|0,0:0|0:0,0:0:0:0:
160,164,7287,1,0,0:0:0:0:
380,120,7402,6,0,L|348:276,1,135,8|0,0:0|0:0,0:0:0:0:
440,120,7748,1,0,0:0:0:0:
468,120,7864,1,8,0:0:0:0:
88,120,8094,1,0,0:0:0:0:
112,120,8210,1,0,0:0:0:0:
408,216,8325,6,0,L|340:216,1,67.5,8|0,0:0|0:0,0:0:0:0:
112,216,8556,2,0,L|179:216,1,67.5,8|8,0:0|0:0,0:0:0:0:
420,336,8787,1,8,0:0:0:0:
448,336,8902,1,8,0:0:0:0:
120,336,9018,1,8,0:0:0:0:
92,336,9133,1,8,0:0:0:0:
392,336,9248,6,0,L|416:192,1,135,4|8,0:0|0:0,0:0:0:0:
120,336,9594,2,0,L|96:192,1,135,0|0,0:0|0:0,0:0:0:0:
324,296,9941,1,8,0:0:0:0:
356,296,10056,1,0,0:0:0:0:
284,300,10171,6,0,P|176:300|160:296,1,101.25,0|0,0:0|0:0,0:0:0:0:
144,288,10402,2,0,P|124:236|136:184,1,101.25,8|0,0:0|0:0,0:0:0:0:
168,184,10633,2,0,P|196:128|176:64,1,101.25,8|0,0:0|0:0,0:0:0:0:
76,56,10864,1,8,0:0:0:0:
192,56,10979,1,0,0:0:0:0:
388,56,11094,6,0,P|440:108|432:196,1,135,0|8,0:0|0:0,0:0:0:0:
192,56,11441,2,0,P|140:108|148:196,1,135,0|0,0:0|0:0,0:0:0:0:
356,216,11787,1,8,0:0:0:0:
324,216,11902,1,0,0:0:0:0:
104,324,12018,6,0,L|224:324,1,101.25,0|0,0:0|0:0,0:0:0:0:
248,356,12248,2,0,L|360:356,1,101.25,8|0,0:0|0:0,0:0:0:0:
400,360,12479,2,0,P|468:360|516:288,1,135,8|8,0:0|0:0,0:0:0:0:
248,280,12825,1,0,0:0:0:0:
64,236,12941,6,0,P|48:184|52:88,1,135,0|8,0:0|0:0,0:0:0:0:
328,232,13287,2,0,P|345:167|343:99,1,135,0|0,0:0|0:0,0:0:0:0:
152,72,13633,1,8,0:0:0:0:
112,72,13748,1,0,0:0:0:0:
304,172,13864,6,0,L|460:160,1,135,0|8,0:0|0:0,0:0:0:0:
228,252,14210,2,0,L|72:240,1,135,0|0,0:0|0:0,0:0:0:0:
284,336,14556,1,8,0:0:0:0:
304,336,14671,1,0,0:0:0:0:
108,336,14787,6,0,P|76:288|96:196,1,135,0|8,0:0|0:0,0:0:0:0:
336,336,15133,2,0,P|368:288|348:196,1,135,0|0,0:0|0:0,0:0:0:0:
68,212,15479,2,0,L|48:144,1,67.5,8|0,0:0|0:0,0:0:0:0:
420,204,15710,6,0,L|476:76,1,135,0|8,0:0|0:0,0:0:0:0:
200,204,16056,2,0,L|144:76,1,135,0|8,0:0|0:0,0:0:0:0:
408,284,16402,1,8,0:0:0:0:
436,284,16518,1,8,0:0:0:0:
112,288,16633,6,0,P|72:244|72:164,1,135,4|8,0:0|0:0,0:0:0:0:
192,180,16979,1,0,0:0:0:0:
316,180,17094,2,0,L|392:180,1,67.5,0|0,0:0|0:0,0:0:0:0:
228,112,17325,2,0,L|152:112,1,67.5,8|0,0:0|0:0,0:0:0:0:
348,64,17556,6,0,P|440:68|480:108,1,135,0|8,0:0|0:0,0:0:0:0:
232,168,17902,2,0,P|140:164|100:124,1,135,0|0,0:0|0:0,0:0:0:0:
352,184,18248,1,8,0:0:0:0:
376,204,18364,1,0,0:0:0:0:
204,272,18479,6,0,L|56:260,1,135,0|8,0:0|0:0,0:0:0:0:
292,336,18825,1,0,0:0:0:0:
216,232,18941,2,0,L|368:224,1,135,0|8,0:0|0:0,0:0:0:0:
244,188,19287,1,0,0:0:0:0:
300,184,19402,6,0,P|396:156|432:128,1,135,0|8,0:0|0:0,0:0:0:0:
228,280,19748,1,0,0:0:0:0:
144,184,19864,2,0,P|48:156|12:128,1,135,0|8,0:0|0:0,0:0:0:0:
264,104,20210,1,0,0:0:0:0:
488,84,20325,6,0,P|424:92|404:156,1,135,4|8,0:0|0:0,0:0:0:0:
496,208,20671,1,0,0:0:0:0:
264,256,20787,2,0,L|416:256,1,135,0|8,0:0|0:0,0:0:0:0:
304,196,21133,1,0,0:0:0:0:
172,208,21248,6,0,L|80:208,1,67.5,0|0,0:0|0:0,0:0:0:0:
232,176,21479,2,0,L|132:176,1,67.5,8|0,0:0|0:0,0:0:0:0:
68,80,21710,2,0,P|44:116|36:220,1,135,0|8,0:0|0:0,0:0:0:0:
160,208,22056,1,0,0:0:0:0:
300,212,22171,6,0,P|356:228|380:300,1,135,0|8,0:0|0:0,0:0:0:0:
131,295,22518,2,0,P|150:233|212:212,1,135,0|0,0:0|0:0,0:0:0:0:
400,356,22864,1,8,0:0:0:0:
376,356,22979,1,0,0:0:0:0:
132,352,23094,6,0,P|76:348|52:344,1,67.5,8|8,0:0|0:0,0:0:0:0:
332,356,23325,2,0,P|388:352|412:348,1,67.5,8|0,0:0|0:0,0:0:0:0:
104,360,23556,2,0,P|48:356|24:352,1,67.5,8|0,0:0|0:0,0:0:0:0:
304,364,23787,2,0,P|360:360|384:356,1,67.5,8|8,0:0|0:0,0:0:0:0:
120,344,24018,6,0,P|100:296|92:192,1,135,4|8,0:0|0:0,0:0:0:0:
392,344,24364,2,0,P|412:296|420:192,1,135,0|0,0:0|0:0,0:0:0:0:
144,200,24710,1,8,0:0:0:0:
104,200,24825,1,0,0:0:0:0:
312,140,24941,6,0,P|388:136|388:60,1,135,0|8,0:0|0:0,0:0:0:0:
200,140,25287,2,0,P|124:136|124:60,1,135,0|0,0:0|0:0,0:0:0:0:
448,76,25633,1,8,0:0:0:0:
412,76,25748,1,0,0:0:0:0:
108,76,25864,6,0,P|168:128|176:196,1,135,0|8,0:0|0:0,0:0:0:0:
404,76,26210,2,0,P|344:128|336:196,1,135,0|0,0:0|0:0,0:0:0:0:
128,184,26556,1,8,0:0:0:0:
116,184,26671,1,0,0:0:0:0:
292,288,26787,6,0,P|380:276|448:276,1,135,0|8,0:0|0:0,0:0:0:0:
280,344,27133,2,0,P|216:332|132:344,1,135,0|0,0:0|0:0,0:0:0:0:
300,288,27479,2,0,L|384:288,1,67.5,8|0,0:0|0:0,0:0:0:0:
188,232,27710,6,0,P|128:216|36:256,1,135,0|8,0:0|0:0,0:0:0:0:
296,140,28056,2,0,P|356:124|448:164,1,135,0|0,0:0|0:0,0:0:0:0:
176,104,28402,1,8,0:0:0:0:
144,104,28518,1,0,0:0:0:0:
312,304,28633,6,0,L|320:160,1,135,0|8,0:0|0:0,0:0:0:0:
104,304,28979,2,0,L|96:160,1,135,0|0,0:0|0:0,0:0:0:0:
312,160,29325,1,8,0:0:0:0:
272,156,29441,1,0,0:0:0:0:
440,324,29556,6,0,P|480:272|456:196,1,135,0|8,0:0|0:0,0:0:0:0:
220,328,29902,2,0,P|180:276|204:200,1,135,0|0,0:0|0:0,0:0:0:0:
432,324,30248,1,8,0:0:0:0:
412,328,30364,1,0,0:0:0:0:
208,336,30479,6,0,L|108:332,1,67.5,0|0,0:0|0:0,0:0:0:0:
268,308,30710,2,0,L|168:304,1,67.5,8|0,0:0|0:0,0:0:0:0:
396,208,30941,2,0,L|496:212,1,67.5,8|8,0:0|0:0,0:0:0:0:
336,236,31172,2,0,L|436:240,1,67.5,8|8,0:0|0:0,0:0:0:0:
220,144,31402,5,2,0:0:0:0:
152,136,31517,1,0,0:0:0:0:
188,120,31633,1,0,0:0:0:0:
255,112,31748,1,0,0:0:0:0:
136,220,31864,5,2,0:0:0:0:
68,212,31979,1,0,0:0:0:0:
104,196,32095,1,0,0:0:0:0:
171,188,32210,1,0,0:0:0:0:
352,148,32325,5,2,0:0:0:0:
420,140,32440,1,0,0:0:0:0:
384,124,32556,1,0,0:0:0:0:
317,116,32671,1,0,0:0:0:0:
436,224,32787,5,2,0:0:0:0:
504,216,32902,1,0,0:0:0:0:
468,200,33018,1,0,0:0:0:0:
401,192,33133,1,0,0:0:0:0:
184,240,33248,5,2,0:0:0:0:
152,240,33364,1,0,0:0:0:0:
248,240,33479,1,0,0:0:0:0:
280,240,33594,1,0,0:0:0:0:
128,264,33710,5,2,0:0:0:0:
96,264,33826,1,0,0:0:0:0:
280,264,33941,1,0,0:0:0:0:
312,264,34056,1,0,0:0:0:0:
112,296,34171,5,2,0:0:0:0:
68,288,34287,1,0,0:0:0:0:
280,232,34402,5,0,0:0:0:0:
236,224,34518,1,0,0:0:0:0:
92,200,34633,2,0,L|32:192,2,45,8|8|8,0:0|0:0|0:0,0:0:0:0:
264,144,34864,2,0,L|324:136,2,45,8|0|0,0:0|0:0|0:0,0:0:0:0:
72,104,35094,5,4,0:0:0:0:
60,84,35325,2,0,L|127:84,1,67.5,8|0,0:0|0:0,0:0:0:0:
324,84,35556,2,0,L|257:84,1,67.5,0|0,0:0|0:0,0:0:0:0:
112,132,35787,2,0,L|268:132,1,135,8|0,0:0|0:0,0:0:0:0:
24,136,36248,5,8,0:0:0:0:
276,184,36479,2,0,L|196:184,1,67.5,0|0,0:0|0:0,0:0:0:0:
336,256,36710,2,0,L|416:256,1,67.5,8|0,0:0|0:0,0:0:0:0:
156,256,36941,5,0,0:0:0:0:
432,256,37171,2,0,L|444:160,1,67.5,8|0,0:0|0:0,0:0:0:0:
208,256,37402,2,0,L|192:116,1,135,0|8,0:0|0:0,0:0:0:0:
320,252,37748,1,0,0:0:0:0:
164,256,37864,6,0,L|252:256,1,67.5,0|0,0:0|0:0,0:0:0:0:
80,256,38094,2,0,L|-8:256,1,67.5,8|0,0:0|0:0,0:0:0:0:
248,256,38325,1,0,0:0:0:0:
276,256,38441,1,0,0:0:0:0:
152,256,38556,1,8,0:0:0:0:
124,256,38672,1,0,0:0:0:0:
260,256,38787,6,0,P|280:176|276:92,1,135,4|8,0:0|0:0,0:0:0:0:
104,256,39133,2,0,P|84:176|88:92,1,135,0|0,0:0|0:0,0:0:0:0:
324,256,39479,1,8,0:0:0:0:
284,256,39594,1,0,0:0:0:0:
380,256,39710,6,0,P|436:200|436:120,1,135,0|8,0:0|0:0,0:0:0:0:
248,256,40056,2,0,P|198:212|184:147,1,135,0|0,0:0|0:0,0:0:0:0:
420,112,40402,2,0,L|332:112,1,67.5,8|0,0:0|0:0,0:0:0:0:
128,112,40633,6,0,L|284:112,1,135,0|8,0:0|0:0,0:0:0:0:
64,156,40979,2,0,L|216:156,1,135,0|0,0:0|0:0,0:0:0:0:
440,156,41325,2,0,L|460:236,1,67.5,8|0,0:0|0:0,0:0:0:0:
336,308,41556,6,0,L|184:308,1,135,0|8,0:0|0:0,0:0:0:0:
376,296,41902,1,0,0:0:0:0:
236,248,42018,1,8,0:0:0:0:
196,236,42133,1,8,0:0:0:0:
348,224,42248,1,8,0:0:0:0:
416,224,42363,1,8,0:0:0:0:
220,228,42479,6,0,P|164:212|92:140,1,135,4|8,0:0|0:0,0:0:0:0:
284,228,42825,2,0,P|340:212|412:140,1,135,0|0,0:0|0:0,0:0:0:0:
212,136,43171,1,8,0:0:0:0:
180,136,43287,1,0,0:0:0:0:
280,184,43402,6,0,P|364:172|392:176,1,101.25,0|0,0:0|0:0,0:0:0:0:
260,224,43633,2,0,P|176:212|120:224,1,135,8|0,0:0|0:0,0:0:0:0:
344,288,43979,1,0,0:0:0:0:
140,292,44094,1,8,0:0:0:0:
140,292,44210,1,0,0:0:0:0:
340,304,44325,6,0,P|368:228|356:172,1,135,0|8,0:0|0:0,0:0:0:0:
200,180,44671,1,0,0:0:0:0:
64,300,44787,2,0,P|48:240|48:212,1,67.5,0|0,0:0|0:0,0:0:0:0:
192,208,45018,2,0,P|208:148|208:120,1,67.5,8|0,0:0|0:0,0:0:0:0:
448,160,45248,6,0,L|472:92,1,67.5,0|0,0:0|0:0,0:0:0:0:
332,156,45479,2,0,L|332:84,1,67.5,8|0,0:0|0:0,0:0:0:0:
216,156,45710,2,0,L|176:88,1,67.5,0|0,0:0|0:0,0:0:0:0:
96,160,45941,2,0,L|16:156,1,67.5,8|0,0:0|0:0,0:0:0:0:
312,256,46171,6,0,L|464:256,1,135,0|8,0:0|0:0,0:0:0:0:
204,256,46518,1,0,0:0:0:0:
436,252,46633,2,0,L|356:252,1,67.5,0|0,0:0|0:0,0:0:0:0:
148,256,46864,2,0,L|224:256,1,67.5,8|0,0:0|0:0,0:0:0:0:
44,256,47094,6,0,L|204:256,1,135,0|8,0:0|0:0,0:0:0:0:
412,260,47441,1,0,0:0:0:0:
132,240,47556,2,0,P|116:204|120:168,1,67.5,0|0,0:0|0:0,0:0:0:0:
364,236,47787,2,0,P|378:206|378:172,1,67.5,8|0,0:0|0:0,0:0:0:0:
184,240,48018,6,0,P|136:236|64:292,1,135,0|8,0:0|0:0,0:0:0:0:
184,240,48364,1,0,0:0:0:0:
328,240,48479,2,0,P|376:236|448:292,1,135,0|8,0:0|0:0,0:0:0:0:
328,240,48825,1,0,0:0:0:0:
200,240,48941,6,0,L|124:240,1,67.5,0|0,0:0|0:0,0:0:0:0:
396,240,49171,2,0,L|328:240,1,67.5,8|0,0:0|0:0,0:0:0:0:
64,232,49402,1,8,0:0:0:0:
84,208,49518,1,8,0:0:0:0:
448,232,49633,1,8,0:0:0:0:
428,208,49749,1,8,0:0:0:0:
108,184,49864,6,0,B|88:116|88:116|100:36,1,135,4|8,0:0|0:0,0:0:0:0:
348,128,50210,1,0,0:0:0:0:
232,132,50325,6,0,L|352:132,1,101.25,0|0,0:0|0:0,0:0:0:0:
216,136,50556,1,8,0:0:0:0:
168,132,50671,1,0,0:0:0:0:
416,272,50787,6,0,L|432:188,1,67.5,0|0,0:0|0:0,0:0:0:0:
156,272,51018,2,0,L|140:188,1,67.5,8|0,0:0|0:0,0:0:0:0:
376,124,51248,2,0,L|380:280,1,135,0|8,0:0|0:0,0:0:0:0:
184,196,51594,1,0,0:0:0:0:
48,192,51710,5,0,0:0:0:0:
96,192,51825,1,0,0:0:0:0:
320,344,51941,2,0,L|252:350,1,67.5,8|0,0:0|0:0,0:0:0:0:
68,344,52171,2,0,L|135:350,1,67.5,0|0,0:0|0:0,0:0:0:0:
24,316,52402,1,8,0:0:0:0:
4,300,52518,1,0,0:0:0:0:
316,304,52633,6,0,L|152:304,1,135,0|8,0:0|0:0,0:0:0:0:
120,252,52979,2,0,L|284:252,1,135,0|0,0:0|0:0,0:0:0:0:
96,180,53325,1,8,0:0:0:0:
60,180,53441,1,0,0:0:0:0:
260,132,53556,6,0,P|284:176|256:268,1,135,2|8,0:0|0:0,0:0:0:0:
448,132,53902,2,0,P|424:176|452:268,1,135,0|0,0:0|0:0,0:0:0:0:
300,272,54248,2,0,L|380:264,1,67.5,8|0,0:0|0:0,0:0:0:0:
140,196,54479,6,0,L|-4:192,1,135,0|8,0:0|0:0,0:0:0:0:
72,280,54825,2,0,L|216:276,1,135,0|0,0:0|0:0,0:0:0:0:
104,200,55171,2,0,L|88:124,1,67.5,8|0,0:0|0:0,0:0:0:0:
244,84,55402,6,0,L|384:80,1,135,0|8,0:0|0:0,0:0:0:0:
464,180,55748,2,0,L|324:176,1,135,0|0,0:0|0:0,0:0:0:0:
152,228,56094,1,8,0:0:0:0:
104,224,56210,1,0,0:0:0:0:
424,348,56325,6,0,L|440:272,1,67.5,0|0,0:0|0:0,0:0:0:0:
288,348,56556,2,0,L|272:272,1,67.5,8|0,0:0|0:0,0:0:0:0:
380,304,56787,1,8,0:0:0:0:
408,304,56902,1,8,0:0:0:0:
188,304,57018,1,8,0:0:0:0:
132,304,57133,1,8,0:0:0:0:
456,304,57479,6,0,L|464:160,1,135,4|0,0:0|0:0,0:0:0:0:
296,176,57825,1,0,0:0:0:0:
320,176,57941,1,8,0:0:0:0:
268,176,58056,1,0,0:0:0:0:
24,176,58171,6,0,P|4:84|24:40,1,135,0|8,0:0|0:0,0:0:0:0:
24,176,58518,1,0,0:0:0:0:
240,184,58633,1,0,0:0:0:0:
188,184,58748,1,0,0:0:0:0:
352,296,58864,1,8,0:0:0:0:
404,296,58979,1,0,0:0:0:0:
160,320,59094,6,0,L|128:164,1,135,0|8,0:0|0:0,0:0:0:0:
304,188,59441,1,0,0:0:0:0:
160,184,59556,2,0,L|76:180,1,67.5,0|0,0:0|0:0,0:0:0:0:
352,184,59787,2,0,L|436:180,1,67.5,8|0,0:0|0:0,0:0:0:0:
196,116,60018,6,0,L|188:268,1,135,0|8,0:0|0:0,0:0:0:0:
80,192,60364,1,0,0:0:0:0:
244,116,60479,2,0,L|236:268,1,135,0|8,0:0|0:0,0:0:0:0:
80,308,60941,6,0,P|48:240|80:164,1,135,2|8,0:0|0:0,0:0:0:0:
324,312,61287,2,0,P|356:244|324:168,1,135,0|0,0:0|0:0,0:0:0:0:
112,308,61633,1,8,0:0:0:0:
140,308,61748,1,0,0:0:0:0:
400,312,61864,6,0,L|464:180,1,135,0|8,0:0|0:0,0:0:0:0:
228,308,62210,2,0,L|286:186,1,135,0|0,0:0|0:0,0:0:0:0:
72,308,62556,1,8,0:0:0:0:
72,308,62671,1,0,0:0:0:0:
304,308,62787,6,0,P|200:300|164:304,1,135,0|8,0:0|0:0,0:0:0:0:
288,240,63133,2,0,P|392:232|428:236,1,135,0|0,0:0|0:0,0:0:0:0:
176,160,63479,1,8,0:0:0:0:
220,160,63594,1,0,0:0:0:0:
416,164,63710,6,0,L|444:84,1,67.5,0|0,0:0|0:0,0:0:0:0:
352,160,63941,2,0,L|380:80,1,67.5,8|0,0:0|0:0,0:0:0:0:
80,168,64171,2,0,L|32:100,1,67.5,8|8,0:0|0:0,0:0:0:0:
304,156,64402,2,0,L|348:92,1,67.5,8|8,0:0|0:0,0:0:0:0:
108,280,64633,6,0,P|72:232|124:40,1,270,2|8,0:0|0:0,0:0:0:0:
196,104,65171,1,8,0:0:0:0:
228,104,65248,1,8,0:0:0:0:
264,104,65325,1,0,0:0:0:0:
264,104,65556,6,0,L|404:96,1,135,8|8,0:0|0:0,0:0:0:0:
464,96,65902,1,0,0:0:0:0:
272,244,66018,2,0,P|264:200|264:168,1,67.5,8|8,0:0|0:0,0:0:0:0:
408,244,66248,2,0,P|416:200|416:168,1,67.5,8|8,0:0|0:0,0:0:0:0:
288,280,66479,6,0,P|224:256|276:360,1,270,8|8,0:0|0:0,0:0:0:0:
344,352,67018,1,8,0:0:0:0:
368,352,67094,1,8,0:0:0:0:
384,352,67171,1,8,0:0:0:0:
108,348,67402,6,0,L|88:204,1,135,8|8,0:0|0:0,0:0:0:0:
224,184,67748,1,0,0:0:0:0:
44,208,67864,2,0,L|32:140,1,67.5,8|8,0:0|0:0,0:0:0:0:
340,212,68094,2,0,L|352:144,1,67.5,8|8,0:0|0:0,0:0:0:0:
96,36,68325,6,0,P|31:121|88:280,1,270,8|8,0:0|0:0,0:0:0:0:
152,256,68864,1,8,0:0:0:0:
192,256,68941,1,8,0:0:0:0:
228,256,69018,1,0,0:0:0:0:
72,332,69248,6,0,L|52:188,1,135,8|8,0:0|0:0,0:0:0:0:
288,328,69594,1,0,0:0:0:0:
88,344,69710,2,0,L|76:260,1,67.5,8|8,0:0|0:0,0:0:0:0:
400,344,69941,2,0,L|412:260,1,67.5,8|8,0:0|0:0,0:0:0:0:
256,292,70171,6,0,P|239:186|292:28,1,270,4|8,0:0|0:0,0:0:0:0:
388,36,70710,1,8,0:0:0:0:
424,36,70787,1,8,0:0:0:0:
456,36,70864,1,8,0:0:0:0:
208,96,71094,2,0,L|72:96,1,135,8|8,0:0|0:0,0:0:0:0:
124,92,71441,1,0,0:0:0:0:
288,160,71556,2,0,L|292:236,1,67.5,8|8,0:0|0:0,0:0:0:0:
416,152,71787,2,0,L|420:228,1,67.5,8|8,0:0|0:0,0:0:0:0:
236,312,72018,6,0,L|92:304,1,135,4|8,0:0|0:0,0:0:0:0:
248,312,72364,1,0,0:0:0:0:
304,284,72479,6,0,L|448:276,1,135,0|8,0:0|0:0,0:0:0:0:
176,256,72941,1,0,0:0:0:0:
404,252,73171,1,8,0:0:0:0:
104,288,73402,2,0,L|80:212,1,67.5,0|0,0:0|0:0,0:0:0:0:
164,280,73633,2,0,L|140:204,1,67.5,8|0,0:0|0:0,0:0:0:0:
448,260,73864,6,0,L|296:256,1,135,4|8,0:0|0:0,0:0:0:0:
476,236,74210,1,0,0:0:0:0:
228,236,74325,2,0,L|312:240,1,67.5,0|0,0:0|0:0,0:0:0:0:
128,164,74556,2,0,L|44:168,1,67.5,8|0,0:0|0:0,0:0:0:0:
232,356,74787,6,0,L|288:212,1,135,0|8,0:0|0:0,0:0:0:0:
216,360,75133,1,0,0:0:0:0:
440,340,75248,2,0,L|384:196,1,135,8|8,0:0|0:0,0:0:0:0:
420,200,75594,1,8,0:0:0:0:
128,192,75710,5,8,0:0:0:0:
128,192,75941,2,0,L|104:112,1,67.5,0|0,0:0|0:0,0:0:0:0:
440,80,76171,1,8,0:0:0:0:
408,200,76402,2,0,L|432:120,1,67.5,0|0,0:0|0:0,0:0:0:0:
104,80,76633,5,8,0:0:0:0:
408,200,76864,2,0,L|432:120,1,67.5,0|0,0:0|0:0,0:0:0:0:
440,80,77094,1,8,0:0:0:0:
128,192,77325,2,0,L|108:127,1,67.5,0|0,0:0|0:0,0:0:0:0:
176,184,77556,6,0,L|96:176,1,67.5,8|0,0:0|0:0,0:0:0:0:
288,136,77787,2,0,L|368:128,1,67.5,8|0,0:0|0:0,0:0:0:0:
72,48,78018,1,8,0:0:0:0:
40,48,78133,1,8,0:0:0:0:
392,48,78248,1,8,0:0:0:0:
420,48,78364,1,8,0:0:0:0:
136,128,78479,6,0,B|72:136|72:136|128:144|128:144|80:160|80:160|120:176|120:176|88:188|88:188|112:200|112:200|96:216|96:216|104:224|104:224|96:232|96:232|96:318,1,405,10|0,0:0|0:0,0:0:0:0:
456,352,79402,6,0,L|296:344,1,135,4|8,0:0|0:0,0:0:0:0:
80,240,79748,1,0,0:0:0:0:
376,240,79864,2,0,L|456:232,1,67.5,0|0,0:0|0:0,0:0:0:0:
224,168,80094,2,0,L|144:152,1,67.5,8|0,0:0|0:0,0:0:0:0:
448,56,80325,6,0,P|480:96|432:176,1,135,0|8,0:0|0:0,0:0:0:0:
116,56,80671,2,0,P|81:110|112:168,1,135,0|0,0:0|0:0,0:0:0:0:
384,256,81018,2,0,L|456:240,1,67.5,8|0,0:0|0:0,0:0:0:0:
192,240,81248,6,0,L|32:232,1,135,0|8,0:0|0:0,0:0:0:0:
360,168,81594,1,0,0:0:0:0:
128,96,81710,2,0,L|40:80,1,67.5,0|0,0:0|0:0,0:0:0:0:
320,16,81941,1,8,0:0:0:0:
216,16,82056,1,0,0:0:0:0:
360,96,82171,6,0,L|448:96,1,67.5,0|0,0:0|0:0,0:0:0:0:
144,256,82402,2,0,L|56:240,1,67.5,8|0,0:0|0:0,0:0:0:0:
368,256,82633,2,0,L|456:240,1,67.5,8|0,0:0|0:0,0:0:0:0:
120,256,82864,2,0,L|32:256,1,67.5,8|8,0:0|0:0,0:0:0:0:
400,256,83094,6,0,P|440:240|424:152,1,135,4|8,0:0|0:0,0:0:0:0:
256,256,83441,1,0,0:0:0:0:
112,256,83556,2,0,P|72:240|88:152,1,135,0|8,0:0|0:0,0:0:0:0:
240,96,83902,1,0,0:0:0:0:
64,88,84018,6,0,L|80:232,1,135,0|8,0:0|0:0,0:0:0:0:
352,232,84364,2,0,L|366:97,1,135,0|0,0:0|0:0,0:0:0:0:
96,104,84710,2,0,L|96:192,1,67.5,8|0,0:0|0:0,0:0:0:0:
328,344,84941,5,0,0:0:0:0:
440,304,85056,1,0,0:0:0:0:
472,248,85171,1,8,0:0:0:0:
344,296,85287,1,0,0:0:0:0:
232,256,85402,1,0,0:0:0:0:
200,200,85517,1,0,0:0:0:0:
288,120,85633,1,8,0:0:0:0:
96,104,85748,1,0,0:0:0:0:
184,64,85864,6,0,L|116:57,1,67.5,8|0,0:0|0:0,0:0:0:0:
376,96,86094,2,0,L|443:89,1,67.5,8|0,0:0|0:0,0:0:0:0:
160,104,86325,2,0,L|92:97,1,67.5,8|0,0:0|0:0,0:0:0:0:
360,160,86556,1,8,0:0:0:0:
392,160,86633,1,8,0:0:0:0:
200,160,86710,1,8,0:0:0:0:
152,160,86787,6,0,L|144:320,1,135,4|8,0:0|0:0,0:0:0:0:
432,312,87133,1,0,0:0:0:0:
168,288,87248,2,0,P|192:240|168:160,1,135,0|8,0:0|0:0,0:0:0:0:
280,108,87594,1,0,0:0:0:0:
56,192,87710,6,0,P|34:254|59:315,1,135,0|8,0:0|0:0,0:0:0:0:
304,344,88056,1,8,0:0:0:0:
120,248,88171,2,0,L|192:248,1,67.5,0|0,0:0|0:0,0:0:0:0:
440,192,88402,2,0,L|352:192,1,67.5,8|0,0:0|0:0,0:0:0:0:
120,88,88633,6,0,P|88:136|152:152,1,135,0|8,0:0|0:0,0:0:0:0:
432,336,88979,2,0,P|463:285|407:265,1,135,0|0,0:0|0:0,0:0:0:0:
200,336,89325,2,0,L|280:320,1,67.5,8|0,0:0|0:0,0:0:0:0:
56,248,89556,6,0,P|8:152|24:120,1,135,0|8,0:0|0:0,0:0:0:0:
216,64,89902,1,8,0:0:0:0:
184,80,90018,1,8,0:0:0:0:
392,144,90133,1,0,0:0:0:0:
400,144,90248,1,8,0:0:0:0:
56,136,90364,1,0,0:0:0:0:
40,144,90479,5,8,0:0:0:0:
432,288,90710,2,0,L|456:192,1,67.5,0|0,0:0|0:0,0:0:0:0:
56,176,90941,1,8,0:0:0:0:
432,272,91171,2,0,L|416:176,1,67.5,0|0,0:0|0:0,0:0:0:0:
64,192,91402,5,8,0:0:0:0:
432,256,91632,2,0,L|392:168,1,67.5,0|0,0:0|0:0,0:0:0:0:
72,208,91864,1,8,0:0:0:0:
432,240,92094,2,0,L|352:216,1,67.5,8|0,0:0|0:0,0:0:0:0:
56,232,92325,6,0,L|144:224,1,67.5,8|0,0:0|0:0,0:0:0:0:
472,240,92556,2,0,L|384:232,1,67.5,8|0,0:0|0:0,0:0:0:0:
88,248,92787,2,0,L|176:240,1,67.5,8|0,0:0|0:0,0:0:0:0:
504,256,93018,2,0,L|416:248,1,67.5,8|0,0:0|0:0,0:0:0:0:
119,190,93248,6,0,P|135:142|111:62,1,135,8|8,0:0|0:0,0:0:0:0:
24,72,93594,1,0,0:0:0:0:
112,64,93710,2,0,L|200:56,1,67.5,8|8,0:0|0:0,0:0:0:0:
472,128,93941,1,8,0:0:0:0:
368,128,94056,1,8,0:0:0:0:
104,280,94171,6,0,L|80:128,1,135,4|8,0:0|0:0,0:0:0:0:
200,56,94518,1,0,0:0:0:0:
344,144,94633,2,0,L|320:232,1,67.5,0|0,0:0|0:0,0:0:0:0:
472,296,94864,2,0,L|456:216,1,67.5,8|0,0:0|0:0,0:0:0:0:
240,320,95094,6,0,L|392:312,1,135,0|8,0:0|0:0,0:0:0:0:
152,216,95441,2,0,L|0:208,1,135,0|0,0:0|0:0,0:0:0:0:
296,136,95787,2,0,L|216:144,1,67.5,8|0,0:0|0:0,0:0:0:0:
48,80,96018,6,0,L|128:80,2,67.5,0|0|8,0:0|0:0|0:0,0:0:0:0:
472,80,96364,2,0,L|320:80,2,135,0|0|0,0:0|0:0|0:0,0:0:0:0:
171,144,96941,6,0,L|104:144,1,67.5,0|0,0:0|0:0,0:0:0:0:
224,288,97171,2,0,L|304:288,1,67.5,8|0,0:0|0:0,0:0:0:0:
112,288,97402,2,0,L|192:288,1,67.5,8|0,0:0|0:0,0:0:0:0:
0,288,97633,2,0,L|80:288,1,67.5,8|8,0:0|0:0,0:0:0:0:
426,288,97864,6,0,L|274:288,1,135,4|8,0:0|0:0,0:0:0:0:
192,208,98210,1,0,0:0:0:0:
328,208,98325,2,0,L|424:208,1,67.5,0|0,0:0|0:0,0:0:0:0:
512,136,98556,2,0,L|416:136,1,67.5,8|0,0:0|0:0,0:0:0:0:
232,64,98787,6,0,P|232:144|288:160,1,135,0|8,0:0|0:0,0:0:0:0:
392,88,99133,1,0,0:0:0:0:
264,88,99248,2,0,L|176:80,1,67.5,0|0,0:0|0:0,0:0:0:0:
48,168,99479,2,0,L|128:152,1,67.5,8|0,0:0|0:0,0:0:0:0:
360,240,99710,6,0,L|208:240,1,135,0|8,0:0|0:0,0:0:0:0:
328,168,100056,1,0,0:0:0:0:
96,288,100171,2,0,L|176:288,1,67.5,0|0,0:0|0:0,0:0:0:0:
40,200,100402,1,8,0:0:0:0:
56,176,100518,1,0,0:0:0:0:
456,184,100633,6,0,L|472:112,1,67.5,8|0,0:0|0:0,0:0:0:0:
104,184,100864,2,0,L|89:118,1,67.5,8|0,0:0|0:0,0:0:0:0:
440,184,101094,2,0,L|512:160,1,67.5,8|0,0:0|0:0,0:0:0:0:
88,184,101325,1,8,0:0:0:0:
208,128,101441,1,0,0:0:0:0:
32,80,101556,6,0,L|24:232,1,135,4|8,0:0|0:0,0:0:0:0:
280,240,101902,1,0,0:0:0:0:
48,320,102018,2,0,L|128:312,1,67.5,0|0,0:0|0:0,0:0:0:0:
360,304,102248,1,8,0:0:0:0:
192,248,102364,1,0,0:0:0:0:
456,328,102479,6,0,L|296:328,1,135,0|8,0:0|0:0,0:0:0:0:
504,328,102825,1,0,0:0:0:0:
392,360,102941,2,0,L|296:360,1,67.5,0|0,0:0|0:0,0:0:0:0:
88,304,103171,1,8,0:0:0:0:
192,248,103287,1,0,0:0:0:0:
16,192,103402,6,0,L|160:184,1,135,0|8,0:0|0:0,0:0:0:0:
496,192,103748,2,0,L|352:184,2,135,0|0|0,0:0|0:0|0:0,0:0:0:0:
296,120,104325,6,0,L|216:120,1,67.5,0|0,0:0|0:0,0:0:0:0:
88,56,104556,2,0,L|168:56,1,67.5,8|0,0:0|0:0,0:0:0:0:
264,48,104787,1,8,0:0:0:0:
288,48,104902,1,8,0:0:0:0:
88,144,105018,1,8,0:0:0:0:
64,144,105133,1,8,0:0:0:0:
464,96,105248,6,0,P|480:144|464:240,1,135,4|0,0:0|0:0,0:0:0:0:
72,96,105710,2,0,P|56:144|72:240,1,135,4|0,0:0|0:0,0:0:0:0:
432,104,106171,6,0,P|408:192|384:240,1,135,4|0,0:0|0:0,0:0:0:0:
96,104,106633,2,0,P|120:192|144:240,1,135,0|4,0:0|0:0,0:0:0:0:
440,288,106979,1,0,0:0:0:0:
448,288,107094,1,4,0:0:0:0:
256,192,107152,12,0,108710,0:0:0:0:
96,272,108941,6,0,L|56:144,1,135,4|8,0:0|0:0,0:0:0:0:
192,64,109287,1,0,0:0:0:0:
344,72,109402,2,0,L|440:72,1,67.5,0|0,0:0|0:0,0:0:0:0:
256,192,109633,2,0,L|168:192,1,67.5,8|0,0:0|0:0,0:0:0:0:
400,336,109864,6,0,P|424:280|384:208,1,135,0|8,0:0|0:0,0:0:0:0:
256,336,110210,1,0,0:0:0:0:
120,336,110325,2,0,L|40:336,1,67.5,0|0,0:0|0:0,0:0:0:0:
232,256,110556,2,0,L|312:256,1,67.5,8|0,0:0|0:0,0:0:0:0:
176,152,110787,6,0,L|40:152,1,135,0|8,0:0|0:0,0:0:0:0:
72,72,111133,1,0,0:0:0:0:
264,72,111248,1,0,0:0:0:0:
16,72,111479,1,8,0:0:0:0:
336,152,111710,6,0,L|472:152,1,135,0|8,0:0|0:0,0:0:0:0:
440,72,112056,1,0,0:0:0:0:
248,72,112171,1,0,0:0:0:0:
496,72,112402,1,8,0:0:0:0:
92,170,112633,6,0,L|232:128,1,135,4|8,0:0|0:0,0:0:0:0:
416,128,112979,1,0,0:0:0:0:
204,128,113094,2,0,P|184:172|192:192,1,67.5,0|0,0:0|0:0,0:0:0:0:
376,188,113325,2,0,P|380:155|361:128,1,67.5,8|0,0:0|0:0,0:0:0:0:
168,112,113556,6,0,P|104:112|124:56,1,135,0|8,0:0|0:0,0:0:0:0:
380,112,113902,2,0,P|444:112|424:56,1,135,0|0,0:0|0:0,0:0:0:0:
248,40,114248,2,0,L|228:120,1,67.5,8|0,0:0|0:0,0:0:0:0:
88,280,114479,6,0,P|44:224|56:152,1,135,0|8,0:0|0:0,0:0:0:0:
180,284,114825,1,0,0:0:0:0:
312,288,114941,2,0,L|380:288,1,67.5,0|0,0:0|0:0,0:0:0:0:
164,284,115171,2,0,L|88:284,1,67.5,8|0,0:0|0:0,0:0:0:0:
372,280,115402,5,0,0:0:0:0:
420,280,115518,1,8,0:0:0:0:
188,280,115633,5,0,0:0:0:0:
144,280,115748,1,8,0:0:0:0:
400,280,115864,5,8,0:0:0:0:
448,280,115980,1,8,0:0:0:0:
140,284,116095,5,8,0:0:0:0:
96,284,116210,1,8,0:0:0:0:
400,280,116325,6,0,P|436:260|452:156,1,135,4|8,0:0|0:0,0:0:0:0:
176,280,116671,2,0,P|140:260|124:156,1,135,0|0,0:0|0:0,0:0:0:0:
356,144,117018,1,8,0:0:0:0:
356,144,117133,1,0,0:0:0:0:
160,144,117248,6,0,L|80:144,1,67.5,8|0,0:0|0:0,0:0:0:0:
0,60,117479,2,0,L|80:60,1,67.5,8|0,0:0|0:0,0:0:0:0:
200,160,117710,2,0,L|128:160,1,67.5,8|0,0:0|0:0,0:0:0:0:
8,60,117941,1,8,0:0:0:0:
8,60,118056,1,8,0:0:0:0:
224,92,118171,6,0,L|372:76,1,135,0|8,0:0|0:0,0:0:0:0:
512,204,118518,2,0,L|378:190,1,135,0|0,0:0|0:0,0:0:0:0:
104,220,118864,2,0,P|96:268|120:296,1,67.5,8|0,0:0|0:0,0:0:0:0:
328,352,119094,6,0,L|484:352,1,135,0|8,0:0|0:0,0:0:0:0:
308,272,119441,2,0,L|173:272,1,135,0|0,0:0|0:0,0:0:0:0:
208,360,119787,1,8,0:0:0:0:
208,360,119902,1,8,0:0:0:0:
40,256,120018,6,0,P|24:176|56:112,1,135,0|8,0:0|0:0,0:0:0:0:
250,263,120364,2,0,P|268:199|248:136,1,135,0|0,0:0|0:0,0:0:0:0:
56,100,120710,1,8,0:0:0:0:
56,100,120825,1,0,0:0:0:0:
240,168,120941,6,0,L|96:168,1,135,8|8,0:0|0:0,0:0:0:0:
312,144,121287,2,0,L|168:144,1,135,0|0,0:0|0:0,0:0:0:0:
320,48,121633,1,8,0:0:0:0:
320,48,121748,1,0,0:0:0:0:
476,92,121864,6,0,L|448:252,1,135,0|8,0:0|0:0,0:0:0:0:
224,88,122210,2,0,L|252:248,1,135,0|0,0:0|0:0,0:0:0:0:
440,332,122556,2,0,L|507:332,1,67.5,8|0,0:0|0:0,0:0:0:0:
292,336,122787,6,0,L|440:336,1,135,0|8,0:0|0:0,0:0:0:0:
384,296,123133,1,0,0:0:0:0:
128,280,123248,1,8,0:0:0:0:
148,280,123364,1,8,0:0:0:0:
448,296,123479,1,8,0:0:0:0:
512,296,123595,1,8,0:0:0:0:
340,208,123710,6,0,P|292:192|300:104,1,135,4|8,0:0|0:0,0:0:0:0:
184,64,124056,1,0,0:0:0:0:
80,64,124171,2,0,L|40:216,1,135,0|8,0:0|0:0,0:0:0:0:
148,256,124518,1,0,0:0:0:0:
248,256,124633,6,0,L|408:256,1,135,0|8,0:0|0:0,0:0:0:0:
280,184,124979,1,0,0:0:0:0:
380,120,125094,2,0,L|380:196,1,67.5,0|0,0:0|0:0,0:0:0:0:
480,120,125325,2,0,L|480:196,1,67.5,8|0,0:0|0:0,0:0:0:0:
148,256,125556,6,0,L|116:116,1,135,0|8,0:0|0:0,0:0:0:0:
240,72,125902,1,0,0:0:0:0:
364,256,126018,6,0,L|396:116,1,135,0|8,0:0|0:0,0:0:0:0:
336,68,126364,1,0,0:0:0:0:
160,204,126479,6,0,P|72:208|32:156,1,135,0|8,0:0|0:0,0:0:0:0:
352,204,126825,2,0,P|440:208|480:156,1,135,0|0,0:0|0:0,0:0:0:0:
256,84,127171,1,8,0:0:0:0:
256,84,127287,1,0,0:0:0:0:
112,316,127402,6,0,L|72:168,1,135,4|8,0:0|0:0,0:0:0:0:
272,320,127748,2,0,L|312:172,1,135,0|0,0:0|0:0,0:0:0:0:
136,184,128094,1,8,0:0:0:0:
112,184,128210,1,0,0:0:0:0:
280,188,128325,6,0,L|444:188,1,135,0|8,0:0|0:0,0:0:0:0:
148,184,128671,2,0,L|-16:184,1,135,0|0,0:0|0:0,0:0:0:0:
208,116,129018,1,8,0:0:0:0:
240,116,129133,1,0,0:0:0:0:
64,36,129248,6,0,P|32:88|68:168,1,135,0|8,0:0|0:0,0:0:0:0:
160,164,129594,1,0,0:0:0:0:
268,40,129710,2,0,P|300:92|264:172,1,135,0|8,0:0|0:0,0:0:0:0:
392,160,130056,1,0,0:0:0:0:
144,256,130171,6,0,L|48:252,1,67.5,8|0,0:0|0:0,0:0:0:0:
256,260,130402,2,0,L|160:256,1,67.5,8|8,0:0|0:0,0:0:0:0:
420,256,130633,2,0,L|500:256,1,67.5,0|8,0:0|0:0,0:0:0:0:
256,260,130864,2,0,L|336:260,1,67.5,8|8,0:0|0:0,0:0:0:0:
44,316,131094,6,0,P|20:256|64:184,1,135,4|8,0:0|0:0,0:0:0:0:
240,320,131441,2,0,P|264:260|220:188,1,135,0|0,0:0|0:0,0:0:0:0:
48,176,131787,1,8,0:0:0:0:
72,176,131902,1,0,0:0:0:0:
400,176,132018,6,0,L|280:176,1,101.25,0|0,0:0|0:0,0:0:0:0:
272,172,132248,2,0,L|388:172,1,101.25,8|0,0:0|0:0,0:0:0:0:
384,156,132479,2,0,L|304:80,1,101.25,0|0,0:0|0:0,0:0:0:0:
76,80,132710,1,8,0:0:0:0:
96,80,132825,1,0,0:0:0:0:
408,68,132941,6,0,P|432:104|392:204,1,135,0|8,0:0|0:0,0:0:0:0:
256,68,133287,2,0,P|232:104|272:204,1,135,0|0,0:0|0:0,0:0:0:0:
388,252,133633,1,8,0:0:0:0:
416,252,133748,1,0,0:0:0:0:
120,256,133864,6,0,P|8:256|56:256,1,135,0|8,0:0|0:0,0:0:0:0:
299,252,134210,2,0,P|411:252|363:252,1,135,0|0,0:0|0:0,0:0:0:0:
148,256,134556,1,8,0:0:0:0:
120,256,134671,1,0,0:0:0:0:
416,316,134787,6,0,L|440:156,1,135,0|8,0:0|0:0,0:0:0:0:
88,316,135133,2,0,L|64:156,1,135,0|0,0:0|0:0,0:0:0:0:
312,168,135479,1,8,0:0:0:0:
340,168,135594,1,0,0:0:0:0:
152,168,135710,6,0,P|116:176|76:276,1,135,8|8,0:0|0:0,0:0:0:0:
360,168,136056,2,0,P|396:176|436:276,1,135,0|0,0:0|0:0,0:0:0:0:
256,304,136402,1,8,0:0:0:0:
256,304,136518,1,0,0:0:0:0:
100,256,136633,6,0,P|56:232|16:156,1,135,0|8,0:0|0:0,0:0:0:0:
296,256,136979,2,0,P|340:232|380:156,1,135,0|0,0:0|0:0,0:0:0:0:
152,152,137325,1,8,0:0:0:0:
132,152,137441,1,0,0:0:0:0:
344,156,137556,6,0,P|416:132|472:76,1,135,0|8,0:0|0:0,0:0:0:0:
348,60,137902,1,0,0:0:0:0:
348,60,138018,1,8,0:0:0:0:
120,60,138133,1,8,0:0:0:0:
336,60,138248,1,8,0:0:0:0:
132,60,138364,1,8,0:0:0:0:
408,112,138479,6,0,P|424:156|424:164,1,33.75,2|0,0:0|0:0,0:0:0:0:
304,180,138713,2,0,P|284:224|284:232,1,33.75,0|0,0:0|0:0,0:0:0:0:
420,124,138947,2,0,P|436:168|436:176,1,33.75,0|0,0:0|0:0,0:0:0:0:
316,192,139182,2,0,P|296:236|296:244,1,33.75,2|0,0:0|0:0,0:0:0:0:
328,280,139416,6,0,L|280:284,1,33.75,2|0,0:0|0:0,0:0:0:0:
172,344,139646,2,0,L|220:348,1,33.75,0|0,0:0|0:0,0:0:0:0:
312,268,139877,2,0,L|264:272,1,33.75,0|0,0:0|0:0,0:0:0:0:
156,332,140107,2,0,L|204:336,1,33.75,2|0,0:0|0:0,0:0:0:0:
80,288,140339,5,2,0:0:0:0:
56,288,140457,1,0,0:0:0:0:
40,288,140575,1,0,0:0:0:0:
32,288,140693,1,0,0:0:0:0:
168,224,140811,1,0,0:0:0:0:
192,224,140929,1,0,0:0:0:0:
208,224,141047,1,2,0:0:0:0:
216,224,141165,1,0,0:0:0:0:
48,180,141283,6,0,P|36:136|36:132,1,33.75,2|0,0:0|0:0,0:0:0:0:
200,136,141520,2,0,P|212:92|212:88,1,33.75,0|0,0:0|0:0,0:0:0:0:
68,180,141756,2,0,P|56:136|56:132,1,33.75,2|0,0:0|0:0,0:0:0:0:
220,136,141993,2,0,P|232:92|232:88,1,33.75,2|0,0:0|0:0,0:0:0:0:
