osu file format v14

[General]
AudioFilename: fsefewtesrweart45478577.mp3
AudioLeadIn: 0
PreviewTime: 78652
Countdown: 0
SampleSet: Soft
StackLeniency: 0.7
Mode: 0
LetterboxInBreaks: 0
WidescreenStoryboard: 0

[Editor]
Bookmarks: 32787
DistanceSpacing: 1.4
BeatDivisor: 3
GridSize: 8
TimelineZoom: 3.499999

[Metadata]
Title:Kegare Naki Bara Juuji (Short ver.)
TitleUnicode:穢れなき薔薇十字 (Short ver.)
Artist:Ariabl'eyeS
ArtistUnicode:Ariabl'eyeS
Creator:My Angel RangE
Version:Left's Insane
Source:
Tags:瑠璃色のローゼンクロイツ Ruriiro no Rena Luna Lyse リゼ rosicrucian Left walaowey Neoskylove Regou Daletto Volta dakemoto Gyukari Jakads -Eat_Sparingly- Underflow Sylphi 404
BeatmapID:1170869
BeatmapSetID:535277

[Difficulty]
HPDrainRate:6
CircleSize:3.8
OverallDifficulty:7.5
ApproachRate:9
SliderMultiplier:0.75
SliderTickRate:1

[Events]
//Background and Video events
0,0,"248.png",0,0
//Break Periods
//Storyboard Layer 0 (Background)
//Storyboard Layer 1 (Fail)
//Storyboard Layer 2 (Pass)
//Storyboard Layer 3 (Foreground)
//Storyboard Sound Samples

[TimingPoints]
18,230.769230769231,4,2,2,40,1,0
941,-66.6666666666667,4,2,2,40,0,0
1864,-100,4,2,2,40,0,0
5325,-66.6666666666667,4,2,2,40,0,0
5556,-111.111111111111,4,2,2,40,0,0
8325,-66.6666666666667,4,2,2,50,0,0
8787,-58.8235294117647,4,2,2,50,0,0
9248,-52.6315789473684,4,2,2,60,0,0
31402,-100,4,2,2,60,0,0
35094,-58.8235294117647,4,2,2,50,0,0
77556,-50,4,2,2,50,0,0
78479,-133.333333333333,4,2,2,50,0,0
79171,-200,4,2,2,5,0,0
79402,-52.6315789473684,4,2,2,70,0,1
108941,-52.6315789473684,4,2,2,50,0,0
138479,468.75,4,2,2,50,1,0
139416,461.538461538462,4,2,2,50,1,0
140339,472.44094488189,4,2,2,35,1,0

[Colours]
Combo1 : 255,149,255
Combo2 : 0,0,181
Combo3 : 179,217,255
Combo4 : 108,0,217

[HitObjects]
116,77,18,5,4,0:0:0:0:
129,68,479,1,0,0:0:0:0:
144,57,941,2,0,L|135:120,1,56.2500021457673,0|0,0:0|0:0,0:0:0:0:
121,194,1171,2,0,L|112:257,1,56.2500021457673,0|0,0:0|0:0,0:0:0:0:
311,169,1402,1,8,0:0:0:0:
311,169,1518,1,8,0:0:0:0:
311,169,1633,1,8,0:0:0:0:
311,169,1748,1,8,0:0:0:0:
265,244,1864,6,0,P|226:193|264:90,1,150,4|0,0:0|0:0,0:0:0:0:
390,136,2556,1,0,0:0:0:0:
390,136,2671,1,0,0:0:0:0:
390,136,2787,2,0,L|371:45,1,75,8|0,0:0|0:0,0:0:0:0:
407,218,3248,1,0,0:0:0:0:
269,315,3479,2,0,L|263:357,2,25,0|0|0,0:0|0:0|0:0,0:0:0:0:
261,298,3710,6,0,P|215:271|157:290,2,112.5,8|0|0,0:0|0:0|0:0,0:0:0:0:
157,126,4633,1,8,0:0:0:0:
93,238,4864,1,0,0:0:0:0:
93,238,4979,1,0,0:0:0:0:
93,238,5094,2,0,L|80:134,1,75,0|0,0:0|0:0,0:0:0:0:
244,38,5556,6,0,P|312:22|371:81,1,134.999995880127,4|0,0:0|0:0,0:0:0:0:
367,215,6248,1,0,0:0:0:0:
293,100,6479,2,0,P|302:147|304:182,1,67.4999979400635,8|0,0:0|0:0,0:0:0:0:
367,215,6825,1,0,0:0:0:0:
367,215,6941,2,0,P|358:262|356:297,1,67.4999979400635,0|0,0:0|0:0,0:0:0:0:
203,363,7402,5,8,0:0:0:0:
119,300,7633,1,0,0:0:0:0:
119,300,7748,1,0,0:0:0:0:
119,300,7864,2,0,L|134:209,1,67.4999979400635,8|0,0:0|0:0,0:0:0:0:
278,79,8325,6,0,P|289:115|286:178,1,56.2500021457673,8|8,0:0|0:0,0:0:0:0:
211,184,8556,2,0,P|200:148|203:85,1,56.2500021457673,0|8,0:0|0:0,0:0:0:0:
340,88,8787,6,0,L|258:75,1,63.7500012159348,0|8,0:0|0:0,0:0:0:0:
148,193,9018,2,0,L|230:180,1,63.7500012159348,8|8,0:0|0:0,0:0:0:0:
391,335,9248,6,0,L|226:297,1,142.49999619484,4|8,0:0|0:0,0:0:0:0:
50,376,9594,2,0,P|104:330|183:364,1,142.49999619484,0|0,0:0|0:0,0:0:0:0:
252,303,9941,2,0,P|265:263|274:220,1,71.2499980974198,8|0,0:0|0:0,0:0:0:0:
114,103,10171,6,0,P|206:139|289:134,1,142.49999619484,0|8,0:0|0:0,0:0:0:0:
422,100,10518,2,0,B|389:39|389:39|311:91,1,142.49999619484,0|0,0:0|0:0,0:0:0:0:
391,268,10864,1,8,0:0:0:0:
391,268,10979,1,0,0:0:0:0:
391,268,11094,6,0,L|207:285,1,142.49999619484,0|8,0:0|0:0,0:0:0:0:
81,167,11441,2,0,P|144:116|205:152,1,142.49999619484,0|0,0:0|0:0,0:0:0:0:
262,211,11787,2,0,P|256:249|245:297,1,71.2499980974198,8|0,0:0|0:0,0:0:0:0:
81,167,12018,6,0,P|60:86|58:15,1,142.49999619484,0|8,0:0|0:0,0:0:0:0:
224,115,12364,2,0,L|420:89,1,142.49999619484,0|0,0:0|0:0,0:0:0:0:
471,275,12710,1,8,0:0:0:0:
471,275,12825,1,0,0:0:0:0:
471,275,12941,6,0,B|424:221|424:221|313:270,1,142.49999619484,0|8,0:0|0:0,0:0:0:0:
227,348,13287,2,0,P|179:289|214:219,1,142.49999619484,0|0,0:0|0:0,0:0:0:0:
291,271,13633,2,0,P|350:253|391:228,1,71.2499980974198,8|0,0:0|0:0,0:0:0:0:
227,115,13864,6,0,P|179:174|214:244,1,142.49999619484,0|8,0:0|0:0,0:0:0:0:
424,310,14210,2,0,P|368:280|238:282,1,142.49999619484,0|0,0:0|0:0,0:0:0:0:
290,270,14556,1,8,0:0:0:0:
69,360,14787,6,0,B|39:321|39:321|58:215,1,142.49999619484,0|8,0:0|0:0,0:0:0:0:
203,143,15133,2,0,P|153:93|93:123,1,142.49999619484,0|0,0:0|0:0,0:0:0:0:
55,229,15479,2,0,L|168:217,1,71.2499980974198,8|0,0:0|0:0,0:0:0:0:
332,242,15710,6,0,P|323:276|307:308,1,71.2499980974198,0|0,0:0|0:0,0:0:0:0:
227,209,15941,2,0,P|211:177|202:139,1,71.2499980974198,8|0,0:0|0:0,0:0:0:0:
388,65,16171,1,8,0:0:0:0:
388,65,16287,1,8,0:0:0:0:
388,65,16402,1,8,0:0:0:0:
388,65,16518,1,8,0:0:0:0:
338,155,16633,6,0,B|287:160|287:160|246:137|246:137|142:148,1,142.49999619484,4|8,0:0|0:0,0:0:0:0:
82,218,16979,1,0,0:0:0:0:
82,218,17094,2,0,L|177:231,1,71.2499980974198,0|0,0:0|0:0,0:0:0:0:
232,302,17325,2,0,P|247:256|248:201,1,71.2499980974198,8|0,0:0|0:0,0:0:0:0:
125,88,17556,6,0,P|136:180|171:263,1,142.49999619484,0|8,0:0|0:0,0:0:0:0:
320,350,17902,2,0,L|500:332,1,142.49999619484,0|0,0:0|0:0,0:0:0:0:
330,260,18248,2,0,P|296:257|252:287,1,71.2499980974198,8|0,0:0|0:0,0:0:0:0:
461,335,18479,6,0,B|478:294|478:294|449:179,1,142.49999619484,0|8,0:0|0:0,0:0:0:0:
368,89,18825,1,0,0:0:0:0:
368,89,18941,2,0,L|356:182,1,71.2499980974198,0|0,0:0|0:0,0:0:0:0:
230,34,19171,2,0,P|270:17|324:26,1,71.2499980974198,8|0,0:0|0:0,0:0:0:0:
358,159,19402,6,0,P|269:158|208:119,1,142.49999619484,0|8,0:0|0:0,0:0:0:0:
78,83,19748,2,0,L|88:12,2,71.2499980974198,0|0|0,0:0|0:0|0:0,0:0:0:0:
200,142,20094,2,0,L|213:259,1,71.2499980974198,8|0,0:0|0:0,0:0:0:0:
87,329,20325,6,0,B|137:324|137:324|177:339|177:339|266:330,1,142.49999619484,0|8,0:0|0:0,0:0:0:0:
376,254,20671,1,0,0:0:0:0:
376,254,20787,2,0,L|292:233,1,71.2499980974198,0|0,0:0|0:0,0:0:0:0:
383,86,21018,2,0,P|399:120|401:160,1,71.2499980974198,8|0,0:0|0:0,0:0:0:0:
164,161,21248,6,0,L|349:134,1,142.49999619484,0|8,0:0|0:0,0:0:0:0:
429,315,21594,2,0,P|379:336|300:283,1,142.49999619484,0|0,0:0|0:0,0:0:0:0:
384,185,21941,2,0,P|396:141|379:89,1,71.2499980974198,8|0,0:0|0:0,0:0:0:0:
194,19,22171,6,0,B|164:52|164:52|182:180,1,142.49999619484,0|8,0:0|0:0,0:0:0:0:
262,212,22518,1,0,0:0:0:0:
262,212,22633,2,0,P|280:168|274:117,1,71.2499980974198,0|0,0:0|0:0,0:0:0:0:
107,134,22864,2,0,L|227:159,1,71.2499980974198,8|0,0:0|0:0,0:0:0:0:
386,32,23094,6,0,P|348:37|302:53,1,71.2499980974198,8|8,0:0|0:0,0:0:0:0:
262,212,23325,2,0,P|296:222|331:226,1,71.2499980974198,0|8,0:0|0:0,0:0:0:0:
453,316,23556,1,0,0:0:0:0:
388,370,23671,1,8,0:0:0:0:
303,360,23787,1,8,0:0:0:0:
245,299,23902,1,8,0:0:0:0:
262,212,24018,6,0,P|271:127|267:33,1,142.49999619484,4|8,0:0|0:0,0:0:0:0:
66,21,24364,2,0,P|65:92|74:162,1,142.49999619484,0|0,0:0|0:0,0:0:0:0:
262,212,24710,2,0,L|177:192,1,71.2499980974198,8|0,0:0|0:0,0:0:0:0:
48,337,24941,6,0,L|207:306,1,142.49999619484,0|8,0:0|0:0,0:0:0:0:
361,226,25287,2,0,B|322:169|322:169|261:211,1,142.49999619484,0|0,0:0|0:0,0:0:0:0:
446,281,25633,2,0,P|460:237|449:177,1,71.2499980974198,8|0,0:0|0:0,0:0:0:0:
331,39,25864,6,0,B|302:75|302:75|328:196,1,142.49999619484,0|8,0:0|0:0,0:0:0:0:
217,335,26210,2,0,P|152:348|99:278,1,142.49999619484,0|0,0:0|0:0,0:0:0:0:
271,248,26556,2,0,L|157:224,1,71.2499980974198,8|0,0:0|0:0,0:0:0:0:
32,91,26787,6,0,L|210:82,1,142.49999619484,0|8,0:0|0:0,0:0:0:0:
308,166,27133,2,0,P|303:204|284:256,2,71.2499980974198,0|0|0,0:0|0:0|0:0,0:0:0:0:
174,83,27479,2,0,L|189:173,1,71.2499980974198,8|0,0:0|0:0,0:0:0:0:
32,322,27710,6,0,P|85:269|158:312,1,142.49999619484,0|8,0:0|0:0,0:0:0:0:
276,376,28056,2,0,L|301:171,1,142.49999619484,0|0,0:0|0:0,0:0:0:0:
174,83,28402,2,0,L|191:191,1,71.2499980974198,8|0,0:0|0:0,0:0:0:0:
389,67,28633,6,0,B|334:23|334:23|241:50,1,142.49999619484,0|8,0:0|0:0,0:0:0:0:
46,124,28979,2,0,P|156:151|241:151,1,142.49999619484,0|0,0:0|0:0,0:0:0:0:
355,220,29325,1,8,0:0:0:0:
355,220,29441,1,0,0:0:0:0:
355,220,29556,6,0,L|332:398,1,142.49999619484,0|8,0:0|0:0,0:0:0:0:
192,223,29902,2,0,L|180:115,1,71.2499980974198,0|0,0:0|0:0,0:0:0:0:
84,101,30133,1,0,0:0:0:0:
84,101,30248,2,0,L|76:171,1,71.2499980974198,8|0,0:0|0:0,0:0:0:0:
261,210,30479,6,0,P|208:223|152:215,1,71.2499980974198,0|0,0:0|0:0,0:0:0:0:
334,55,30710,2,0,P|369:57|403:67,1,71.2499980974198,8|0,0:0|0:0,0:0:0:0:
489,235,30941,1,8,0:0:0:0:
489,235,31056,1,8,0:0:0:0:
489,235,31171,1,8,0:0:0:0:
489,235,31287,1,8,0:0:0:0:
411,301,31402,6,0,L|403:343,3,37.5,2|0|0|0,0:0|0:0|0:0|0:0,0:0:0:0:
358,218,31864,2,0,L|350:176,3,37.5,2|0|0|0,0:0|0:0|0:0|0:0,0:0:0:0:
296,318,32325,2,0,L|288:360,3,37.5,2|0|0|0,0:0|0:0|0:0|0:0,0:0:0:0:
242,216,32787,2,0,L|234:174,3,37.5,2|0|0|0,0:0|0:0|0:0|0:0,0:0:0:0:
187,333,33248,6,0,L|179:375,1,37.5,2|0,0:0|0:0,0:0:0:0:
133,204,33479,2,0,L|125:162,1,37.5,0|0,0:0|0:0,0:0:0:0:
99,299,33710,1,2,0:0:0:0:
99,299,33825,1,0,0:0:0:0:
99,299,33941,1,0,0:0:0:0:
99,299,34056,1,0,0:0:0:0:
187,333,34171,6,0,L|243:327,1,37.5,2|0,0:0|0:0,0:0:0:0:
133,204,34402,2,0,L|77:198,1,37.5,0|0,0:0|0:0,0:0:0:0:
207,87,34633,1,8,0:0:0:0:
249,72,34748,1,8,0:0:0:0:
289,79,34864,1,8,0:0:0:0:
323,101,34979,1,8,0:0:0:0:
341,136,35094,6,0,P|374:134|431:117,1,63.7500012159348,0|0,0:0|0:0,0:0:0:0:
352,243,35325,2,0,P|319:241|262:224,1,63.7500012159348,8|0,0:0|0:0,0:0:0:0:
198,122,35556,2,0,L|182:202,1,63.7500012159348,0|0,0:0|0:0,0:0:0:0:
95,244,35787,2,0,L|82:181,1,63.7500012159348,8|0,0:0|0:0,0:0:0:0:
162,41,36018,6,0,P|222:30|283:96,1,127.50000243187,0|8,0:0|0:0,0:0:0:0:
318,152,36364,1,0,0:0:0:0:
318,152,36479,2,0,L|401:140,2,63.7500012159348,0|0|8,0:0|0:0|0:0,0:0:0:0:
212,226,36825,1,0,0:0:0:0:
202,247,36941,6,0,P|193:282|191:336,1,63.7500012159348,0|0,0:0|0:0,0:0:0:0:
329,214,37171,2,0,P|325:182|317:151,1,63.7500012159348,8|0,0:0|0:0,0:0:0:0:
138,239,37402,2,0,L|225:250,1,63.7500012159348,0|0,0:0|0:0,0:0:0:0:
380,143,37633,2,0,L|293:154,1,63.7500012159348,8|0,0:0|0:0,0:0:0:0:
135,91,37864,6,0,P|211:48|275:93,2,127.50000243187,0|8|0,0:0|0:0|0:0,0:0:0:0:
87,179,38441,1,0,0:0:0:0:
87,179,38556,2,0,L|100:258,1,63.7500012159348,8|0,0:0|0:0,0:0:0:0:
255,359,38787,6,0,L|279:209,1,127.50000243187,0|8,0:0|0:0,0:0:0:0:
362,168,39133,2,0,L|349:82,2,63.7500012159348,0|0|0,0:0|0:0|0:0,0:0:0:0:
213,221,39479,2,0,P|259:233|298:228,1,63.7500012159348,8|0,0:0|0:0,0:0:0:0:
454,127,39710,6,0,B|411:80|411:80|317:119,1,127.50000243187,0|8,0:0|0:0,0:0:0:0:
243,48,40056,2,0,L|227:148,1,63.7500012159348,0|0,0:0|0:0,0:0:0:0:
123,136,40287,1,0,0:0:0:0:
123,136,40402,2,0,L|139:236,1,63.7500012159348,8|0,0:0|0:0,0:0:0:0:
102,288,40633,6,0,P|174:240|245:280,1,127.50000243187,0|8,0:0|0:0,0:0:0:0:
301,308,40979,2,0,P|363:310|408:267,1,127.50000243187,0|0,0:0|0:0,0:0:0:0:
330,142,41325,1,8,0:0:0:0:
330,142,41441,1,0,0:0:0:0:
330,142,41556,6,0,L|325:217,1,63.7500012159348,0|0,0:0|0:0,0:0:0:0:
441,89,41787,2,0,L|446:164,1,63.7500012159348,8|0,0:0|0:0,0:0:0:0:
343,39,42018,1,8,0:0:0:0:
343,39,42133,1,8,0:0:0:0:
343,39,42248,1,8,0:0:0:0:
343,39,42364,1,8,0:0:0:0:
330,142,42479,6,0,B|291:168|291:168|185:155,1,127.50000243187,4|8,0:0|0:0,0:0:0:0:
108,113,42825,1,0,0:0:0:0:
108,113,42941,2,0,P|101:157|119:208,1,63.7500012159348,0|0,0:0|0:0,0:0:0:0:
228,187,43171,2,0,P|235:231|217:282,1,63.7500012159348,8|0,0:0|0:0,0:0:0:0:
65,321,43402,6,0,L|229:340,2,127.50000243187,0|8|0,0:0|0:0|0:0,0:0:0:0:
33,216,43979,1,0,0:0:0:0:
33,216,44094,2,0,L|119:201,1,63.7500012159348,8|0,0:0|0:0,0:0:0:0:
154,71,44325,6,0,P|167:111|174:172,1,63.7500012159348,0|0,0:0|0:0,0:0:0:0:
234,254,44556,2,0,P|247:214|254:153,1,63.7500012159348,8|0,0:0|0:0,0:0:0:0:
250,36,44787,2,0,P|263:76|270:137,1,63.7500012159348,0|0,0:0|0:0,0:0:0:0:
329,281,45018,2,0,P|342:241|349:180,1,63.7500012159348,8|0,0:0|0:0,0:0:0:0:
458,98,45248,6,0,P|403:55|312:96,2,127.50000243187,0|8|0,0:0|0:0|0:0,0:0:0:0:
408,208,45825,1,0,0:0:0:0:
408,208,45941,2,0,L|324:223,1,63.7500012159348,8|0,0:0|0:0,0:0:0:0:
228,329,46171,6,0,B|184:335|184:335|150:319|150:319|86:326,1,127.50000243187,0|8,0:0|0:0,0:0:0:0:
14,260,46518,2,0,B|42:228|42:228|154:213,1,127.50000243187,0|0,0:0|0:0,0:0:0:0:
228,329,46864,2,0,P|242:275|242:249,1,63.7500012159348,8|0,0:0|0:0,0:0:0:0:
147,143,47094,6,0,B|119:123|119:123|126:217,1,127.50000243187,0|8,0:0|0:0,0:0:0:0:
49,90,47441,2,0,P|107:44|183:89,1,127.50000243187,0|0,0:0|0:0,0:0:0:0:
233,168,47787,2,0,L|331:156,1,63.7500012159348,8|0,0:0|0:0,0:0:0:0:
399,326,48018,6,0,L|250:308,1,127.50000243187,0|8,0:0|0:0,0:0:0:0:
186,259,48364,1,0,0:0:0:0:
186,259,48479,2,0,P|174:305|175:340,1,63.7500012159348,0|0,0:0|0:0,0:0:0:0:
84,375,48710,2,0,P|72:329|73:294,1,63.7500012159348,8|0,0:0|0:0,0:0:0:0:
173,197,48941,6,0,P|185:243|184:278,1,63.7500012159348,0|0,0:0|0:0,0:0:0:0:
287,209,49172,2,0,P|299:163|298:128,1,63.7500012159348,8|0,0:0|0:0,0:0:0:0:
178,28,49402,1,8,0:0:0:0:
178,28,49518,1,8,0:0:0:0:
178,28,49633,1,8,0:0:0:0:
178,28,49748,1,8,0:0:0:0:
116,108,49864,6,0,L|53:102,1,63.7500012159348,0|0,0:0|0:0,0:0:0:0:
236,153,50094,2,0,L|299:147,1,63.7500012159348,8|0,0:0|0:0,0:0:0:0:
195,309,50325,2,0,P|133:321|78:256,1,127.50000243187,0|8,0:0|0:0,0:0:0:0:
140,154,50671,1,0,0:0:0:0:
140,154,50787,6,0,P|152:194|158:248,1,63.7500012159348,0|0,0:0|0:0,0:0:0:0:
285,272,51018,2,0,P|297:232|303:178,1,63.7500012159348,8|0,0:0|0:0,0:0:0:0:
264,71,51248,2,0,L|434:45,1,127.50000243187,0|8,0:0|0:0,0:0:0:0:
412,229,51594,1,0,0:0:0:0:
412,229,51710,6,0,P|347:243|291:189,1,127.50000243187,0|8,0:0|0:0,0:0:0:0:
264,71,52056,1,0,0:0:0:0:
264,71,52171,2,0,L|256:140,1,63.7500012159348,0|0,0:0|0:0,0:0:0:0:
185,243,52402,2,0,L|177:179,1,63.7500012159348,8|0,0:0|0:0,0:0:0:0:
135,321,52633,6,0,B|177:338|177:338|273:318,2,127.50000243187,0|8|0,0:0|0:0|0:0,0:0:0:0:
68,233,53210,1,0,0:0:0:0:
68,233,53325,2,0,P|65:198|82:152,1,63.7500012159348,8|0,0:0|0:0,0:0:0:0:
238,90,53556,6,0,L|259:230,1,127.50000243187,0|8,0:0|0:0,0:0:0:0:
345,271,53902,2,0,L|331:369,2,63.7500012159348,0|0|0,0:0|0:0|0:0,0:0:0:0:
422,207,54248,1,8,0:0:0:0:
275,90,54479,6,0,L|254:230,1,127.50000243187,0|8,0:0|0:0,0:0:0:0:
168,271,54825,2,0,L|182:369,2,63.7500012159348,0|0|0,0:0|0:0|0:0,0:0:0:0:
91,207,55171,1,8,0:0:0:0:
197,34,55402,6,0,P|208:80|214:124,1,63.7500012159348,0|0,0:0|0:0,0:0:0:0:
307,198,55633,2,0,P|352:189|404:173,1,63.7500012159348,8|0,0:0|0:0,0:0:0:0:
315,34,55864,2,0,P|304:80|298:124,1,63.7500012159348,0|0,0:0|0:0,0:0:0:0:
205,198,56094,2,0,P|160:189|108:173,1,63.7500012159348,8|0,0:0|0:0,0:0:0:0:
61,328,56325,6,0,L|73:231,1,63.7500012159348,0|0,0:0|0:0,0:0:0:0:
134,121,56556,2,0,L|146:218,1,63.7500012159348,8|0,0:0|0:0,0:0:0:0:
252,331,56787,1,8,0:0:0:0:
252,331,56902,1,8,0:0:0:0:
252,331,57018,1,8,0:0:0:0:
252,331,57133,1,8,0:0:0:0:
389,65,57479,6,0,L|403:155,1,63.7500012159348,8|0,0:0|0:0,0:0:0:0:
412,211,57709,2,0,L|398:121,1,63.7500012159348,0|0,0:0|0:0,0:0:0:0:
307,12,57941,2,0,P|295:56|308:112,1,63.7500012159348,8|0,0:0|0:0,0:0:0:0:
412,211,58171,6,0,P|336:175|294:200,1,127.50000243187,0|8,0:0|0:0,0:0:0:0:
234,260,58518,1,0,0:0:0:0:
234,260,58633,2,0,P|183:257|149:242,2,63.7500012159348,0|0|8,0:0|0:0|0:0,0:0:0:0:
129,327,58979,1,0,0:0:0:0:
129,327,59094,6,0,L|109:163,1,127.50000243187,0|8,0:0|0:0,0:0:0:0:
48,70,59441,1,0,0:0:0:0:
48,70,59556,2,0,L|31:166,1,63.7500012159348,0|0,0:0|0:0,0:0:0:0:
113,200,59787,2,0,P|169:198|209:183,1,63.7500012159348,8|0,0:0|0:0,0:0:0:0:
315,143,60018,6,0,L|295:4,2,127.50000243187,0|8|0,0:0|0:0|0:0,0:0:0:0:
210,198,60594,1,0,0:0:0:0:
210,198,60710,2,0,L|196:273,1,63.7500012159348,8|0,0:0|0:0,0:0:0:0:
348,355,60941,6,0,P|378:300|361:240,1,127.50000243187,0|8,0:0|0:0,0:0:0:0:
315,143,61287,2,0,B|352:122|352:122|465:139,1,127.50000243187,0|0,0:0|0:0,0:0:0:0:
361,240,61633,2,0,P|322:254|277:238,1,63.7500012159348,8|0,0:0|0:0,0:0:0:0:
174,93,61864,6,0,L|148:259,1,127.50000243187,0|8,0:0|0:0,0:0:0:0:
75,336,62210,2,0,L|55:210,1,127.50000243187,0|0,0:0|0:0,0:0:0:0:
111,82,62556,2,0,L|212:99,1,63.7500012159348,8|0,0:0|0:0,0:0:0:0:
281,206,62787,6,0,L|122:222,1,127.50000243187,0|8,0:0|0:0,0:0:0:0:
111,82,63133,2,0,P|105:48|110:7,2,63.7500012159348,0|0|0,0:0|0:0|0:0,0:0:0:0:
154,218,63479,2,0,P|148:262|131:293,1,63.7500012159348,8|0,0:0|0:0,0:0:0:0:
242,121,63710,6,0,L|329:134,1,63.7500012159348,0|0,0:0|0:0,0:0:0:0:
433,259,63941,2,0,L|346:272,1,63.7500012159348,8|0,0:0|0:0,0:0:0:0:
226,371,64171,1,8,0:0:0:0:
226,371,64287,1,8,0:0:0:0:
226,371,64402,1,8,0:0:0:0:
226,371,64518,1,8,0:0:0:0:
139,310,64633,6,0,P|110:245|159:157,1,127.50000243187,0|8,0:0|0:0,0:0:0:0:
349,74,65094,2,0,L|354:31,3,42.5000008106232,8|8|8|8,0:0|0:0|0:0|0:0,0:0:0:0:
122,192,65556,6,0,L|-10:159,2,127.50000243187,0|8|8,0:0|0:0|0:0,0:0:0:0:
183,116,66133,1,8,0:0:0:0:
183,116,66248,1,8,0:0:0:0:
183,116,66364,1,8,0:0:0:0:
183,116,66479,6,0,P|217:175|203:243,1,127.50000243187,0|0,0:0|0:0,0:0:0:0:
353,42,66941,2,0,L|348:91,3,42.5000008106232,8|8|8|8,0:0|0:0|0:0|0:0,0:0:0:0:
431,174,67402,5,0,0:0:0:0:
245,145,67633,1,8,0:0:0:0:
311,317,67864,1,8,0:0:0:0:
311,317,67979,1,8,0:0:0:0:
311,317,68094,1,8,0:0:0:0:
311,317,68210,1,8,0:0:0:0:
311,317,68325,6,0,B|342:278|342:278|328:152,1,127.50000243187,0|8,0:0|0:0,0:0:0:0:
245,145,68671,1,0,0:0:0:0:
245,145,68787,2,0,L|250:94,3,42.5000008106232,8|8|8|8,0:0|0:0|0:0|0:0,0:0:0:0:
178,307,69248,1,0,0:0:0:0:
367,282,69479,1,8,0:0:0:0:
178,307,69710,1,8,0:0:0:0:
178,307,69825,1,8,0:0:0:0:
178,307,69941,1,8,0:0:0:0:
178,307,70056,1,8,0:0:0:0:
253,242,70171,6,0,P|180:205|107:240,1,127.50000243187,0|8,0:0|0:0,0:0:0:0:
57,267,70518,1,0,0:0:0:0:
57,267,70633,2,0,L|51:311,3,42.5000008106232,8|8|8|8,0:0|0:0|0:0|0:0,0:0:0:0:
147,93,71094,6,0,P|88:59|29:70,2,127.50000243187,0|8|8,0:0|0:0|0:0,0:0:0:0:
198,184,71671,1,8,0:0:0:0:
198,184,71787,1,8,0:0:0:0:
198,184,71902,1,8,0:0:0:0:
198,184,72018,6,0,L|357:159,1,127.50000243187,4|8,0:0|0:0,0:0:0:0:
420,297,72364,1,0,0:0:0:0:
420,297,72479,2,0,P|414:349|403:389,1,63.7500012159348,0|0,0:0|0:0,0:0:0:0:
332,227,72710,2,0,P|326:195|323:163,1,63.7500012159348,8|0,0:0|0:0,0:0:0:0:
415,39,72941,6,0,B|385:13|385:13|249:34,1,127.50000243187,0|8,0:0|0:0,0:0:0:0:
214,145,73287,2,0,P|280:182|337:144,1,127.50000243187,0|0,0:0|0:0,0:0:0:0:
415,39,73633,2,0,L|425:140,1,63.7500012159348,8|0,0:0|0:0,0:0:0:0:
305,289,73864,6,0,L|326:133,1,127.50000243187,0|8,0:0|0:0,0:0:0:0:
233,45,74210,1,0,0:0:0:0:
233,45,74325,2,0,P|184:31|136:35,1,63.7500012159348,0|0,0:0|0:0,0:0:0:0:
63,149,74556,2,0,P|112:135|160:139,1,63.7500012159348,8|0,0:0|0:0,0:0:0:0:
322,162,74787,6,0,P|260:208|189:173,1,127.50000243187,0|8,0:0|0:0,0:0:0:0:
63,149,75133,2,0,L|74:237,1,63.7500012159348,0|0,0:0|0:0,0:0:0:0:
140,344,75364,1,0,0:0:0:0:
140,344,75479,2,0,L|147:280,1,63.7500012159348,8|0,0:0|0:0,0:0:0:0:
268,80,75710,5,8,0:0:0:0:
355,206,75941,2,0,L|430:198,1,63.7500012159348,0|0,0:0|0:0,0:0:0:0:
257,67,76172,5,8,0:0:0:0:
369,221,76402,2,0,L|451:212,1,63.7500012159348,0|0,0:0|0:0,0:0:0:0:
247,57,76633,5,8,0:0:0:0:
378,235,76864,2,0,L|460:226,1,63.7500012159348,0|0,0:0|0:0,0:0:0:0:
234,44,77094,5,8,0:0:0:0:
388,248,77325,2,0,L|470:239,1,63.7500012159348,0|0,0:0|0:0,0:0:0:0:
298,300,77556,6,0,B|281:264|281:264|294:211,1,75,8|0,0:0|0:0,0:0:0:0:
386,36,77787,2,0,B|403:72|403:72|390:125,1,75,0|0,0:0|0:0,0:0:0:0:
199,245,78018,1,8,0:0:0:0:
135,187,78133,1,8,0:0:0:0:
131,104,78248,1,8,0:0:0:0:
184,42,78364,1,8,0:0:0:0:
265,43,78479,6,0,P|143:77|129:117,1,168.750006437302,4|2,0:0|0:0,0:0:0:0:
377,29,79402,6,0,L|400:215,1,142.49999619484,4|8,0:0|0:0,0:0:0:0:
346,264,79748,1,0,0:0:0:0:
346,264,79864,2,0,P|400:278|449:261,1,71.2499980974198,0|0,0:0|0:0,0:0:0:0:
287,109,80094,2,0,L|302:225,1,71.2499980974198,8|0,0:0|0:0,0:0:0:0:
134,332,80325,6,0,B|102:298|102:298|117:188,1,142.49999619484,0|8,0:0|0:0,0:0:0:0:
287,109,80671,2,0,P|226:66|160:92,1,142.49999619484,0|0,0:0|0:0,0:0:0:0:
114,203,81018,2,0,L|199:192,1,71.2499980974198,8|0,0:0|0:0,0:0:0:0:
280,321,81248,6,0,L|443:336,1,142.49999619484,0|8,0:0|0:0,0:0:0:0:
468,242,81594,1,0,0:0:0:0:
468,242,81710,2,0,P|479:193|476:151,2,71.2499980974198,0|0|8,0:0|0:0|0:0,0:0:0:0:
367,189,82056,1,0,0:0:0:0:
302,273,82171,6,0,L|213:260,1,71.2499980974198,0|0,0:0|0:0,0:0:0:0:
88,161,82402,2,0,L|177:148,1,71.2499980974198,8|0,0:0|0:0,0:0:0:0:
154,311,82633,2,0,P|140:263|151:219,1,71.2499980974198,8|8,0:0|0:0,0:0:0:0:
237,99,82864,2,0,P|251:147|240:191,1,71.2499980974198,8|8,0:0|0:0,0:0:0:0:
59,187,83094,6,0,B|41:139|41:139|69:38,1,142.49999619484,4|8,0:0|0:0,0:0:0:0:
166,24,83441,1,0,0:0:0:0:
237,99,83556,2,0,P|284:99|341:73,1,71.2499980974198,0|0,0:0|0:0,0:0:0:0:
129,193,83787,2,0,P|82:193|25:167,1,71.2499980974198,8|0,0:0|0:0,0:0:0:0:
230,291,84018,6,0,P|305:262|407:280,1,142.49999619484,0|8,0:0|0:0,0:0:0:0:
466,313,84364,2,0,L|434:135,1,142.49999619484,0|0,0:0|0:0,0:0:0:0:
317,21,84710,2,0,L|303:120,1,71.2499980974198,8|0,0:0|0:0,0:0:0:0:
202,223,84941,6,0,P|139:239|81:166,1,142.49999619484,0|8,0:0|0:0,0:0:0:0:
110,339,85287,2,0,P|120:300|124:250,1,71.2499980974198,0|0,0:0|0:0,0:0:0:0:
71,121,85518,1,0,0:0:0:0:
71,121,85633,2,0,P|75:156|84:190,1,71.2499980974198,8|0,0:0|0:0,0:0:0:0:
209,288,85864,6,0,L|314:271,1,71.2499980974198,0|0,0:0|0:0,0:0:0:0:
335,183,86094,2,0,L|230:166,1,71.2499980974198,8|0,0:0|0:0,0:0:0:0:
221,358,86325,2,0,L|205:271,1,71.2499980974198,0|0,0:0|0:0,0:0:0:0:
347,112,86556,2,0,L|334:182,1,71.2499980974198,8|8,0:0|0:0,0:0:0:0:
63,144,86787,6,0,P|129:97|206:141,1,142.49999619484,4|8,0:0|0:0,0:0:0:0:
324,252,87133,2,0,L|347:107,1,142.49999619484,0|0,0:0|0:0,0:0:0:0:
481,193,87479,2,0,P|444:211|402:209,1,71.2499980974198,8|0,0:0|0:0,0:0:0:0:
216,90,87710,6,0,P|297:80|365:142,1,142.49999619484,0|8,0:0|0:0,0:0:0:0:
292,302,88056,2,0,B|261:274|261:274|272:160,1,142.49999619484,0|0,0:0|0:0,0:0:0:0:
345,110,88402,1,8,0:0:0:0:
73,48,88633,6,0,L|97:215,1,142.49999619484,0|8,0:0|0:0,0:0:0:0:
161,260,88979,2,0,P|95:233|32:280,1,142.49999619484,0|0,0:0|0:0,0:0:0:0:
236,311,89325,2,0,P|250:267|243:224,1,71.2499980974198,8|0,0:0|0:0,0:0:0:0:
171,57,89556,6,0,L|189:135,1,71.2499980974198,0|0,0:0|0:0,0:0:0:0:
324,126,89787,2,0,L|341:57,1,71.2499980974198,8|0,0:0|0:0,0:0:0:0:
187,126,90018,2,0,P|142:138|89:133,1,71.2499980974198,0|0,0:0|0:0,0:0:0:0:
69,234,90248,2,0,P|114:246|167:241,1,71.2499980974198,8|0,0:0|0:0,0:0:0:0:
332,77,90479,6,0,L|360:223,1,142.49999619484,8|0,0:0|0:0,0:0:0:0:
176,163,90825,5,0,0:0:0:0:
253,118,90941,2,0,L|281:264,1,142.49999619484,8|0,0:0|0:0,0:0:0:0:
99,208,91287,5,0,0:0:0:0:
176,163,91403,2,0,L|204:309,1,142.49999619484,8|0,0:0|0:0,0:0:0:0:
95,118,91748,5,0,0:0:0:0:
176,163,91864,2,0,P|225:157|273:141,1,71.2499980974198,8|0,0:0|0:0,0:0:0:0:
361,87,92094,2,0,P|326:78|290:75,1,71.2499980974198,8|8,0:0|0:0,0:0:0:0:
95,118,92325,6,0,L|80:226,1,71.2499980974198,8|0,0:0|0:0,0:0:0:0:
268,308,92556,2,0,L|258:237,1,71.2499980974198,8|0,0:0|0:0,0:0:0:0:
83,129,92787,2,0,L|68:237,1,71.2499980974198,8|0,0:0|0:0,0:0:0:0:
276,298,93018,2,0,L|266:227,1,71.2499980974198,8|0,0:0|0:0,0:0:0:0:
26,280,93248,6,0,P|99:291|162:220,1,142.49999619484,8|8,0:0|0:0,0:0:0:0:
192,161,93594,1,0,0:0:0:0:
266,227,93710,2,0,L|256:343,1,71.2499980974198,8|8,0:0|0:0,0:0:0:0:
403,142,93941,2,0,L|413:258,1,71.2499980974198,8|0,0:0|0:0,0:0:0:0:
483,92,94171,6,0,P|420:50|322:98,1,142.49999619484,4|8,0:0|0:0,0:0:0:0:
266,227,94518,1,0,0:0:0:0:
266,227,94633,2,0,P|318:218|382:195,1,71.2499980974198,0|0,0:0|0:0,0:0:0:0:
459,310,94864,2,0,P|407:301|343:278,1,71.2499980974198,8|0,0:0|0:0,0:0:0:0:
198,289,95094,6,0,B|173:254|173:254|189:130,1,142.49999619484,0|8,0:0|0:0,0:0:0:0:
309,68,95441,2,0,B|367:109|367:109|326:178,1,142.49999619484,0|0,0:0|0:0,0:0:0:0:
185,155,95787,2,0,P|141:148|76:153,1,71.2499980974198,8|0,0:0|0:0,0:0:0:0:
56,303,96018,6,0,P|158:288|235:291,1,142.49999619484,0|8,0:0|0:0,0:0:0:0:
285,349,96364,2,0,L|303:269,1,71.2499980974198,0|0,0:0|0:0,0:0:0:0:
371,140,96594,2,0,P|419:150|465:176,1,71.2499980974198,0|8,0:0|0:0,0:0:0:0:
371,270,96825,1,0,0:0:0:0:
371,270,96941,6,0,L|297:279,1,71.2499980974198,0|0,0:0|0:0,0:0:0:0:
205,177,97171,2,0,L|279:186,1,71.2499980974198,8|0,0:0|0:0,0:0:0:0:
319,345,97402,2,0,P|302:307|306:251,1,71.2499980974198,8|8,0:0|0:0,0:0:0:0:
257,118,97633,2,0,P|272:149|275:185,1,71.2499980974198,8|8,0:0|0:0,0:0:0:0:
159,315,97864,6,0,L|-13:300,1,142.49999619484,4|8,0:0|0:0,0:0:0:0:
94,153,98210,1,0,0:0:0:0:
94,153,98325,2,0,L|104:236,1,71.2499980974198,0|0,0:0|0:0,0:0:0:0:
17,302,98556,2,0,L|7:219,1,71.2499980974198,8|0,0:0|0:0,0:0:0:0:
42,68,98787,6,0,P|126:57|190:130,1,142.49999619484,0|8,0:0|0:0,0:0:0:0:
265,212,99133,2,0,B|308:236|308:236|434:204,1,142.49999619484,0|0,0:0|0:0,0:0:0:0:
326,73,99479,2,0,P|320:120|326:170,1,71.2499980974198,8|0,0:0|0:0,0:0:0:0:
296,350,99710,6,0,P|282:268|263:207,1,142.49999619484,0|8,0:0|0:0,0:0:0:0:
155,153,100056,2,0,L|140:247,1,71.2499980974198,0|0,0:0|0:0,0:0:0:0:
66,346,100287,2,0,L|54:275,1,71.2499980974198,0|8,0:0|0:0,0:0:0:0:
8,135,100518,1,0,0:0:0:0:
8,135,100633,6,0,P|81:106|162:174,2,142.49999619484,0|8|0,0:0|0:0|0:0,0:0:0:0:
74,16,101210,1,0,0:0:0:0:
167,41,101325,2,0,P|209:35|270:7,1,71.2499980974198,8|8,0:0|0:0,0:0:0:0:
388,97,101556,6,0,L|375:284,1,142.49999619484,4|8,0:0|0:0,0:0:0:0:
256,301,101902,2,0,L|256:206,1,71.2499980974198,0|0,0:0|0:0,0:0:0:0:
362,170,102133,1,0,0:0:0:0:
362,170,102248,2,0,P|375:212|377:256,1,71.2499980974198,8|0,0:0|0:0,0:0:0:0:
133,239,102479,6,0,L|124:97,1,142.49999619484,0|8,0:0|0:0,0:0:0:0:
256,229,102825,2,0,L|256:301,1,71.2499980974198,0|0,0:0|0:0,0:0:0:0:
134,239,103056,1,0,0:0:0:0:
134,239,103171,2,0,P|138:203|150:170,1,71.2499980974198,8|0,0:0|0:0,0:0:0:0:
256,47,103402,6,0,B|294:74|294:74|424:50,1,142.49999619484,0|8,0:0|0:0,0:0:0:0:
451,194,103748,2,0,P|361:204|316:150,1,142.49999619484,0|0,0:0|0:0,0:0:0:0:
388,56,104094,2,0,L|401:142,1,71.2499980974198,8|0,0:0|0:0,0:0:0:0:
305,264,104325,6,0,L|294:334,2,71.2499980974198,0|0|8,0:0|0:0|0:0,0:0:0:0:
229,196,104671,1,0,0:0:0:0:
145,246,104787,2,0,P|71:252|27:190,1,142.49999619484,8|8,0:0|0:0,0:0:0:0:
76,123,105133,1,8,0:0:0:0:
120,41,105248,5,8,0:0:0:0:
229,196,105479,2,0,P|271:210|335:207,1,71.2499980974198,0|0,0:0|0:0,0:0:0:0:
112,31,105710,5,8,0:0:0:0:
239,209,105941,2,0,P|281:223|345:220,1,71.2499980974198,0|0,0:0|0:0,0:0:0:0:
103,18,106171,5,8,0:0:0:0:
248,222,106402,2,0,P|290:236|354:233,1,71.2499980974198,0|0,0:0|0:0,0:0:0:0:
94,5,106633,5,8,0:0:0:0:
261,238,106864,2,0,P|303:252|367:249,1,71.2499980974198,8|8,0:0|0:0,0:0:0:0:
119,323,107094,1,2,0:0:0:0:
256,192,107210,12,0,108710,0:0:0:0:
365,60,108941,6,0,L|347:217,1,142.49999619484,4|8,0:0|0:0,0:0:0:0:
270,261,109287,1,0,0:0:0:0:
270,261,109402,2,0,P|255:228|256:161,1,71.2499980974198,0|0,0:0|0:0,0:0:0:0:
447,198,109633,2,0,P|442:233|427:265,1,71.2499980974198,8|0,0:0|0:0,0:0:0:0:
250,193,109864,6,0,P|166:175|90:173,1,142.49999619484,0|8,0:0|0:0,0:0:0:0:
52,252,110210,2,0,L|62:348,2,71.2499980974198,0|0|0,0:0|0:0|0:0,0:0:0:0:
117,101,110556,2,0,L|107:197,1,71.2499980974198,8|0,0:0|0:0,0:0:0:0:
210,306,110787,6,0,P|290:310|338:247,1,142.49999619484,0|8,0:0|0:0,0:0:0:0:
358,172,111133,1,0,0:0:0:0:
358,172,111248,2,0,P|314:157|260:160,1,71.2499980974198,0|0,0:0|0:0,0:0:0:0:
195,236,111479,2,0,L|217:342,1,71.2499980974198,8|0,0:0|0:0,0:0:0:0:
45,245,111710,6,0,L|77:91,1,142.49999619484,0|8,0:0|0:0,0:0:0:0:
150,30,112056,2,0,P|220:16|283:101,1,142.49999619484,0|0,0:0|0:0,0:0:0:0:
79,175,112402,2,0,L|73:105,1,71.2499980974198,8|0,0:0|0:0,0:0:0:0:
272,56,112633,6,0,B|289:98|289:98|276:219,1,142.49999619484,0|8,0:0|0:0,0:0:0:0:
225,279,112979,1,0,0:0:0:0:
225,279,113094,2,0,P|263:295|329:279,1,71.2499980974198,0|0,0:0|0:0,0:0:0:0:
346,210,113325,2,0,P|308:194|242:210,1,71.2499980974198,8|0,0:0|0:0,0:0:0:0:
189,357,113556,6,0,L|166:182,1,142.49999619484,0|8,0:0|0:0,0:0:0:0:
99,151,113902,2,0,L|114:60,2,71.2499980974198,0|0|0,0:0|0:0|0:0,0:0:0:0:
20,218,114248,2,0,L|31:288,1,71.2499980974198,8|0,0:0|0:0,0:0:0:0:
189,357,114479,6,0,P|241:313|328:354,1,142.49999619484,0|8,0:0|0:0,0:0:0:0:
410,373,114825,1,0,0:0:0:0:
410,373,114941,2,0,L|422:265,1,71.2499980974198,0|0,0:0|0:0,0:0:0:0:
300,258,115171,2,0,L|307:328,1,71.2499980974198,8|0,0:0|0:0,0:0:0:0:
432,207,115402,6,0,L|444:99,1,71.2499980974198,8|8,0:0|0:0,0:0:0:0:
280,92,115633,2,0,L|287:162,1,71.2499980974198,0|8,0:0|0:0,0:0:0:0:
253,361,115864,1,8,0:0:0:0:
159,370,115979,1,8,0:0:0:0:
94,303,116094,1,8,0:0:0:0:
85,214,116210,1,8,0:0:0:0:
146,147,116325,6,0,P|252:155|337:177,1,142.49999619484,4|8,0:0|0:0,0:0:0:0:
428,311,116671,2,0,B|456:324|456:324|440:168,1,142.49999619484,0|0,0:0|0:0,0:0:0:0:
295,91,117018,2,0,L|285:181,1,71.2499980974198,8|0,0:0|0:0,0:0:0:0:
175,357,117248,6,0,P|134:290|171:223,1,142.49999619484,0|8,0:0|0:0,0:0:0:0:
287,161,117594,2,0,L|139:136,1,142.49999619484,0|0,0:0|0:0,0:0:0:0:
36,315,117941,2,0,L|128:303,1,71.2499980974198,8|0,0:0|0:0,0:0:0:0:
313,280,118171,6,0,P|328:208|278:157,1,142.49999619484,0|8,0:0|0:0,0:0:0:0:
78,196,118518,2,0,B|56:152|56:152|87:40,1,142.49999619484,0|0,0:0|0:0,0:0:0:0:
167,171,118864,2,0,P|171:214|151:252,1,71.2499980974198,8|0,0:0|0:0,0:0:0:0:
0,355,119094,6,0,P|62:316|142:330,1,142.49999619484,0|8,0:0|0:0,0:0:0:0:
273,357,119441,2,0,L|257:190,1,142.49999619484,0|0,0:0|0:0,0:0:0:0:
78,108,119787,1,8,0:0:0:0:
78,108,119902,1,0,0:0:0:0:
78,108,120018,6,0,L|64:249,1,142.49999619484,0|8,0:0|0:0,0:0:0:0:
255,129,120364,2,0,L|250:53,1,71.2499980974198,0|0,0:0|0:0,0:0:0:0:
188,211,120594,1,0,0:0:0:0:
188,211,120710,2,0,P|229:231|297:217,1,71.2499980974198,8|0,0:0|0:0,0:0:0:0:
432,108,120941,6,0,L|445:249,1,142.49999619484,0|8,0:0|0:0,0:0:0:0:
255,129,121287,2,0,L|260:53,1,71.2499980974198,0|0,0:0|0:0,0:0:0:0:
322,211,121517,1,0,0:0:0:0:
322,211,121633,2,0,P|280:231|212:217,1,71.2499980974198,8|0,0:0|0:0,0:0:0:0:
133,105,121864,6,0,P|199:87|254:128,1,142.49999619484,0|8,0:0|0:0,0:0:0:0:
58,168,122210,2,0,P|9:119|17:51,1,142.49999619484,0|0,0:0|0:0,0:0:0:0:
144,201,122556,2,0,P|126:267|75:291,1,71.2499980974198,8|0,0:0|0:0,0:0:0:0:
256,350,122787,6,0,L|257:256,1,71.2499980974198,0|0,0:0|0:0,0:0:0:0:
368,201,123018,2,0,P|385:267|437:291,1,71.2499980974198,8|0,0:0|0:0,0:0:0:0:
399,103,123248,1,0,0:0:0:0:
399,103,123364,1,8,0:0:0:0:
399,103,123479,1,8,0:0:0:0:
399,103,123594,1,8,0:0:0:0:
368,201,123710,6,0,L|203:182,1,142.49999619484,4|8,0:0|0:0,0:0:0:0:
149,115,124056,1,0,0:0:0:0:
149,115,124171,2,0,P|143:70|143:20,1,71.2499980974198,0|0,0:0|0:0,0:0:0:0:
226,184,124402,2,0,P|224:219|219:254,1,71.2499980974198,8|0,0:0|0:0,0:0:0:0:
54,347,124633,6,0,B|94:320|94:320|216:345,1,142.49999619484,0|8,0:0|0:0,0:0:0:0:
232,254,124979,2,0,L|222:150,2,71.2499980974198,0|0|0,0:0|0:0|0:0,0:0:0:0:
313,372,125325,2,0,L|323:268,1,71.2499980974198,8|0,0:0|0:0,0:0:0:0:
349,160,125556,6,0,P|275:145|212:215,1,142.49999619484,0|8,0:0|0:0,0:0:0:0:
97,307,125902,1,0,0:0:0:0:
97,307,126018,2,0,P|89:259|89:197,1,71.2499980974198,0|0,0:0|0:0,0:0:0:0:
224,182,126248,2,0,P|232:230|232:292,1,71.2499980974198,8|0,0:0|0:0,0:0:0:0:
389,352,126479,6,0,P|402:268|403:176,1,142.49999619484,0|8,0:0|0:0,0:0:0:0:
219,88,126825,2,0,B|184:107|170:141|170:141|184:171|247:190,1,142.49999619484
384,119,127171,2,0,P|397:167|405:220,1,71.2499980974198,8|0,0:0|0:0,0:0:0:0:
279,340,127402,6,0,L|125:320,1,142.49999619484,0|8,0:0|0:0,0:0:0:0:
52,268,127748,1,0,0:0:0:0:
52,268,127864,2,0,P|39:315|49:373,1,71.2499980974198,0|0,0:0|0:0,0:0:0:0:
141,219,128094,2,0,P|139:183|128:149,1,71.2499980974198,8|0,0:0|0:0,0:0:0:0:
19,88,128325,6,0,P|93:128|167:85,1,142.49999619484,0|8,0:0|0:0,0:0:0:0:
298,31,128671,2,0,L|271:209,1,142.49999619484,0|0,0:0|0:0,0:0:0:0:
171,283,129018,2,0,L|158:199,1,71.2499980974198,8|0,0:0|0:0,0:0:0:0:
247,333,129248,6,0,P|179:374|95:332,1,142.49999619484,0|8,0:0|0:0,0:0:0:0:
89,223,129594,1,0,0:0:0:0:
89,223,129710,2,0,L|191:207,1,71.2499980974198,0|0,0:0|0:0,0:0:0:0:
269,97,129941,2,0,L|167:81,1,71.2499980974198,8|0,0:0|0:0,0:0:0:0:
89,223,130171,6,0,P|77:176|72:130,1,71.2499980974198,8|8,0:0|0:0,0:0:0:0:
269,97,130402,2,0,P|263:132|253:166,1,71.2499980974198,0|8,0:0|0:0,0:0:0:0:
297,327,130633,1,8,0:0:0:0:
389,340,130748,1,0,0:0:0:0:
464,283,130864,1,8,0:0:0:0:
471,188,130979,1,8,0:0:0:0:
410,116,131094,6,0,L|256:95,1,142.49999619484,4|8,0:0|0:0,0:0:0:0:
86,203,131441,2,0,L|240:182,1,142.49999619484,0|0,0:0|0:0,0:0:0:0:
277,26,131787,2,0,P|270:75|268:114,1,71.2499980974198,8|0,0:0|0:0,0:0:0:0:
251,323,132018,6,0,P|238:228|224:174,1,142.49999619484,0|8,0:0|0:0,0:0:0:0:
370,96,132364,2,0,P|415:168|385:228,1,142.49999619484,0|0,0:0|0:0,0:0:0:0:
226,182,132710,1,8,0:0:0:0:
226,182,132825,1,0,0:0:0:0:
226,182,132941,6,0,B|186:155|186:155|78:171,1,142.49999619484,0|8,0:0|0:0,0:0:0:0:
192,267,133287,2,0,P|246:276|318:206,1,142.49999619484,0|0,0:0|0:0,0:0:0:0:
241,112,133633,2,0,L|219:212,1,71.2499980974198,8|0,0:0|0:0,0:0:0:0:
101,344,133864,6,0,L|71:182,1,142.49999619484,0|8,0:0|0:0,0:0:0:0:
122,112,134210,2,0,P|79:99|43:104,2,71.2499980974198,0|0|0,0:0|0:0|0:0,0:0:0:0:
234,212,134556,2,0,L|335:199,1,71.2499980974198,8|0,0:0|0:0,0:0:0:0:
361,355,134787,6,0,L|195:339,1,142.49999619484,0|8,0:0|0:0,0:0:0:0:
304,202,135133,2,0,P|318:126|271:76,1,142.49999619484,0|0,0:0|0:0,0:0:0:0:
112,41,135479,2,0,P|121:83|133:122,1,71.2499980974198,8|0,0:0|0:0,0:0:0:0:
304,202,135710,6,0,P|226:190|145:197,1,142.49999619484,0|8,0:0|0:0,0:0:0:0:
58,341,136056,2,0,P|117:353|174:290,1,142.49999619484,0|0,0:0|0:0,0:0:0:0:
87,131,136402,1,8,0:0:0:0:
87,131,136518,1,0,0:0:0:0:
87,131,136633,6,0,B|125:99|125:99|242:109,1,142.49999619484,0|8,0:0|0:0,0:0:0:0:
377,201,136979,2,0,L|353:50,1,142.49999619484,0|0,0:0|0:0,0:0:0:0:
208,177,137325,2,0,L|219:92,1,71.2499980974198,8|0,0:0|0:0,0:0:0:0:
260,257,137556,6,0,P|212:270|165:265,1,71.2499980974198,0|0,0:0|0:0,0:0:0:0:
169,28,137787,2,0,P|217:15|264:20,1,71.2499980974198,8|0,0:0|0:0,0:0:0:0:
470,94,138018,1,8,0:0:0:0:
456,187,138133,1,8,0:0:0:0:
444,280,138248,1,8,0:0:0:0:
432,370,138364,1,8,0:0:0:0:
351,318,138479,5,2,0:0:0:0:
256,192,138596,12,2,142110,0:0:0:0:
