osu file format v14

[General]
AudioFilename: fsefewtesrweart45478577.mp3
AudioLeadIn: 0
PreviewTime: 78652
Countdown: 0
SampleSet: Soft
StackLeniency: 0.3
Mode: 3
LetterboxInBreaks: 0
SpecialStyle: 0
WidescreenStoryboard: 0

[Editor]
DistanceSpacing: 2
BeatDivisor: 4
GridSize: 4
TimelineZoom: 3.499999

[Metadata]
Title:Kegare Naki Bara Juuji (Short ver.)
TitleUnicode:穢れなき薔薇十字 (Short ver.)
Artist:Ariabl'eyeS
ArtistUnicode:Ariabl'eyeS
Creator:My Angel RangE
Version:Gyukari's MX
Source:
Tags:瑠璃色のローゼンクロイツ Ruriiro no Rena Luna Lyse リゼ rosicrucian Left walaowey Neoskylove Regou Daletto Volta dakemoto Gyukari Jakads -Eat_Sparingly- Underflow Sylphi 404
BeatmapID:1218728
BeatmapSetID:535277

[Difficulty]
HPDrainRate:8
CircleSize:4
OverallDifficulty:8
ApproachRate:9.8
SliderMultiplier:1.55
SliderTickRate:1

[Events]
//Background and Video events
0,0,"78.png",0,0
//Break Periods
//Storyboard Layer 0 (Background)
//Storyboard Layer 1 (Fail)
//Storyboard Layer 2 (Pass)
//Storyboard Layer 3 (Foreground)
//Storyboard Sound Samples

[TimingPoints]
18,230.769230769231,4,2,2,40,1,0
7402,-100,4,2,2,50,0,0
9248,-100,4,2,2,60,0,0
16633,-100,4,2,2,50,0,0
24018,-100,4,2,2,60,0,0
35094,-100,4,2,2,50,0,0
64633,-100,4,2,2,40,0,0
72018,-100,4,2,2,50,0,0
78479,-100,4,2,2,30,0,0
79402,-100,4,2,2,70,0,1
108941,-100,4,2,2,50,0,0
116325,-100,4,2,2,60,0,0
123710,-100,4,2,2,50,0,0
131094,-100,4,2,2,60,0,0
138479,468.75,4,2,2,50,1,0
138479,-55.8659217877095,4,2,2,50,0,0
139416,461.538461538462,4,2,2,50,1,0
139416,-56.8181818181818,4,2,2,50,0,0
140339,472.44094488189,4,2,2,35,1,0
140339,-55.2486187845304,4,2,2,35,0,0

[HitObjects]
448,192,18,5,0,0:0:0:0:
64,192,18,128,0,941:0:0:0:0:
448,192,479,1,0,0:0:0:0:
448,192,941,1,0,0:0:0:0:
320,192,1056,1,0,0:0:0:0:
192,192,1171,1,0,0:0:0:0:
64,192,1287,1,0,0:0:0:0:
448,192,1402,1,0,0:0:0:0:
320,192,1402,1,0,0:0:0:0:
192,192,1518,1,0,0:0:0:0:
64,192,1518,1,0,0:0:0:0:
320,192,1633,1,0,0:0:0:0:
448,192,1633,1,0,0:0:0:0:
192,192,1748,1,0,0:0:0:0:
64,192,1748,1,0,0:0:0:0:
320,192,1864,1,0,0:0:0:0:
448,192,1864,1,0,0:0:0:0:
64,192,1864,1,0,0:0:0:0:
448,192,2325,1,0,0:0:0:0:
448,192,2556,1,0,0:0:0:0:
448,192,2671,1,0,0:0:0:0:
64,192,2787,1,0,0:0:0:0:
192,192,2787,1,0,0:0:0:0:
320,192,2787,1,0,0:0:0:0:
64,192,3018,1,0,0:0:0:0:
448,192,3248,1,0,0:0:0:0:
192,192,3479,1,0,0:0:0:0:
320,192,3479,1,0,0:0:0:0:
64,192,3537,1,0,0:0:0:0:
448,192,3594,1,0,0:0:0:0:
64,192,3652,1,0,0:0:0:0:
192,192,3710,1,0,0:0:0:0:
320,192,3710,1,0,0:0:0:0:
448,192,3941,1,0,0:0:0:0:
192,192,4056,1,0,0:0:0:0:
64,192,4056,1,0,0:0:0:0:
448,192,4171,128,0,4402:0:0:0:0:
64,192,4402,1,0,0:0:0:0:
320,192,4402,1,0,0:0:0:0:
192,192,4518,1,0,0:0:0:0:
320,192,4518,1,0,0:0:0:0:
64,192,4633,1,0,0:0:0:0:
192,192,4633,1,0,0:0:0:0:
448,192,4633,1,0,0:0:0:0:
448,192,4864,1,0,0:0:0:0:
320,192,4941,1,0,0:0:0:0:
192,192,5018,1,0,0:0:0:0:
64,192,5094,1,0,0:0:0:0:
320,192,5094,1,0,0:0:0:0:
448,192,5094,1,0,0:0:0:0:
320,192,5325,1,0,0:0:0:0:
448,192,5325,1,0,0:0:0:0:
192,192,5402,1,0,0:0:0:0:
64,192,5402,1,0,0:0:0:0:
320,192,5479,1,0,0:0:0:0:
448,192,5479,1,0,0:0:0:0:
64,192,5556,1,0,0:0:0:0:
192,192,5556,1,0,0:0:0:0:
448,192,5556,1,0,0:0:0:0:
448,192,6018,1,0,0:0:0:0:
64,192,6248,1,0,0:0:0:0:
320,192,6248,1,0,0:0:0:0:
192,192,6479,1,0,0:0:0:0:
320,192,6479,1,0,0:0:0:0:
448,192,6479,1,0,0:0:0:0:
320,192,6710,1,0,0:0:0:0:
448,192,6710,1,0,0:0:0:0:
64,192,6825,1,0,0:0:0:0:
192,192,6825,1,0,0:0:0:0:
64,192,6941,1,0,0:0:0:0:
320,192,6941,1,0,0:0:0:0:
448,192,6941,1,0,0:0:0:0:
192,192,7171,1,0,0:0:0:0:
320,192,7171,1,0,0:0:0:0:
192,192,7402,1,0,0:0:0:0:
448,192,7402,1,0,0:0:0:0:
192,192,7633,1,0,0:0:0:0:
320,192,7633,1,0,0:0:0:0:
192,192,7748,1,0,0:0:0:0:
320,192,7748,1,0,0:0:0:0:
64,192,7864,1,0,0:0:0:0:
192,192,7864,1,0,0:0:0:0:
448,192,7864,1,0,0:0:0:0:
320,192,8094,1,0,0:0:0:0:
448,192,8094,1,0,0:0:0:0:
448,192,8325,1,0,0:0:0:0:
192,192,8441,1,0,0:0:0:0:
320,192,8441,1,0,0:0:0:0:
64,192,8441,1,0,0:0:0:0:
448,192,8556,1,0,0:0:0:0:
320,192,8556,1,0,0:0:0:0:
64,192,8671,1,0,0:0:0:0:
192,192,8671,1,0,0:0:0:0:
448,192,8787,1,0,0:0:0:0:
320,192,8787,1,0,0:0:0:0:
320,192,8902,1,0,0:0:0:0:
448,192,8902,1,0,0:0:0:0:
64,192,9018,1,0,0:0:0:0:
192,192,9018,1,0,0:0:0:0:
64,192,9133,1,0,0:0:0:0:
192,192,9133,1,0,0:0:0:0:
64,192,9248,1,0,0:0:0:0:
320,192,9248,1,0,0:0:0:0:
448,192,9248,1,0,0:0:0:0:
64,192,9479,1,0,0:0:0:0:
192,192,9479,1,0,0:0:0:0:
320,192,9479,1,0,0:0:0:0:
448,192,9594,1,0,0:0:0:0:
320,192,9594,1,0,0:0:0:0:
64,192,9710,1,0,0:0:0:0:
192,192,9825,1,0,0:0:0:0:
64,192,9941,1,0,0:0:0:0:
320,192,9941,1,0,0:0:0:0:
448,192,9941,1,0,0:0:0:0:
192,192,10171,1,0,0:0:0:0:
320,192,10171,1,0,0:0:0:0:
320,192,10402,1,0,0:0:0:0:
448,192,10402,1,0,0:0:0:0:
64,192,10402,1,0,0:0:0:0:
192,192,10518,1,0,0:0:0:0:
320,192,10518,1,0,0:0:0:0:
448,192,10633,1,0,0:0:0:0:
64,192,10748,1,0,0:0:0:0:
320,192,10748,1,0,0:0:0:0:
192,192,10864,1,0,0:0:0:0:
320,192,10864,1,0,0:0:0:0:
448,192,10864,1,0,0:0:0:0:
448,192,11094,1,0,0:0:0:0:
64,192,11094,1,0,0:0:0:0:
64,192,11325,1,0,0:0:0:0:
192,192,11325,1,0,0:0:0:0:
320,192,11325,1,0,0:0:0:0:
448,192,11441,1,0,0:0:0:0:
320,192,11441,1,0,0:0:0:0:
64,192,11556,1,0,0:0:0:0:
192,192,11671,1,0,0:0:0:0:
448,192,11671,1,0,0:0:0:0:
320,192,11787,1,0,0:0:0:0:
192,192,11787,1,0,0:0:0:0:
64,192,11787,1,0,0:0:0:0:
320,192,12018,1,0,0:0:0:0:
448,192,12018,1,0,0:0:0:0:
64,192,12248,1,0,0:0:0:0:
192,192,12248,1,0,0:0:0:0:
448,192,12248,1,0,0:0:0:0:
192,192,12364,1,0,0:0:0:0:
320,192,12364,1,0,0:0:0:0:
448,192,12479,1,0,0:0:0:0:
192,192,12594,1,0,0:0:0:0:
64,192,12594,1,0,0:0:0:0:
64,192,12710,1,0,0:0:0:0:
320,192,12710,1,0,0:0:0:0:
448,192,12710,1,0,0:0:0:0:
64,192,12941,1,0,0:0:0:0:
192,192,12941,1,0,0:0:0:0:
320,192,13171,1,0,0:0:0:0:
448,192,13171,1,0,0:0:0:0:
192,192,13171,1,0,0:0:0:0:
320,192,13287,1,0,0:0:0:0:
64,192,13287,1,0,0:0:0:0:
192,192,13402,1,0,0:0:0:0:
320,192,13518,1,0,0:0:0:0:
448,192,13518,1,0,0:0:0:0:
64,192,13633,1,0,0:0:0:0:
192,192,13633,1,0,0:0:0:0:
448,192,13633,1,0,0:0:0:0:
320,192,13864,1,0,0:0:0:0:
192,192,13864,1,0,0:0:0:0:
192,192,14094,1,0,0:0:0:0:
64,192,14094,1,0,0:0:0:0:
448,192,14094,1,0,0:0:0:0:
192,192,14210,1,0,0:0:0:0:
320,192,14210,1,0,0:0:0:0:
64,192,14325,1,0,0:0:0:0:
448,192,14441,1,0,0:0:0:0:
192,192,14441,1,0,0:0:0:0:
64,192,14556,1,0,0:0:0:0:
320,192,14556,1,0,0:0:0:0:
448,192,14556,1,0,0:0:0:0:
448,192,14787,1,0,0:0:0:0:
64,192,14787,1,0,0:0:0:0:
192,192,15018,1,0,0:0:0:0:
64,192,15018,1,0,0:0:0:0:
320,192,15018,1,0,0:0:0:0:
448,192,15133,1,0,0:0:0:0:
64,192,15133,1,0,0:0:0:0:
320,192,15248,1,0,0:0:0:0:
64,192,15364,1,0,0:0:0:0:
448,192,15364,1,0,0:0:0:0:
448,192,15479,1,0,0:0:0:0:
320,192,15479,1,0,0:0:0:0:
192,192,15479,1,0,0:0:0:0:
192,192,15710,1,0,0:0:0:0:
64,192,15710,1,0,0:0:0:0:
320,192,15941,1,0,0:0:0:0:
448,192,15941,1,0,0:0:0:0:
64,192,15941,1,0,0:0:0:0:
192,192,16056,1,0,0:0:0:0:
320,192,16056,1,0,0:0:0:0:
320,192,16171,1,0,0:0:0:0:
448,192,16171,1,0,0:0:0:0:
320,192,16287,1,0,0:0:0:0:
448,192,16287,1,0,0:0:0:0:
192,192,16402,1,0,0:0:0:0:
64,192,16402,1,0,0:0:0:0:
192,192,16518,1,0,0:0:0:0:
64,192,16518,1,0,0:0:0:0:
64,192,16633,1,0,0:0:0:0:
320,192,16633,1,0,0:0:0:0:
448,192,16633,1,0,0:0:0:0:
64,192,16864,1,0,0:0:0:0:
192,192,16864,1,0,0:0:0:0:
448,192,16864,1,0,0:0:0:0:
448,192,17094,128,0,17556:0:0:0:0:
64,192,17094,1,0,0:0:0:0:
320,192,17210,1,0,0:0:0:0:
192,192,17325,1,0,0:0:0:0:
64,192,17325,1,0,0:0:0:0:
64,192,17556,128,0,18018:0:0:0:0:
320,192,17556,1,0,0:0:0:0:
448,192,17671,1,0,0:0:0:0:
192,192,17787,1,0,0:0:0:0:
320,192,17787,1,0,0:0:0:0:
192,192,18018,128,0,18479:0:0:0:0:
448,192,18018,1,0,0:0:0:0:
320,192,18133,1,0,0:0:0:0:
64,192,18248,1,0,0:0:0:0:
448,192,18248,1,0,0:0:0:0:
320,192,18479,128,0,18941:0:0:0:0:
64,192,18479,1,0,0:0:0:0:
448,192,18479,1,0,0:0:0:0:
192,192,18710,1,0,0:0:0:0:
64,192,18710,1,0,0:0:0:0:
448,192,18825,1,0,0:0:0:0:
64,192,18941,128,0,19402:0:0:0:0:
448,192,18941,1,0,0:0:0:0:
192,192,19056,1,0,0:0:0:0:
320,192,19171,1,0,0:0:0:0:
448,192,19171,1,0,0:0:0:0:
448,192,19402,128,0,19864:0:0:0:0:
320,192,19402,1,0,0:0:0:0:
64,192,19633,1,0,0:0:0:0:
192,192,19633,1,0,0:0:0:0:
320,192,19748,1,0,0:0:0:0:
64,192,19864,128,0,20325:0:0:0:0:
192,192,19864,1,0,0:0:0:0:
448,192,19979,1,0,0:0:0:0:
192,192,20094,1,0,0:0:0:0:
320,192,20094,1,0,0:0:0:0:
192,192,20325,1,0,0:0:0:0:
320,192,20325,1,0,0:0:0:0:
448,192,20325,1,0,0:0:0:0:
64,192,20556,1,0,0:0:0:0:
448,192,20556,1,0,0:0:0:0:
320,192,20556,1,0,0:0:0:0:
192,192,20671,1,0,0:0:0:0:
64,192,20787,128,0,21248:0:0:0:0:
448,192,20787,1,0,0:0:0:0:
192,192,20902,1,0,0:0:0:0:
320,192,21018,1,0,0:0:0:0:
448,192,21018,1,0,0:0:0:0:
448,192,21248,128,0,21710:0:0:0:0:
320,192,21248,1,0,0:0:0:0:
192,192,21364,1,0,0:0:0:0:
64,192,21479,1,0,0:0:0:0:
320,192,21479,1,0,0:0:0:0:
192,192,21594,1,0,0:0:0:0:
320,192,21710,128,0,22171:0:0:0:0:
64,192,21710,1,0,0:0:0:0:
448,192,21825,1,0,0:0:0:0:
64,192,21941,1,0,0:0:0:0:
192,192,21941,1,0,0:0:0:0:
64,192,22171,128,0,22633:0:0:0:0:
192,192,22171,1,0,0:0:0:0:
448,192,22171,1,0,0:0:0:0:
448,192,22402,1,0,0:0:0:0:
192,192,22402,1,0,0:0:0:0:
320,192,22518,1,0,0:0:0:0:
192,192,22633,128,0,23094:0:0:0:0:
448,192,22633,1,0,0:0:0:0:
320,192,22748,1,0,0:0:0:0:
64,192,22864,1,0,0:0:0:0:
448,192,22864,1,0,0:0:0:0:
448,192,23094,1,0,0:0:0:0:
64,192,23210,1,0,0:0:0:0:
192,192,23210,1,0,0:0:0:0:
64,192,23325,1,0,0:0:0:0:
192,192,23325,1,0,0:0:0:0:
448,192,23441,1,0,0:0:0:0:
192,192,23556,1,0,0:0:0:0:
64,192,23556,1,0,0:0:0:0:
320,192,23671,1,0,0:0:0:0:
448,192,23671,1,0,0:0:0:0:
192,192,23787,1,0,0:0:0:0:
64,192,23787,1,0,0:0:0:0:
448,192,23902,1,0,0:0:0:0:
320,192,23902,1,0,0:0:0:0:
448,192,24018,1,0,0:0:0:0:
192,192,24018,1,0,0:0:0:0:
64,192,24018,1,0,0:0:0:0:
448,192,24248,1,0,0:0:0:0:
320,192,24248,1,0,0:0:0:0:
192,192,24248,1,0,0:0:0:0:
64,192,24364,1,0,0:0:0:0:
192,192,24364,1,0,0:0:0:0:
448,192,24479,1,0,0:0:0:0:
320,192,24594,1,0,0:0:0:0:
448,192,24710,1,0,0:0:0:0:
192,192,24710,1,0,0:0:0:0:
64,192,24710,1,0,0:0:0:0:
320,192,24941,1,0,0:0:0:0:
192,192,24941,1,0,0:0:0:0:
192,192,25171,1,0,0:0:0:0:
64,192,25171,1,0,0:0:0:0:
448,192,25171,1,0,0:0:0:0:
320,192,25287,1,0,0:0:0:0:
192,192,25287,1,0,0:0:0:0:
64,192,25402,1,0,0:0:0:0:
448,192,25518,1,0,0:0:0:0:
192,192,25518,1,0,0:0:0:0:
320,192,25633,1,0,0:0:0:0:
192,192,25633,1,0,0:0:0:0:
64,192,25633,1,0,0:0:0:0:
64,192,25864,1,0,0:0:0:0:
448,192,25864,1,0,0:0:0:0:
448,192,26094,1,0,0:0:0:0:
320,192,26094,1,0,0:0:0:0:
192,192,26094,1,0,0:0:0:0:
64,192,26210,1,0,0:0:0:0:
192,192,26210,1,0,0:0:0:0:
448,192,26325,1,0,0:0:0:0:
320,192,26441,1,0,0:0:0:0:
64,192,26441,1,0,0:0:0:0:
192,192,26556,1,0,0:0:0:0:
320,192,26556,1,0,0:0:0:0:
448,192,26556,1,0,0:0:0:0:
192,192,26787,1,0,0:0:0:0:
448,192,26787,1,0,0:0:0:0:
448,192,27018,1,0,0:0:0:0:
320,192,27018,1,0,0:0:0:0:
64,192,27018,1,0,0:0:0:0:
320,192,27133,1,0,0:0:0:0:
192,192,27133,1,0,0:0:0:0:
64,192,27248,1,0,0:0:0:0:
320,192,27364,1,0,0:0:0:0:
448,192,27364,1,0,0:0:0:0:
448,192,27479,1,0,0:0:0:0:
192,192,27479,1,0,0:0:0:0:
64,192,27479,1,0,0:0:0:0:
320,192,27710,1,0,0:0:0:0:
64,192,27710,1,0,0:0:0:0:
192,192,27941,1,0,0:0:0:0:
64,192,27941,1,0,0:0:0:0:
320,192,27941,1,0,0:0:0:0:
192,192,28056,1,0,0:0:0:0:
448,192,28056,1,0,0:0:0:0:
64,192,28171,1,0,0:0:0:0:
192,192,28287,1,0,0:0:0:0:
320,192,28287,1,0,0:0:0:0:
448,192,28402,1,0,0:0:0:0:
192,192,28402,1,0,0:0:0:0:
64,192,28402,1,0,0:0:0:0:
192,192,28633,1,0,0:0:0:0:
320,192,28633,1,0,0:0:0:0:
320,192,28864,1,0,0:0:0:0:
448,192,28864,1,0,0:0:0:0:
64,192,28864,1,0,0:0:0:0:
320,192,28979,1,0,0:0:0:0:
192,192,28979,1,0,0:0:0:0:
448,192,29094,1,0,0:0:0:0:
64,192,29210,1,0,0:0:0:0:
320,192,29210,1,0,0:0:0:0:
448,192,29325,1,0,0:0:0:0:
192,192,29325,1,0,0:0:0:0:
64,192,29325,1,0,0:0:0:0:
64,192,29556,1,0,0:0:0:0:
448,192,29556,1,0,0:0:0:0:
320,192,29787,1,0,0:0:0:0:
448,192,29787,1,0,0:0:0:0:
192,192,29787,1,0,0:0:0:0:
64,192,29902,1,0,0:0:0:0:
448,192,29902,1,0,0:0:0:0:
192,192,30018,1,0,0:0:0:0:
320,192,30133,1,0,0:0:0:0:
64,192,30133,1,0,0:0:0:0:
64,192,30248,1,0,0:0:0:0:
192,192,30248,1,0,0:0:0:0:
448,192,30248,1,0,0:0:0:0:
320,192,30479,1,0,0:0:0:0:
192,192,30479,1,0,0:0:0:0:
192,192,30710,1,0,0:0:0:0:
64,192,30710,1,0,0:0:0:0:
448,192,30710,1,0,0:0:0:0:
320,192,30825,1,0,0:0:0:0:
448,192,30825,1,0,0:0:0:0:
192,192,30941,5,0,0:0:0:0:
64,192,30941,1,0,0:0:0:0:
192,192,31056,1,0,0:0:0:0:
64,192,31056,1,0,0:0:0:0:
320,192,31171,1,0,0:0:0:0:
448,192,31171,1,0,0:0:0:0:
320,192,31287,1,0,0:0:0:0:
448,192,31287,1,0,0:0:0:0:
64,192,31402,1,0,0:0:0:0:
192,192,31402,1,0,0:0:0:0:
448,192,31402,1,0,0:0:0:0:
320,192,31518,1,0,0:0:0:0:
448,192,31633,1,0,0:0:0:0:
320,192,31748,1,0,0:0:0:0:
192,192,31864,1,0,0:0:0:0:
64,192,31864,1,0,0:0:0:0:
320,192,31979,1,0,0:0:0:0:
448,192,32094,1,0,0:0:0:0:
320,192,32210,1,0,0:0:0:0:
64,192,32325,1,0,0:0:0:0:
192,192,32325,1,0,0:0:0:0:
320,192,32441,1,0,0:0:0:0:
448,192,32556,1,0,0:0:0:0:
320,192,32671,1,0,0:0:0:0:
64,192,32787,1,0,0:0:0:0:
192,192,32787,1,0,0:0:0:0:
320,192,32902,1,0,0:0:0:0:
448,192,32960,1,0,0:0:0:0:
320,192,33018,1,0,0:0:0:0:
192,192,33133,1,0,0:0:0:0:
320,192,33248,1,0,0:0:0:0:
448,192,33248,1,0,0:0:0:0:
192,192,33364,1,0,0:0:0:0:
64,192,33479,1,0,0:0:0:0:
192,192,33594,1,0,0:0:0:0:
320,192,33710,1,0,0:0:0:0:
448,192,33710,1,0,0:0:0:0:
192,192,33825,1,0,0:0:0:0:
64,192,33941,1,0,0:0:0:0:
192,192,34056,1,0,0:0:0:0:
320,192,34171,1,0,0:0:0:0:
448,192,34171,1,0,0:0:0:0:
192,192,34287,1,0,0:0:0:0:
64,192,34402,1,0,0:0:0:0:
192,192,34518,1,0,0:0:0:0:
320,192,34633,1,0,0:0:0:0:
448,192,34633,1,0,0:0:0:0:
192,192,34710,1,0,0:0:0:0:
64,192,34710,1,0,0:0:0:0:
320,192,34787,1,0,0:0:0:0:
448,192,34787,1,0,0:0:0:0:
192,192,34864,1,0,0:0:0:0:
64,192,34864,1,0,0:0:0:0:
192,192,34979,1,0,0:0:0:0:
320,192,34979,1,0,0:0:0:0:
64,192,35094,1,0,0:0:0:0:
320,192,35094,1,0,0:0:0:0:
448,192,35094,1,0,0:0:0:0:
64,192,35325,1,0,0:0:0:0:
448,192,35325,1,0,0:0:0:0:
320,192,35556,1,0,0:0:0:0:
64,192,35671,1,0,0:0:0:0:
192,192,35671,1,0,0:0:0:0:
320,192,35787,1,0,0:0:0:0:
448,192,35787,1,0,0:0:0:0:
64,192,36018,1,0,0:0:0:0:
192,192,36133,1,0,0:0:0:0:
320,192,36133,1,0,0:0:0:0:
64,192,36248,1,0,0:0:0:0:
448,192,36248,1,0,0:0:0:0:
448,192,36479,1,0,0:0:0:0:
320,192,36594,1,0,0:0:0:0:
64,192,36594,1,0,0:0:0:0:
192,192,36710,1,0,0:0:0:0:
448,192,36710,1,0,0:0:0:0:
320,192,36941,1,0,0:0:0:0:
448,192,36941,1,0,0:0:0:0:
192,192,37171,1,0,0:0:0:0:
448,192,37171,1,0,0:0:0:0:
320,192,37287,1,0,0:0:0:0:
64,192,37402,1,0,0:0:0:0:
448,192,37518,1,0,0:0:0:0:
320,192,37518,1,0,0:0:0:0:
192,192,37633,1,0,0:0:0:0:
64,192,37633,1,0,0:0:0:0:
192,192,37864,1,0,0:0:0:0:
448,192,37864,1,0,0:0:0:0:
64,192,38094,1,0,0:0:0:0:
192,192,38094,1,0,0:0:0:0:
448,192,38210,1,0,0:0:0:0:
192,192,38325,1,0,0:0:0:0:
448,192,38441,1,0,0:0:0:0:
64,192,38441,1,0,0:0:0:0:
192,192,38556,1,0,0:0:0:0:
320,192,38556,1,0,0:0:0:0:
64,192,38787,1,0,0:0:0:0:
320,192,38787,1,0,0:0:0:0:
448,192,38787,1,0,0:0:0:0:
192,192,39018,1,0,0:0:0:0:
64,192,39018,1,0,0:0:0:0:
192,192,39248,1,0,0:0:0:0:
320,192,39364,1,0,0:0:0:0:
64,192,39364,1,0,0:0:0:0:
192,192,39479,1,0,0:0:0:0:
448,192,39479,1,0,0:0:0:0:
320,192,39710,1,0,0:0:0:0:
448,192,39710,1,0,0:0:0:0:
192,192,39825,1,0,0:0:0:0:
64,192,39941,1,0,0:0:0:0:
448,192,39941,1,0,0:0:0:0:
320,192,40171,1,0,0:0:0:0:
192,192,40287,1,0,0:0:0:0:
448,192,40287,1,0,0:0:0:0:
64,192,40402,1,0,0:0:0:0:
320,192,40402,1,0,0:0:0:0:
320,192,40633,1,0,0:0:0:0:
448,192,40633,1,0,0:0:0:0:
64,192,40864,1,0,0:0:0:0:
448,192,40864,1,0,0:0:0:0:
320,192,40979,1,0,0:0:0:0:
192,192,41094,1,0,0:0:0:0:
64,192,41210,1,0,0:0:0:0:
320,192,41210,1,0,0:0:0:0:
448,192,41325,1,0,0:0:0:0:
192,192,41325,1,0,0:0:0:0:
64,192,41402,1,0,0:0:0:0:
192,192,41479,1,0,0:0:0:0:
320,192,41556,1,0,0:0:0:0:
448,192,41556,1,0,0:0:0:0:
448,192,41787,1,0,0:0:0:0:
320,192,41787,1,0,0:0:0:0:
64,192,41902,1,0,0:0:0:0:
192,192,41902,1,0,0:0:0:0:
448,192,42018,1,0,0:0:0:0:
64,192,42018,1,0,0:0:0:0:
320,192,42133,1,0,0:0:0:0:
192,192,42133,1,0,0:0:0:0:
64,192,42248,1,0,0:0:0:0:
448,192,42248,1,0,0:0:0:0:
192,192,42364,1,0,0:0:0:0:
320,192,42364,1,0,0:0:0:0:
448,192,42479,128,0,44325:0:0:0:0:
64,192,42479,1,0,0:0:0:0:
192,192,42710,1,0,0:0:0:0:
320,192,42710,1,0,0:0:0:0:
64,192,42941,1,0,0:0:0:0:
320,192,43056,1,0,0:0:0:0:
192,192,43171,1,0,0:0:0:0:
64,192,43171,1,0,0:0:0:0:
320,192,43402,1,0,0:0:0:0:
64,192,43518,1,0,0:0:0:0:
192,192,43633,1,0,0:0:0:0:
320,192,43633,1,0,0:0:0:0:
64,192,43864,1,0,0:0:0:0:
192,192,43979,1,0,0:0:0:0:
64,192,44094,1,0,0:0:0:0:
320,192,44094,1,0,0:0:0:0:
64,192,44325,128,0,46171:0:0:0:0:
192,192,44325,1,0,0:0:0:0:
320,192,44556,1,0,0:0:0:0:
448,192,44556,1,0,0:0:0:0:
192,192,44671,1,0,0:0:0:0:
448,192,44787,1,0,0:0:0:0:
320,192,44902,1,0,0:0:0:0:
448,192,45018,1,0,0:0:0:0:
192,192,45018,1,0,0:0:0:0:
448,192,45248,1,0,0:0:0:0:
320,192,45248,1,0,0:0:0:0:
192,192,45479,1,0,0:0:0:0:
448,192,45479,1,0,0:0:0:0:
320,192,45594,1,0,0:0:0:0:
192,192,45710,1,0,0:0:0:0:
448,192,45825,1,0,0:0:0:0:
320,192,45941,1,0,0:0:0:0:
192,192,45941,1,0,0:0:0:0:
448,192,46171,128,0,48018:0:0:0:0:
192,192,46171,1,0,0:0:0:0:
320,192,46171,1,0,0:0:0:0:
192,192,46402,1,0,0:0:0:0:
64,192,46402,1,0,0:0:0:0:
320,192,46633,1,0,0:0:0:0:
64,192,46748,1,0,0:0:0:0:
192,192,46864,1,0,0:0:0:0:
320,192,46864,1,0,0:0:0:0:
192,192,47094,1,0,0:0:0:0:
320,192,47210,1,0,0:0:0:0:
64,192,47325,1,0,0:0:0:0:
192,192,47325,1,0,0:0:0:0:
64,192,47556,1,0,0:0:0:0:
192,192,47671,1,0,0:0:0:0:
64,192,47787,1,0,0:0:0:0:
320,192,47787,1,0,0:0:0:0:
64,192,48018,128,0,49402:0:0:0:0:
320,192,48018,1,0,0:0:0:0:
320,192,48248,1,0,0:0:0:0:
448,192,48248,1,0,0:0:0:0:
192,192,48364,1,0,0:0:0:0:
320,192,48479,1,0,0:0:0:0:
448,192,48594,1,0,0:0:0:0:
192,192,48710,1,0,0:0:0:0:
320,192,48710,1,0,0:0:0:0:
192,192,48941,1,0,0:0:0:0:
448,192,48941,1,0,0:0:0:0:
448,192,49171,1,0,0:0:0:0:
320,192,49171,1,0,0:0:0:0:
192,192,49287,1,0,0:0:0:0:
320,192,49402,1,0,0:0:0:0:
448,192,49402,1,0,0:0:0:0:
64,192,49518,1,0,0:0:0:0:
192,192,49518,1,0,0:0:0:0:
320,192,49633,1,0,0:0:0:0:
448,192,49633,128,0,49806:0:0:0:0:
64,192,49748,1,0,0:0:0:0:
192,192,49748,1,0,0:0:0:0:
64,192,49864,128,0,50094:0:0:0:0:
320,192,49864,1,0,0:0:0:0:
448,192,50094,1,0,0:0:0:0:
192,192,50094,1,0,0:0:0:0:
320,192,50210,1,0,0:0:0:0:
448,192,50441,1,0,0:0:0:0:
192,192,50441,1,0,0:0:0:0:
64,192,50556,128,0,50787:0:0:0:0:
320,192,50556,128,0,50787:0:0:0:0:
448,192,50787,128,0,51018:0:0:0:0:
192,192,50787,1,0,0:0:0:0:
64,192,51018,1,0,0:0:0:0:
320,192,51018,1,0,0:0:0:0:
192,192,51133,1,0,0:0:0:0:
192,192,51364,1,0,0:0:0:0:
64,192,51364,1,0,0:0:0:0:
320,192,51479,128,0,51710:0:0:0:0:
448,192,51479,128,0,51710:0:0:0:0:
64,192,51710,128,0,51941:0:0:0:0:
192,192,51710,1,0,0:0:0:0:
448,192,51941,1,0,0:0:0:0:
192,192,51941,1,0,0:0:0:0:
320,192,52056,1,0,0:0:0:0:
320,192,52287,1,0,0:0:0:0:
448,192,52287,1,0,0:0:0:0:
64,192,52402,128,0,52633:0:0:0:0:
192,192,52402,128,0,52633:0:0:0:0:
320,192,52633,1,0,0:0:0:0:
448,192,52633,128,0,52864:0:0:0:0:
64,192,52864,1,0,0:0:0:0:
192,192,52864,1,0,0:0:0:0:
320,192,52979,1,0,0:0:0:0:
64,192,53210,1,0,0:0:0:0:
448,192,53210,1,0,0:0:0:0:
192,192,53325,128,0,53556:0:0:0:0:
320,192,53325,128,0,53556:0:0:0:0:
448,192,53556,1,0,0:0:0:0:
64,192,53556,128,0,53787:0:0:0:0:
320,192,53787,1,0,0:0:0:0:
448,192,53787,1,0,0:0:0:0:
192,192,54018,1,0,0:0:0:0:
448,192,54018,1,0,0:0:0:0:
320,192,54133,1,0,0:0:0:0:
64,192,54248,128,0,54479:0:0:0:0:
448,192,54364,128,0,54479:0:0:0:0:
320,192,54479,128,0,54710:0:0:0:0:
192,192,54479,1,0,0:0:0:0:
64,192,54594,1,0,0:0:0:0:
448,192,54710,1,0,0:0:0:0:
192,192,54710,1,0,0:0:0:0:
64,192,54941,1,0,0:0:0:0:
192,192,55056,1,0,0:0:0:0:
64,192,55171,128,0,55402:0:0:0:0:
448,192,55171,128,0,55402:0:0:0:0:
192,192,55402,128,0,55633:0:0:0:0:
320,192,55402,1,0,0:0:0:0:
448,192,55633,1,0,0:0:0:0:
64,192,55633,1,0,0:0:0:0:
320,192,55748,1,0,0:0:0:0:
64,192,55979,1,0,0:0:0:0:
192,192,55979,1,0,0:0:0:0:
320,192,56094,128,0,56325:0:0:0:0:
448,192,56094,128,0,56556:0:0:0:0:
192,192,56325,1,0,0:0:0:0:
64,192,56325,128,0,56556:0:0:0:0:
192,192,56556,1,0,0:0:0:0:
320,192,56556,1,0,0:0:0:0:
64,192,56671,1,0,0:0:0:0:
448,192,56671,1,0,0:0:0:0:
320,192,56787,1,0,0:0:0:0:
448,192,56787,1,0,0:0:0:0:
192,192,56902,1,0,0:0:0:0:
64,192,56902,1,0,0:0:0:0:
320,192,57018,1,0,0:0:0:0:
448,192,57018,1,0,0:0:0:0:
192,192,57133,1,0,0:0:0:0:
64,192,57133,1,0,0:0:0:0:
192,192,57479,1,0,0:0:0:0:
64,192,57479,1,0,0:0:0:0:
448,192,57479,128,0,58402:0:0:0:0:
320,192,57710,1,0,0:0:0:0:
64,192,57710,1,0,0:0:0:0:
192,192,57825,1,0,0:0:0:0:
64,192,57941,1,0,0:0:0:0:
320,192,57941,1,0,0:0:0:0:
192,192,58171,1,0,0:0:0:0:
64,192,58402,1,0,0:0:0:0:
320,192,58402,1,0,0:0:0:0:
192,192,58518,1,0,0:0:0:0:
448,192,58691,128,0,59094:0:0:0:0:
192,192,58864,1,0,0:0:0:0:
64,192,59094,128,0,59325:0:0:0:0:
320,192,59094,128,0,59325:0:0:0:0:
192,192,59325,1,0,0:0:0:0:
448,192,59325,1,0,0:0:0:0:
320,192,59441,1,0,0:0:0:0:
320,192,59671,1,0,0:0:0:0:
64,192,59671,1,0,0:0:0:0:
64,192,59787,128,0,60018:0:0:0:0:
448,192,59787,128,0,60248:0:0:0:0:
320,192,60018,128,0,60248:0:0:0:0:
192,192,60248,1,0,0:0:0:0:
64,192,60248,1,0,0:0:0:0:
320,192,60364,1,0,0:0:0:0:
448,192,60594,1,0,0:0:0:0:
64,192,60594,1,0,0:0:0:0:
320,192,60710,128,0,60941:0:0:0:0:
192,192,60710,128,0,60941:0:0:0:0:
64,192,60941,128,0,61287:0:0:0:0:
448,192,60941,1,0,0:0:0:0:
448,192,61171,1,0,0:0:0:0:
320,192,61171,1,0,0:0:0:0:
192,192,61287,1,0,0:0:0:0:
448,192,61402,1,0,0:0:0:0:
64,192,61402,1,0,0:0:0:0:
320,192,61518,1,0,0:0:0:0:
448,192,61633,128,0,61864:0:0:0:0:
64,192,61748,128,0,61864:0:0:0:0:
192,192,61864,128,0,62094:0:0:0:0:
320,192,61979,1,0,0:0:0:0:
64,192,62094,1,0,0:0:0:0:
448,192,62094,1,0,0:0:0:0:
320,192,62210,1,0,0:0:0:0:
192,192,62210,1,0,0:0:0:0:
64,192,62325,1,0,0:0:0:0:
192,192,62441,1,0,0:0:0:0:
448,192,62556,128,0,62787:0:0:0:0:
64,192,62556,128,0,62787:0:0:0:0:
320,192,62787,1,0,0:0:0:0:
192,192,62787,128,0,63018:0:0:0:0:
64,192,63018,1,0,0:0:0:0:
448,192,63018,1,0,0:0:0:0:
320,192,63133,1,0,0:0:0:0:
192,192,63364,1,0,0:0:0:0:
64,192,63364,1,0,0:0:0:0:
448,192,63479,128,0,63710:0:0:0:0:
64,192,63710,1,0,0:0:0:0:
192,192,63768,1,0,0:0:0:0:
320,192,63825,1,0,0:0:0:0:
320,192,63941,1,0,0:0:0:0:
192,192,63941,1,0,0:0:0:0:
64,192,63998,1,0,0:0:0:0:
448,192,64056,128,0,64171:0:0:0:0:
320,192,64171,1,0,0:0:0:0:
64,192,64287,1,0,0:0:0:0:
192,192,64287,1,0,0:0:0:0:
448,192,64402,1,0,0:0:0:0:
320,192,64402,1,0,0:0:0:0:
64,192,64518,1,0,0:0:0:0:
192,192,64518,1,0,0:0:0:0:
64,192,64633,1,0,0:0:0:0:
320,192,64633,1,0,0:0:0:0:
448,192,64633,1,0,0:0:0:0:
192,192,64864,1,0,0:0:0:0:
320,192,65094,1,0,0:0:0:0:
448,192,65094,1,0,0:0:0:0:
192,192,65171,1,0,0:0:0:0:
64,192,65171,1,0,0:0:0:0:
320,192,65248,1,0,0:0:0:0:
448,192,65248,1,0,0:0:0:0:
192,192,65325,1,0,0:0:0:0:
64,192,65325,1,0,0:0:0:0:
448,192,65556,1,0,0:0:0:0:
192,192,65556,1,0,0:0:0:0:
64,192,65787,1,0,0:0:0:0:
192,192,65787,1,0,0:0:0:0:
320,192,65787,1,0,0:0:0:0:
64,192,66018,1,0,0:0:0:0:
448,192,66018,1,0,0:0:0:0:
320,192,66133,1,0,0:0:0:0:
192,192,66133,1,0,0:0:0:0:
64,192,66248,1,0,0:0:0:0:
448,192,66248,1,0,0:0:0:0:
192,192,66364,1,0,0:0:0:0:
320,192,66364,1,0,0:0:0:0:
64,192,66479,1,0,0:0:0:0:
448,192,66479,1,0,0:0:0:0:
320,192,66710,1,0,0:0:0:0:
448,192,66825,1,0,0:0:0:0:
64,192,66941,1,0,0:0:0:0:
192,192,66941,1,0,0:0:0:0:
448,192,67018,1,0,0:0:0:0:
320,192,67018,1,0,0:0:0:0:
64,192,67094,1,0,0:0:0:0:
192,192,67094,1,0,0:0:0:0:
320,192,67171,1,0,0:0:0:0:
448,192,67171,1,0,0:0:0:0:
64,192,67402,1,0,0:0:0:0:
192,192,67402,1,0,0:0:0:0:
192,192,67633,1,0,0:0:0:0:
320,192,67633,1,0,0:0:0:0:
448,192,67633,1,0,0:0:0:0:
192,192,67864,1,0,0:0:0:0:
320,192,67864,1,0,0:0:0:0:
64,192,67979,1,0,0:0:0:0:
448,192,67979,1,0,0:0:0:0:
192,192,68094,1,0,0:0:0:0:
320,192,68094,1,0,0:0:0:0:
64,192,68210,1,0,0:0:0:0:
448,192,68210,1,0,0:0:0:0:
192,192,68325,1,0,0:0:0:0:
320,192,68325,1,0,0:0:0:0:
448,192,68671,1,0,0:0:0:0:
64,192,68787,1,0,0:0:0:0:
192,192,68787,1,0,0:0:0:0:
320,192,68864,1,0,0:0:0:0:
448,192,68864,1,0,0:0:0:0:
192,192,68941,1,0,0:0:0:0:
64,192,68941,1,0,0:0:0:0:
320,192,69018,1,0,0:0:0:0:
448,192,69018,1,0,0:0:0:0:
320,192,69248,1,0,0:0:0:0:
64,192,69248,1,0,0:0:0:0:
448,192,69479,1,0,0:0:0:0:
192,192,69479,1,0,0:0:0:0:
64,192,69710,1,0,0:0:0:0:
320,192,69710,1,0,0:0:0:0:
192,192,69825,1,0,0:0:0:0:
448,192,69825,1,0,0:0:0:0:
320,192,69941,1,0,0:0:0:0:
64,192,69941,1,0,0:0:0:0:
192,192,70056,1,0,0:0:0:0:
448,192,70056,1,0,0:0:0:0:
64,192,70171,1,0,0:0:0:0:
448,192,70171,1,0,0:0:0:0:
64,192,70518,1,0,0:0:0:0:
448,192,70633,1,0,0:0:0:0:
320,192,70633,1,0,0:0:0:0:
64,192,70710,1,0,0:0:0:0:
192,192,70710,1,0,0:0:0:0:
320,192,70787,1,0,0:0:0:0:
448,192,70787,1,0,0:0:0:0:
64,192,70864,1,0,0:0:0:0:
192,192,70864,1,0,0:0:0:0:
448,192,71094,1,0,0:0:0:0:
192,192,71094,1,0,0:0:0:0:
64,192,71325,1,0,0:0:0:0:
320,192,71325,1,0,0:0:0:0:
448,192,71325,1,0,0:0:0:0:
64,192,71556,1,0,0:0:0:0:
448,192,71556,1,0,0:0:0:0:
192,192,71671,1,0,0:0:0:0:
320,192,71671,1,0,0:0:0:0:
448,192,71787,1,0,0:0:0:0:
64,192,71787,1,0,0:0:0:0:
192,192,71902,1,0,0:0:0:0:
320,192,71902,1,0,0:0:0:0:
64,192,72018,1,0,0:0:0:0:
192,192,72018,1,0,0:0:0:0:
448,192,72018,1,0,0:0:0:0:
320,192,72248,1,0,0:0:0:0:
448,192,72248,1,0,0:0:0:0:
192,192,72364,1,0,0:0:0:0:
448,192,72479,1,0,0:0:0:0:
64,192,72479,1,0,0:0:0:0:
320,192,72594,1,0,0:0:0:0:
192,192,72594,1,0,0:0:0:0:
64,192,72710,128,0,72941:0:0:0:0:
448,192,72710,128,0,72941:0:0:0:0:
320,192,72941,128,0,73171:0:0:0:0:
192,192,72941,128,0,73171:0:0:0:0:
448,192,73171,1,0,0:0:0:0:
64,192,73171,1,0,0:0:0:0:
320,192,73287,1,0,0:0:0:0:
64,192,73402,1,0,0:0:0:0:
192,192,73402,1,0,0:0:0:0:
320,192,73518,1,0,0:0:0:0:
448,192,73518,1,0,0:0:0:0:
192,192,73633,128,0,73864:0:0:0:0:
320,192,73633,128,0,73864:0:0:0:0:
448,192,73864,128,0,74094:0:0:0:0:
64,192,73864,128,0,74094:0:0:0:0:
192,192,74094,1,0,0:0:0:0:
320,192,74094,1,0,0:0:0:0:
192,192,74210,1,0,0:0:0:0:
448,192,74325,1,0,0:0:0:0:
192,192,74441,1,0,0:0:0:0:
64,192,74556,128,0,74787:0:0:0:0:
320,192,74556,128,0,74787:0:0:0:0:
192,192,74787,128,0,75018:0:0:0:0:
448,192,74787,128,0,75018:0:0:0:0:
64,192,75018,1,0,0:0:0:0:
320,192,75018,1,0,0:0:0:0:
192,192,75133,1,0,0:0:0:0:
320,192,75133,1,0,0:0:0:0:
448,192,75248,1,0,0:0:0:0:
320,192,75364,1,0,0:0:0:0:
64,192,75479,1,0,0:0:0:0:
192,192,75479,1,0,0:0:0:0:
64,192,75594,1,0,0:0:0:0:
192,192,75594,1,0,0:0:0:0:
448,192,75710,128,0,75941:0:0:0:0:
320,192,75710,128,0,75941:0:0:0:0:
64,192,75941,1,0,0:0:0:0:
192,192,75941,1,0,0:0:0:0:
64,192,76171,128,0,76402:0:0:0:0:
448,192,76171,128,0,76402:0:0:0:0:
192,192,76402,1,0,0:0:0:0:
320,192,76402,1,0,0:0:0:0:
320,192,76518,1,0,0:0:0:0:
64,192,76633,128,0,76864:0:0:0:0:
192,192,76633,128,0,76864:0:0:0:0:
448,192,76864,1,0,0:0:0:0:
320,192,76864,1,0,0:0:0:0:
320,192,77094,128,0,77325:0:0:0:0:
448,192,77094,128,0,77325:0:0:0:0:
64,192,77325,1,0,0:0:0:0:
192,192,77325,1,0,0:0:0:0:
192,192,77441,1,0,0:0:0:0:
64,192,77556,1,0,0:0:0:0:
320,192,77556,1,0,0:0:0:0:
448,192,77556,1,0,0:0:0:0:
192,192,77556,1,0,0:0:0:0:
320,192,77787,1,0,0:0:0:0:
64,192,78018,5,0,0:0:0:0:
192,192,78018,1,0,0:0:0:0:
320,192,78133,1,0,0:0:0:0:
448,192,78133,1,0,0:0:0:0:
192,192,78248,1,0,0:0:0:0:
64,192,78248,1,0,0:0:0:0:
320,192,78364,1,0,0:0:0:0:
448,192,78364,1,0,0:0:0:0:
448,192,78479,128,0,79402:0:0:0:0:
64,192,78479,1,0,0:0:0:0:
64,192,79402,1,0,0:0:0:0:
192,192,79402,1,0,0:0:0:0:
320,192,79402,1,0,0:0:0:0:
192,192,79518,1,0,0:0:0:0:
448,192,79633,1,0,0:0:0:0:
64,192,79633,1,0,0:0:0:0:
320,192,79633,1,0,0:0:0:0:
192,192,79748,1,0,0:0:0:0:
64,192,79864,1,0,0:0:0:0:
320,192,79864,1,0,0:0:0:0:
448,192,79979,1,0,0:0:0:0:
320,192,79979,1,0,0:0:0:0:
64,192,80094,1,0,0:0:0:0:
448,192,80094,1,0,0:0:0:0:
192,192,80094,1,0,0:0:0:0:
320,192,80210,1,0,0:0:0:0:
192,192,80325,1,0,0:0:0:0:
64,192,80325,1,0,0:0:0:0:
320,192,80441,1,0,0:0:0:0:
448,192,80556,1,0,0:0:0:0:
320,192,80556,1,0,0:0:0:0:
192,192,80556,1,0,0:0:0:0:
64,192,80671,1,0,0:0:0:0:
192,192,80671,1,0,0:0:0:0:
320,192,80787,1,0,0:0:0:0:
448,192,80902,1,0,0:0:0:0:
192,192,80902,1,0,0:0:0:0:
320,192,81018,1,0,0:0:0:0:
64,192,81018,1,0,0:0:0:0:
192,192,81018,1,0,0:0:0:0:
64,192,81133,1,0,0:0:0:0:
320,192,81248,1,0,0:0:0:0:
448,192,81248,1,0,0:0:0:0:
192,192,81364,1,0,0:0:0:0:
64,192,81479,1,0,0:0:0:0:
448,192,81479,1,0,0:0:0:0:
192,192,81479,1,0,0:0:0:0:
320,192,81594,1,0,0:0:0:0:
448,192,81710,1,0,0:0:0:0:
64,192,81710,1,0,0:0:0:0:
192,192,81825,1,0,0:0:0:0:
64,192,81825,1,0,0:0:0:0:
448,192,81941,1,0,0:0:0:0:
320,192,81941,1,0,0:0:0:0:
192,192,81941,1,0,0:0:0:0:
448,192,82056,1,0,0:0:0:0:
192,192,82171,1,0,0:0:0:0:
64,192,82171,1,0,0:0:0:0:
64,192,82287,1,0,0:0:0:0:
448,192,82287,1,0,0:0:0:0:
448,192,82402,1,0,0:0:0:0:
192,192,82402,1,0,0:0:0:0:
320,192,82402,1,0,0:0:0:0:
64,192,82518,1,0,0:0:0:0:
448,192,82633,1,0,0:0:0:0:
320,192,82633,1,0,0:0:0:0:
64,192,82748,1,0,0:0:0:0:
448,192,82748,1,0,0:0:0:0:
64,192,82864,1,0,0:0:0:0:
192,192,82864,1,0,0:0:0:0:
320,192,82864,1,0,0:0:0:0:
320,192,82979,1,0,0:0:0:0:
64,192,83094,1,0,0:0:0:0:
192,192,83094,1,0,0:0:0:0:
448,192,83094,1,0,0:0:0:0:
192,192,83210,1,0,0:0:0:0:
448,192,83325,1,0,0:0:0:0:
64,192,83325,1,0,0:0:0:0:
320,192,83325,1,0,0:0:0:0:
320,192,83441,1,0,0:0:0:0:
448,192,83556,1,0,0:0:0:0:
192,192,83556,1,0,0:0:0:0:
192,192,83671,1,0,0:0:0:0:
64,192,83671,1,0,0:0:0:0:
448,192,83787,1,0,0:0:0:0:
320,192,83787,1,0,0:0:0:0:
64,192,83787,1,0,0:0:0:0:
320,192,83902,1,0,0:0:0:0:
64,192,84018,1,0,0:0:0:0:
192,192,84018,1,0,0:0:0:0:
320,192,84133,1,0,0:0:0:0:
64,192,84248,1,0,0:0:0:0:
448,192,84248,1,0,0:0:0:0:
192,192,84248,1,0,0:0:0:0:
320,192,84364,1,0,0:0:0:0:
448,192,84364,1,0,0:0:0:0:
192,192,84479,1,0,0:0:0:0:
64,192,84594,1,0,0:0:0:0:
320,192,84594,1,0,0:0:0:0:
64,192,84710,1,0,0:0:0:0:
448,192,84710,1,0,0:0:0:0:
192,192,84710,1,0,0:0:0:0:
320,192,84825,1,0,0:0:0:0:
448,192,84941,1,0,0:0:0:0:
320,192,84941,1,0,0:0:0:0:
192,192,85056,1,0,0:0:0:0:
320,192,85171,1,0,0:0:0:0:
64,192,85171,1,0,0:0:0:0:
448,192,85171,1,0,0:0:0:0:
192,192,85287,1,0,0:0:0:0:
320,192,85402,1,0,0:0:0:0:
448,192,85402,1,0,0:0:0:0:
64,192,85518,1,0,0:0:0:0:
192,192,85518,1,0,0:0:0:0:
320,192,85633,1,0,0:0:0:0:
64,192,85633,1,0,0:0:0:0:
448,192,85633,1,0,0:0:0:0:
192,192,85748,1,0,0:0:0:0:
448,192,85864,1,0,0:0:0:0:
192,192,85864,1,0,0:0:0:0:
320,192,85979,1,0,0:0:0:0:
64,192,86094,1,0,0:0:0:0:
320,192,86094,1,0,0:0:0:0:
448,192,86094,1,0,0:0:0:0:
192,192,86210,1,0,0:0:0:0:
64,192,86210,1,0,0:0:0:0:
448,192,86325,1,0,0:0:0:0:
320,192,86441,1,0,0:0:0:0:
192,192,86441,1,0,0:0:0:0:
64,192,86556,1,0,0:0:0:0:
192,192,86556,1,0,0:0:0:0:
320,192,86633,1,0,0:0:0:0:
448,192,86633,1,0,0:0:0:0:
192,192,86710,1,0,0:0:0:0:
64,192,86710,1,0,0:0:0:0:
448,192,86787,128,0,88633:0:0:0:0:
320,192,86787,1,0,0:0:0:0:
64,192,86902,1,0,0:0:0:0:
192,192,87018,1,0,0:0:0:0:
320,192,87018,1,0,0:0:0:0:
64,192,87133,1,0,0:0:0:0:
192,192,87248,1,0,0:0:0:0:
192,192,87364,1,0,0:0:0:0:
64,192,87479,1,0,0:0:0:0:
320,192,87479,1,0,0:0:0:0:
192,192,87594,1,0,0:0:0:0:
64,192,87710,1,0,0:0:0:0:
320,192,87825,1,0,0:0:0:0:
192,192,87941,1,0,0:0:0:0:
64,192,87941,1,0,0:0:0:0:
64,192,88056,1,0,0:0:0:0:
192,192,88171,1,0,0:0:0:0:
64,192,88287,128,0,88402:0:0:0:0:
320,192,88287,1,0,0:0:0:0:
192,192,88402,128,0,88518:0:0:0:0:
320,192,88518,128,0,88633:0:0:0:0:
64,192,88633,128,0,89556:0:0:0:0:
192,192,88633,1,0,0:0:0:0:
448,192,88748,1,0,0:0:0:0:
320,192,88864,1,0,0:0:0:0:
192,192,88864,1,0,0:0:0:0:
448,192,88979,1,0,0:0:0:0:
320,192,89094,1,0,0:0:0:0:
320,192,89210,1,0,0:0:0:0:
448,192,89325,128,0,89441:0:0:0:0:
192,192,89441,128,0,89556:0:0:0:0:
448,192,89556,128,0,90248:0:0:0:0:
320,192,89556,1,0,0:0:0:0:
320,192,89671,1,0,0:0:0:0:
64,192,89787,1,0,0:0:0:0:
192,192,89787,1,0,0:0:0:0:
320,192,89902,1,0,0:0:0:0:
320,192,90018,128,0,90248:0:0:0:0:
64,192,90018,1,0,0:0:0:0:
192,192,90133,1,0,0:0:0:0:
192,192,90248,1,0,0:0:0:0:
64,192,90248,1,0,0:0:0:0:
448,192,90364,1,0,0:0:0:0:
320,192,90364,1,0,0:0:0:0:
192,192,90479,1,0,0:0:0:0:
64,192,90479,1,0,0:0:0:0:
448,192,90479,1,0,0:0:0:0:
320,192,90710,1,0,0:0:0:0:
192,192,90710,1,0,0:0:0:0:
320,192,90941,1,0,0:0:0:0:
448,192,90941,1,0,0:0:0:0:
64,192,90941,1,0,0:0:0:0:
192,192,91171,1,0,0:0:0:0:
320,192,91171,1,0,0:0:0:0:
192,192,91287,1,0,0:0:0:0:
64,192,91402,1,0,0:0:0:0:
320,192,91402,1,0,0:0:0:0:
448,192,91402,1,0,0:0:0:0:
320,192,91518,1,0,0:0:0:0:
64,192,91633,1,0,0:0:0:0:
192,192,91633,1,0,0:0:0:0:
448,192,91748,1,0,0:0:0:0:
64,192,91748,1,0,0:0:0:0:
448,192,91864,1,0,0:0:0:0:
320,192,91864,1,0,0:0:0:0:
192,192,91864,1,0,0:0:0:0:
320,192,91979,1,0,0:0:0:0:
64,192,92094,1,0,0:0:0:0:
192,192,92094,1,0,0:0:0:0:
320,192,92210,1,0,0:0:0:0:
448,192,92210,1,0,0:0:0:0:
64,192,92325,1,0,0:0:0:0:
192,192,92325,1,0,0:0:0:0:
448,192,92325,1,0,0:0:0:0:
320,192,92325,1,0,0:0:0:0:
192,192,92441,1,0,0:0:0:0:
448,192,92556,1,0,0:0:0:0:
64,192,92556,1,0,0:0:0:0:
320,192,92556,1,0,0:0:0:0:
192,192,92671,1,0,0:0:0:0:
448,192,92787,1,0,0:0:0:0:
64,192,92787,1,0,0:0:0:0:
320,192,92787,1,0,0:0:0:0:
320,192,92902,1,0,0:0:0:0:
64,192,93018,1,0,0:0:0:0:
448,192,93018,1,0,0:0:0:0:
192,192,93018,1,0,0:0:0:0:
320,192,93133,1,0,0:0:0:0:
64,192,93248,1,0,0:0:0:0:
448,192,93248,1,0,0:0:0:0:
192,192,93248,1,0,0:0:0:0:
320,192,93364,1,0,0:0:0:0:
448,192,93479,1,0,0:0:0:0:
320,192,93537,1,0,0:0:0:0:
192,192,93594,1,0,0:0:0:0:
64,192,93710,1,0,0:0:0:0:
320,192,93710,1,0,0:0:0:0:
448,192,93710,1,0,0:0:0:0:
320,192,93941,1,0,0:0:0:0:
448,192,93941,1,0,0:0:0:0:
192,192,94056,1,0,0:0:0:0:
64,192,94056,1,0,0:0:0:0:
64,192,94171,1,0,0:0:0:0:
320,192,94171,1,0,0:0:0:0:
448,192,94171,1,0,0:0:0:0:
192,192,94287,1,0,0:0:0:0:
64,192,94402,1,0,0:0:0:0:
448,192,94402,1,0,0:0:0:0:
320,192,94402,1,0,0:0:0:0:
192,192,94518,1,0,0:0:0:0:
320,192,94633,1,0,0:0:0:0:
448,192,94633,1,0,0:0:0:0:
64,192,94748,1,0,0:0:0:0:
448,192,94748,1,0,0:0:0:0:
320,192,94864,1,0,0:0:0:0:
192,192,94864,1,0,0:0:0:0:
64,192,94864,1,0,0:0:0:0:
192,192,94979,1,0,0:0:0:0:
320,192,95094,1,0,0:0:0:0:
448,192,95094,1,0,0:0:0:0:
64,192,95210,1,0,0:0:0:0:
320,192,95325,1,0,0:0:0:0:
448,192,95325,1,0,0:0:0:0:
192,192,95325,1,0,0:0:0:0:
64,192,95441,1,0,0:0:0:0:
320,192,95441,1,0,0:0:0:0:
192,192,95556,1,0,0:0:0:0:
320,192,95671,1,0,0:0:0:0:
448,192,95671,1,0,0:0:0:0:
64,192,95787,1,0,0:0:0:0:
448,192,95787,1,0,0:0:0:0:
192,192,95787,1,0,0:0:0:0:
320,192,95902,1,0,0:0:0:0:
192,192,96018,1,0,0:0:0:0:
64,192,96018,1,0,0:0:0:0:
448,192,96133,1,0,0:0:0:0:
448,192,96248,1,0,0:0:0:0:
320,192,96248,1,0,0:0:0:0:
192,192,96248,1,0,0:0:0:0:
64,192,96364,1,0,0:0:0:0:
192,192,96479,1,0,0:0:0:0:
320,192,96479,1,0,0:0:0:0:
64,192,96594,1,0,0:0:0:0:
448,192,96594,1,0,0:0:0:0:
192,192,96710,1,0,0:0:0:0:
448,192,96710,1,0,0:0:0:0:
320,192,96710,1,0,0:0:0:0:
64,192,96825,1,0,0:0:0:0:
448,192,96941,1,0,0:0:0:0:
320,192,96941,1,0,0:0:0:0:
64,192,97056,1,0,0:0:0:0:
320,192,97056,1,0,0:0:0:0:
448,192,97171,1,0,0:0:0:0:
64,192,97171,1,0,0:0:0:0:
192,192,97171,1,0,0:0:0:0:
192,192,97287,1,0,0:0:0:0:
320,192,97287,1,0,0:0:0:0:
64,192,97402,1,0,0:0:0:0:
448,192,97518,1,0,0:0:0:0:
192,192,97518,1,0,0:0:0:0:
64,192,97633,1,0,0:0:0:0:
320,192,97633,1,0,0:0:0:0:
448,192,97633,1,0,0:0:0:0:
320,192,97748,1,0,0:0:0:0:
64,192,97864,1,0,0:0:0:0:
192,192,97864,1,0,0:0:0:0:
448,192,97864,1,0,0:0:0:0:
192,192,97979,1,0,0:0:0:0:
64,192,98094,1,0,0:0:0:0:
448,192,98094,1,0,0:0:0:0:
320,192,98094,1,0,0:0:0:0:
448,192,98210,1,0,0:0:0:0:
64,192,98325,1,0,0:0:0:0:
192,192,98325,1,0,0:0:0:0:
64,192,98441,1,0,0:0:0:0:
448,192,98441,1,0,0:0:0:0:
320,192,98556,1,0,0:0:0:0:
448,192,98556,1,0,0:0:0:0:
192,192,98556,1,0,0:0:0:0:
64,192,98671,1,0,0:0:0:0:
448,192,98787,1,0,0:0:0:0:
320,192,98787,1,0,0:0:0:0:
192,192,98902,1,0,0:0:0:0:
320,192,99018,1,0,0:0:0:0:
448,192,99018,1,0,0:0:0:0:
64,192,99018,1,0,0:0:0:0:
192,192,99133,1,0,0:0:0:0:
448,192,99133,1,0,0:0:0:0:
64,192,99248,1,0,0:0:0:0:
320,192,99364,1,0,0:0:0:0:
192,192,99364,1,0,0:0:0:0:
64,192,99479,1,0,0:0:0:0:
448,192,99479,1,0,0:0:0:0:
192,192,99479,1,0,0:0:0:0:
192,192,99594,1,0,0:0:0:0:
64,192,99710,1,0,0:0:0:0:
320,192,99710,1,0,0:0:0:0:
448,192,99825,1,0,0:0:0:0:
320,192,99941,1,0,0:0:0:0:
448,192,99941,1,0,0:0:0:0:
192,192,99941,1,0,0:0:0:0:
64,192,100056,1,0,0:0:0:0:
320,192,100171,1,0,0:0:0:0:
192,192,100171,1,0,0:0:0:0:
64,192,100287,1,0,0:0:0:0:
448,192,100287,1,0,0:0:0:0:
64,192,100402,1,0,0:0:0:0:
192,192,100402,1,0,0:0:0:0:
448,192,100402,1,0,0:0:0:0:
64,192,100518,128,0,100633:0:0:0:0:
448,192,100633,128,0,100864:0:0:0:0:
320,192,100633,1,0,0:0:0:0:
64,192,100748,1,0,0:0:0:0:
320,192,100864,1,0,0:0:0:0:
192,192,100921,1,0,0:0:0:0:
320,192,100979,128,0,101094:0:0:0:0:
64,192,101094,128,0,101210:0:0:0:0:
192,192,101210,1,0,0:0:0:0:
448,192,101325,128,0,101556:0:0:0:0:
64,192,101325,1,0,0:0:0:0:
192,192,101325,1,0,0:0:0:0:
320,192,101402,1,0,0:0:0:0:
192,192,101479,1,0,0:0:0:0:
64,192,101479,1,0,0:0:0:0:
320,192,101556,1,0,0:0:0:0:
64,192,101556,128,0,103402:0:0:0:0:
192,192,101671,1,0,0:0:0:0:
448,192,101787,1,0,0:0:0:0:
320,192,101787,1,0,0:0:0:0:
192,192,101902,1,0,0:0:0:0:
448,192,102018,1,0,0:0:0:0:
448,192,102133,1,0,0:0:0:0:
320,192,102248,1,0,0:0:0:0:
192,192,102248,1,0,0:0:0:0:
448,192,102364,1,0,0:0:0:0:
320,192,102479,1,0,0:0:0:0:
192,192,102594,1,0,0:0:0:0:
320,192,102710,1,0,0:0:0:0:
448,192,102710,1,0,0:0:0:0:
192,192,102825,1,0,0:0:0:0:
448,192,102941,1,0,0:0:0:0:
448,192,103056,128,0,103171:0:0:0:0:
192,192,103171,128,0,103287:0:0:0:0:
320,192,103287,128,0,103402:0:0:0:0:
448,192,103402,128,0,104325:0:0:0:0:
192,192,103402,1,0,0:0:0:0:
64,192,103518,1,0,0:0:0:0:
320,192,103633,1,0,0:0:0:0:
192,192,103633,1,0,0:0:0:0:
64,192,103748,1,0,0:0:0:0:
320,192,103864,1,0,0:0:0:0:
320,192,103979,1,0,0:0:0:0:
64,192,104094,128,0,104210:0:0:0:0:
192,192,104094,1,0,0:0:0:0:
192,192,104210,128,0,104325:0:0:0:0:
64,192,104325,128,0,105248:0:0:0:0:
320,192,104325,1,0,0:0:0:0:
320,192,104441,1,0,0:0:0:0:
192,192,104556,1,0,0:0:0:0:
448,192,104556,1,0,0:0:0:0:
320,192,104671,1,0,0:0:0:0:
448,192,104787,1,0,0:0:0:0:
192,192,104902,1,0,0:0:0:0:
320,192,105018,1,0,0:0:0:0:
448,192,105018,1,0,0:0:0:0:
320,192,105133,1,0,0:0:0:0:
448,192,105133,1,0,0:0:0:0:
192,192,105248,1,0,0:0:0:0:
448,192,105248,1,0,0:0:0:0:
64,192,105479,1,0,0:0:0:0:
192,192,105479,1,0,0:0:0:0:
64,192,105710,1,0,0:0:0:0:
192,192,105710,1,0,0:0:0:0:
448,192,105710,1,0,0:0:0:0:
320,192,105941,1,0,0:0:0:0:
448,192,105941,1,0,0:0:0:0:
64,192,106056,1,0,0:0:0:0:
192,192,106056,1,0,0:0:0:0:
64,192,106171,1,0,0:0:0:0:
320,192,106171,1,0,0:0:0:0:
448,192,106171,1,0,0:0:0:0:
192,192,106287,1,0,0:0:0:0:
320,192,106287,1,0,0:0:0:0:
192,192,106402,1,0,0:0:0:0:
320,192,106402,1,0,0:0:0:0:
192,192,106518,1,0,0:0:0:0:
320,192,106518,1,0,0:0:0:0:
64,192,106633,1,0,0:0:0:0:
192,192,106633,1,0,0:0:0:0:
448,192,106633,1,0,0:0:0:0:
320,192,106748,1,0,0:0:0:0:
64,192,106864,1,0,0:0:0:0:
192,192,106864,1,0,0:0:0:0:
320,192,106979,1,0,0:0:0:0:
448,192,106979,1,0,0:0:0:0:
448,192,107094,1,0,0:0:0:0:
64,192,107094,128,0,108941:0:0:0:0:
192,192,107094,128,0,108941:0:0:0:0:
320,192,108941,1,0,0:0:0:0:
448,192,108941,1,0,0:0:0:0:
64,192,109171,1,0,0:0:0:0:
320,192,109171,1,0,0:0:0:0:
448,192,109171,1,0,0:0:0:0:
192,192,109287,1,0,0:0:0:0:
320,192,109287,1,0,0:0:0:0:
64,192,109402,5,0,0:0:0:0:
448,192,109402,128,0,109864:0:0:0:0:
320,192,109518,1,0,0:0:0:0:
64,192,109633,1,0,0:0:0:0:
192,192,109633,1,0,0:0:0:0:
320,192,109864,1,0,0:0:0:0:
64,192,109864,128,0,110325:0:0:0:0:
448,192,109979,1,0,0:0:0:0:
320,192,110094,1,0,0:0:0:0:
192,192,110094,1,0,0:0:0:0:
448,192,110325,1,0,0:0:0:0:
192,192,110325,128,0,110787:0:0:0:0:
320,192,110441,1,0,0:0:0:0:
448,192,110556,1,0,0:0:0:0:
64,192,110556,1,0,0:0:0:0:
448,192,110787,1,0,0:0:0:0:
64,192,110787,1,0,0:0:0:0:
320,192,110787,128,0,111248:0:0:0:0:
64,192,111018,1,0,0:0:0:0:
192,192,111018,1,0,0:0:0:0:
448,192,111133,1,0,0:0:0:0:
448,192,111248,1,0,0:0:0:0:
64,192,111248,128,0,111710:0:0:0:0:
192,192,111364,1,0,0:0:0:0:
448,192,111479,1,0,0:0:0:0:
320,192,111479,1,0,0:0:0:0:
320,192,111710,1,0,0:0:0:0:
448,192,111710,128,0,112171:0:0:0:0:
192,192,111941,1,0,0:0:0:0:
64,192,111941,1,0,0:0:0:0:
320,192,112056,1,0,0:0:0:0:
192,192,112171,1,0,0:0:0:0:
64,192,112171,128,0,112633:0:0:0:0:
448,192,112287,1,0,0:0:0:0:
320,192,112402,1,0,0:0:0:0:
192,192,112402,1,0,0:0:0:0:
448,192,112633,1,0,0:0:0:0:
320,192,112633,1,0,0:0:0:0:
192,192,112633,1,0,0:0:0:0:
320,192,112864,1,0,0:0:0:0:
448,192,112864,1,0,0:0:0:0:
64,192,112864,1,0,0:0:0:0:
192,192,112979,1,0,0:0:0:0:
448,192,113094,1,0,0:0:0:0:
64,192,113094,128,0,113556:0:0:0:0:
192,192,113210,1,0,0:0:0:0:
448,192,113325,1,0,0:0:0:0:
320,192,113325,1,0,0:0:0:0:
320,192,113556,1,0,0:0:0:0:
448,192,113556,128,0,114018:0:0:0:0:
192,192,113671,1,0,0:0:0:0:
320,192,113787,1,0,0:0:0:0:
64,192,113787,1,0,0:0:0:0:
192,192,113902,1,0,0:0:0:0:
64,192,114018,1,0,0:0:0:0:
320,192,114018,128,0,114479:0:0:0:0:
448,192,114133,1,0,0:0:0:0:
192,192,114248,1,0,0:0:0:0:
64,192,114248,1,0,0:0:0:0:
448,192,114479,1,0,0:0:0:0:
192,192,114479,1,0,0:0:0:0:
64,192,114479,128,0,114941:0:0:0:0:
192,192,114710,1,0,0:0:0:0:
448,192,114710,1,0,0:0:0:0:
320,192,114825,1,0,0:0:0:0:
448,192,114941,1,0,0:0:0:0:
192,192,114941,128,0,115402:0:0:0:0:
320,192,115056,1,0,0:0:0:0:
448,192,115171,1,0,0:0:0:0:
64,192,115171,1,0,0:0:0:0:
448,192,115402,1,0,0:0:0:0:
192,192,115518,1,0,0:0:0:0:
64,192,115518,1,0,0:0:0:0:
192,192,115633,1,0,0:0:0:0:
64,192,115633,1,0,0:0:0:0:
448,192,115748,1,0,0:0:0:0:
64,192,115864,1,0,0:0:0:0:
192,192,115864,1,0,0:0:0:0:
448,192,115979,1,0,0:0:0:0:
320,192,115979,1,0,0:0:0:0:
64,192,116094,1,0,0:0:0:0:
192,192,116094,1,0,0:0:0:0:
320,192,116210,1,0,0:0:0:0:
448,192,116210,1,0,0:0:0:0:
64,192,116325,1,0,0:0:0:0:
192,192,116325,1,0,0:0:0:0:
448,192,116325,1,0,0:0:0:0:
192,192,116556,1,0,0:0:0:0:
320,192,116556,1,0,0:0:0:0:
448,192,116556,1,0,0:0:0:0:
192,192,116671,1,0,0:0:0:0:
64,192,116671,1,0,0:0:0:0:
448,192,116787,1,0,0:0:0:0:
320,192,116902,1,0,0:0:0:0:
64,192,117018,1,0,0:0:0:0:
192,192,117018,1,0,0:0:0:0:
448,192,117018,1,0,0:0:0:0:
320,192,117248,1,0,0:0:0:0:
448,192,117479,1,0,0:0:0:0:
64,192,117479,1,0,0:0:0:0:
192,192,117479,1,0,0:0:0:0:
192,192,117594,1,0,0:0:0:0:
320,192,117594,1,0,0:0:0:0:
64,192,117710,1,0,0:0:0:0:
192,192,117825,1,0,0:0:0:0:
448,192,117825,1,0,0:0:0:0:
64,192,117941,1,0,0:0:0:0:
192,192,117941,1,0,0:0:0:0:
320,192,117941,1,0,0:0:0:0:
64,192,118171,1,0,0:0:0:0:
192,192,118402,1,0,0:0:0:0:
320,192,118402,1,0,0:0:0:0:
448,192,118402,1,0,0:0:0:0:
192,192,118518,1,0,0:0:0:0:
64,192,118518,1,0,0:0:0:0:
448,192,118633,1,0,0:0:0:0:
64,192,118748,1,0,0:0:0:0:
320,192,118748,1,0,0:0:0:0:
448,192,118864,1,0,0:0:0:0:
320,192,118864,1,0,0:0:0:0:
192,192,118864,1,0,0:0:0:0:
192,192,119094,1,0,0:0:0:0:
64,192,119325,1,0,0:0:0:0:
320,192,119325,1,0,0:0:0:0:
448,192,119325,1,0,0:0:0:0:
192,192,119441,1,0,0:0:0:0:
320,192,119441,1,0,0:0:0:0:
64,192,119556,1,0,0:0:0:0:
448,192,119671,1,0,0:0:0:0:
320,192,119671,1,0,0:0:0:0:
64,192,119787,1,0,0:0:0:0:
192,192,119787,1,0,0:0:0:0:
448,192,119787,1,0,0:0:0:0:
448,192,120018,1,0,0:0:0:0:
320,192,120248,1,0,0:0:0:0:
64,192,120248,1,0,0:0:0:0:
192,192,120248,1,0,0:0:0:0:
448,192,120364,1,0,0:0:0:0:
192,192,120364,1,0,0:0:0:0:
64,192,120479,1,0,0:0:0:0:
448,192,120594,1,0,0:0:0:0:
320,192,120594,1,0,0:0:0:0:
64,192,120710,1,0,0:0:0:0:
192,192,120710,1,0,0:0:0:0:
448,192,120710,1,0,0:0:0:0:
192,192,120941,1,0,0:0:0:0:
64,192,121171,1,0,0:0:0:0:
448,192,121171,1,0,0:0:0:0:
320,192,121171,1,0,0:0:0:0:
192,192,121287,1,0,0:0:0:0:
320,192,121287,1,0,0:0:0:0:
448,192,121402,1,0,0:0:0:0:
320,192,121518,1,0,0:0:0:0:
64,192,121518,1,0,0:0:0:0:
64,192,121633,1,0,0:0:0:0:
192,192,121633,1,0,0:0:0:0:
448,192,121633,1,0,0:0:0:0:
64,192,121864,1,0,0:0:0:0:
192,192,122094,1,0,0:0:0:0:
448,192,122094,1,0,0:0:0:0:
320,192,122094,1,0,0:0:0:0:
448,192,122210,1,0,0:0:0:0:
64,192,122210,1,0,0:0:0:0:
192,192,122325,1,0,0:0:0:0:
64,192,122441,1,0,0:0:0:0:
320,192,122441,1,0,0:0:0:0:
448,192,122556,1,0,0:0:0:0:
192,192,122556,1,0,0:0:0:0:
64,192,122556,1,0,0:0:0:0:
320,192,122787,1,0,0:0:0:0:
448,192,123018,1,0,0:0:0:0:
64,192,123018,1,0,0:0:0:0:
192,192,123018,1,0,0:0:0:0:
192,192,123133,1,0,0:0:0:0:
320,192,123133,1,0,0:0:0:0:
192,192,123248,5,0,0:0:0:0:
64,192,123248,1,0,0:0:0:0:
448,192,123364,1,0,0:0:0:0:
320,192,123364,1,0,0:0:0:0:
192,192,123479,1,0,0:0:0:0:
64,192,123479,1,0,0:0:0:0:
448,192,123594,1,0,0:0:0:0:
320,192,123594,1,0,0:0:0:0:
448,192,123710,1,0,0:0:0:0:
192,192,123710,1,0,0:0:0:0:
64,192,123710,1,0,0:0:0:0:
192,192,123941,1,0,0:0:0:0:
320,192,123941,1,0,0:0:0:0:
448,192,123941,1,0,0:0:0:0:
64,192,124056,1,0,0:0:0:0:
192,192,124056,1,0,0:0:0:0:
64,192,124171,128,0,124633:0:0:0:0:
448,192,124171,1,0,0:0:0:0:
192,192,124287,1,0,0:0:0:0:
320,192,124402,1,0,0:0:0:0:
448,192,124402,1,0,0:0:0:0:
448,192,124633,128,0,125094:0:0:0:0:
192,192,124633,1,0,0:0:0:0:
64,192,124748,1,0,0:0:0:0:
320,192,124864,1,0,0:0:0:0:
192,192,124864,1,0,0:0:0:0:
320,192,125094,128,0,125556:0:0:0:0:
64,192,125094,1,0,0:0:0:0:
192,192,125210,1,0,0:0:0:0:
448,192,125325,1,0,0:0:0:0:
64,192,125325,1,0,0:0:0:0:
192,192,125556,128,0,126018:0:0:0:0:
448,192,125556,1,0,0:0:0:0:
64,192,125556,1,0,0:0:0:0:
320,192,125787,1,0,0:0:0:0:
448,192,125787,1,0,0:0:0:0:
64,192,125902,1,0,0:0:0:0:
448,192,126018,128,0,126479:0:0:0:0:
64,192,126018,1,0,0:0:0:0:
320,192,126133,1,0,0:0:0:0:
192,192,126248,1,0,0:0:0:0:
64,192,126248,1,0,0:0:0:0:
64,192,126479,128,0,126941:0:0:0:0:
192,192,126479,1,0,0:0:0:0:
448,192,126710,1,0,0:0:0:0:
320,192,126710,1,0,0:0:0:0:
192,192,126825,1,0,0:0:0:0:
448,192,126941,128,0,127402:0:0:0:0:
320,192,126941,1,0,0:0:0:0:
64,192,127056,1,0,0:0:0:0:
320,192,127171,1,0,0:0:0:0:
192,192,127171,1,0,0:0:0:0:
320,192,127402,1,0,0:0:0:0:
192,192,127402,1,0,0:0:0:0:
64,192,127402,1,0,0:0:0:0:
448,192,127633,1,0,0:0:0:0:
64,192,127633,1,0,0:0:0:0:
192,192,127633,1,0,0:0:0:0:
320,192,127748,1,0,0:0:0:0:
448,192,127864,128,0,128325:0:0:0:0:
64,192,127864,1,0,0:0:0:0:
320,192,127979,1,0,0:0:0:0:
192,192,128094,1,0,0:0:0:0:
64,192,128094,1,0,0:0:0:0:
64,192,128325,128,0,128787:0:0:0:0:
192,192,128325,1,0,0:0:0:0:
320,192,128441,1,0,0:0:0:0:
448,192,128556,1,0,0:0:0:0:
192,192,128556,1,0,0:0:0:0:
320,192,128671,1,0,0:0:0:0:
192,192,128787,128,0,129248:0:0:0:0:
448,192,128787,1,0,0:0:0:0:
64,192,128902,1,0,0:0:0:0:
448,192,129018,1,0,0:0:0:0:
320,192,129018,1,0,0:0:0:0:
448,192,129248,128,0,129710:0:0:0:0:
320,192,129248,1,0,0:0:0:0:
64,192,129248,1,0,0:0:0:0:
64,192,129479,1,0,0:0:0:0:
320,192,129479,1,0,0:0:0:0:
192,192,129594,1,0,0:0:0:0:
320,192,129710,128,0,130171:0:0:0:0:
64,192,129710,1,0,0:0:0:0:
192,192,129825,1,0,0:0:0:0:
448,192,129941,1,0,0:0:0:0:
64,192,129941,1,0,0:0:0:0:
64,192,130171,1,0,0:0:0:0:
448,192,130287,1,0,0:0:0:0:
320,192,130287,1,0,0:0:0:0:
448,192,130402,1,0,0:0:0:0:
320,192,130402,1,0,0:0:0:0:
64,192,130518,1,0,0:0:0:0:
320,192,130633,1,0,0:0:0:0:
448,192,130633,1,0,0:0:0:0:
192,192,130748,1,0,0:0:0:0:
64,192,130748,1,0,0:0:0:0:
320,192,130864,1,0,0:0:0:0:
448,192,130864,1,0,0:0:0:0:
64,192,130979,1,0,0:0:0:0:
192,192,130979,1,0,0:0:0:0:
64,192,131094,1,0,0:0:0:0:
320,192,131094,1,0,0:0:0:0:
448,192,131094,1,0,0:0:0:0:
64,192,131325,1,0,0:0:0:0:
192,192,131325,1,0,0:0:0:0:
320,192,131325,1,0,0:0:0:0:
448,192,131441,1,0,0:0:0:0:
320,192,131441,1,0,0:0:0:0:
64,192,131556,1,0,0:0:0:0:
192,192,131671,1,0,0:0:0:0:
64,192,131787,1,0,0:0:0:0:
320,192,131787,1,0,0:0:0:0:
448,192,131787,1,0,0:0:0:0:
192,192,132018,1,0,0:0:0:0:
320,192,132248,1,0,0:0:0:0:
448,192,132248,1,0,0:0:0:0:
64,192,132248,1,0,0:0:0:0:
192,192,132364,1,0,0:0:0:0:
320,192,132364,1,0,0:0:0:0:
448,192,132479,1,0,0:0:0:0:
64,192,132594,1,0,0:0:0:0:
320,192,132594,1,0,0:0:0:0:
192,192,132710,1,0,0:0:0:0:
320,192,132710,1,0,0:0:0:0:
448,192,132710,1,0,0:0:0:0:
448,192,132941,1,0,0:0:0:0:
64,192,133171,1,0,0:0:0:0:
192,192,133171,1,0,0:0:0:0:
320,192,133171,1,0,0:0:0:0:
448,192,133287,1,0,0:0:0:0:
320,192,133287,1,0,0:0:0:0:
64,192,133402,1,0,0:0:0:0:
192,192,133518,1,0,0:0:0:0:
448,192,133518,1,0,0:0:0:0:
320,192,133633,1,0,0:0:0:0:
192,192,133633,1,0,0:0:0:0:
64,192,133633,1,0,0:0:0:0:
320,192,133864,1,0,0:0:0:0:
64,192,134094,1,0,0:0:0:0:
192,192,134094,1,0,0:0:0:0:
448,192,134094,1,0,0:0:0:0:
192,192,134210,1,0,0:0:0:0:
320,192,134210,1,0,0:0:0:0:
448,192,134325,1,0,0:0:0:0:
192,192,134441,1,0,0:0:0:0:
64,192,134441,1,0,0:0:0:0:
64,192,134556,1,0,0:0:0:0:
320,192,134556,1,0,0:0:0:0:
448,192,134556,1,0,0:0:0:0:
64,192,134787,1,0,0:0:0:0:
320,192,135018,1,0,0:0:0:0:
448,192,135018,1,0,0:0:0:0:
192,192,135018,1,0,0:0:0:0:
320,192,135133,1,0,0:0:0:0:
64,192,135133,1,0,0:0:0:0:
448,192,135248,1,0,0:0:0:0:
192,192,135364,1,0,0:0:0:0:
64,192,135364,1,0,0:0:0:0:
64,192,135479,1,0,0:0:0:0:
320,192,135479,1,0,0:0:0:0:
448,192,135479,1,0,0:0:0:0:
320,192,135710,1,0,0:0:0:0:
192,192,135941,1,0,0:0:0:0:
64,192,135941,1,0,0:0:0:0:
448,192,135941,1,0,0:0:0:0:
192,192,136056,1,0,0:0:0:0:
320,192,136056,1,0,0:0:0:0:
64,192,136171,1,0,0:0:0:0:
448,192,136287,1,0,0:0:0:0:
192,192,136287,1,0,0:0:0:0:
64,192,136402,1,0,0:0:0:0:
320,192,136402,1,0,0:0:0:0:
448,192,136402,1,0,0:0:0:0:
448,192,136633,1,0,0:0:0:0:
192,192,136864,1,0,0:0:0:0:
64,192,136864,1,0,0:0:0:0:
320,192,136864,1,0,0:0:0:0:
448,192,136979,1,0,0:0:0:0:
64,192,136979,1,0,0:0:0:0:
320,192,137094,1,0,0:0:0:0:
192,192,137210,1,0,0:0:0:0:
448,192,137210,1,0,0:0:0:0:
448,192,137325,1,0,0:0:0:0:
320,192,137325,1,0,0:0:0:0:
64,192,137325,1,0,0:0:0:0:
192,192,137556,1,0,0:0:0:0:
320,192,137787,1,0,0:0:0:0:
448,192,137787,1,0,0:0:0:0:
64,192,137787,1,0,0:0:0:0:
192,192,137902,1,0,0:0:0:0:
320,192,137902,1,0,0:0:0:0:
320,192,138018,5,0,0:0:0:0:
448,192,138018,1,0,0:0:0:0:
192,192,138133,1,0,0:0:0:0:
64,192,138133,1,0,0:0:0:0:
448,192,138248,1,0,0:0:0:0:
320,192,138248,1,0,0:0:0:0:
192,192,138364,1,0,0:0:0:0:
64,192,138364,1,0,0:0:0:0:
448,192,138479,1,0,0:0:0:0:
320,192,138479,1,0,0:0:0:0:
192,192,138479,1,0,0:0:0:0:
64,192,138596,128,0,138713:0:0:0:0:
192,192,138713,128,0,138830:0:0:0:0:
64,192,138830,128,0,138947:0:0:0:0:
448,192,138947,1,0,0:0:0:0:
64,192,139064,128,0,139182:0:0:0:0:
192,192,139182,128,0,139299:0:0:0:0:
64,192,139299,128,0,139416:0:0:0:0:
448,192,139416,1,0,0:0:0:0:
64,192,139531,128,0,139646:0:0:0:0:
192,192,139646,128,0,139762:0:0:0:0:
64,192,139762,128,0,139877:0:0:0:0:
448,192,139877,1,0,0:0:0:0:
64,192,139992,128,0,140108:0:0:0:0:
192,192,140108,128,0,140223:0:0:0:0:
64,192,140223,128,0,140339:0:0:0:0:
448,192,140339,1,0,0:0:0:0:
64,192,140457,128,0,140575:0:0:0:0:
192,192,140575,128,0,140693:0:0:0:0:
64,192,140693,128,0,140811:0:0:0:0:
448,192,140811,1,0,0:0:0:0:
64,192,140929,128,0,141047:0:0:0:0:
192,192,141047,128,0,141165:0:0:0:0:
64,192,141165,128,0,141283:0:0:0:0:
448,192,141283,1,0,0:0:0:0:
64,192,141401,128,0,141520:0:0:0:0:
192,192,141520,128,0,141638:0:0:0:0:
64,192,141638,128,0,141756:0:0:0:0:
448,192,141756,128,0,141874:0:0:0:0:
320,192,141874,128,0,141992:0:0:0:0:
192,192,141992,128,0,142110:0:0:0:0:
64,192,142110,128,0,142228:0:0:0:0:
