osu file format v14

[General]
AudioFilename: fsefewtesrweart45478577.mp3
AudioLeadIn: 0
PreviewTime: 78652
Countdown: 0
SampleSet: Soft
StackLeniency: 0.3
Mode: 0
LetterboxInBreaks: 0
WidescreenStoryboard: 0

[Editor]
DistanceSpacing: 1.9
BeatDivisor: 6
GridSize: 4
TimelineZoom: 3.499999

[Metadata]
Title:Kegare Naki Bara Juuji (Short ver.)
TitleUnicode:穢れなき薔薇十字 (Short ver.)
Artist:Ariabl'eyeS
ArtistUnicode:Ariabl'eyeS
Creator:My Angel RangE
Version:Extra
Source:
Tags:瑠璃色のローゼンクロイツ Ruriiro no Rena Luna Lyse リゼ rosicrucian Left walaowey Neoskylove Regou Daletto Volta dakemoto Gyukari Jakads -Eat_Sparingly- Underflow Sylphi 404
BeatmapID:1228322
BeatmapSetID:535277

[Difficulty]
HPDrainRate:6
CircleSize:4
OverallDifficulty:8
ApproachRate:9.2
SliderMultiplier:1.45
SliderTickRate:1

[Events]
//Background and Video events
0,0,"248.png",0,0
//Break Periods
//Storyboard Layer 0 (Background)
//Storyboard Layer 1 (Fail)
//Storyboard Layer 2 (Pass)
//Storyboard Layer 3 (Foreground)
//Storyboard Sound Samples

[TimingPoints]
18,230.769230769231,4,2,2,40,1,0
18,-111.111111111111,4,2,2,40,0,0
1864,-125,4,2,2,40,0,0
7402,-111.111111111111,4,2,2,50,0,0
9248,-100,4,2,2,60,0,0
16633,-105.263157894737,4,2,2,50,0,0
24018,-100,4,2,2,60,0,0
35094,-111.111111111111,4,2,2,50,0,0
64633,-142.857142857143,4,2,2,40,0,0
72018,-117.647058823529,4,2,2,50,0,0
75710,-133.333333333333,4,2,2,50,0,0
78479,-133.333333333333,4,2,2,30,0,0
79402,-83.3333333333333,4,2,2,70,0,1
108941,-100,4,2,2,50,0,0
116325,-90.9090909090909,4,2,2,60,0,0
123710,-100,4,2,2,50,0,0
131094,-83.3333333333333,4,2,2,60,0,0
138479,468.75,4,2,2,50,1,0
139416,461.538461538462,4,2,2,50,1,0
140339,472.44094488189,4,2,2,35,1,0

[Colours]
Combo1 : 255,149,255
Combo2 : 0,0,181
Combo3 : 179,217,255
Combo4 : 108,0,217

[HitObjects]
75,58,18,5,4,0:0:0:0:
109,281,479,1,8,0:0:0:0:
75,58,941,6,0,L|160:42,1,65.2499980087281
299,120,1171,2,0,L|234:116,1,65.2499980087281
278,10,1402,1,8,0:0:0:0:
400,263,1518,1,8,0:0:0:0:
395,109,1633,1,8,0:0:0:0:
270,328,1748,1,8,0:0:0:0:
270,328,1864,6,0,P|157:358|75:278,1,232,4|0,0:0|0:0,0:0:0:0:
257,167,2556,1,0,0:0:0:0:
188,244,2671,1,0,0:0:0:0:
24,136,2787,2,0,P|75:105|134:112,1,116,8|0,0:0|0:0,0:0:0:0:
257,167,3133,1,0,0:0:0:0:
179,323,3248,2,0,L|63:335,1,116
85,197,3594,1,0,0:0:0:0:
183,67,3710,6,0,P|193:118|182:146,1,58,8|0,0:0|0:0,0:0:0:0:
74,252,3941,2,0,P|73:224|84:197,1,58
283,323,4171,2,0,P|228:344|175:319,1,116
332,219,4518,1,0,0:0:0:0:
414,330,4633,2,0,L|471:332,1,58,8|0,0:0|0:0,0:0:0:0:
389,212,4864,2,0,L|331:219,1,58
181,145,5094,1,0,0:0:0:0:
147,351,5325,6,0,L|196:341,3,38.6666666666667,0|0|0|4,0:0|0:0|0:0|0:0,0:0:0:0:
147,351,6018,6,0,P|122:311|138:222,1,116,8|0,0:0|0:0,0:0:0:0:
181,145,6364,1,0,0:0:0:0:
85,88,6479,2,0,P|137:42|200:39,1,116
286,86,6825,1,0,0:0:0:0:
378,12,6941,2,0,P|408:67|392:130,1,116,8|0,0:0|0:0,0:0:0:0:
292,247,7402,5,8,0:0:0:0:
249,121,7633,1,0,0:0:0:0:
413,270,7864,1,8,0:0:0:0:
461,120,8094,1,0,0:0:0:0:
277,342,8325,6,0,L|341:348,1,65.2499980087281,8|8,0:0|0:0,0:0:0:0:
146,269,8556,2,0,L|82:277,1,65.2499980087281,8|0,0:0|0:0,0:0:0:0:
266,360,8787,6,0,L|330:366,1,65.2499980087281,8|0,0:0|0:0,0:0:0:0:
160,283,9018,2,0,L|96:291,1,65.2499980087281,8|8,0:0|0:0,0:0:0:0:
172,187,9248,6,0,P|191:126|143:28,1,145,4|8,0:0|0:0,0:0:0:0:
51,140,9594,2,0,P|40:233|90:282,1,145
213,358,9941,2,0,L|311:352,1,72.5,8|0,0:0|0:0,0:0:0:0:
457,222,10171,6,0,P|477:173|421:82,1,145,0|8,0:0|0:0,0:0:0:0:
246,178,10518,2,0,P|316:191|383:165,1,145
309,92,10864,1,8,0:0:0:0:
378,285,10979,1,0,0:0:0:0:
127,347,11094,6,0,B|194:370|194:370|267:355,1,145,0|8,0:0|0:0,0:0:0:0:
28,204,11441,2,0,L|177:255,1,145
19,84,11787,2,0,L|87:107,1,72.5,8|0,0:0|0:0,0:0:0:0:
434,223,12018,6,0,P|460:283|403:372,1,145,0|8,0:0|0:0,0:0:0:0:
272,272,12364,2,0,P|246:212|303:123,1,145
441,125,12710,1,8,0:0:0:0:
340,209,12825,1,0,0:0:0:0:
357,21,12941,6,0,L|182:9,1,145,0|8,0:0|0:0,0:0:0:0:
288,282,13287,2,0,L|306:121,1,145
181,97,13633,1,8,0:0:0:0:
199,224,13748,1,0,0:0:0:0:
304,137,13864,6,0,B|384:142|384:142|457:102,1,145,0|8,0:0|0:0,0:0:0:0:
269,29,14210,2,0,L|101:39,1,145
295,121,14556,2,0,L|189:125,1,72.5,8|0,0:0|0:0,0:0:0:0:
31,331,14787,6,0,P|98:351|143:274,1,145,0|8,0:0|0:0,0:0:0:0:
332,205,15133,2,0,P|285:154|219:174,1,145
304,365,15479,2,0,L|406:360,1,72.5,8|0,0:0|0:0,0:0:0:0:
210,266,15710,6,0,L|51:252,1,145,0|8,0:0|0:0,0:0:0:0:
65,253,16056,1,0,0:0:0:0:
160,149,16171,1,8,0:0:0:0:
62,62,16287,1,8,0:0:0:0:
271,154,16402,1,8,0:0:0:0:
255,25,16518,1,8,0:0:0:0:
271,154,16633,6,0,L|275:317,1,137.749996321678,4|8,0:0|0:0,0:0:0:0:
242,372,16979,1,0,0:0:0:0:
117,289,17094,2,0,P|65:280|34:291,1,68.8749981608391
242,372,17325,2,0,P|294:381|325:370,1,68.8749981608391,8|0,0:0|0:0,0:0:0:0:
297,175,17556,6,0,P|257:228|276:293,1,137.749996321678,0|8,0:0|0:0,0:0:0:0:
369,375,17902,1,0,0:0:0:0:
477,313,18018,2,0,L|479:216,1,68.8749981608391
336,142,18248,2,0,L|337:210,1,68.8749981608391,8|0,0:0|0:0,0:0:0:0:
506,268,18479,6,0,L|510:97,1,137.749996321678,0|8,0:0|0:0,0:0:0:0:
424,30,18825,1,0,0:0:0:0:
302,66,18941,2,0,P|255:68|207:51,1,68.8749981608391
386,128,19171,2,0,P|395:169|375:201,1,68.8749981608391,8|0,0:0|0:0,0:0:0:0:
269,243,19402,6,0,L|117:222,1,137.749996321678,0|8,0:0|0:0,0:0:0:0:
70,122,19748,1,0,0:0:0:0:
214,54,19864,2,0,P|227:91|208:143,1,68.8749981608391
72,265,20094,2,0,P|59:228|78:176,1,68.8749981608391,8|0,0:0|0:0,0:0:0:0:
131,348,20325,6,0,B|195:372|195:372|290:356,1,137.749996321678,0|8,0:0|0:0,0:0:0:0:
271,186,20671,1,0,0:0:0:0:
199,286,20787,2,0,L|294:272,1,68.8749981608391
432,179,21018,2,0,L|363:168,1,68.8749981608391,8|0,0:0|0:0,0:0:0:0:
198,73,21248,6,0,L|198:227,1,137.749996321678,0|8,0:0|0:0,0:0:0:0:
119,292,21594,1,0,0:0:0:0:
271,186,21710,2,0,L|366:181,1,68.8749981608391
126,126,21941,2,0,L|47:121,1,68.8749981608391,8|0,0:0|0:0,0:0:0:0:
191,333,22171,6,0,P|202:272|135:211,1,137.749996321678,0|8,0:0|0:0,0:0:0:0:
93,300,22518,1,0,0:0:0:0:
279,374,22633,2,0,L|371:367,1,68.8749981608391
508,242,22864,2,0,L|416:235,1,68.8749981608391,8|0,0:0|0:0,0:0:0:0:
298,192,23094,5,8,0:0:0:0:
347,368,23210,1,8,0:0:0:0:
162,252,23325,1,0,0:0:0:0:
196,373,23441,1,8,0:0:0:0:
298,192,23556,5,0,0:0:0:0:
422,148,23671,1,8,0:0:0:0:
480,266,23787,1,8,0:0:0:0:
361,321,23902,1,8,0:0:0:0:
196,373,24018,6,0,B|117:382|117:382|41:355,1,145,4|8,0:0|0:0,0:0:0:0:
265,130,24364,2,0,P|299:191|268:259,1,145
62,167,24710,2,0,P|52:127|63:82,1,72.5,8|0,0:0|0:0,0:0:0:0:
234,88,24941,6,0,L|400:68,1,145,0|8,0:0|0:0,0:0:0:0:
126,212,25287,2,0,L|270:195,1,145
416,243,25633,1,8,0:0:0:0:
446,103,25748,1,0,0:0:0:0:
306,191,25864,6,0,P|295:268|335:326,1,145,0|8,0:0|0:0,0:0:0:0:
496,170,26210,2,0,P|534:114|482:29,1,145
328,12,26556,2,0,L|255:4,1,72.5,8|0,0:0|0:0,0:0:0:0:
163,190,26787,6,0,L|331:170,1,145,0|8,0:0|0:0,0:0:0:0:
84,137,27133,2,0,P|65:195|111:272,1,145
258,86,27479,2,0,P|262:35|232:0,1,72.5,8|0,0:0|0:0,0:0:0:0:
163,190,27710,6,0,L|331:170,1,145,0|8,0:0|0:0,0:0:0:0:
147,60,28056,2,0,L|-17:45,1,145
50,249,28402,1,8,0:0:0:0:
99,152,28518,1,0,0:0:0:0:
84,350,28633,6,0,P|147:369|233:333,1,145,0|8,0:0|0:0,0:0:0:0:
260,151,28979,2,0,P|225:141|156:239,1,145
219,344,29325,1,8,0:0:0:0:
355,248,29441,1,0,0:0:0:0:
151,208,29556,6,0,B|39:181|39:181|74:156,1,145,0|8,0:0|0:0,0:0:0:0:
304,40,29902,2,0,P|312:114|232:148,1,145
116,231,30248,2,0,L|15:208,1,72.5,8|0,0:0|0:0,0:0:0:0:
222,178,30479,6,0,L|384:167,1,145,0|8,0:0|0:0,0:0:0:0:
457,223,30825,1,0,0:0:0:0:
303,321,30941,2,0,P|286:284|300:248,1,72.5,8|8,0:0|0:0,0:0:0:0:
467,64,31171,2,0,P|475:98|458:130,1,72.5,8|8,0:0|0:0,0:0:0:0:
381,348,31402,6,0,L|203:354,1,145,2|0,0:0|0:0,0:0:0:0:
154,304,31748,1,0,0:0:0:0:
61,183,31864,6,0,P|48:129|111:45,1,145,2|0,0:0|0:0,0:0:0:0:
151,136,32210,1,0,0:0:0:0:
291,43,32325,6,0,B|366:27|366:27|464:39,1,145,2|0,0:0|0:0,0:0:0:0:
501,106,32671,1,0,0:0:0:0:
427,223,32787,6,0,P|411:281|464:363,1,145,2|0,0:0|0:0,0:0:0:0:
361,384,33133,1,0,0:0:0:0:
227,272,33248,6,0,L|234:108,1,145,2|0,0:0|0:0,0:0:0:0:
291,43,33594,1,0,0:0:0:0:
192,174,33710,6,0,P|117:159|84:73,1,145,2|0,0:0|0:0,0:0:0:0:
171,85,34056,1,0,0:0:0:0:
32,41,34171,6,0,L|39:196,1,145,2|0,0:0|0:0,0:0:0:0:
73,274,34518,1,0,0:0:0:0:
223,367,34633,6,0,P|269:365|318:341,1,72.5,8|8,0:0|0:0,0:0:0:0:
124,232,34864,2,0,P|121:287|136:319,1,72.5,8|8,0:0|0:0,0:0:0:0:
223,367,35094,5,0,0:0:0:0:
234,358,35325,2,0,B|299:348|299:348|367:354,1,130.499996017456,8|0,0:0|0:0,0:0:0:0:
443,302,35671,1,0,0:0:0:0:
497,223,35787,1,8,0:0:0:0:
497,223,35902,1,0,0:0:0:0:
497,223,36018,6,0,P|521:161|496:90,1,130.499996017456,0|8,0:0|0:0,0:0:0:0:
421,71,36364,1,0,0:0:0:0:
426,160,36479,2,0,P|363:174|303:150,1,130.499996017456,0|8,0:0|0:0,0:0:0:0:
201,131,36825,1,0,0:0:0:0:
171,233,36941,2,0,L|76:219,1,65.2499980087281
33,83,37171,6,0,L|189:50,1,130.499996017456,8|0,0:0|0:0,0:0:0:0:
160,55,37518,1,0,0:0:0:0:
260,244,37633,1,8,0:0:0:0:
260,244,37748,1,0,0:0:0:0:
109,274,37864,2,0,P|96:234|112:186,1,65.2499980087281
307,68,38094,2,0,P|320:108|304:156,1,65.2499980087281,8|0,0:0|0:0,0:0:0:0:
38,168,38325,2,0,L|168:179,1,130.499996017456,0|8,0:0|0:0,0:0:0:0:
415,235,38787,6,0,P|445:300|413:366,1,130.499996017456,0|8,0:0|0:0,0:0:0:0:
217,297,39133,2,0,P|280:283|343:301,1,130.499996017456
140,365,39479,2,0,L|134:208,1,130.499996017456,8|0,0:0|0:0,0:0:0:0:
136,113,39825,1,0,0:0:0:0:
136,113,39941,1,8,0:0:0:0:
37,233,40171,2,0,P|95:231|124:218,1,65.2499980087281
235,138,40402,2,0,P|266:144|299:142,1,65.2499980087281,8|0,0:0|0:0,0:0:0:0:
159,21,40633,6,0,B|147:68|147:68|154:113|154:113|140:166,1,130.499996017456,0|8,0:0|0:0,0:0:0:0:
101,228,40979,1,0,0:0:0:0:
60,315,41094,1,0,0:0:0:0:
270,330,41325,2,0,L|179:323,1,65.2499980087281,8|0,0:0|0:0,0:0:0:0:
233,192,41556,6,0,L|390:185,1,130.499996017456,0|8,0:0|0:0,0:0:0:0:
440,350,42018,1,8,0:0:0:0:
363,186,42133,1,8,0:0:0:0:
333,283,42248,1,8,0:0:0:0:
459,219,42364,1,8,0:0:0:0:
256,358,42479,6,0,P|185:368|107:351,1,130.499996017456,4|8,0:0|0:0,0:0:0:0:
30,308,42825,1,0,0:0:0:0:
33,201,42941,2,0,L|22:135,1,65.2499980087281
137,321,43171,1,8,0:0:0:0:
137,321,43287,1,0,0:0:0:0:
137,321,43402,6,0,P|197:332|250:313,1,97.8749970130921
253,340,43633,2,0,P|320:319|385:347,1,130.499996017456,8|0,0:0|0:0,0:0:0:0:
467,165,44094,1,8,0:0:0:0:
492,49,44210,1,0,0:0:0:0:
380,85,44325,1,0,0:0:0:0:
379,84,44556,6,0,P|315:96|253:80,1,130.499996017456,8|0,0:0|0:0,0:0:0:0:
115,53,45018,1,8,0:0:0:0:
115,53,45133,1,0,0:0:0:0:
115,53,45248,2,0,P|96:79|96:111,1,65.2499980087281
209,317,45479,2,0,P|226:291|228:259,1,65.2499980087281,8|0,0:0|0:0,0:0:0:0:
187,101,45710,2,0,L|328:98,1,130.499996017456,0|8,0:0|0:0,0:0:0:0:
193,347,46171,6,0,L|41:346,1,130.499996017456,0|8,0:0|0:0,0:0:0:0:
2,222,46518,2,0,L|217:207,1,195.749994026184,0|8,0:0|0:0,0:0:0:0:
281,287,46979,1,0,0:0:0:0:
179,328,47094,2,0,P|165:289|178:252,1,65.2499980087281
346,137,47325,2,0,P|360:176|347:213,1,65.2499980087281,8|0,0:0|0:0,0:0:0:0:
281,287,47556,1,0,0:0:0:0:
28,329,47787,6,0,L|158:338,1,130.499996017456,8|0,0:0|0:0,0:0:0:0:
279,185,48248,1,8,0:0:0:0:
81,41,48479,2,0,L|88:197,1,130.499996017456,0|8,0:0|0:0,0:0:0:0:
223,351,48941,1,0,0:0:0:0:
420,268,49171,1,8,0:0:0:0:
420,268,49402,5,8,0:0:0:0:
321,221,49518,1,8,0:0:0:0:
223,351,49633,1,8,0:0:0:0:
320,312,49748,1,8,0:0:0:0:
199,185,49864,6,0,P|208:143|142:76,1,130.499996017456,0|8,0:0|0:0,0:0:0:0:
64,293,50325,2,0,P|113:295|153:283,1,65.2499980087281
263,183,50556,2,0,P|214:181|174:193,1,65.2499980087281,8|0,0:0|0:0,0:0:0:0:
33,321,50787,6,0,P|102:336|172:311,1,130.499996017456,0|8,0:0|0:0,0:0:0:0:
229,253,51133,1,0,0:0:0:0:
263,344,51248,2,0,P|320:352|347:341,1,65.2499980087281
454,222,51479,2,0,P|397:214|370:225,1,65.2499980087281,8|0,0:0|0:0,0:0:0:0:
263,344,51710,5,0,0:0:0:0:
242,168,51941,2,0,L|259:309,1,130.499996017456,8|0,0:0|0:0,0:0:0:0:
359,373,52287,1,0,0:0:0:0:
410,255,52402,2,0,L|404:186,1,65.2499980087281,8|0,0:0|0:0,0:0:0:0:
284,94,52633,6,0,P|233:83|162:143,1,130.499996017456,0|8,0:0|0:0,0:0:0:0:
249,237,52979,1,0,0:0:0:0:
349,158,53094,2,0,P|369:113|359:78,1,65.2499980087281
186,185,53325,2,0,P|166:230|176:265,1,65.2499980087281,8|0,0:0|0:0,0:0:0:0:
367,359,53556,6,0,P|372:295|336:243,1,130.499996017456,0|8,0:0|0:0,0:0:0:0:
169,345,53902,2,0,P|231:356|283:319,1,130.499996017456
207,243,54248,2,0,L|123:250,1,65.2499980087281,8|0,0:0|0:0,0:0:0:0:
39,357,54479,2,0,L|194:343,1,130.499996017456,0|8,0:0|0:0,0:0:0:0:
61,196,54941,2,0,P|50:161|63:127,1,65.2499980087281
175,11,55171,2,0,P|182:42|172:73,1,65.2499980087281,8|0,0:0|0:0,0:0:0:0:
141,281,55402,6,0,L|288:268,1,130.499996017456,0|8,0:0|0:0,0:0:0:0:
328,157,55748,1,0,0:0:0:0:
209,118,55864,2,0,P|187:176|231:234,1,130.499996017456,0|8,0:0|0:0,0:0:0:0:
304,325,56210,1,0,0:0:0:0:
416,262,56325,2,0,L|429:114,1,130.499996017456,0|8,0:0|0:0,0:0:0:0:
249,47,56787,5,8,0:0:0:0:
239,144,56902,1,8,0:0:0:0:
319,200,57018,5,8,0:0:0:0:
306,296,57133,1,8,0:0:0:0:
485,84,57479,6,0,L|495:228,1,130.499996017456,8|0,0:0|0:0,0:0:0:0:
303,321,57941,1,8,0:0:0:0:
380,228,58056,1,0,0:0:0:0:
261,215,58171,2,0,P|199:217|184:219,1,65.2499980087281
69,335,58402,2,0,P|131:333|146:331,1,65.2499980087281,8|0,0:0|0:0,0:0:0:0:
297,178,58633,2,0,P|230:169|156:182,1,130.499996017456,0|8,0:0|0:0,0:0:0:0:
40,210,58979,1,0,0:0:0:0:
113,100,59094,6,0,P|121:61|95:25,1,65.2499980087281
40,210,59325,2,0,L|46:355,1,130.499996017456,8|0,0:0|0:0,0:0:0:0:
133,299,59671,1,0,0:0:0:0:
197,369,59787,2,0,L|290:361,1,65.2499980087281,8|0,0:0|0:0,0:0:0:0:
358,299,60018,2,0,P|381:250|335:166,1,130.499996017456,0|8,0:0|0:0,0:0:0:0:
152,37,60479,2,0,P|129:86|175:170,1,130.499996017456,0|8,0:0|0:0,0:0:0:0:
241,318,60941,6,0,P|339:284|383:304,1,130.499996017456,0|8,0:0|0:0,0:0:0:0:
436,347,61287,2,0,P|381:380|318:375,1,130.499996017456
153,335,61633,2,0,L|69:346,1,65.2499980087281,8|0,0:0|0:0,0:0:0:0:
39,247,61864,2,0,L|194:225,1,130.499996017456,0|8,0:0|0:0,0:0:0:0:
251,293,62210,1,0,0:0:0:0:
251,293,62556,6,0,P|277:245|254:167,1,130.499996017456,8|0,0:0|0:0,0:0:0:0:
67,40,63018,2,0,P|34:90|75:165,1,130.499996017456,8|0,0:0|0:0,0:0:0:0:
195,228,63479,1,8,0:0:0:0:
30,356,63710,2,0,B|83:340|120:363|175:346,1,130.499996017456,0|8,0:0|0:0,0:0:0:0:
273,323,64056,1,0,0:0:0:0:
252,136,64171,5,8,0:0:0:0:
151,104,64287,1,8,0:0:0:0:
82,182,64402,1,8,0:0:0:0:
110,282,64518,1,8,0:0:0:0:
273,323,64633,6,0,B|313:354|313:354|374:345,1,101.499996902466,0|8,0:0|0:0,0:0:0:0:
470,169,65094,1,8,0:0:0:0:
470,169,65171,1,8,0:0:0:0:
470,169,65248,1,8,0:0:0:0:
470,169,65325,5,8,0:0:0:0:
273,323,65556,1,0,0:0:0:0:
426,278,65787,1,8,0:0:0:0:
340,118,66018,1,8,0:0:0:0:
241,119,66133,1,8,0:0:0:0:
183,196,66248,1,8,0:0:0:0:
216,287,66364,1,8,0:0:0:0:
155,362,66479,6,0,B|100:369|100:369|34:354,1,101.499996902466
143,105,66941,1,8,0:0:0:0:
143,105,67018,1,8,0:0:0:0:
143,105,67094,1,8,0:0:0:0:
143,105,67171,6,0,P|149:159|124:220,1,101.499996902466,8|0,0:0|0:0,0:0:0:0:
55,358,67633,1,8,0:0:0:0:
252,324,67864,2,0,L|312:316,1,50.749998451233,8|8,0:0|0:0,0:0:0:0:
110,239,68094,2,0,L|171:233,1,50.749998451233,8|8,0:0|0:0,0:0:0:0:
367,258,68325,6,0,P|398:310|387:360,1,101.499996902466,0|8,0:0|0:0,0:0:0:0:
151,347,68787,1,8,0:0:0:0:
151,347,68864,1,8,0:0:0:0:
151,347,68941,1,8,0:0:0:0:
151,347,69018,6,0,P|171:292|158:228,1,101.499996902466,8|0,0:0|0:0,0:0:0:0:
60,109,69479,2,0,P|89:108|130:91,1,50.749998451233,8|0,0:0|0:0,0:0:0:0:
177,54,69710,1,8,0:0:0:0:
257,83,69825,1,8,0:0:0:0:
322,33,69941,1,8,0:0:0:0:
397,70,70056,1,8,0:0:0:0:
473,39,70171,6,0,P|478:87|438:141,1,101.499996902466,0|8,0:0|0:0,0:0:0:0:
359,338,70633,1,8,0:0:0:0:
359,338,70710,1,8,0:0:0:0:
359,338,70787,1,8,0:0:0:0:
359,338,70864,6,0,P|405:351|470:331,1,101.499996902466,8|0,0:0|0:0,0:0:0:0:
284,225,71325,2,0,P|253:220|214:225,1,50.749998451233,8|0,0:0|0:0,0:0:0:0:
175,292,71556,1,8,0:0:0:0:
84,297,71671,1,8,0:0:0:0:
49,212,71787,1,8,0:0:0:0:
120,155,71902,1,8,0:0:0:0:
209,198,72018,6,0,P|218:144|182:79,1,123.250002350807,4|8,0:0|0:0,0:0:0:0:
49,212,72479,1,0,0:0:0:0:
18,311,72594,1,0,0:0:0:0:
114,348,72710,2,0,P|175:356|249:342,1,123.250002350807,8|0,0:0|0:0,0:0:0:0:
411,247,73171,1,8,0:0:0:0:
235,346,73402,1,0,0:0:0:0:
231,245,73518,1,0,0:0:0:0:
325,292,73633,1,8,0:0:0:0:
477,238,73864,6,0,P|497:295|477:353,1,123.250002350807,0|8,0:0|0:0,0:0:0:0:
352,209,74210,1,0,0:0:0:0:
445,140,74325,2,0,L|513:133,1,61.6250011754036
303,32,74556,2,0,L|363:42,1,61.6250011754036,8|0,0:0|0:0,0:0:0:0:
137,158,74787,6,0,L|266:142,1,123.250002350807,0|8,0:0|0:0,0:0:0:0:
185,54,75133,1,0,0:0:0:0:
71,122,75248,2,0,P|63:175|76:200,1,61.6250011754036
206,274,75479,2,0,P|214:221|201:196,1,61.6250011754036,8|0,0:0|0:0,0:0:0:0:
106,333,75710,5,8,0:0:0:0:
406,285,76171,1,8,0:0:0:0:
151,110,76633,5,8,0:0:0:0:
263,374,77094,1,8,0:0:0:0:
383,47,77556,5,8,0:0:0:0:
326,343,78018,1,8,0:0:0:0:
426,322,78133,1,8,0:0:0:0:
452,222,78248,1,8,0:0:0:0:
370,157,78364,1,8,0:0:0:0:
275,197,78479,5,4,0:0:0:0:
326,343,78710,1,2,0:0:0:0:
348,250,78941,1,2,0:0:0:0:
370,157,79171,1,2,0:0:0:0:
482,50,79402,6,0,B|423:36|423:36|361:49|361:49|295:28,1,173.999994689942,4|8,0:0|0:0,0:0:0:0:
195,72,79748,1,0,0:0:0:0:
90,16,79864,2,0,P|70:59|85:106,1,86.9999973449708
274,249,80094,2,0,P|294:206|279:159,1,86.9999973449708,8|0,0:0|0:0,0:0:0:0:
65,258,80325,6,0,P|115:274|206:196,1,173.999994689942,0|8,0:0|0:0,0:0:0:0:
31,12,80671,2,0,B|4:104|4:104|32:201,1,173.999994689942
242,258,81018,2,0,L|252:143,1,86.9999973449708,8|0,0:0|0:0,0:0:0:0:
189,65,81248,5,0,0:0:0:0:
167,324,81479,1,8,0:0:0:0:
242,258,81594,1,0,0:0:0:0:
297,343,81710,2,0,P|362:352|389:338,1,86.9999973449708
285,185,81941,2,0,P|220:176|193:190,1,86.9999973449708,8|0,0:0|0:0,0:0:0:0:
84,322,82171,6,0,P|149:331|176:317,1,86.9999973449708
126,47,82402,2,0,P|57:94|56:178,1,173.999994689942,8|8,0:0|0:0,0:0:0:0:
122,245,82748,1,8,0:0:0:0:
193,175,82864,2,0,L|304:162,1,86.9999973449708,8|8,0:0|0:0,0:0:0:0:
429,275,83094,6,0,L|226:266,1,173.999994689942,4|8,0:0|0:0,0:0:0:0:
184,336,83441,1,0,0:0:0:0:
376,229,83556,2,0,P|389:188|353:129,1,86.9999973449708
179,43,83787,2,0,P|166:84|202:143,1,86.9999973449708,8|0,0:0|0:0,0:0:0:0:
400,265,84018,6,0,P|437:194|383:91,1,173.999994689942,0|8,0:0|0:0,0:0:0:0:
172,200,84364,2,0,P|294:213|319:158,1,173.999994689942
147,126,84710,2,0,P|105:153|98:214,1,86.9999973449708,8|0,0:0|0:0,0:0:0:0:
209,329,84941,6,0,B|296:358|296:358|387:316,1,173.999994689942,0|8,0:0|0:0,0:0:0:0:
308,131,85287,1,0,0:0:0:0:
293,245,85402,2,0,L|119:190,1,173.999994689942,0|8,0:0|0:0,0:0:0:0:
45,246,85748,1,0,0:0:0:0:
229,178,85864,6,0,P|237:146|197:79,1,86.9999973449708
133,283,86094,2,0,P|125:315|165:382,1,86.9999973449708,8|0,0:0|0:0,0:0:0:0:
367,307,86325,5,8,0:0:0:0:
287,359,86441,1,0,0:0:0:0:
260,213,86556,5,8,0:0:0:0:
205,311,86671,1,8,0:0:0:0:
180,170,86787,6,0,P|212:122|141:37,1,173.999994689942,4|8,0:0|0:0,0:0:0:0:
68,97,87133,1,0,0:0:0:0:
248,9,87248,2,0,L|437:-1,1,173.999994689942,0|8,0:0|0:0,0:0:0:0:
511,64,87594,1,0,0:0:0:0:
444,150,87710,6,0,P|435:206|465:252,1,86.9999973449708
367,83,87941,2,0,P|324:86|287:127,1,86.9999973449708,8|0,0:0|0:0,0:0:0:0:
364,364,88171,2,0,P|383:324|362:261,1,86.9999973449708
235,202,88402,2,0,P|302:219|329:203,1,86.9999973449708,8|0,0:0|0:0,0:0:0:0:
211,120,88633,6,0,P|126:109|37:144,1,173.999994689942,0|8,0:0|0:0,0:0:0:0:
85,287,88979,1,0,0:0:0:0:
183,312,89094,2,0,P|180:251|153:211,1,86.9999973449708
37,364,89325,2,0,P|85:382|136:355,1,86.9999973449708,8|0,0:0|0:0,0:0:0:0:
339,327,89556,6,0,P|253:287|169:324,1,173.999994689942,0|8,0:0|0:0,0:0:0:0:
253,384,89902,1,0,0:0:0:0:
433,291,90018,2,0,L|451:195,1,86.9999973449708
334,106,90248,2,0,L|350:211,1,86.9999973449708,8|0,0:0|0:0,0:0:0:0:
416,61,90479,6,0,P|287:26|249:68,1,173.999994689942,8|0,0:0|0:0,0:0:0:0:
347,192,90825,1,0,0:0:0:0:
234,164,90941,6,0,B|142:143|142:143|49:163,1,173.999994689942,8|0,0:0|0:0,0:0:0:0:
64,285,91287,1,0,0:0:0:0:
315,384,91402,6,0,P|331:329|216:277,1,173.999994689942,8|0,0:0|0:0,0:0:0:0:
64,285,91864,1,8,0:0:0:0:
167,363,92094,1,8,0:0:0:0:
144,183,92210,1,8,0:0:0:0:
144,183,92268,1,8,0:0:0:0:
144,183,92325,6,0,P|191:189|240:165,1,86.9999973449708,8|0,0:0|0:0,0:0:0:0:
446,74,92556,2,0,P|403:67|363:82,1,86.9999973449708,8|0,0:0|0:0,0:0:0:0:
160,198,92787,6,0,P|207:204|256:180,1,86.9999973449708,8|0,0:0|0:0,0:0:0:0:
430,59,93018,2,0,P|387:52|346:66,1,86.9999973449708,8|0,0:0|0:0,0:0:0:0:
464,186,93248,5,8,0:0:0:0:
363,334,93479,1,8,0:0:0:0:
303,105,93710,1,8,0:0:0:0:
303,105,93787,1,8,0:0:0:0:
303,105,93864,1,8,0:0:0:0:
303,105,93941,2,0,P|319:163|304:209,1,86.9999973449708,8|0,0:0|0:0,0:0:0:0:
216,266,94171,6,0,L|22:251,1,173.999994689942,4|8,0:0|0:0,0:0:0:0:
69,354,94518,1,0,0:0:0:0:
175,221,94633,2,0,P|197:162|179:126,1,86.9999973449708
56,0,94864,2,0,P|34:59|52:95,1,86.9999973449708,8|0,0:0|0:0,0:0:0:0:
240,15,95094,6,0,B|332:1|332:1|432:20,1,173.999994689942,0|8,0:0|0:0,0:0:0:0:
512,176,95441,2,0,B|420:190|420:190|320:171,1,173.999994689942
175,221,95787,2,0,P|169:293|200:326,1,86.9999973449708,8|0,0:0|0:0,0:0:0:0:
395,360,96018,6,0,P|407:318|394:278,1,86.9999973449708
340,174,96248,1,8,0:0:0:0:
238,364,96364,2,0,P|142:382|86:314,1,173.999994689942
175,221,96710,1,8,0:0:0:0:
81,145,96825,2,0,P|65:83|88:35,2,86.9999973449708
190,228,97171,6,0,L|308:235,1,86.9999973449708,8|0,0:0|0:0,0:0:0:0:
413,78,97402,2,0,L|295:85,1,86.9999973449708,8|8,0:0|0:0,0:0:0:0:
227,131,97633,1,8,0:0:0:0:
277,234,97748,1,8,0:0:0:0:
199,318,97864,6,0,B|102:327|102:327|28:274,1,173.999994689942,4|8,0:0|0:0,0:0:0:0:
86,140,98210,1,0,0:0:0:0:
227,131,98325,2,0,P|222:86|179:45,1,86.9999973449708
36,206,98556,2,0,P|101:224|139:202,1,86.9999973449708,8|0,0:0|0:0,0:0:0:0:
331,161,98787,6,0,P|228:132|144:169,1,173.999994689942,0|8,0:0|0:0,0:0:0:0:
240,274,99133,2,0,P|343:303|427:266,1,173.999994689942
451,96,99479,1,8,0:0:0:0:
331,161,99594,1,0,0:0:0:0:
475,237,99710,6,0,P|490:291|465:336,1,86.9999973449708
259,198,99941,2,0,P|248:156|264:116,1,86.9999973449708,8|0,0:0|0:0,0:0:0:0:
345,41,100171,1,0,0:0:0:0:
212,9,100287,1,0,0:0:0:0:
151,133,100402,2,0,B|104:139|104:139|40:117,1,86.9999973449708,8|0,0:0|0:0,0:0:0:0:
125,20,100633,6,0,L|234:6,1,86.9999973449708
417,172,100864,2,0,L|331:161,1,86.9999973449708,8|0,0:0|0:0,0:0:0:0:
229,85,101094,1,0,0:0:0:0:
222,232,101210,1,0,0:0:0:0:
109,183,101325,1,8,0:0:0:0:
109,183,101383,1,8,0:0:0:0:
109,183,101441,1,8,0:0:0:0:
109,183,101498,1,8,0:0:0:0:
109,183,101556,6,0,P|135:248|54:318,1,173.999994689942,4|8,0:0|0:0,0:0:0:0:
199,359,101902,2,0,L|382:339,1,173.999994689942
344,125,102248,1,8,0:0:0:0:
269,241,102364,1,0,0:0:0:0:
428,191,102479,6,0,P|455:136|424:84,1,86.9999973449708
225,48,102710,2,0,P|222:128|241:156,1,86.9999973449708,8|0,0:0|0:0,0:0:0:0:
269,241,102941,1,0,0:0:0:0:
344,125,103056,1,0,0:0:0:0:
403,284,103171,2,0,L|525:267,1,86.9999973449708,8|0,0:0|0:0,0:0:0:0:
302,364,103402,6,0,L|128:346,1,173.999994689942,0|8,0:0|0:0,0:0:0:0:
73,226,103748,1,0,0:0:0:0:
263,198,103864,2,0,P|268:252|240:286,1,86.9999973449708
113,105,104094,6,0,P|153:80|217:96,1,86.9999973449708,8|0,0:0|0:0,0:0:0:0:
361,125,104325,2,0,P|474:126|505:62,1,173.999994689942,0|8,0:0|0:0,0:0:0:0:
341,21,104671,1,0,0:0:0:0:
256,174,104787,2,0,P|193:170|144:145,1,86.9999973449708,8|8,0:0|0:0,0:0:0:0:
60,48,105018,1,8,0:0:0:0:
201,36,105133,1,8,0:0:0:0:
341,21,105248,6,0,L|348:223,1,173.999994689942,8|0,0:0|0:0,0:0:0:0:
283,295,105594,1,0,0:0:0:0:
60,103,105710,6,0,L|245:86,1,173.999994689942,8|0,0:0|0:0,0:0:0:0:
341,21,106056,1,0,0:0:0:0:
56,371,106171,6,0,L|60:197,1,173.999994689942,8|0,0:0|0:0,0:0:0:0:
182,168,106518,1,0,0:0:0:0:
254,348,106633,2,0,P|307:350|354:309,1,86.9999973449708,8|0,0:0|0:0,0:0:0:0:
182,168,106864,2,0,P|165:232|185:278,1,86.9999973449708,8|8,0:0|0:0,0:0:0:0:
254,348,107094,5,2,0:0:0:0:
256,192,107152,12,0,108710,0:0:0:0:
224,334,108941,6,0,P|302:348|376:304,1,145,4|8,0:0|0:0,0:0:0:0:
450,238,109287,1,0,0:0:0:0:
270,159,109402,2,0,L|291:248,1,72.5
455,77,109633,2,0,L|373:47,1,72.5,8|0,0:0|0:0,0:0:0:0:
228,132,109864,6,0,L|268:305,1,145,0|8,0:0|0:0,0:0:0:0:
345,356,110210,1,0,0:0:0:0:
245,319,110325,2,0,P|192:301|148:307,1,72.5
19,342,110556,2,0,P|72:360|116:354,1,72.5,8|0,0:0|0:0,0:0:0:0:
79,258,110787,6,0,L|70:98,1,145,0|8,0:0|0:0,0:0:0:0:
145,35,111133,1,0,0:0:0:0:
142,147,111248,2,0,P|186:145|220:116,1,72.5
397,17,111479,2,0,P|353:19|319:48,1,72.5,8|0,0:0|0:0,0:0:0:0:
129,177,111710,6,0,P|198:175|250:97,1,145,0|8,0:0|0:0,0:0:0:0:
233,21,112056,1,0,0:0:0:0:
251,168,112171,2,0,L|253:260,1,72.5
167,355,112402,2,0,L|165:263,1,72.5,8|0,0:0|0:0,0:0:0:0:
336,210,112633,6,0,P|420:226|449:304,1,145,0|8,0:0|0:0,0:0:0:0:
408,369,112979,1,0,0:0:0:0:
486,251,113094,2,0,L|500:151,1,72.5
379,27,113325,2,0,L|389:98,1,72.5,8|0,0:0|0:0,0:0:0:0:
421,343,113556,6,0,B|348:323|348:323|255:341,1,145,0|8,0:0|0:0,0:0:0:0:
192,292,113902,1,0,0:0:0:0:
101,335,114018,2,0,P|92:282|101:246,1,72.5
220,122,114248,2,0,P|229:175|220:211,1,72.5,8|0,0:0|0:0,0:0:0:0:
37,211,114479,6,0,P|16:143|54:58,1,145,0|8,0:0|0:0,0:0:0:0:
128,15,114825,1,0,0:0:0:0:
234,36,114941,2,0,L|330:45,1,72.5
488,41,115171,2,0,L|396:31,1,72.5,8|0,0:0|0:0,0:0:0:0:
307,43,115402,5,8,0:0:0:0:
328,207,115518,1,8,0:0:0:0:
461,114,115633,1,0,0:0:0:0:
250,132,115748,1,8,0:0:0:0:
310,310,115864,5,8,0:0:0:0:
466,199,115979,1,8,0:0:0:0:
353,120,116094,1,8,0:0:0:0:
436,323,116210,1,8,0:0:0:0:
213,346,116325,6,0,P|104:358|67:318,1,159.500004867554,4|8,0:0|0:0,0:0:0:0:
154,116,116671,2,0,P|263:104|300:144,1,159.500004867554
188,333,117018,2,0,P|115:323|97:303,1,79.7500024337769,8|0,0:0|0:0,0:0:0:0:
33,172,117248,6,0,P|10:108|98:40,1,159.500004867554,0|8,0:0|0:0,0:0:0:0:
293,132,117594,2,0,P|316:196|228:264,1,159.500004867554
89,116,117941,1,8,0:0:0:0:
149,269,118056,1,0,0:0:0:0:
219,67,118171,6,0,B|303:54|303:54|387:85,1,159.500004867554,0|8,0:0|0:0,0:0:0:0:
495,311,118518,2,0,B|411:324|411:324|327:293,1,159.500004867554
287,87,118864,2,0,L|378:120,1,79.7500024337769,8|0,0:0|0:0,0:0:0:0:
427,351,119094,6,0,P|414:307|511:235,1,159.500004867554,0|8,0:0|0:0,0:0:0:0:
354,128,119441,2,0,P|367:84|270:12,1,159.500004867554
228,166,119787,1,8,0:0:0:0:
322,257,119902,1,0,0:0:0:0:
226,351,120018,6,0,B|142:370|142:370|42:341,1,159.500004867554,0|8,0:0|0:0,0:0:0:0:
228,166,120364,2,0,B|312:147|312:147|412:176,1,159.500004867554
236,313,120710,2,0,L|151:334,1,79.7500024337769,8|0,0:0|0:0,0:0:0:0:
24,263,120941,6,0,P|13:179|39:97,1,159.500004867554,0|8,0:0|0:0,0:0:0:0:
237,11,121287,2,0,P|248:95|222:177,1,159.500004867554
158,332,121633,1,8,0:0:0:0:
86,187,121748,1,0,0:0:0:0:
297,237,121864,6,0,P|364:240|366:137,1,159.500004867554,0|8,0:0|0:0,0:0:0:0:
257,346,122210,2,0,P|333:366|432:326,1,159.500004867554
387,162,122556,1,8,0:0:0:0:
297,237,122671,1,0,0:0:0:0:
468,218,122787,6,0,P|487:175|422:72,1,159.500004867554,0|8,0:0|0:0,0:0:0:0:
186,26,123133,2,0,P|167:69|232:172,1,159.500004867554,0|8,0:0|0:0,0:0:0:0:
292,283,123479,1,8,0:0:0:0:
387,162,123594,1,8,0:0:0:0:
287,324,123710,6,0,B|242:356|242:356|125:336,1,145,4|8,0:0|0:0,0:0:0:0:
66,369,124056,1,0,0:0:0:0:
15,294,124171,2,0,P|1:230|74:159,1,145,0|8,0:0|0:0,0:0:0:0:
168,128,124518,1,0,0:0:0:0:
268,219,124633,6,0,P|338:214|387:162,1,145,0|8,0:0|0:0,0:0:0:0:
293,72,124979,1,0,0:0:0:0:
168,128,125094,2,0,L|12:122,1,145,0|8,0:0|0:0,0:0:0:0:
135,223,125441,1,0,0:0:0:0:
46,348,125556,6,0,L|220:326,1,145,0|8,0:0|0:0,0:0:0:0:
252,250,125902,1,0,0:0:0:0:
336,191,126018,2,0,P|357:261|297:340,1,145,0|8,0:0|0:0,0:0:0:0:
182,371,126364,1,0,0:0:0:0:
55,288,126479,6,0,L|51:129,1,145,0|8,0:0|0:0,0:0:0:0:
102,53,126825,1,0,0:0:0:0:
194,105,126941,2,0,P|257:108|290:101,1,72.5
342,35,127171,2,0,P|379:32|415:36,1,72.5,8|0,0:0|0:0,0:0:0:0:
476,122,127402,6,0,P|494:178|452:270,1,145,0|8,0:0|0:0,0:0:0:0:
372,243,127748,1,0,0:0:0:0:
496,365,127864,2,0,L|406:356,1,72.5
324,333,128094,2,0,L|248:342,1,72.5,8|0,0:0|0:0,0:0:0:0:
167,384,128325,6,0,P|157:318|220:256,1,145,0|8,0:0|0:0,0:0:0:0:
267,183,128671,1,0,0:0:0:0:
116,226,128787,2,0,P|41:224|20:205,1,72.5
176,55,129018,2,0,P|182:110|154:145,1,72.5,8|0,0:0|0:0,0:0:0:0:
62,360,129248,6,0,B|110:347|110:347|166:358|166:358|234:332,1,145,0|8,0:0|0:0,0:0:0:0:
293,219,129594,1,0,0:0:0:0:
145,165,129710,2,0,L|154:236,1,72.5
249,107,129941,2,0,L|258:35,1,72.5,8|0,0:0|0:0,0:0:0:0:
431,113,130171,5,8,0:0:0:0:
369,0,130287,1,0,0:0:0:0:
404,203,130402,1,8,0:0:0:0:
512,65,130518,1,8,0:0:0:0:
342,126,130633,5,8,0:0:0:0:
460,305,130748,1,8,0:0:0:0:
358,310,130864,1,8,0:0:0:0:
508,182,130979,1,8,0:0:0:0:
342,126,131094,6,0,B|259:101|259:101|162:114,1,173.999994689942,4|8,0:0|0:0,0:0:0:0:
48,326,131441,2,0,B|131:351|131:351|228:338,1,173.999994689942
247,183,131787,1,8,0:0:0:0:
141,270,131902,1,0,0:0:0:0:
335,279,132018,6,0,P|354:232|335:194,1,86.9999973449708
141,94,132248,2,0,P|122:141|141:179,1,86.9999973449708,8|0,0:0|0:0,0:0:0:0:
182,365,132479,2,0,L|359:338,1,173.999994689942,8|8,0:0|0:0,0:0:0:0:
382,194,132825,1,0,0:0:0:0:
236,217,132941,6,0,L|24:209,1,173.999994689942,0|8,0:0|0:0,0:0:0:0:
141,94,133287,2,0,L|325:76,1,173.999994689942
452,115,133633,2,0,P|491:175|489:203,1,86.9999973449708,8|0,0:0|0:0,0:0:0:0:
302,313,133864,6,0,P|279:220|328:145,1,173.999994689942,0|8,0:0|0:0,0:0:0:0:
497,280,134210,2,0,P|473:345|357:338,1,173.999994689942
219,357,134556,2,0,P|176:351|133:357,1,86.9999973449708,8|0,0:0|0:0,0:0:0:0:
32,266,134787,2,0,P|10:217|88:109,1,173.999994689942,0|8,0:0|0:0,0:0:0:0:
258,213,135133,2,0,P|180:244|107:204,1,173.999994689942
274,111,135479,2,0,L|189:129,1,86.9999973449708,8|0,0:0|0:0,0:0:0:0:
313,38,135710,6,0,P|363:126|313:189,1,173.999994689942,0|8,0:0|0:0,0:0:0:0:
151,323,136056,2,0,L|330:305,1,173.999994689942
443,251,136402,1,8,0:0:0:0:
329,179,136518,1,0,0:0:0:0:
298,331,136633,6,0,L|85:351,1,173.999994689942,0|8,0:0|0:0,0:0:0:0:
35,263,136979,1,0,0:0:0:0:
141,201,137094,2,0,P|157:155|139:102,1,86.9999973449708
44,10,137325,2,0,P|28:56|46:109,1,86.9999973449708,8|0,0:0|0:0,0:0:0:0:
165,240,137556,6,0,P|202:169|161:71,1,173.999994689942,0|8,0:0|0:0,0:0:0:0:
35,92,137902,1,0,0:0:0:0:
41,200,138018,1,8,0:0:0:0:
53,306,138133,1,8,0:0:0:0:
144,370,138248,1,8,0:0:0:0:
249,329,138364,1,8,0:0:0:0:
102,156,138479,6,0,L|166:149,1,36.25,2|0,0:0|0:0,0:0:0:0:
230,92,138713,2,0,L|287:82,1,36.25
120,173,138947,6,0,L|184:166,1,36.25,2|0,0:0|0:0,0:0:0:0:
248,109,139181,2,0,L|305:99,1,36.25
305,268,139416,6,0,L|291:324,1,36.25,2|0,0:0|0:0,0:0:0:0:
402,185,139646,2,0,L|390:135,1,36.25
327,277,139877,6,0,L|318:312,1,36.25,2|0,0:0|0:0,0:0:0:0:
424,194,140107,2,0,L|415:158,1,36.25
305,89,140339,6,0,L|248:87,1,36.25,2|0,0:0|0:0,0:0:0:0:
464,34,140575,2,0,L|427:35,1,36.25
320,103,140811,6,0,L|263:101,1,36.25,2|0,0:0|0:0,0:0:0:0:
479,48,141047,2,0,L|442:49,1,36.25
347,203,141283,6,0,L|357:264,1,36.25,2|0,0:0|0:0,0:0:0:0:
494,287,141520,2,0,L|499:251,1,36.25
404,361,141756,5,2,0:0:0:0:
318,375,141874,1,0,0:0:0:0:
242,331,141992,1,0,0:0:0:0:
166,374,142110,1,2,0:0:0:0:
