osu file format v14

[General]
AudioFilename: fsefewtesrweart45478577.mp3
AudioLeadIn: 0
PreviewTime: 78652
Countdown: 0
SampleSet: Soft
StackLeniency: 0.3
Mode: 0
LetterboxInBreaks: 0
WidescreenStoryboard: 0

[Editor]
Bookmarks: 16633,35094,49864,64633,79402,87191,94171,108941,123710
DistanceSpacing: 1.1
BeatDivisor: 4
GridSize: 4
TimelineZoom: 3.499999

[Metadata]
Title:Kegare Naki Bara Juuji (Short ver.)
TitleUnicode:穢れなき薔薇十字 (Short ver.)
Artist:Ariabl'eyeS
ArtistUnicode:Ariabl'eyeS
Creator:My Angel RangE
Version:Collab Extra
Source:
Tags:瑠璃色のローゼンクロイツ Ruriiro no Rena Luna Lyse リゼ rosicrucian Left walaowey Neoskylove Regou Daletto Volta dakemoto Gyukari Jakads -Eat_Sparingly- Underflow Sylphi 404
BeatmapID:1173955
BeatmapSetID:535277

[Difficulty]
HPDrainRate:7
CircleSize:4
OverallDifficulty:8
ApproachRate:9.4
SliderMultiplier:1.5
SliderTickRate:1

[Events]
//Background and Video events
0,0,"248.png",0,0
//Break Periods
//Storyboard Layer 0 (Background)
//Storyboard Layer 1 (Fail)
//Storyboard Layer 2 (Pass)
//Storyboard Layer 3 (Foreground)
//Storyboard Sound Samples

[TimingPoints]
18,230.769230769231,4,2,2,40,1,0
18,-166.666666666666,4,2,2,40,0,0
1864,-142.857142857143,4,2,2,40,0,0
8325,-111.111111111111,4,2,2,50,0,0
9248,-100,4,2,2,60,0,0
16633,-105.263157894737,4,2,2,50,0,0
24018,-100,4,2,2,60,0,0
31402,-200,4,2,2,60,0,0
34633,-111.111111111111,4,2,2,60,0,0
49864,-100,4,2,2,60,0,0
53902,-111.111111111111,4,2,2,60,0,0
54248,-125,4,2,2,60,0,0
55171,-111.111111111111,4,2,2,60,0,0
55402,-100,4,2,2,60,0,0
64633,-111.111111111111,4,2,2,60,0,0
78479,-200,4,2,2,60,0,0
79402,-83.3333333333333,4,2,2,70,0,1
81594,-76.9230769230769,4,2,2,70,0,1
81825,-71.4285714285714,4,2,2,70,0,1
82402,-83.3333333333333,4,2,2,70,0,1
85287,-76.9230769230769,4,2,2,70,0,1
85518,-71.4285714285714,4,2,2,70,0,1
86787,-83.3333333333333,4,2,2,70,0,1
90479,-142.857142857143,4,2,2,70,0,1
93248,-71.4285714285714,4,2,2,70,0,1
94171,-83.3333333333333,4,2,2,70,0,1
108941,-100,4,2,2,50,0,0
116325,-100,4,2,2,60,0,0
123710,-100,4,2,2,50,0,0
131094,-83.3333333333333,4,2,2,60,0,0
138479,468.75,4,2,2,50,1,0
139416,461.538461538462,4,2,2,50,1,0
140339,472.44094488189,4,2,2,35,1,0

[Colours]
Combo1 : 255,149,255
Combo2 : 0,0,181
Combo3 : 179,217,255
Combo4 : 108,0,217

[HitObjects]
267,75,18,5,0,0:0:0:0:
289,70,479,1,0,0:0:0:0:
311,66,941,6,0,L|316:110,1,44.999998626709
397,175,1171,2,0,L|403:131,1,44.999998626709
311,196,1402,2,0,L|316:240,1,44.999998626709
397,305,1632,2,0,L|403:261,1,44.999998626709
243,316,1864,5,0,0:0:0:0:
315,71,2325,1,0,0:0:0:0:
130,113,2556,1,0,0:0:0:0:
130,113,2671,1,0,0:0:0:0:
130,113,2787,1,0,0:0:0:0:
243,316,3248,1,0,0:0:0:0:
98,187,3479,2,0,L|63:189,2,34.9999989318848
178,178,3710,6,0,B|221:167|256:184|256:184|297:201|332:184,2,157.499995193482
127,258,4518,1,0,0:0:0:0:
206,308,4633,2,0,L|211:275,8,26.2499991989136
394,290,5325,2,0,L|388:324,2,34.9999989318848
411,215,5556,5,0,0:0:0:0:
411,215,6248,1,0,0:0:0:0:
177,177,6479,2,0,P|163:128|180:79,1,104.999996795654
265,36,6825,1,0,0:0:0:0:
321,112,6941,2,0,L|425:109,1,104.999996795654
476,291,7402,6,0,L|371:293,1,104.999996795654
290,243,7748,1,0,0:0:0:0:
208,293,7864,2,0,L|104:291,1,104.999996795654
178,31,8325,5,0,0:0:0:0:
208,190,8441,1,0,0:0:0:0:
254,58,8556,5,0,0:0:0:0:
132,162,8672,1,0,0:0:0:0:
254,58,8787,5,0,0:0:0:0:
208,190,8902,1,0,0:0:0:0:
117,83,9018,5,0,0:0:0:0:
269,137,9133,1,0,0:0:0:0:
117,82,9248,6,0,P|59:126|59:198,1,150
100,271,9594,2,0,L|249:261,1,150
316,210,9941,2,0,P|331:243|331:281,1,75
238,178,10171,2,0,P|292:129|363:141,1,150
399,217,10518,2,0,P|403:291|376:360,1,150
294,351,10864,2,0,L|219:348,1,75
190,270,11094,6,0,P|128:309|61:283,1,150
58,200,11441,2,0,P|119:161|186:187,1,150
253,137,11787,2,0,P|256:100|242:65,1,75
186,187,12018,2,0,L|334:167,1,150
411,136,12364,2,0,P|406:209|345:249,1,150
269,218,12710,1,0,0:0:0:0:
279,300,12825,1,0,0:0:0:0:
202,267,12941,6,0,L|53:247,1,150
53,165,13287,2,0,L|201:145,1,150
256,83,13633,2,0,L|256:8,1,75
310,145,13864,2,0,L|459:165,1,150
458,247,14210,2,0,L|310:267,1,150
310,349,14556,2,0,L|384:339,1,75
239,308,14787,6,0,P|205:243|134:227,1,150
60,190,15133,2,0,P|130:174|164:109,1,150
218,47,15479,2,0,B|255:58|255:58|290:50,1,75
347,109,15710,2,0,P|381:174|452:189,1,150
430,109,16056,1,0,0:0:0:0:
422,273,16171,1,0,0:0:0:0:
341,258,16286,1,0,0:0:0:0:
260,271,16401,1,0,0:0:0:0:
187,310,16517,1,0,0:0:0:0:
141,376,16633,6,0,P|55:368|-7:361,1,142.49999619484,6|8,0:0|0:0,0:0:0:0:
0,362,16979,1,0,0:0:0:0:
8,367,17094,2,0,P|7:319|1:275,1,71.2499980974198
83,217,17325,2,0,P|84:265|90:309,1,71.2499980974198,8|0,0:0|0:0,0:0:0:0:
0,165,17556,6,0,P|63:181|138:121,1,142.49999619484,0|8,0:0|0:0,0:0:0:0:
54,97,17902,1,0,0:0:0:0:
126,144,18018,2,0,P|189:160|264:100,1,142.49999619484,0|8,0:0|0:0,0:0:0:0:
183,75,18364,1,0,0:0:0:0:
337,372,18479,6,0,P|329:286|319:199,1,142.49999619484,2|8,0:0|0:0,0:0:0:0:
401,181,18825,2,0,P|409:267|419:354,1,142.49999619484,2|0,0:0|0:0,0:0:0:0:
415,322,19171,2,0,P|455:327|500:336,1,71.2499980974198,8|0,0:0|0:0,0:0:0:0:
175,372,19402,6,0,P|183:286|193:199,1,142.49999619484,2|8,0:0|0:0,0:0:0:0:
111,181,19748,2,0,P|103:267|93:354,1,142.49999619484,2|0,0:0|0:0,0:0:0:0:
97,322,20094,2,0,P|57:327|12:336,1,71.2499980974198,8|0,0:0|0:0,0:0:0:0:
32,152,20325,6,0,P|100:144|176:128,1,142.49999619484,6|8,0:0|0:0,0:0:0:0:
172,128,20671,1,0,0:0:0:0:
180,136,20787,2,0,P|171:87|163:47,1,71.2499980974198
240,12,21018,2,0,P|248:60|256:100,1,71.2499980974198,8|0,0:0|0:0,0:0:0:0:
264,279,21248,6,0,P|340:263|396:319,1,142.49999619484,0|8,0:0|0:0,0:0:0:0:
320,336,21594,1,0,0:0:0:0:
388,300,21710,2,0,P|464:284|520:340,1,142.49999619484,0|8,0:0|0:0,0:0:0:0:
440,360,22056,1,0,0:0:0:0:
512,164,22171,6,0,L|360:180,1,142.49999619484,0|8,0:0|0:0,0:0:0:0:
370,178,22518,1,0,0:0:0:0:
372,184,22633,2,0,B|360:96|400:132|376:24,1,142.49999619484,0|8,0:0|0:0,0:0:0:0:
379,43,22979,1,0,0:0:0:0:
80,120,23094,5,0,0:0:0:0:
36,112,23210,1,8,0:0:0:0:
192,216,23325,5,0,0:0:0:0:
152,208,23441,1,8,0:0:0:0:
64,272,23556,5,0,0:0:0:0:
24,264,23671,1,8,0:0:0:0:
200,348,23787,5,0,0:0:0:0:
160,340,23902,1,8,0:0:0:0:
348,348,24018,6,0,P|428:372|484:316,1,150,6|8,0:0|0:0,0:0:0:0:
496,256,24364,2,0,P|476:208|364:192,1,150
412,268,24710,1,8,0:0:0:0:
412,268,24825,1,0,0:0:0:0:
276,192,24941,6,0,P|196:216|140:160,1,150,0|8,0:0|0:0,0:0:0:0:
128,100,25287,2,0,P|148:52|260:36,1,150
44,156,25633,5,8,0:0:0:0:
224,116,25748,1,0,0:0:0:0:
164,300,25864,2,0,B|252:296|220:340|324:336,1,150,2|8,0:0|0:0,0:0:0:0:
392,376,26210,2,0,B|408:264|408:264|364:284,1,150
308,336,26556,1,8,0:0:0:0:
308,336,26671,1,0,0:0:0:0:
304,136,26787,6,0,B|436:112|382:216|510:192,2,225,6|0|8,0:0|0:0|0:0,0:1:0:0:
232,88,27594,1,0,0:0:0:0:
232,172,27710,6,0,P|152:168|76:160,1,150,6|8,0:0|0:0,0:0:0:0:
16,240,28056,2,0,P|96:244|172:252,1,150
165,251,28402,2,0,P|172:300|180:348,1,75,8|0,0:0|0:0,0:0:0:0:
272,368,28633,6,0,P|352:372|428:380,1,150,0|8,0:0|0:0,0:0:0:0:
488,300,28979,2,0,P|408:296|332:288,1,150
338,288,29325,2,0,P|331:239|323:191,1,75,8|0,0:0|0:0,0:0:0:0:
300,24,29556,6,0,P|376:36|404:120,1,150,6|8,0:0|0:0,0:0:0:0:
108,96,29902,2,0,P|143:32|214:23,1,150
300,104,30248,1,8,0:0:0:0:
216,104,30364,1,0,0:0:0:0:
260,176,30479,6,0,B|252:228|252:228|268:264|268:264|260:336,1,150,0|8,0:0|0:0,0:0:0:0:
261,321,30825,1,0,0:0:0:0:
172,368,30941,5,8,0:0:0:0:
356,264,31056,1,8,0:0:0:0:
340,368,31171,5,8,0:0:0:0:
156,264,31286,1,8,0:0:0:0:
48,340,31402,6,0,L|8:344,3,37.5,2|0|0|0,0:0|0:0|0:0|0:0,0:0:0:0:
64,328,31864,1,8,0:0:0:0:
80,316,31979,1,0,0:0:0:0:
96,304,32094,1,0,0:0:0:0:
112,292,32210,1,0,0:0:0:0:
132,276,32325,6,0,L|92:280,3,37.5,2|0|0|0,0:0|0:0|0:0|0:0,0:0:0:0:
148,264,32787,1,8,0:0:0:0:
164,252,32902,1,0,0:0:0:0:
180,240,33017,1,0,0:0:0:0:
196,228,33133,1,0,0:0:0:0:
212,216,33248,6,0,L|172:220,3,37.5,2|0|0|0,0:0|0:0|0:0|0:0,0:0:0:0:
228,204,33710,1,8,0:0:0:0:
244,192,33825,1,0,0:0:0:0:
260,180,33940,1,0,0:0:0:0:
276,168,34056,1,0,0:0:0:0:
292,156,34171,6,0,L|288:108,1,37.5,2|0,0:0|0:0,0:0:0:0:
208,80,34402,2,0,L|212:128,1,37.5
296,32,34633,5,8,0:0:0:0:
316,48,34691,1,8,0:0:0:0:
340,56,34748,1,8,0:0:0:0:
364,56,34806,1,8,0:0:0:0:
392,52,34864,2,0,P|444:44|492:40,1,75,0|8,0:0|0:0,0:0:0:0:
336,258,35094,6,0,B|296:258|296:258|246:243|246:243|203:243,1,134.999995880127
93,186,35441,1,0,0:0:0:0:
93,186,35556,2,0,B|133:186|133:186|183:171|183:171|226:171,1,134.999995880127
325,59,36018,6,0,P|357:67|391:69,1,67.4999979400635
469,152,36248,2,0,P|436:144|402:142,1,67.4999979400635
333,170,36479,2,0,L|350:303,1,134.999995880127
396,245,36825,1,0,0:0:0:0:
250,292,36941,6,0,L|115:287,1,134.999995880127
171,119,37287,1,0,0:0:0:0:
171,119,37402,2,0,P|194:181|176:245,1,134.999995880127
97,118,37864,2,0,L|90:50,1,67.4999979400635
164,52,38094,2,0,L|170:119,1,67.4999979400635
241,95,38325,2,0,B|281:95|281:95|331:110|331:110|374:110,1,134.999995880127
429,159,38671,1,0,0:0:0:0:
426,233,38787,6,0,B|386:233|386:233|336:248|336:248|293:248,1,134.999995880127
219,248,39133,2,0,B|176:248|176:248|126:233|126:233|86:233,1,134.999995880127
142,340,39479,2,0,P|149:307|148:274,1,67.4999979400635
117,149,39710,6,0,B|157:149|157:149|207:164|207:164|250:164,1,134.999995880127
312,124,40056,1,0,0:0:0:0:
377,157,40171,2,0,P|377:191|380:225,1,67.4999979400635
330,345,40402,2,0,P|330:311|327:278,1,67.4999979400635
250,164,40633,6,0,B|207:164|207:164|157:149|157:149|117:149,1,134.999995880127
64,201,40979,1,0,0:0:0:0:
33,133,41094,2,0,L|25:65,1,67.4999979400635
147,234,41325,2,0,L|139:301,1,67.4999979400635
63,345,41556,6,0,P|128:333|193:352,1,134.999995880127
266,365,41902,1,0,0:0:0:0:
319,266,42018,5,0,0:0:0:0:
192,351,42133,1,0,0:0:0:0:
340,285,42248,5,0,0:0:0:0:
223,162,42363,1,0,0:0:0:0:
378,91,42479,6,0,P|311:85|244:90,1,134.999995880127
172,108,42825,1,0,0:0:0:0:
222,161,42941,2,0,P|227:195|227:229,1,67.4999979400635
67,194,43171,2,0,P|62:160|62:126,1,67.4999979400635
143,236,43402,2,0,P|146:304|135:370,1,134.999995880127
66,341,43748,1,0,0:0:0:0:
214,349,43864,2,0,L|281:352,1,67.4999979400635
396,292,44094,2,0,L|329:296,1,67.4999979400635
270,249,44325,6,0,P|259:182|262:115,1,134.999995880127
288,45,44671,1,0,0:0:0:0:
192,84,44787,2,0,P|186:152|191:219,1,134.999995880127
338,234,45248,6,0,P|347:266|348:300,1,67.4999979400635
410,214,45479,2,0,P|411:180|419:147,1,67.4999979400635
375,65,45710,2,0,P|327:111|261:114,1,134.999995880127
198,74,46056,1,0,0:0:0:0:
57,236,46171,6,0,L|190:219,1,134.999995880127
333,263,46518,2,0,P|299:215|256:256,1,134.999995880127
407,262,46864,2,0,P|404:228|393:196,1,67.4999979400635
453,153,47094,6,0,P|478:216|481:283,2,134.999995880127
404,97,47671,1,0,0:0:0:0:
333,121,47787,2,0,L|265:117,1,67.4999979400635
104,200,48018,6,0,P|161:166|226:180,1,134.999995880127
246,251,48364,1,0,0:0:0:0:
329,187,48479,2,0,P|335:153|332:120,1,67.4999979400635
242,317,48710,2,0,P|238:283|245:250,1,67.4999979400635
401,93,48941,6,0,P|409:160|396:226,1,134.999995880127
361,292,49287,1,0,0:0:0:0:
332,120,49402,5,0,0:0:0:0:
315,350,49518,1,0,0:0:0:0:
447,128,49633,5,0,0:0:0:0:
193,173,49748,1,0,0:0:0:0:
428,296,49864,5,4,0:0:0:0:
428,296,50094,2,0,P|400:328|372:368,1,75,8|0,0:0|0:0,0:0:0:0:
368,236,50325,2,0,P|354:195|336:152,1,75,8|0,0:0|0:0,0:0:0:0:
444,220,50556,2,0,P|485:228|532:232,1,75,8|0,0:0|0:0,0:0:0:0:
304,364,50787,6,0,P|256:320|176:340,1,150,0|8,0:0|0:0,0:0:0:0:
178,337,51133,1,0,0:0:0:0:
0,216,51248,1,0,0:0:0:0:
12,292,51364,1,0,0:0:0:0:
76,208,51479,1,8,0:0:0:0:
84,280,51594,1,0,0:0:0:0:
208,68,51710,5,0,0:0:0:0:
208,68,51941,2,0,P|200:28|188:-8,1,75,8|0,0:0|0:0,0:0:0:0:
280,112,52171,2,0,P|318:125|364:136,1,75
204,148,52402,2,0,P|173:174|144:208,1,75,8|0,0:0|0:0,0:0:0:0:
496,275,52633,6,0,B|412:267|444:311|344:299,1,150,0|8,0:0|0:0,0:0:0:0:
352,300,52979,1,0,0:0:0:0:
268,337,53094,2,0,P|344:325|380:385,1,150,0|8,0:0|0:0,0:0:0:0:
379,379,53441,1,0,0:0:0:0:
392,188,53556,6,0,P|320:196|236:208,1,150,4|8,0:0|0:0,0:0:0:0:
380,112,53902,6,0,P|340:116|236:128,1,134.999995880127
372,36,54248,6,0,P|332:40|248:48,2,120,8|0|8,0:0|0:0|0:0,0:0:0:0:
157,6,54941,5,0,0:0:0:0:
165,14,55056,1,0,0:0:0:0:
165,14,55171,2,0,P|169:62|173:106,1,67.4999979400635,8|0,0:0|0:0,0:0:0:0:
245,126,55402,6,0,B|161:102|189:158|81:126,1,150,0|8,0:0|0:0,0:0:0:0:
0,220,55748,2,0,B|88:240|60:188|168:220,1,150
116,364,56094,2,0,L|108:284,1,75,8|0,0:0|0:0,0:0:0:0:
236,364,56325,6,0,P|284:300|368:316,1,150,0|8,0:0|0:0,0:0:0:0:
416,344,56671,1,0,0:0:0:0:
316,208,56787,5,8,0:0:0:0:
484,240,56902,1,0,0:0:0:0:
332,48,57018,5,8,0:0:0:0:
512,80,57133,1,8,0:0:0:0:
512,80,57479,6,0,P|504:128|476:152,1,75,4|0,0:0|0:0,0:0:0:0:
344,132,57710,2,0,P|397:114|430:123,1,75
464,248,57941,2,0,P|436:224|416:180,1,75,8|0,0:0|0:0,0:0:0:0:
248,368,58171,6,0,P|295:323|383:351,1,150,0|8,0:0|0:0,0:0:0:0:
373,340,58518,1,0,0:0:0:0:
200,196,58633,1,0,0:0:0:0:
180,276,58748,1,0,0:0:0:0:
124,176,58864,1,8,0:0:0:0:
104,256,58979,1,0,0:0:0:0:
60,100,59094,5,0,0:0:0:0:
60,100,59325,2,0,P|48:60|24:24,1,75,8|0,0:0|0:0,0:0:0:0:
132,148,59556,2,0,P|172:157|215:154,1,75
56,180,59787,2,0,P|27:210|8:249,1,75,8|0,0:0|0:0,0:0:0:0:
24,360,60018,6,0,P|80:372|144:304,1,150,0|8,0:0|0:0,0:0:0:0:
68,296,60364,1,0,0:0:0:0:
344,304,60479,2,0,P|288:292|224:360,1,150,0|8,0:0|0:0,0:0:0:0:
300,368,60825,1,0,0:0:0:0:
268,212,60941,6,0,P|264:160|260:108,2,75,4|0|8,0:0|0:0|0:0,0:0:0:0:
340,28,61287,2,0,P|344:80|348:132,2,75
508,200,61633,2,0,B|444:192|444:192|420:200|420:200|336:188,2,150,8|0|8,0:0|0:0|0:0,0:0:0:0:
424,360,62325,5,0,0:0:0:0:
428,364,62441,1,0,0:0:0:0:
500,320,62556,2,0,P|464:288|424:288,1,75,8|0,0:0|0:0,0:0:0:0:
356,304,62787,6,0,P|296:360|216:328,1,150,0|8,0:0|0:0,0:0:0:0:
273,201,63133,2,0,P|338:233|356:304,1,150
276,280,63479,2,0,L|202:263,1,75,8|0,0:0|0:0,0:0:0:0:
16,236,63710,5,0,0:0:0:0:
16,236,63941,2,0,P|8:192|-4:144,1,75,8|0,0:0|0:0,0:0:0:0:
152,96,64171,5,8,0:0:0:0:
84,308,64287,1,0,0:0:0:0:
60,32,64402,5,8,0:0:0:0:
168,360,64518,1,0,0:0:0:0:
158,214,64633,6,0,L|225:211,1,67.4999979400635
192,285,64864,2,0,L|259:282,1,67.4999979400635
326,327,65094,2,0,B|302:283|302:283|309:198,1,134.999995880127
357,131,65441,1,0,0:0:0:0:
457,200,65556,2,0,L|390:204,1,67.4999979400635
309,198,65787,2,0,L|241:194,1,67.4999979400635
172,152,66018,5,0,0:0:0:0:
195,297,66133,1,0,0:0:0:0:
193,129,66248,5,0,0:0:0:0:
100,280,66364,1,0,0:0:0:0:
214,106,66479,6,0,L|281:102,1,67.4999979400635
309,198,66710,2,0,L|241:194,1,67.4999979400635
358,133,66941,2,0,L|345:267,1,134.999995880127
428,264,67287,1,0,0:0:0:0:
359,306,67402,2,0,L|291:310,1,67.4999979400635
428,264,67633,2,0,L|496:260,1,67.4999979400635
358,133,67864,5,0,0:0:0:0:
219,133,67979,1,0,0:0:0:0:
334,48,68094,5,0,0:0:0:0:
239,238,68210,1,0,0:0:0:0:
116,75,68325,6,0,L|100:209,1,134.999995880127
45,268,68671,1,0,0:0:0:0:
87,337,68787,2,0,L|151:318,1,67.4999979400635
303,256,69018,2,0,L|238:237,1,67.4999979400635
248,354,69248,6,0,B|286:344|316:355|316:355|350:365|380:352,1,134.999995880127
344,278,69594,1,0,0:0:0:0:
380,352,69710,5,0,0:0:0:0:
446,240,69825,1,0,0:0:0:0:
266,110,69941,5,0,0:0:0:0:
303,256,70056,1,0,0:0:0:0:
310,137,70171,6,0,L|175:142,1,134.999995880127
121,203,70518,1,0,0:0:0:0:
46,171,70633,2,0,L|40:103,1,67.4999979400635
115,270,70864,2,0,L|120:202,1,67.4999979400635
40,301,71094,2,0,P|107:299|170:323,1,134.999995880127
331,298,71556,5,0,0:0:0:0:
428,189,71671,1,0,0:0:0:0:
399,352,71787,5,0,0:0:0:0:
235,219,71902,1,0,0:0:0:0:
362,119,72018,6,0,B|406:107|406:107|441:136|428:189,1,134.999995880127
391,261,72364,1,0,0:0:0:0:
320,221,72479,2,0,P|253:214|189:235,1,134.999995880127
68,126,72941,2,0,P|134:132|198:111,1,134.999995880127
351,56,73402,2,0,L|418:52,1,67.4999979400635
455,125,73633,2,0,L|387:128,1,67.4999979400635
309,154,73864,6,0,P|320:221|321:289,1,134.999995880127
172,353,74325,2,0,P|161:286|160:218,1,134.999995880127
185,141,74671,1,0,0:0:0:0:
104,152,74787,2,0,L|36:156,1,67.4999979400635
42,75,75018,2,0,L|109:70,1,67.4999979400635
185,141,75248,5,0,0:0:0:0:
348,115,75364,1,0,0:0:0:0:
261,213,75479,5,0,0:0:0:0:
329,85,75594,1,0,0:0:0:0:
261,213,75710,6,0,L|394:195,1,134.999995880127
239,242,76171,2,0,L|372:224,1,134.999995880127
217,271,76633,2,0,L|350:253,1,134.999995880127
195,300,77094,2,0,L|328:282,1,134.999995880127
390,336,77441,1,0,0:0:0:0:
462,300,77556,2,0,P|465:266|465:232,1,67.4999979400635
398,128,77787,2,0,P|394:161|394:195,1,67.4999979400635
390,336,78018,5,0,0:0:0:0:
246,224,78133,1,0,0:0:0:0:
314,348,78248,5,0,0:0:0:0:
367,113,78364,1,0,0:0:0:0:
239,361,78479,6,0,B|212:372|152:340|172:268|224:248|280:272|288:312|264:352,1,225
239,361,79402,6,0,B|174:354|174:354|131:406|44:378,1,179.999994506836,6|8,0:0|0:0,0:0:0:0:
102,296,79748,1,0,0:0:0:0:
102,296,79864,2,0,L|3:290,1,89.9999972534181,2|0,0:0|0:0,0:0:0:0:
285,248,80094,2,0,L|186:242,1,89.9999972534181,8|0,0:0|0:0,0:0:0:0:
153,31,80325,6,0,P|49:8|-8:69,1,179.999994506836,2|8,0:0|0:0,0:0:0:0:
111,121,80671,2,0,P|215:144|272:83,1,179.999994506836,2|0,0:0|0:0,0:0:0:0:
330,22,81018,2,0,P|277:16|233:7,1,89.9999972534181,8|0,0:0|0:0,0:0:0:0:
285,248,81248,6,0,L|291:361,1,89.9999972534181,6|0,0:0|0:0,0:0:0:0:
276,367,81421,1,0,0:0:0:0:
276,367,81479,1,8,0:0:0:0:
380,204,81594,6,0,L|383:301,1,97.4999955368044
474,165,81825,6,0,L|476:277,1,104.999996795654,0|8,0:0|0:0,0:0:0:0:
189,292,82056,6,0,P|121:217|-10:242,1,209.999993591309
3,324,82402,2,0,P|43:324|86:298,1,89.9999972534181,8|0,0:0|0:0,0:0:0:0:
93,30,82633,2,0,P|73:64|74:114,1,89.9999972534181,0|0,0:0|0:0,0:0:0:0:
300,257,82864,2,0,P|279:222|235:198,1,89.9999972534181,8|0,0:0|0:0,0:0:0:0:
236,342,83094,6,0,B|344:330|299:386|419:370,1,179.999994506836,6|8,0:0|0:0,0:0:0:0:
396,278,83441,1,0,0:0:0:0:
396,278,83556,2,0,P|444:288|494:295,1,89.9999972534181,2|0,0:0|0:0,0:0:0:0:
347,171,83787,2,0,P|395:181|445:188,1,89.9999972534181,8|0,0:0|0:0,0:0:0:0:
133,24,84018,6,0,P|89:69|123:192,1,179.999994506836,2|8,0:0|0:0,0:0:0:0:
201,201,84364,2,0,P|245:156|211:33,1,179.999994506836,2|0,0:0|0:0,0:0:0:0:
30,257,84710,2,0,P|79:255|127:261,1,89.9999972534181,8|0,0:0|0:0,0:0:0:0:
460,378,84941,6,0,L|469:260,1,89.9999972534181,6|0,0:0|0:0,0:0:0:0:
497,263,85114,1,0,0:0:0:0:
497,263,85171,1,8,0:0:0:0:
366,330,85287,6,0,L|375:212,1,97.4999955368044,2|0,0:0|0:0,0:0:0:0:
273,285,85518,6,0,L|282:162,1,104.999996795654,2|0,0:0|0:0,0:0:0:0:
161,18,85748,5,0,0:0:0:0:
161,18,85806,1,0,0:0:0:0:
161,18,85864,1,2,0:0:0:0:
28,157,85979,1,0,0:0:0:0:
182,192,86094,5,8,0:0:0:0:
22,62,86210,1,0,0:0:0:0:
37,251,86325,5,2,0:0:0:0:
172,103,86441,1,0,0:0:0:0:
54,351,86556,5,8,0:0:0:0:
73,337,86614,1,0,0:0:0:0:
97,328,86671,1,0,0:0:0:0:
124,328,86729,1,0,0:0:0:0:
149,341,86787,6,0,P|213:369|310:325,1,179.999994506836,6|8,0:0|0:0,0:0:0:0:
512,138,87133,2,0,P|466:118|417:102,1,89.9999972534181,2|0,0:0|0:0,0:0:0:0:
354,245,87364,2,0,P|394:215|432:180,1,89.9999972534181,2|8,0:0|0:0,0:0:0:0:
336,52,87594,2,0,P|341:101|352:152,1,89.9999972534181,0|2,0:0|0:0,0:0:0:0:
508,272,87825,5,0,0:0:0:0:
508,272,87883,1,0,0:0:0:0:
508,272,87941,1,8,0:0:0:0:
354,245,88056,1,0,0:0:0:0:
336,324,88171,5,2,0:0:0:0:
182,297,88287,1,0,0:0:0:0:
156,372,88402,5,8,0:0:0:0:
2,345,88517,1,0,0:0:0:0:
0,84,88633,6,0,B|104:68|68:128|200:104,1,179.999994506836,6|0,0:0|0:0,0:0:0:0:
156,372,88979,2,0,P|172:328|184:268,1,89.9999972534181
32,232,89210,2,0,P|62:267|108:308,1,89.9999972534181,0|8,0:0|0:0,0:0:0:0:
224,192,89441,2,0,P|177:200|119:219,1,89.9999972534181
296,368,89671,5,0,0:0:0:0:
296,368,89787,2,0,P|372:308|460:352,1,179.999994506836,8|0,0:0|0:0,0:0:0:0:
488,256,90133,1,0,0:0:0:0:
488,256,90248,1,8,0:0:0:0:
488,256,90364,1,0,0:0:0:0:
396,32,90479,6,0,L|280:40,1,104.999996795654,4|0,0:0|0:0,0:0:0:0:
212,48,90825,1,0,0:0:0:0:
448,104,90941,6,0,L|332:112,1,104.999996795654,8|0,0:0|0:0,0:0:0:0:
264,124,91287,1,0,0:0:0:0:
488,176,91402,6,0,L|372:184,1,104.999996795654,8|0,0:0|0:0,0:0:0:0:
304,196,91748,1,0,0:0:0:0:
512,256,91864,5,8,0:0:0:0:
512,256,92094,1,0,0:0:0:0:
328,272,92210,1,0,0:0:0:0:
376,356,92325,5,8,0:0:0:0:
400,272,92441,1,0,0:0:0:0:
140,320,92556,5,8,0:0:0:0:
116,228,92672,1,0,0:0:0:0:
388,184,92787,5,8,0:0:0:0:
407,99,92903,1,0,0:0:0:0:
124,140,93018,5,8,0:0:0:0:
109,55,93134,1,0,0:0:0:0:
256,364,93248,6,0,L|264:124,1,209.999993591309,6|0,0:0|0:0,0:0:0:0:
264,76,93537,1,0,0:0:0:0:
272,56,93594,1,0,0:0:0:0:
280,36,93652,1,0,0:0:0:0:
288,16,93710,1,8,0:0:0:0:
295,20,93941,5,8,0:0:0:0:
295,20,94056,1,8,0:0:0:0:
295,19,94171,6,0,P|375:57|462:44,1,179.999994506836
496,128,94518,1,0,0:0:0:0:
418,254,94633,2,0,L|414:165,1,89.9999972534181
204,321,94864,2,0,L|208:231,1,89.9999972534181
100,130,95094,6,0,P|124:212|208:231,1,179.999994506836
316,130,95441,2,0,P|232:148|208:230,1,179.999994506836
418,254,95787,2,0,L|414:165,1,89.9999972534181
324,309,96018,6,0,L|315:129,1,179.999994506836
121,227,96364,2,0,B|166:237|166:237|210:229,1,89.9999972534181
175,88,96594,2,0,B|130:78|130:78|86:86,1,89.9999972534181
315,129,96825,6,0,L|494:121,1,179.999994506836
434,250,97171,2,0,L|414:163,1,89.9999972534181
344,333,97402,2,0,L|430:359,1,89.9999972534181
317,213,97633,2,0,L|251:274,1,89.9999972534181
86,86,97864,6,0,L|116:263,1,179.999994506836
179,328,98210,1,0,0:0:0:0:
251,274,98325,2,0,L|317:213,1,89.9999972534181
182,202,98556,2,0,L|116:263,1,89.9999972534181
86,86,98787,6,0,P|173:106|260:89,1,179.999994506836
435,93,99133,2,0,P|347:72|260:89,1,179.999994506836
324,302,99479,2,0,L|316:212,1,89.9999972534181
148,264,99710,6,0,L|238:257,1,89.9999972534181
104,185,99941,1,0,0:0:0:0:
37,344,100056,2,0,L|127:352,1,89.9999972534181
193,177,100287,2,0,L|103:184,1,89.9999972534181
39,120,100518,1,0,0:0:0:0:
185,55,100633,5,0,0:0:0:0:
103,184,100748,1,0,0:0:0:0:
96,48,100864,5,0,0:0:0:0:
277,204,100979,1,0,0:0:0:0:
51,282,101094,5,0,0:0:0:0:
205,77,101210,1,0,0:0:0:0:
276,353,101325,5,0,0:0:0:0:
276,353,101383,1,0,0:0:0:0:
276,353,101441,1,0,0:0:0:0:
276,353,101498,1,0,0:0:0:0:
276,353,101556,6,0,L|455:347,1,179.999994506836
278,155,101902,2,0,P|275:199|279:244,1,89.9999972534181
444,196,102133,2,0,P|446:151|442:106,1,89.9999972534181
173,130,102364,6,0,L|353:124,1,179.999994506836
123,55,102710,2,0,P|92:87|83:131,1,89.9999972534181
218,202,102941,2,0,P|205:160|173:130,1,89.9999972534181
43,210,103172,2,0,P|86:221|129:208,1,89.9999972534181
342,267,103402,6,0,P|255:248|175:284,1,179.999994506836
409,326,103748,2,0,P|429:287|427:242,1,89.9999972534181
323,182,103979,2,0,P|321:226|341:266,1,89.9999972534181
392,124,104210,1,0,0:0:0:0:
237,152,104325,6,0,L|57:148,1,179.999994506836
57,148,104787,1,0,0:0:0:0:
45,235,104902,1,0,0:0:0:0:
95,307,105018,1,0,0:0:0:0:
180,326,105133,1,0,0:0:0:0:
257,283,105248,6,0,L|437:291,1,179.999994506836
257,271,105710,2,0,L|436:278,1,179.999994506836
256,258,106171,2,0,L|435:265,1,179.999994506836
255,245,106633,2,0,L|434:252,1,179.999994506836
254,232,107094,1,0,0:0:0:0:
256,192,107325,12,0,108710,0:0:0:0:
180,52,108941,6,0,P|104:80|32:72,1,150,6|8,0:0|0:0,0:0:0:0:
36,73,109287,1,0,0:0:0:0:
40,80,109402,2,0,P|44:128|48:172,1,75
140,236,109633,2,0,P|136:188|132:144,1,75,8|0,0:0|0:0,0:0:0:0:
32,328,109864,6,0,B|116:320|104:364|192:356,1,150,0|8,0:0|0:0,0:0:0:0:
196,356,110210,1,0,0:0:0:0:
228,276,110325,2,0,B|312:268|300:312|388:304,1,150,0|8,0:0|0:0,0:0:0:0:
392,304,110671,1,0,0:0:0:0:
492,88,110787,6,0,P|448:44|352:56,1,150,2|8,0:0|0:0,0:0:0:0:
340,156,111133,2,0,P|384:200|480:188,1,150,2|0,0:0|0:0,0:0:0:0:
420,124,111479,1,8,0:0:0:0:
420,124,111594,1,0,0:0:0:0:
147,47,111710,6,0,P|74:39|20:88,1,150,2|8,0:0|0:0,0:0:0:0:
44,196,112056,2,0,P|117:204|172:156,1,150,2|0,0:0|0:0,0:0:0:0:
92,124,112402,1,8,0:0:0:0:
92,124,112517,1,0,0:0:0:0:
72,304,112633,6,6,P|152:320|224:336,1,150,6|8,0:0|0:0,0:0:0:0:
218,334,112979,1,0,0:0:0:0:
218,334,113094,2,0,P|215:295|215:239,1,75
300,300,113325,2,0,P|302:338|302:394,1,75,8|0,0:0|0:0,0:0:0:0:
292,212,113556,6,0,P|360:224|392:304,1,150,0|8,0:0|0:0,0:0:0:0:
300,300,113902,1,0,0:0:0:0:
488,64,114018,2,0,P|420:76|388:156,1,150,0|8,0:0|0:0,0:0:0:0:
480,152,114364,1,0,0:0:0:0:
312,56,114479,6,0,B|224:40|248:88|132:64,1,150,0|8,0:0|0:0,0:0:0:0:
164,69,114825,1,0,0:0:0:0:
164,69,114941,2,0,B|172:137|172:137|164:145|164:145|176:229,1,150,0|8,0:0|0:0,0:0:0:0:
173,214,115287,1,0,0:0:0:0:
76,376,115402,5,0,0:0:0:0:
68,332,115518,1,8,0:0:0:0:
284,344,115633,5,0,0:0:0:0:
292,300,115749,1,8,0:0:0:0:
48,236,115864,5,0,0:0:0:0:
40,192,115980,1,8,0:0:0:0:
316,208,116094,5,8,0:0:0:0:
324,164,116210,1,8,0:0:0:0:
208,0,116325,6,0,P|156:56|180:136,1,150,4|8,0:0|0:0,0:0:0:0:
120,188,116671,2,0,P|184:204|248:148,1,150
244,76,117018,1,8,0:0:0:0:
244,76,117133,1,0,0:0:0:0:
400,176,117248,6,0,P|452:232|428:312,1,150,0|8,0:0|0:0,0:0:0:0:
488,364,117594,2,0,P|424:380|360:324,1,150
364,252,117941,1,8,0:0:0:0:
362,330,118056,1,0,0:0:0:0:
288,292,118171,6,0,B|200:288|248:332|128:328,1,150,0|8,0:0|0:0,0:0:0:0:
20,280,118518,2,0,B|108:284|60:240|180:244,1,150
148,328,118864,1,8,0:0:0:0:
148,328,118979,1,0,0:0:0:0:
148,152,119094,6,0,B|236:148|188:192|308:188,1,150,0|8,0:0|0:0,0:0:0:0:
416,140,119441,2,0,B|328:144|376:100|256:104,1,150
328,24,119787,5,8,0:0:0:0:
504,64,119903,1,0,0:0:0:0:
384,232,120018,6,0,P|356:308|384:376,1,150,0|8,0:0|0:0,0:0:0:0:
468,372,120364,2,0,P|456:332|436:304,1,75
252,268,120594,1,0,0:0:0:0:
252,272,120710,2,0,L|252:352,1,75,8|0,0:0|0:0,0:0:0:0:
128,232,120941,2,0,P|156:308|128:376,1,150,0|8,0:0|0:0,0:0:0:0:
44,372,121287,2,0,P|56:332|76:304,1,75
260,268,121517,1,0,0:0:0:0:
260,272,121633,2,0,L|260:352,1,75,8|0,0:0|0:0,0:0:0:0:
196,140,121864,6,0,B|132:132|132:132|112:108|112:108|40:96,1,150,0|8,0:0|0:0,0:0:0:0:
0,172,122210,2,0,L|80:184,1,75
264,72,122441,1,0,0:0:0:0:
264,72,122556,2,0,L|184:60,1,75,8|0,0:0|0:0,0:0:0:0:
152,224,122787,6,0,B|216:232|216:232|236:256|236:256|308:268,1,150,0|8,0:0|0:0,0:0:0:0:
289,264,123133,1,0,0:0:0:0:
464,312,123248,5,8,0:0:0:0:
252,352,123364,1,8,0:0:0:0:
464,312,123479,5,8,0:0:0:0:
252,352,123595,1,8,0:0:0:0:
352,336,123710,6,0,P|368:263|342:194,1,150
269,149,124056,1,0,0:0:0:0:
269,149,124171,2,0,P|341:164|410:138,1,150
267,55,124633,2,0,P|194:70|125:44,1,150
66,103,124979,1,0,0:0:0:0:
66,103,125094,2,0,L|75:252,1,150
209,350,125556,6,0,L|213:275,1,75
290,243,125787,2,0,L|294:168,1,75
337,95,126018,2,0,P|272:129|203:105,1,150
75,210,126479,2,0,P|139:176|208:200,1,150
264,261,126825,1,0,0:0:0:0:
264,261,126941,2,0,P|328:227|397:251,1,150
466,100,127402,6,0,P|401:133|332:109,1,150
268,56,127748,1,0,0:0:0:0:
268,56,127864,2,0,P|199:31|134:65,1,150
48,206,128325,2,0,L|197:220,1,150
247,286,128671,1,0,0:0:0:0:
247,286,128787,2,0,L|396:271,1,150
464,121,129248,6,0,L|389:123,1,75
339,56,129479,2,0,L|264:58,1,75
184,40,129710,2,0,L|189:189,1,150
189,189,130171,5,0,0:0:0:0:
182,272,130287,1,0,0:0:0:0:
218,198,130402,5,0,0:0:0:0:
100,261,130517,1,0,0:0:0:0:
264,283,130633,5,0,0:0:0:0:
189,189,130748,1,0,0:0:0:0:
214,349,130864,5,0,0:0:0:0:
307,172,130979,1,0,0:0:0:0:
218,198,131094,6,0,P|130:178|40:178,1,179.999994506836
32,278,131441,2,0,P|119:297|209:297,1,179.999994506836
305,270,131787,2,0,P|347:258|392:257,1,89.9999972534181
455,334,132018,2,0,P|425:250|456:167,2,179.999994506836
341,171,132710,1,0,0:0:0:0:
250,131,132825,1,0,0:0:0:0:
159,91,132941,6,0,L|171:270,1,179.999994506836
81,153,133287,2,0,L|94:333,1,179.999994506836
261,264,133633,2,0,L|171:270,1,89.9999972534181
159,91,133864,2,0,L|338:78,1,179.999994506836
221,168,134210,2,0,L|400:155,1,179.999994506836
450,241,134556,2,0,L|360:247,1,89.9999972534181
299,326,134787,6,0,P|222:285|139:313,1,179.999994506836
48,272,135133,2,0,P|89:194|61:111,1,179.999994506836
159,91,135479,2,0,P|173:133|179:177,1,89.9999972534181
272,212,135710,2,0,P|358:186|442:213,2,179.999994506836
121,340,136402,1,0,0:0:0:0:
48,272,136518,1,0,0:0:0:0:
70,174,136633,6,0,P|132:114|217:130,1,179.999994506836
272,212,136979,2,0,P|357:196|419:256,1,179.999994506836
449,351,137325,2,0,L|359:351,1,89.9999972534181
259,357,137556,5,0,0:0:0:0:
272,212,137671,1,0,0:0:0:0:
169,280,137787,5,0,0:0:0:0:
266,190,137902,1,0,0:0:0:0:
91,120,138018,5,0,0:0:0:0:
156,302,138133,1,0,0:0:0:0:
200,114,138248,5,0,0:0:0:0:
66,253,138364,1,0,0:0:0:0:
266,190,138479,6,0,L|303:185,3,37.5
200,114,138947,2,0,L|162:109,3,37.5
166,238,139416,2,0,L|170:200,3,37.5
313,292,139877,2,0,L|308:254,3,37.5
401,177,140339,6,0,L|438:179,3,37.5
308,254,140811,2,0,L|270:256,3,37.5
333,97,141283,2,0,L|335:134,3,37.5
197,76,141756,2,0,L|199:113,3,37.5
