osu file format v14

[General]
AudioFilename: audio.mp3
AudioLeadIn: 0
PreviewTime: 114117
Countdown: 0
SampleSet: Soft
StackLeniency: 0.3
Mode: 0
LetterboxInBreaks: 0
WidescreenStoryboard: 1

[Editor]
Bookmarks: 65337,80222,86684,88760,104222,181990,214558,296682,314250,343701
DistanceSpacing: 0.7
BeatDivisor: 4
GridSize: 32
TimelineZoom: 3.499999

[Metadata]
Title:Kegare Naki Bara Juuji
TitleUnicode:穢れなき薔薇十字
Artist:Ariabl'eyeS
ArtistUnicode:Ariabl'eyeS
Creator:Kujinn
Version:Nymphe's Sorrow Extra
Source:
Tags:featured artist fa Reform Nymphe Kiyoshi Guarden Armin A_r_M_i_N Vulkin Sytho matthewrigaud11 ariableyes japanese rock gothic metal 瑠璃色のローゼンクロイツ Ruriiro no Rena Luna Lyse リゼ Rosicrucian
BeatmapID:3023401
BeatmapSetID:1116349

[Difficulty]
HPDrainRate:4.5
CircleSize:4
OverallDifficulty:8.7
ApproachRate:9.7
SliderMultiplier:1.82
SliderTickRate:1

[Events]
//Background and Video events
0,0,"BG.jpg",0,0
//Break Periods
2,211036,213974
//Storyboard Layer 0 (Background)
//Storyboard Layer 1 (Fail)
//Storyboard Layer 2 (Pass)
//Storyboard Layer 3 (Foreground)
//Storyboard Layer 4 (Overlay)
//Storyboard Sound Samples

[TimingPoints]
816,666.666666666667,4,1,0,40,1,0
10422,714.285714285714,4,2,1,45,1,8
11136,693.64161849711,4,2,1,45,1,8
11482,666.666666666667,4,2,1,45,1,0
12148,722.89156626506,4,2,1,45,1,8
12509,666.666666666667,4,2,1,45,1,8
12842,666.666666666667,4,2,1,45,1,8
13842,625,4,2,1,45,1,8
14154,722.89156626506,4,2,1,45,1,0
14696,666.666666666667,4,2,1,45,1,8
15529,526.315789473684,4,2,1,45,1,8
15792,740.740740740741,4,2,1,45,1,8
16162,666.666666666667,4,2,1,45,1,8
16828,631.578947368421,4,2,1,45,1,0
17459,645.161290322581,4,2,1,45,1,8
18104,697.674418604651,4,2,1,45,1,8
19150,661.521499448732,4,2,1,45,1,8
19480,666.666666666667,4,2,1,45,1,0
21480,710.059171597633,4,2,1,45,1,8
21835,681.818181818182,4,2,1,45,1,8
22175,633.579725448786,4,2,1,45,1,0
22650,664.451827242525,4,2,1,45,1,0
24145,645.161290322581,4,2,1,45,1,8
24790,645.161290322581,4,2,1,45,1,0
25273,645.161290322581,4,2,1,45,1,0
25918,444.444444444444,4,2,1,45,1,8
26140,630.252100840336,4,2,1,45,1,8
26770,689.655172413793,4,2,1,45,1,8
27459,676.437429537768,4,2,1,45,1,0
29150,697.674418604651,4,2,1,45,1,8
30196,645.161290322581,4,2,1,45,1,0
31163,659.340659340659,4,2,1,45,1,8
31492,666.666666666667,4,2,1,45,1,8
32825,657.390161060589,4,2,1,40,1,0
32825,-500,4,2,1,40,0,0
35454,461.538461538462,4,2,1,55,1,0
36377,-66.6666666666667,4,2,1,55,0,0
37300,-95.2380952380952,4,2,1,55,0,0
43761,-66.6666666666667,4,2,1,75,0,0
44684,230.769230769231,4,2,1,75,1,0
44684,-86.9565217391304,4,2,1,75,0,0
66837,-142.857142857143,4,2,1,55,0,0
70530,-117.647058823529,4,2,1,65,0,0
77914,-105.263157894737,4,2,1,65,0,0
92857,-105.263157894737,4,2,1,5,0,0
92914,-105.263157894737,4,2,1,65,0,0
100068,-133.333333333333,4,2,1,55,0,0
107453,-95.238095238095,4,2,1,65,0,0
111145,-117.647058823529,4,2,1,65,0,0
112991,-95.238095238095,4,2,1,65,0,0
114145,-222.222222222222,4,2,1,65,0,0
114837,-80,4,2,1,85,0,1
125914,-117.64705882353,4,2,1,85,0,1
127299,-95.2380952380954,4,2,1,85,0,1
127760,-74.0740740740741,4,2,1,85,0,1
129607,-80,4,2,1,85,0,1
140684,-117.64705882353,4,2,1,85,0,1
144376,461.538461538462,4,2,1,45,1,0
144376,-153.846153846153,4,2,1,45,0,0
148068,-105.263157894737,4,2,1,40,0,0
162837,-86.9565217391302,4,2,1,55,0,0
177491,-40.8163265306122,4,2,1,65,0,0
177606,230.769230769231,4,2,1,65,1,0
177606,-80,4,2,1,65,0,0
207144,461.538461538462,4,2,1,45,1,0
207144,-181.818181818181,4,2,1,45,0,0
207951,-117.647058823529,4,2,1,5,0,0
208067,-312.5,4,2,1,45,0,0
214528,-181.818181818182,4,2,1,55,0,0
223528,-111.111111111111,4,2,1,55,0,0
223759,230.769230769231,4,2,1,55,1,0
223759,-133.333333333333,4,2,1,55,0,0
231143,-95.2380952380954,4,2,1,65,0,0
234835,-117.647058823529,4,2,1,65,0,0
238528,-133.333333333333,4,2,1,55,0,0
245912,-95.238095238095,4,2,1,65,0,0
249605,-117.647058823529,4,2,1,65,0,0
251451,-95.238095238095,4,2,1,65,0,0
252605,-181.818181818182,4,2,1,65,0,0
253297,-80,4,2,1,85,0,1
264374,-117.64705882353,4,2,1,85,0,1
265759,-95.2380952380954,4,2,1,85,0,1
266220,-74.0740740740741,4,2,1,85,0,1
268066,-80,4,2,1,85,0,1
279143,-117.647058823529,4,2,1,85,0,1
280989,-86.9565217391306,4,2,1,65,0,0
282835,-95.2380952380952,4,2,1,65,0,0
283989,-181.818181818182,4,2,1,65,0,0
284682,-80,4,2,1,95,0,1
287797,-80,4,2,1,80,0,1
287912,-80,4,2,1,95,0,1
292066,-80,4,2,1,85,0,1
295759,-117.64705882353,4,2,1,85,0,1
297605,-74.0740740740741,4,2,1,85,0,1
299451,-133.333333333334,4,2,1,65,0,0
300374,-80,4,2,1,65,0,0
301297,-181.818181818182,4,2,1,65,0,0
302220,-86.9565217391304,4,2,1,65,0,0
303143,-133.333333333334,4,2,1,65,0,0
304066,-86.9565217391304,4,2,1,65,0,0
304989,-86.9565217391304,4,2,1,85,0,0
306835,-80,4,2,1,85,0,1
310528,-117.647058823529,4,2,1,85,0,0
312374,-222.222222222222,4,2,1,85,0,0
314220,-86.9565217391304,4,2,1,75,0,0
343759,600,4,2,1,45,1,0
343759,-74.0740740740741,4,2,1,45,0,0
344027,400,4,2,1,45,1,8
344027,-74.0740740740741,4,2,1,45,0,0
344246,454.545454545455,4,2,1,45,1,8
344246,-74.0740740740741,4,2,1,45,0,0
345609,472.44094488189,4,2,1,45,1,8
345609,-74.0740740740741,4,2,1,45,0,0

[Colours]
Combo1 : 222,223,208
Combo2 : 155,118,160
Combo3 : 91,126,170

[HitObjects]
449,115,10422,6,0,B|438:73|438:73|463:30,2,91,2|2|2,0:0|0:0|0:0,0:0:0:0:
504,243,11482,6,0,B|470:217|427:244|441:264|409:294|365:271,1,136.5,2|0,0:0|0:0,0:0:0:0:
249,353,12148,2,0,P|291:366|336:324,1,91,2|2,0:0|0:0,0:0:0:0:
256,159,12842,6,0,B|280:170|303:180|303:180|287:220|273:278,2,136.5,2|2|2,0:0|0:0|0:0,0:0:0:0:
139,363,14154,6,0,P|86:351|46:338,1,91,2|2,0:0|0:0,0:0:0:0:
95,186,14696,2,0,P|110:234|129:285,2,91,2|2|2,0:0|0:0|0:0,0:0:0:0:
35,21,15792,6,0,L|110:36,1,45.5,2|0,0:0|0:0,0:0:0:0:
113,96,16162,2,0,L|157:87,1,45.5,2|0,0:0|0:0,0:0:0:0:
196,23,16495,1,2,0:0:0:0:
252,140,16828,6,0,B|293:147|311:108|311:108|354:93|381:144,1,136.5,2|0,0:0|0:0,0:0:0:0:
297,307,17459,2,0,B|283:270|240:274|240:274|206:244|226:217,1,136.5,2|0,0:0|0:0,0:0:0:0:
420,185,18104,2,0,B|395:214|419:249|419:249|411:294|377:290,2,136.5,2|2|2,0:0|0:0|0:0,0:0:0:0:
506,45,19480,6,0,P|465:20|410:25,1,91,2|2,0:0|0:0,0:0:0:0:
369,78,19980,2,0,P|321:89|282:63,1,91,2|2,0:0|0:0,0:0:0:0:
44,60,20646,6,0,B|87:67|117:22|117:22|116:126|192:139,1,227.5,2|0,0:0|0:0,0:0:0:0:
178,135,21835,1,2,0:0:0:0:
14,348,22175,6,0,B|-15:306|-15:306|5:261,1,91,2|2,0:0|0:0,0:0:0:0:
151,326,22650,2,0,B|129:372|129:372|80:377,1,91,2|2,0:0|0:0,0:0:0:0:
115,238,23314,6,0,B|178:210|223:269|223:269|288:238|255:160,1,227.5,2|0,0:0|0:0,0:0:0:0:
262,183,24467,1,2,0:0:0:0:
457,289,24790,6,0,B|471:280|499:290|499:290|481:268|450:272,1,91,2|2,0:0|0:0,0:0:0:0:
396,344,25273,2,0,B|396:360|374:379|374:379|402:375|414:346,2,91,2|2|2,0:0|0:0|0:0,0:0:0:0:
396,344,26770,5,2,0:0:0:0:
297,237,27114,5,2,0:0:0:0:
455,99,27459,6,0,B|472:75|520:79|520:79|399:60|399:60|326:94|375:164,1,318.5,2|0,0:0|0:0,0:0:0:0:
464,280,29150,2,0,B|508:259|508:259|513:213,2,91,2|2|2,0:0|0:0|0:0,0:0:0:0:
355,339,30196,6,0,B|320:297|268:322|268:322|243:373|190:361,1,182,2|0,0:0|0:0,0:0:0:0:
200,362,31163,1,2,0:0:0:0:
0,250,31492,6,0,P|24:194|101:207,1,136.5,2|0,0:0|0:0,0:0:0:0:
200,362,32158,2,0,P|139:369|112:296,1,136.5,2|0,0:0|0:0,0:0:0:0:
181,133,32825,2,0,P|217:181|167:241,1,136.5,2|0,0:0|0:0,0:0:0:0:
181,238,35454,5,2,0:0:0:0:
385,76,35915,1,2,0:0:0:0:
115,36,36377,6,0,P|124:85|130:128,1,68.250002603531,8|8,0:3|0:3,0:0:0:0:
251,211,36607,2,0,P|256:177|262:143,1,68.250002603531,4|4,0:3|0:3,0:0:0:0:
163,300,36838,5,8,0:0:0:0:
348,232,36954,1,8,0:0:0:0:
228,112,37069,1,8,0:0:0:0:
307,305,37184,1,8,0:0:0:0:
512,108,37300,6,0,B|461:77|421:109|421:109|391:173|319:138,1,191.099994168091,4|2,1:2|0:0,0:0:0:0:
427,320,37992,5,2,0:0:0:0:
436,316,38107,1,0,0:0:0:0:
448,310,38223,2,0,P|461:260|411:227,1,95.5499970840455,10|0,0:0|0:0,0:0:0:0:
320,368,38684,6,0,P|274:345|216:346,1,95.5499970840455,2|0,0:0|1:2,0:0:0:0:
170,298,38992,1,0,0:0:0:0:
170,298,39069,1,0,0:0:0:0:
170,298,39146,2,0,P|116:320|56:316,1,95.5499970840455,2|0,1:2|0:0,0:0:0:0:
4,195,39492,5,0,1:2:0:0:
9,208,39607,2,0,L|26:110,1,95.5499970840455,2|0,0:0|1:0,0:0:0:0:
40,93,39954,1,0,1:0:0:0:
46,85,40069,1,10,0:0:0:0:
202,30,40300,6,0,L|161:17,3,31.8499990280152,0|0|0|10,3:0|3:0|3:0|0:0,0:0:0:0:
253,130,40761,1,8,0:0:0:0:
266,123,40838,1,8,0:0:0:0:
283,116,40915,1,8,0:0:0:0:
303,106,40992,6,0,B|272:163|321:198|321:198|345:254|278:289,1,191.099994168091,6|2,1:2|0:0,0:0:0:0:
300,274,41684,1,0,1:0:0:0:
9,317,41915,6,0,P|52:290|111:317,1,95.5499970840455,10|0,0:0|1:0,0:0:0:0:
166,332,42261,1,0,1:0:0:0:
156,348,42377,2,0,P|199:378|248:357,1,95.5499970840455,10|0,0:0|1:2,0:0:0:0:
454,384,42838,6,0,L|442:267,1,95.5499970840455,10|0,1:2|1:0,0:0:0:0:
388,232,43184,1,0,1:0:0:0:
383,243,43300,2,0,L|392:147,1,95.5499970840455,10|0,0:0|1:0,0:0:0:0:
430,0,43761,6,0,L|328:15,1,68.250002603531,2|10,0:0|0:0,0:0:0:0:
199,125,43992,2,0,L|266:134,1,68.250002603531,2|2,1:2|1:2,0:0:0:0:
112,182,44223,5,10,0:0:0:0:
216,44,44338,1,10,0:0:0:0:
210,247,44454,1,10,0:0:0:0:
86,103,44569,1,10,0:0:0:0:
312,33,44684,6,0,B|362:-5|408:47|408:47|432:128|525:82,1,209.300003992081,6|8,1:2|0:0,0:0:0:0:
385,206,45030,2,0,B|353:219|336:249|336:249|262:183|332:112,1,209.300003992081,0|0,1:0|1:2,0:0:0:0:
512,294,45376,2,0,P|461:311|417:276,1,104.65000199604,8|0,0:0|0:0,0:0:0:0:
217,139,45607,6,0,L|330:122,1,104.65000199604,0|0,1:2|0:0,0:0:0:0:
192,241,45837,1,8,0:0:0:0:
116,5,45953,2,0,B|174:45|136:100|136:100|63:125|106:217,1,209.300003992081,0|0,1:0|1:2,0:0:0:0:
58,329,46299,1,10,0:0:0:0:
14,262,46414,1,2,0:0:0:0:
186,368,46530,6,0,B|235:334|282:373|282:373|342:337|300:267,1,209.300003992081,2|8,1:2|0:0,0:0:0:0:
481,221,46876,2,0,B|345:179|345:179|389:193|395:239,1,209.300003992081,0|0,1:0|1:2,0:0:0:0:
254,81,47222,2,0,B|232:128|232:128|256:188,1,104.65000199604,8|0,0:0|0:0,0:0:0:0:
167,282,47453,6,0,B|124:252|81:275|93:297|50:325|18:300,1,156.975002994061,0|0,1:2|0:0,0:0:0:0:
25,305,47684,2,0,P|-1:255|47:207,1,104.65000199604,8|0,0:0|1:0,0:0:0:0:
89,86,47914,2,0,P|115:135|66:183,1,104.65000199604,2|0,0:0|1:2,0:0:0:0:
127,2,48145,1,10,0:0:0:0:
6,88,48260,1,2,0:0:0:0:
251,176,48376,6,0,B|281:158|309:159|309:159|258:67|184:116,1,209.300003992081,6|8,1:2|0:0,0:0:0:0:
166,360,48722,2,0,B|117:320|143:247|184:231|184:231|159:260|170:297|170:297|155:276,1,209.300003992081,0|0,1:0|1:2,0:0:0:0:
370,349,49068,2,0,P|317:354|287:312,1,104.65000199604,8|0,0:0|0:0,0:0:0:0:
397,147,49299,6,0,L|373:254,1,104.65000199604,0|0,1:2|0:0,0:0:0:0:
485,129,49530,1,8,0:0:0:0:
362,46,49645,2,0,B|301:26|273:78|273:78|194:55|222:-15,1,209.300003992081,0|0,1:0|1:2,0:0:0:0:
119,188,49991,2,0,P|173:177|193:119,1,104.65000199604,8|0,0:0|0:0,0:0:0:0:
69,63,50222,6,0,L|100:294,1,209.300003992081,2|8,1:2|0:0,0:0:0:0:
10,349,50568,2,0,B|132:286|132:286|82:307|93:367,1,209.300003992081,0|0,1:0|1:2,0:0:0:0:
282,358,50914,2,0,P|231:380|183:349,1,104.65000199604,8|0,0:0|0:0,0:0:0:0:
326,231,51145,5,2,1:2:0:0:
384,362,51260,1,0,1:2:0:0:
440,189,51376,2,0,L|418:294,1,104.65000199604,8|0,0:0|1:0,0:0:0:0:
341,115,51607,5,8,0:0:0:0:
507,236,51722,1,8,0:0:0:0:
334,248,51837,1,8,0:0:0:0:
483,121,51953,1,8,0:0:0:0:
279,53,52068,6,0,B|263:32|270:-3|270:-3|226:4|165:49|232:121,1,209.300003992081,4|8,1:2|0:2,0:0:0:0:
334,248,52414,2,0,B|283:206|245:249|245:249|221:323|152:307,1,209.300003992081,0|0,1:2|1:2,0:0:0:0:
42,125,52760,2,0,B|85:159|85:159|76:217,1,104.65000199604,8|0,0:2|0:0,0:0:0:0:
1,384,52991,6,0,L|110:363,1,104.65000199604,2|0,1:2|0:0,0:0:0:0:
158,229,53222,1,8,0:2:0:0:
0,62,53337,2,0,B|32:75|44:121|16:149|16:149|4:156|4:156|-21:172|-33:228|28:255,1,209.300003992081,0|0,1:2|1:2,0:0:0:0:
197,46,53684,2,0,P|155:12|94:39,1,104.65000199604,8|0,0:2|0:0,0:0:0:0:
233,150,53914,6,0,B|240:211|309:193|309:193|337:129|396:154,1,209.300003992081,2|8,1:2|0:0,0:0:0:0:
463,313,54260,2,0,B|440:327|431:363|431:363|343:319|393:231,1,209.300003992081,0|0,1:2|1:0,0:0:0:0:
498,127,54607,2,0,P|508:180|460:214,1,104.65000199604,8|0,0:0|0:0,0:0:0:0:
420,32,54837,6,0,B|361:20|361:20|310:54,1,104.65000199604,2|0,1:2|0:0,0:0:0:0:
199,266,55068,2,0,B|252:278|252:278|309:244,1,104.65000199604,8|0,0:0|1:0,0:0:0:0:
141,25,55299,1,0,0:0:0:0:
102,93,55414,1,0,1:0:0:0:
233,150,55530,2,0,L|221:33,1,104.65000199604,8|0,0:0|0:0,0:0:0:0:
0,258,55760,6,0,B|54:232|96:269|96:269|149:220|108:171,1,209.300003992081,4|8,1:2|0:2,0:0:0:0:
59,30,56107,2,0,B|31:41|-3:29|-3:29|22:146|143:71,1,209.300003992081,0|0,1:2|1:2,0:0:0:0:
310,17,56453,2,0,P|253:14|218:58,1,104.65000199604,8|0,0:2|0:0,0:0:0:0:
422,115,56684,6,0,L|441:-2,1,104.65000199604,2|0,1:2|0:0,0:0:0:0:
296,104,56914,1,8,0:2:0:0:
443,217,57030,2,0,B|383:240|347:180|347:180|273:188|285:245,1,209.300003992081,0|0,1:2|1:2,0:0:0:0:
307,384,57376,2,0,P|349:352|337:303,1,104.65000199604,8|0,0:2|0:0,0:0:0:0:
146,276,57607,6,0,B|118:296|81:293|81:293|240:343,1,209.300003992081,2|8,1:2|0:0,0:0:0:0:
283,235,57953,1,0,1:2:0:0:
132,123,58068,2,0,P|90:156|108:216,1,104.65000199604,2|0,0:0|1:0,0:0:0:0:
301,102,58299,2,0,L|280:-7,1,104.65000199604,8|0,0:0|0:0,0:0:0:0:
365,168,58530,5,2,1:2:0:0:
211,118,58646,1,10,0:0:0:0:
347,266,58760,2,0,P|397:283|442:248,1,104.65000199604,10|2,0:0|1:2,0:0:0:0:
376,58,58991,5,10,0:0:0:0:
259,197,59107,1,10,0:0:0:0:
447,152,59222,1,10,0:0:0:0:
285,13,59337,1,10,0:0:0:0:
512,208,59453,6,0,B|487:190|451:198|430:229|430:229|430:241|430:241|417:275|381:294|344:264,1,209.300003992081,6|8,1:2|0:0,0:0:0:0:
174,191,59799,2,0,B|306:150|306:150|256:163|258:208,1,209.300003992081,0|0,1:0|1:2,0:0:0:0:
283,372,60145,2,0,P|247:338|279:275,1,104.65000199604,8|0,0:0|0:0,0:0:0:0:
512,383,60376,6,0,L|395:360,1,104.65000199604,0|0,1:2|0:0,0:0:0:0:
346,260,60607,1,8,0:0:0:0:
468,112,60722,2,0,B|497:94|503:69|503:69|561:124|545:183|495:213,1,209.300003992081,0|0,1:0|1:2,0:0:0:0:
323,95,61068,1,10,0:0:0:0:
417,36,61184,1,2,0:0:0:0:
308,177,61299,6,0,B|255:170|240:120|240:120|231:209|148:212,1,209.300003992081,2|8,1:2|0:0,0:0:0:0:
115,7,61645,2,0,B|188:39|146:120|146:120|72:119|86:52,1,209.300003992081,0|0,1:0|1:2,0:0:0:0:
46,278,61991,2,0,P|47:224|92:193,1,104.65000199604,8|0,0:0|0:0,0:0:0:0:
225,379,62222,6,0,L|105:359,1,104.65000199604,2|0,1:2|0:0,0:0:0:0:
265,247,62453,1,8,0:0:0:0:
405,338,62568,2,0,B|374:355|359:385|359:385|378:234,1,209.300003992081,2|2,1:2|1:2,0:0:0:0:
512,139,62914,2,0,P|497:194|439:212,1,104.65000199604,8|2,0:0|0:0,0:0:0:0:
266,54,63145,6,0,B|292:31|336:42|347:79|347:79|347:91|347:91|349:122|387:153|436:115,1,209.300003992081,2|8,1:2|0:0,0:0:0:0:
265,247,63491,2,0,B|234:266|218:289|218:289|149:211|231:154,1,209.300003992081,0|0,1:0|1:2,0:0:0:0:
106,13,63837,2,0,P|155:28|163:84,1,104.65000199604,8|0,0:0|0:0,0:0:0:0:
69,234,64068,6,0,L|94:129,1,104.65000199604,0|0,1:2|0:0,0:0:0:0:
132,351,64299,1,8,0:0:0:0:
2,276,64414,2,0,B|46:231|116:264|88:304|132:341|201:301,1,209.300003992081,0|0,1:0|1:2,0:0:0:0:
291,172,64760,1,10,0:0:0:0:
199,220,64876,1,2,0:0:0:0:
413,314,64991,6,0,B|363:327|329:283|329:283|249:314|302:379,1,209.300003992081,6|8,1:2|0:0,0:0:0:0:
366,153,65337,2,0,B|397:138|409:103|409:103|461:195|385:243,1,209.300003992081,0|0,1:0|1:2,0:0:0:0:
251,4,65684,2,0,P|307:12|334:71,1,104.65000199604,8|0,0:0|0:0,0:0:0:0:
199,220,65914,6,0,B|158:182|122:209|122:209|99:248|57:239,1,156.975002994061,2|0,1:2|0:0,0:0:0:0:
63,240,66145,2,0,P|32:187|63:141,1,104.65000199604,8|0,0:0|1:0,0:0:0:0:
271,167,66376,5,8,0:0:0:0:
143,300,66491,1,8,0:0:0:0:
195,105,66607,1,8,0:0:0:0:
267,266,66722,1,8,0:0:0:0:
341,121,66837,6,0,L|414:139,1,63.6999980560303,6|0,1:2|0:0,0:0:0:0:
455,229,67068,2,0,L|393:213,1,63.6999980560303,2|0,0:0|0:0,0:0:0:0:
339,112,67299,6,0,L|412:130,1,63.6999980560303,2|0,1:2|0:0,0:0:0:0:
453,220,67530,2,0,L|391:204,1,63.6999980560303,2|0,0:0|0:0,0:0:0:0:
275,326,67760,6,0,P|263:292|274:249,1,63.6999980560303,2|0,1:2|0:0,0:0:0:0:
184,154,67991,2,0,P|198:185|185:231,1,63.6999980560303,2|0,0:0|0:0,0:0:0:0:
281,334,68222,6,0,P|269:300|280:257,1,63.6999980560303,2|0,1:2|0:0,0:0:0:0:
191,160,68453,2,0,P|205:191|192:237,1,63.6999980560303,2|0,0:0|0:0,0:0:0:0:
48,93,68684,6,0,L|121:75,1,63.6999980560303,2|0,1:2|0:0,0:0:0:0:
227,16,68914,2,0,L|154:-2,1,63.6999980560303,2|0,0:0|0:0,0:0:0:0:
51,80,69145,6,0,L|124:62,1,63.6999980560303,2|0,1:2|0:0,0:0:0:0:
225,25,69376,2,0,L|152:7,1,63.6999980560303,2|0,0:0|0:0,0:0:0:0:
332,136,69607,6,0,L|347:63,1,63.6999980560303,2|0,1:2|0:0,0:0:0:0:
211,164,69837,2,0,L|223:226,1,63.6999980560303,2|0,0:0|0:0,0:0:0:0:
367,321,70068,5,10,0:0:0:0:
353,323,70145,1,10,0:0:0:0:
338,326,70222,1,10,0:0:0:0:
324,329,70299,1,10,0:0:0:0:
246,384,70414,1,10,0:0:0:0:
155,314,70530,6,0,B|119:282|78:306|78:306|51:356|0:334,1,154.700002950668,4|10,1:2|0:0,0:0:0:0:
94,219,70876,1,0,0:0:0:0:
94,219,70991,2,0,P|104:170|77:142,1,77.3500014753342,2|0,0:2|1:2,0:0:0:0:
21,97,71222,2,0,P|11:48|38:20,1,77.3500014753342,10|0,0:0|0:0,0:0:0:0:
120,0,71453,6,0,P|165:6|224:16,1,77.3500014753342,2|0,1:2|0:0,0:0:0:0:
270,130,71684,2,0,P|234:136|193:141,1,77.3500014753342,10|0,0:0|0:0,0:0:0:0:
338,21,71914,2,0,P|417:38|419:123,1,154.700002950668,2|10,0:2|0:0,0:0:0:0:
405,208,72260,2,0,L|494:187,1,77.3500014753342,2|0,0:2|1:2,0:0:0:0:
506,172,72607,6,0,L|475:269,1,77.3500014753342,10|0,0:0|0:0,0:0:0:0:
320,150,72837,2,0,L|388:114,1,77.3500014753342,2|0,0:2|1:2,0:0:0:0:
381,317,73068,2,0,L|315:275,1,77.3500014753342,10|0,0:0|0:0,0:0:0:0:
154,232,73299,6,0,B|253:198|253:198|223:214|220:247,1,154.700002950668,2|10,1:2|0:0,0:0:0:0:
89,291,73645,1,0,1:2:0:0:
89,291,73760,2,0,P|62:244|70:217,1,77.3500014753342,2|0,0:2|1:2,0:0:0:0:
117,160,73991,2,0,P|118:122|94:93,1,77.3500014753342,10|0,0:0|0:0,0:0:0:0:
26,30,74222,6,0,P|85:81|174:45,1,154.700002950668,6|8,1:2|0:0,0:0:0:0:
329,21,74568,2,0,P|255:46|242:141,1,154.700002950668,2|0,0:2|1:2,0:0:0:0:
168,231,74914,2,0,P|173:193|133:153,1,77.3500014753342,10|0,0:0|0:0,0:0:0:0:
83,304,75145,6,0,L|175:321,1,77.3500014753342,0|0,1:2|0:0,0:0:0:0:
239,380,75376,2,0,L|315:365,1,77.3500014753342,8|0,0:0|0:0,0:0:0:0:
424,226,75607,1,0,0:0:0:0:
363,277,75722,1,0,1:2:0:0:
431,384,75837,2,0,P|453:350|416:301,1,77.3500014753342,8|0,0:0|0:0,0:0:0:0:
307,228,76068,6,0,L|325:143,1,77.3500014753342,0|0,1:2|0:0,0:0:0:0:
510,63,76299,2,0,B|473:32|436:61|436:61|411:103|353:85,1,154.700002950668,8|0,0:0|0:0,0:0:0:0:
245,6,76645,1,0,1:2:0:0:
238,16,76760,2,0,L|305:3,2,51.5666676502228,10|0|0,0:0|0:0|0:0,0:0:0:0:
179,68,76991,6,0,L|190:153,1,77.3500014753342,0|0,1:2|0:0,0:0:0:0:
78,242,77222,2,0,L|87:165,1,77.3500014753342,8|0,0:0|0:0,0:0:0:0:
224,369,77453,1,8,0:0:0:0:
143,310,77568,1,8,0:0:0:0:
295,208,77684,1,8,0:0:0:0:
254,284,77799,1,8,0:0:0:0:
189,196,77914,6,0,B|243:169|280:216|256:236|290:281|351:247,1,172.899995383072,4|10,1:2|0:0,0:0:0:0:
426,128,78260,1,0,0:0:0:0:
426,128,78376,2,0,P|390:159|391:210,1,86.449997691536,2|0,0:2|1:2,0:0:0:0:
447,336,78607,2,0,P|465:291|429:245,1,86.449997691536,10|0,0:0|0:0,0:0:0:0:
368,380,78837,6,0,L|278:370,1,86.449997691536,2|0,1:2|0:0,0:0:0:0:
186,267,79068,2,0,L|274:257,1,86.449997691536,10|0,0:0|0:0,0:0:0:0:
106,338,79299,2,0,B|65:370|65:370|-2:313|63:252,1,172.899995383072,2|10,0:2|0:0,0:0:0:0:
164,143,79645,2,0,P|158:187|111:208,1,86.449997691536,2|0,0:2|1:2,0:0:0:0:
103,204,79991,6,0,L|203:243,1,86.449997691536,10|0,0:0|0:0,0:0:0:0:
135,31,80222,2,0,L|51:98,1,86.449997691536,2|0,0:2|1:2,0:0:0:0:
273,163,80453,2,0,L|256:56,1,86.449997691536,10|0,0:0|0:0,0:0:0:0:
473,23,80684,6,0,B|420:49|385:9|385:9|321:22|348:82,1,172.899995383072,2|10,1:2|0:0,0:0:0:0:
431,193,81030,1,0,1:2:0:0:
431,193,81145,2,0,P|455:155|429:105,1,86.449997691536,2|0,0:2|1:2,0:0:0:0:
406,298,81376,2,0,L|501:281,1,86.449997691536,10|0,0:0|0:0,0:0:0:0:
224,128,81607,6,0,B|201:157|157:146|157:146|121:215|196:237,1,172.899995383072,6|8,1:2|0:0,0:0:0:0:
325,314,81953,2,0,B|311:279|342:246|342:246|301:181|244:235,1,172.899995383072,2|0,0:2|1:2,0:0:0:0:
146,326,82299,2,0,P|195:335|228:300,1,86.449997691536,10|0,0:0|0:0,0:0:0:0:
50,279,82530,6,0,B|25:272|8:248|8:248|-55:306|11:362,2,172.899995383072,0|8|2,1:2|0:0|0:0,0:0:0:0:
122,219,83107,1,0,1:2:0:0:
122,219,83222,2,0,L|107:123,1,86.449997691536,10|0,0:0|0:0,0:0:0:0:
17,66,83453,6,0,B|67:63|68:15|68:15|136:-7|159:79,1,172.899995383072,2|8,1:2|0:0,0:0:0:0:
325,104,83799,2,0,B|275:107|274:155|274:155|206:177|183:91,1,172.899995383072,0|0,0:0|1:2,0:0:0:0:
305,0,84145,2,0,L|401:22,1,86.449997691536,8|0,0:0|0:0,0:0:0:0:
505,191,84376,6,0,P|525:148|487:95,1,86.449997691536,0|0,1:2|0:0,0:0:0:0:
354,184,84607,2,0,P|334:227|372:280,1,86.449997691536,8|0,0:0|1:0,0:0:0:0:
462,376,84837,1,8,0:0:0:0:
508,300,84953,1,8,0:0:0:0:
326,284,85068,1,8,0:0:0:0:
382,342,85184,1,8,0:0:0:0:
431,276,85299,6,0,B|339:294|339:294|344:298|344:298|251:315,1,172.899995383072,4|10,1:2|0:0,0:0:0:0:
205,366,85645,1,0,0:0:0:0:
205,366,85760,2,0,P|179:332|192:282,1,86.449997691536,2|0,0:2|1:2,0:0:0:0:
255,228,85991,2,0,P|260:186|235:153,1,86.449997691536,10|0,0:0|0:0,0:0:0:0:
46,210,86222,6,0,L|137:227,1,86.449997691536,2|0,1:2|0:0,0:0:0:0:
230,41,86453,2,0,L|139:58,1,86.449997691536,10|0,0:0|0:0,0:0:0:0:
255,228,86684,6,0,B|284:207|311:221|325:250|325:250|321:258|321:258|336:280|356:300|398:280,1,172.899995383072,2|10,0:2|0:0,0:0:0:0:
458,212,87030,2,0,P|449:172|462:120,1,86.449997691536,2|0,0:2|1:2,0:0:0:0:
483,112,87376,6,0,L|376:68,1,86.449997691536,10|0,0:0|0:0,0:0:0:0:
320,226,87607,2,0,L|411:155,1,86.449997691536,2|0,0:2|1:2,0:0:0:0:
297,29,87837,2,0,L|312:143,1,86.449997691536,10|0,0:0|0:0,0:0:0:0:
209,182,88068,6,0,B|168:160|134:195|134:195|75:157|118:103,1,172.899995383072,2|10,1:2|0:0,0:0:0:0:
191,258,88414,1,0,1:2:0:0:
191,258,88530,2,0,P|211:306|183:349,1,86.449997691536,2|0,0:2|1:2,0:0:0:0:
52,384,88760,2,0,P|32:336|60:293,1,86.449997691536,10|0,0:0|0:0,0:0:0:0:
198,335,88991,6,0,B|240:360|283:320|268:301|303:271|351:301,1,172.899995383072,6|8,1:2|0:0,0:0:0:0:
512,347,89337,2,0,B|467:374|467:374|408:318|474:254,1,172.899995383072,2|0,0:2|1:2,0:0:0:0:
348,150,89684,2,0,P|392:186|385:235,1,86.449997691536,10|0,0:0|0:0,0:0:0:0:
228,152,89914,6,0,L|246:59,1,86.449997691536,0|0,1:2|0:0,0:0:0:0:
87,0,90145,2,0,L|103:84,1,86.449997691536,8|0,0:0|0:0,0:0:0:0:
87,246,90376,1,0,0:0:0:0:
139,187,90491,1,0,1:2:0:0:
17,117,90607,2,0,L|5:234,1,86.449997691536,8|0,0:0|0:0,0:0:0:0:
123,354,90837,6,0,P|88:292|3:319,2,172.899995383072,0|8|0,1:2|0:0|0:0,0:0:0:0:
200,269,91414,1,0,1:2:0:0:
200,269,91530,2,0,P|239:245|291:263,1,86.449997691536,8|0,0:0|0:0,0:0:0:0:
369,383,91760,6,0,B|353:343|353:343|372:302,1,86.449997691536,0|0,1:2|0:0,0:0:0:0:
486,173,91991,2,0,B|502:213|502:213|483:254,1,86.449997691536,8|0,0:0|1:0,0:0:0:0:
368,66,92222,1,8,0:0:0:0:
441,40,92337,1,8,0:0:0:0:
410,217,92453,1,8,0:0:0:0:
352,160,92568,1,8,0:0:0:0:
346,159,92914,6,0,B|296:133|263:174|263:174|255:227|190:232,1,172.899995383072,14|2,0:0|0:2,0:0:0:0:
90,198,93260,1,0,1:2:0:0:
90,198,93376,2,0,L|111:294,1,86.449997691536,10|0,0:0|0:0,0:0:0:0:
101,112,93607,6,0,P|51:105|16:139,1,86.449997691536,2|0,1:2|0:0,0:0:0:0:
194,246,93837,2,0,P|244:253|279:219,1,86.449997691536,10|0,0:0|0:0,0:0:0:0:
237,11,94068,2,0,B|242:56|201:70|201:70|197:140|272:142,1,172.899995383072,2|10,0:2|0:0,0:0:0:0:
343,34,94414,2,0,P|377:62|434:51,1,86.449997691536,2|0,0:2|1:2,0:0:0:0:
438,41,94760,6,0,L|388:139,1,86.449997691536,10|0,0:0|0:0,0:0:0:0:
483,264,94991,2,0,L|460:160,1,86.449997691536,2|0,0:2|1:2,0:0:0:0:
306,194,95222,2,0,L|407:253,1,86.449997691536,10|0,0:0|0:0,0:0:0:0:
312,360,95453,6,0,B|276:346|267:310|267:310|255:390|179:386,1,172.899995383072,2|10,1:2|0:0,0:0:0:0:
121,345,95799,1,0,1:2:0:0:
121,345,95914,2,0,P|105:302|126:263,1,86.449997691536,2|0,0:2|1:2,0:0:0:0:
191,141,96145,2,0,P|207:184|186:223,1,86.449997691536,10|0,0:0|0:0,0:0:0:0:
49,50,96376,6,0,B|82:94|44:134|44:134|72:193|141:171,1,172.899995383072,6|8,1:2|0:0,0:0:0:0:
274,68,96722,2,0,B|219:63|214:8|214:8|152:-10|122:55,1,172.899995383072,2|0,0:2|1:2,0:0:0:0:
220,240,97068,2,0,P|266:217|275:164,1,86.449997691536,10|0,0:0|0:0,0:0:0:0:
105,176,97299,6,0,L|11:193,1,86.449997691536,0|0,1:2|0:0,0:0:0:0:
120,331,97530,2,0,L|214:348,1,86.449997691536,8|0,0:0|0:0,0:0:0:0:
396,251,97760,1,0,0:0:0:0:
334,203,97876,1,0,1:2:0:0:
311,362,97991,2,0,P|290:316|313:280,1,86.449997691536,10|0,0:0|0:0,0:0:0:0:
444,159,98222,6,0,B|476:174|505:184|505:184|481:253|475:308,2,172.899995383072,2|8|0,1:2|0:0|0:0,0:0:0:0:
361,90,98799,1,0,1:2:0:0:
361,90,98914,2,0,L|346:1,1,86.449997691536,8|0,0:0|0:0,0:0:0:0:
277,186,99145,6,0,P|235:203|192:186,1,86.449997691536,2|0,1:2|0:0,0:0:0:0:
43,109,99376,2,0,P|83:96|122:113,1,86.449997691536,8|0,0:0|1:0,0:0:0:0:
118,328,99607,1,10,0:0:0:0:
37,223,99722,1,8,0:0:0:0:
185,281,99837,1,8,0:0:0:0:
53,374,99953,1,8,0:0:0:0:
120,227,100068,6,0,L|136:156,1,68.250002603531,6|0,1:2|0:0,0:0:0:0:
203,46,100299,2,0,L|213:115,1,68.250002603531,2|0,0:2|0:0,0:0:0:0:
283,240,100530,1,10,0:2:0:0:
297,245,100607,1,8,0:2:0:0:
310,251,100684,1,8,0:2:0:0:
323,256,100760,1,10,0:2:0:0:
323,256,100991,6,0,P|306:294|313:327,1,68.250002603531,0|0,1:0|0:0,0:0:0:0:
446,258,101222,2,0,P|459:221|450:186,1,68.250002603531,8|0,0:0|0:0,0:0:0:0:
342,114,101453,5,8,0:0:0:0:
450,56,101568,1,8,0:0:0:0:
338,124,101684,1,10,0:0:0:0:
440,54,101799,1,8,0:0:0:0:
332,8,101914,6,0,L|255:-6,1,68.250002603531,6|0,1:2|0:0,0:0:0:0:
150,128,102145,2,0,L|217:115,1,68.250002603531,2|4,0:2|3:0,0:0:0:0:
63,5,102376,1,10,0:2:0:0:
58,19,102453,1,8,0:2:0:0:
52,32,102530,1,8,0:2:0:0:
47,45,102606,1,10,0:2:0:0:
47,45,102837,6,0,P|64:86|56:133,1,68.250002603531,0|0,1:0|0:0,0:0:0:0:
9,241,103068,2,0,P|-1:203|17:157,1,68.250002603531,8|0,0:0|0:0,0:0:0:0:
116,269,103299,5,8,0:0:0:0:
6,328,103414,1,8,0:0:0:0:
117,260,103530,1,10,0:0:0:0:
18,337,103645,1,8,0:0:0:0:
132,372,103760,6,0,L|206:383,1,68.250002603531,6|0,1:2|0:0,0:0:0:0:
288,263,103991,2,0,L|220:273,1,68.250002603531,2|4,0:2|3:0,0:0:0:0:
365,369,104222,1,10,0:2:0:0:
379,364,104299,1,8,0:2:0:0:
392,358,104376,1,8,0:2:0:0:
405,353,104452,1,10,0:2:0:0:
405,353,104684,6,0,L|415:270,1,68.250002603531,0|0,1:0|0:0,0:0:0:0:
504,166,104914,2,0,L|512:233,1,68.250002603531,8|0,0:0|0:0,0:0:0:0:
379,153,105145,5,8,0:0:0:0:
433,47,105261,1,8,0:0:0:0:
386,160,105376,1,10,0:0:0:0:
424,39,105492,1,8,0:0:0:0:
304,100,105607,6,0,P|273:106|236:90,1,68.250002603531,6|0,1:2|0:0,0:0:0:0:
119,5,105837,2,0,P|150:-1|187:15,1,68.250002603531,2|4,0:2|3:0,0:0:0:0:
67,106,106068,1,10,0:2:0:0:
72,120,106145,1,8,0:2:0:0:
78,133,106222,1,8,0:2:0:0:
83,146,106298,1,10,0:2:0:0:
83,146,106530,6,0,L|72:232,1,68.250002603531,0|0,1:0|0:0,0:0:0:0:
177,359,106760,2,0,L|168:291,1,68.250002603531,8|0,0:0|0:0,0:0:0:0:
298,189,106991,5,8,0:0:0:0:
180,149,107107,1,8,0:0:0:0:
307,187,107222,1,10,0:0:0:0:
172,158,107337,1,8,0:0:0:0:
336,300,107453,6,0,B|360:313|370:339|370:339|447:285|387:209,1,191.099994168091,6|8,1:2|0:0,0:0:0:0:
247,128,107799,2,0,P|263:172|314:185,1,95.5499970840455,0|0,3:0|1:0,0:0:0:0:
414,89,108030,1,0,1:0:0:0:
309,5,108145,2,0,L|327:111,1,95.5499970840455,10|0,0:0|0:0,0:0:0:0:
218,258,108376,6,0,B|175:226|127:250|127:250|78:198|148:144,1,191.099994168091,0|8,1:2|0:0,0:0:0:0:
275,328,108722,2,0,P|306:289|290:224,1,95.5499970840455,0|2,3:0|1:2,0:0:0:0:
167,329,108953,1,0,1:0:0:0:
384,236,109068,2,0,P|365:189|301:171,1,95.5499970840455,8|0,0:0|0:0,0:0:0:0:
202,0,109299,6,0,B|179:56|234:76|234:76|267:138|188:174,1,191.099994168091,0|8,1:2|0:0,0:0:0:0:
116,264,109645,1,0,3:0:0:0:
13,139,109760,2,0,P|59:118|119:150,1,95.5499970840455,2|0,1:2|1:0,0:0:0:0:
254,320,109991,2,0,P|208:341|148:309,1,95.5499970840455,8|0,0:0|0:0,0:0:0:0:
326,169,110222,6,0,B|372:122|434:174|434:174|418:230|372:219,1,191.099994168091,2|8,1:2|0:0,0:0:0:0:
372,51,110568,1,0,3:0:0:0:
271,241,110684,2,0,P|233:201|257:140,1,95.5499970840455,2|0,1:2|1:0,0:0:0:0:
352,318,110914,1,10,0:0:0:0:
156,257,111030,1,8,0:0:0:0:
300,82,111145,6,0,B|351:57|384:102|365:112|395:148|454:131,1,154.700002950668,14|0,0:2|1:2,0:0:0:0:
450,119,111491,1,0,1:2:0:0:
240,13,111607,2,0,P|161:22|151:91,1,154.700002950668,8|0,0:2|1:2,0:0:0:0:
161,108,111953,1,0,1:2:0:0:
271,241,112068,6,0,B|230:247|202:212|202:212|138:225|157:281,1,154.700002950668,8|0,0:2|1:2,0:0:0:0:
156,283,112414,1,0,1:2:0:0:
338,384,112530,2,0,L|367:229,1,154.700002950668,8|2,0:2|1:2,0:0:0:0:
386,217,112876,1,0,1:2:0:0:
292,42,112991,6,0,L|417:32,1,95.5499970840455,14|0,0:2|0:0,0:0:0:0:
239,219,113222,2,0,L|142:202,1,95.5499970840455,8|0,0:2|0:0,0:0:0:0:
47,95,113453,5,8,0:2:0:0:
130,281,113568,1,8,0:2:0:0:
193,68,113684,1,8,0:2:0:0:
67,221,113799,1,8,0:2:0:0:
7,15,113914,5,2,1:3:0:0:
2,7,114145,6,0,L|9:94,2,81.8999975006104,2|2|2,0:0|0:0|0:0,0:0:0:0:
176,120,114837,6,0,B|192:94|245:107|258:151|258:151|258:166|258:166|260:202|304:238|363:208,1,227.5,6|8,1:2|0:0,0:0:0:0:
488,142,115184,1,0,0:0:0:0:
379,0,115299,2,0,L|351:137,1,113.75,2|0,1:2|1:0,0:0:0:0:
427,337,115530,2,0,L|455:200,1,113.75,10|0,0:0|0:0,0:0:0:0:
224,312,115760,6,0,B|208:345|178:353|178:353|266:436|342:297,1,227.5,2|8,1:2|0:0,0:0:0:0:
59,170,116107,2,0,P|40:222|83:272,1,113.75,2|0,1:2|0:0,0:0:0:0:
236,172,116337,1,0,1:0:0:0:
108,4,116453,2,0,L|127:117,1,113.75,10|0,0:0|0:0,0:0:0:0:
429,148,116684,6,0,B|378:91|323:134|323:134|290:199|221:166,1,227.5,2|10,1:2|0:0,0:0:0:0:
346,342,117030,2,0,P|378:292|343:242,1,113.75,2|0,0:0|1:2,0:0:0:0:
253,82,117260,1,2,1:2:0:0:
139,260,117376,2,0,L|254:283,1,113.75,10|2,0:0|0:0,0:0:0:0:
59,311,117607,5,0,1:2:0:0:
216,194,117722,1,0,1:2:0:0:
87,70,117837,2,0,L|106:183,1,113.75,10|0,0:0|1:2,0:0:0:0:
170,11,118068,1,2,1:2:0:0:
0,130,118184,1,0,1:2:0:0:
139,260,118299,2,0,L|284:222,1,113.75,10|0,0:0|0:0,0:0:0:0:
419,98,118530,6,0,B|366:49|304:93|304:93|244:43|310:-13,1,227.5,6|8,1:2|0:0,0:0:0:0:
357,170,118876,1,0,0:0:0:0:
494,44,118991,2,0,P|524:100|498:161,1,113.75,2|0,1:2|1:0,0:0:0:0:
435,342,119222,2,0,P|402:290|444:231,1,113.75,8|0,0:0|0:0,0:0:0:0:
259,92,119453,6,0,B|217:81|204:53|204:53|129:127|212:199,1,227.5,2|8,1:2|0:0,0:0:0:0:
305,315,119799,2,0,B|275:281|236:277|202:314|202:314|204:327|204:327|183:367|153:384|87:342,1,227.5,2|0,1:2|1:0,0:0:0:0:
13,251,120145,2,0,P|34:206|106:214,1,113.75,10|0,0:0|0:0,0:0:0:0:
317,341,120376,6,0,B|327:285|327:285|324:285|324:285|338:206,1,113.75,2|0,1:2|0:0,0:0:0:0:
431,376,120607,1,8,0:0:0:0:
245,252,120722,2,0,B|237:194|237:194|241:197|241:197|232:133,1,113.75,2|0,0:0|1:2,0:0:0:0:
138,294,120953,1,0,1:0:0:0:
326,148,121068,2,0,B|331:92|331:92|333:95|333:95|339:29,1,113.75,10|2,0:0|0:0,0:0:0:0:
120,67,121299,6,0,B|102:32|65:28|65:28|164:-35|217:51,1,227.5,2|10,1:2|0:0,0:0:0:0:
260,223,121644,1,2,1:2:0:0:
73,343,121760,2,0,P|45:285|94:236,1,113.75,2|2,1:2|1:2,0:0:0:0:
276,121,121991,5,10,0:0:0:0:
288,127,122068,1,8,0:0:0:0:
303,134,122145,1,8,0:0:0:0:
313,148,122222,6,0,B|279:121|248:119|217:152|217:152|220:164|220:164|195:198|151:210|123:182,1,227.5,6|8,1:2|0:0,0:0:0:0:
120,0,122568,2,0,P|171:12|179:92,1,113.75,2|0,0:2|1:2,0:0:0:0:
144,265,122799,1,2,1:2:0:0:
0,99,122914,2,0,L|120:80,1,113.75,8|2,0:0|0:0,0:0:0:0:
222,292,123145,6,0,B|238:323|278:337|278:337|200:417|121:325,1,227.5,0|8,1:2|0:0,0:0:0:0:
305,240,123491,2,0,B|354:209|403:254|403:254|487:221|429:145,1,227.5,0|0,1:2|1:0,0:0:0:0:
226,95,123837,2,0,P|200:142|236:200,1,113.75,10|0,0:2|0:0,0:0:0:0:
412,35,124068,6,0,B|262:2|262:2|313:17|315:68,1,227.5,2|10,1:2|0:0,0:0:0:0:
488,189,124414,2,0,P|525:135|496:79,1,113.75,2|0,0:0|1:2,0:0:0:0:
313,148,124645,1,2,1:2:0:0:
427,284,124760,2,0,B|489:300|489:300|484:303|484:303|542:315,1,113.75,8|2,0:0|0:0,0:0:0:0:
228,302,124991,6,0,B|188:324|184:356|184:356|109:290|164:206,1,227.5,0|8,1:0|0:0,0:0:0:0:
46,301,125337,1,0,1:2:0:0:
229,165,125453,2,0,P|183:126|110:148,1,113.75,2|0,1:2|1:2,0:0:0:0:
285,372,125684,2,0,P|340:375|382:338,1,113.75,10|8,0:0|0:0,0:0:0:0:
512,163,125914,6,0,B|467:138|436:168|447:184|416:221|362:197,1,154.700002950668,14|0,0:2|1:2,0:0:0:0:
364,191,126260,1,0,1:2:0:0:
317,3,126376,2,0,P|389:15|409:91,1,154.700002950668,8|0,0:2|1:2,0:0:0:0:
397,105,126722,1,0,1:2:0:0:
277,153,126837,6,0,B|194:138|194:138|196:143|196:143|112:126,1,154.700002950668,8|2,0:2|1:2,0:0:0:0:
117,141,127184,1,0,1:2:0:0:
203,316,127299,2,0,P|231:281|213:220,1,95.5499970840455,10|0,0:2|1:2,0:0:0:0:
53,79,127530,2,0,P|25:114|43:175,1,95.5499970840455,10|8,0:2|1:2,0:0:0:0:
278,29,127760,6,0,L|157:6,1,122.850000468636,14|0,0:2|1:0,0:0:0:0:
318,260,127991,2,0,L|439:237,1,122.850000468636,8|0,0:2|1:0,0:0:0:0:
199,177,128222,1,8,0:2:0:0:
314,352,128337,1,0,1:0:0:0:
265,124,128453,1,8,0:2:0:0:
173,315,128568,1,0,1:0:0:0:
212,65,128684,6,0,L|232:192,1,122.850000468636,8|0,0:0|1:2,0:0:0:0:
93,363,128914,1,4,3:0:0:0:
70,375,128991,1,4,3:0:0:0:
40,369,129068,1,4,3:0:0:0:
13,353,129145,2,0,P|-8:294|52:227,1,122.850000468636,10|0,0:0|0:0,0:0:0:0:
199,177,129376,1,10,0:0:0:0:
41,90,129491,1,8,0:0:0:0:
173,314,129607,6,0,B|205:336|242:328|264:276|264:276|259:270|259:270|274:222|323:218|370:250,1,227.5,6|8,1:2|0:0,0:0:0:0:
243,93,129953,1,0,0:0:0:0:
438,303,130068,2,0,P|468:262|432:208,1,113.75,2|0,1:2|1:0,0:0:0:0:
356,0,130299,2,0,P|325:55|364:106,1,113.75,10|0,0:0|0:0,0:0:0:0:
166,149,130530,6,0,B|191:185|225:186|225:186|143:274|59:167,1,227.5,2|8,1:2|0:0,0:0:0:0:
0,20,130876,2,0,P|53:-2|116:37,1,113.75,2|0,1:2|0:0,0:0:0:0:
243,93,131107,1,0,1:0:0:0:
9,245,131222,2,0,P|-11:188|18:139,1,113.75,10|0,0:0|0:0,0:0:0:0:
210,324,131453,6,0,B|262:279|316:327|316:327|381:293|334:212,1,227.5,2|8,1:2|0:0,0:0:0:0:
459,58,131799,2,0,P|399:69|388:136,1,113.75,2|0,0:0|1:2,0:0:0:0:
273,6,132030,1,2,1:2:0:0:
476,266,132145,2,0,B|475:202|475:202|471:204|471:204|473:146,1,113.75,10|2,0:0|0:0,0:0:0:0:
221,214,132376,5,0,1:2:0:0:
367,113,132491,1,0,1:2:0:0:
248,15,132607,2,0,L|267:137,1,113.75,10|0,0:0|1:2,0:0:0:0:
333,296,132837,1,2,1:2:0:0:
151,164,132953,1,0,1:2:0:0:
381,93,133068,2,0,L|361:218,1,113.75,10|0,0:0|0:0,0:0:0:0:
78,267,133299,6,0,B|99:240|153:246|172:288|172:288|170:303|170:303|180:339|228:369|278:337,1,227.5,6|8,1:2|0:0,0:0:0:0:
158,144,133645,1,0,0:0:0:0:
10,331,133760,2,0,P|-23:269|4:225,1,113.75,2|0,1:2|1:0,0:0:0:0:
163,23,133991,2,0,P|196:85|169:124,1,113.75,10|0,0:0|0:0,0:0:0:0:
299,383,134222,6,0,B|346:322|270:289|270:289|273:205|351:227,1,227.5,2|8,1:2|0:0,0:0:0:0:
508,290,134568,2,0,B|435:278|445:361|445:361|370:400|349:318,1,227.5,2|0,1:2|1:0,0:0:0:0:
400,165,134914,2,0,P|451:197|449:262,1,113.75,10|0,0:0|0:0,0:0:0:0:
267,70,135145,6,0,L|401:40,1,113.75,2|0,1:2|0:0,0:0:0:0:
165,6,135376,1,8,0:0:0:0:
194,165,135491,2,0,L|311:190,1,113.75,2|0,0:0|1:2,0:0:0:0:
111,244,135722,1,2,1:2:0:0:
236,62,135837,2,0,L|369:33,1,113.75,10|2,0:0|0:0,0:0:0:0:
496,231,136068,6,0,B|471:200|427:209|401:256|401:256|406:265|406:265|389:309|339:326|293:284,1,227.5,2|10,1:2|0:0,0:0:0:0:
457,358,136414,1,2,1:2:0:0:
325,120,136530,2,0,P|379:143|380:221,1,113.75,2|2,1:2|1:2,0:0:0:0:
199,339,136760,5,10,0:0:0:0:
188,321,136837,1,8,0:0:0:0:
195,299,136914,1,8,0:0:0:0:
210,287,136991,6,0,B|233:315|261:332|261:332|180:419|91:322,1,227.5,6|8,1:2|0:0,0:0:0:0:
83,157,137337,1,2,0:2:0:0:
299,108,137453,2,0,L|276:230,1,113.75,0|2,1:2|1:2,0:0:0:0:
124,39,137684,2,0,P|168:0|240:32,1,113.75,8|2,0:0|0:0,0:0:0:0:
468,39,137914,6,0,B|422:13|384:38|383:69|383:69|383:82|383:82|371:119|327:134|298:107,1,227.5,0|8,1:2|0:0,0:0:0:0:
427,296,138260,2,0,P|462:236|430:182,1,113.75,0|0,1:2|0:0,0:0:0:0:
309,23,138491,1,0,1:0:0:0:
224,218,138607,2,0,L|359:243,1,113.75,10|0,0:2|0:0,0:0:0:0:
201,63,138837,6,0,B|157:82|123:18|123:18|142:123|56:164,1,227.5,2|10,1:2|0:0,0:0:0:0:
0,288,139184,2,0,P|37:244|103:267,1,113.75,2|0,0:0|1:2,0:0:0:0:
0,119,139414,1,2,1:2:0:0:
84,344,139530,2,0,P|134:366|196:336,1,113.75,8|2,0:0|0:0,0:0:0:0:
353,208,139760,6,0,B|301:223|266:167|266:167|174:181|212:263,1,227.5,0|8,1:0|0:0,0:0:0:0:
343,101,140107,1,0,1:2:0:0:
420,281,140222,2,0,P|451:232|431:168,1,113.75,2|0,1:2|1:2,0:0:0:0:
351,356,140453,1,10,0:0:0:0:
512,291,140568,1,8,0:0:0:0:
343,101,140684,6,0,P|267:84|246:160,1,154.700002950668,14|0,0:2|1:2,0:0:0:0:
249,170,141030,1,0,1:2:0:0:
351,356,141145,2,0,B|300:316|264:351|274:365|230:393|187:370,1,154.700002950668,10|0,0:2|1:2,0:0:0:0:
192,359,141491,1,0,1:2:0:0:
101,171,141607,6,0,B|155:196|155:196|126:312,1,154.700002950668,10|2,0:2|1:2,0:0:0:0:
120,317,141953,1,2,1:2:0:0:
7,181,142068,2,0,L|30:97,1,77.3500014753342,10|0,0:2|1:2,0:0:0:0:
186,24,142299,1,10,0:2:0:0:
52,94,142414,1,8,0:2:0:0:
256,192,142530,5,14,0:2:0:0:
256,192,142587,12,0,144260,0:0:0:0:
471,117,144376,6,0,L|390:127,1,59.149997292328,2|0,0:0|0:0,0:0:0:0:
421,106,144837,2,0,L|480:102,1,59.149997292328,2|0,0:0|0:0,0:0:0:0:
448,220,145299,6,0,L|367:230,1,59.149997292328,2|0,0:0|0:0,0:0:0:0:
389,216,145760,2,0,L|456:206,1,59.149997292328,2|0,0:0|0:0,0:0:0:0:
394,321,146222,6,0,L|313:331,1,59.149997292328,2|0,0:0|0:0,0:0:0:0:
327,314,146683,2,0,L|385:303,1,59.149997292328,2|0,0:0|0:0,0:0:0:0:
256,244,147145,2,0,L|249:226,3,19.7166657641093,2|0|2|0,0:0|0:0|0:0|0:0,0:0:0:0:
256,244,147606,1,2,0:0:0:0:
87,0,148068,6,0,P|114:38|109:90,1,86.449997691536,0|2,3:2|0:0,0:0:0:0:
189,117,148529,2,0,P|160:159|167:212,1,86.449997691536,2|2,0:0|0:0,0:0:0:0:
46,365,148991,6,0,L|146:351,1,86.449997691536,2|2,0:0|0:0,0:0:0:0:
189,295,149452,2,0,L|278:316,1,86.449997691536,2|2,0:0|0:0,0:0:0:0:
326,366,149799,1,2,0:0:0:0:
336,379,149914,2,0,P|369:329|348:278,1,86.449997691536,0|2,3:2|0:0,0:0:0:0:
254,172,150376,2,0,P|271:216|335:232,1,86.449997691536,2|2,0:0|3:2,0:0:0:0:
472,196,150837,2,0,P|425:188|378:236,1,86.449997691536,2|2,0:0|0:0,0:0:0:0:
332,126,151299,1,2,0:0:0:0:
390,76,151529,1,2,0:0:0:0:
326,22,151760,6,0,L|476:54,2,129.674996537304,2|2|2,3:2|0:0|3:2,0:0:0:0:
250,98,152683,2,0,B|207:57|150:87|171:123|118:151|61:110,1,172.899995383072
95,126,153376,1,0,0:0:0:0:
43,43,153606,6,0,P|58:123|75:219,1,172.899995383072,0|0,3:2|0:0,0:0:0:0:
131,356,154529,6,0,P|177:363|209:328,1,86.449997691536,2|0,0:0|0:0,0:0:0:0:
209,327,154837,1,0,0:0:0:0:
208,318,154914,1,0,0:0:0:0:
208,308,154991,2,0,P|241:282|282:291,1,86.449997691536,2|0,0:0|0:0,0:0:0:0:
404,377,155452,6,0,P|393:332|396:284,1,86.449997691536,0|2,3:2|0:0,0:0:0:0:
455,240,155914,2,0,P|467:194|459:147,1,86.449997691536,2|2,0:0|3:2,0:0:0:0:
489,42,156376,6,0,L|397:53,1,86.449997691536,2|2,0:0|0:0,0:0:0:0:
345,120,156837,2,0,L|245:101,1,86.449997691536,2|2,0:0|0:0,0:0:0:0:
211,40,157183,1,2,0:0:0:0:
202,25,157299,2,0,L|218:132,1,86.449997691536,0|2,3:2|0:0,0:0:0:0:
132,143,157760,2,0,L|111:261,1,86.449997691536,2|2,0:0|3:2,0:0:0:0:
17,358,158222,2,0,P|53:332|110:338,1,86.449997691536,2|0,0:0|0:0,0:0:0:0:
176,296,158683,2,0,P|212:322|269:316,1,86.449997691536,2|2,0:0|0:0,0:0:0:0:
315,258,159145,6,0,L|282:396,2,129.674996537304,2|2|2,3:2|0:0|3:2,0:0:0:0:
402,218,160068,2,0,P|418:157|317:136,1,172.899995383072,2|0,0:0|0:0,0:0:0:0:
331,124,160760,1,2,0:0:0:0:
167,104,160991,6,0,B|217:120|260:76|223:63|268:9|329:41,1,172.899995383072,2|0,3:2|0:0,0:0:0:0:
92,19,161683,1,2,3:2:0:0:
29,66,161799,1,0,0:0:0:0:
73,133,161914,2,0,L|50:229,1,86.449997691536,2|0,0:0|0:0,0:0:0:0:
45,232,162222,1,0,0:0:0:0:
39,239,162299,1,0,0:0:0:0:
33,246,162376,2,0,P|91:228|141:212,1,86.449997691536,2|8,0:0|0:3,0:0:0:0:
136,354,162837,6,0,B|147:295|216:313|216:313|237:380|317:360,1,209.300003992081,4|2,1:2|0:0,0:0:0:0:
295,363,163529,1,2,1:2:0:0:
328,158,163760,2,0,B|253:204|298:273|298:273|355:271|355:230,1,209.300003992081,2|10,1:2|0:0,0:0:0:0:
512,98,164683,6,0,B|374:65|374:65|414:80|417:120,1,209.300003992081,0|2,1:2|0:0,0:0:0:0:
416,129,165376,1,2,1:2:0:0:
297,7,165606,6,0,P|268:63|298:122,1,104.65000199604,2|2,1:2|0:0,0:0:0:0:
321,259,166068,2,0,P|351:210|320:144,1,104.65000199604,10|2,0:0|0:0,0:0:0:0:
252,313,166529,6,0,L|430:277,2,156.975002994061,6|2|2,1:2|0:0|1:2,0:0:0:0:
189,379,167452,2,0,B|135:396|88:348|128:334|80:276|14:311,1,209.300003992081,0|8,1:0|0:0,0:0:0:0:
207,160,168376,6,0,B|250:111|180:73|180:73|183:-2|258:18,1,209.300003992081,0|0,1:2|0:0,0:0:0:0:
241,14,169068,1,0,1:0:0:0:
388,161,169299,6,0,B|374:219|306:183|306:183|303:109|232:116,1,209.300003992081,0|8,1:0|0:0,0:0:0:0:
407,38,169991,1,8,0:3:0:0:
480,23,170106,1,4,0:3:0:0:
495,98,170222,6,0,B|441:101|426:56|426:56|442:157|365:165,1,209.300003992081,4|2,1:2|0:0,0:0:0:0:
387,160,170914,1,2,1:2:0:0:
498,277,171145,6,0,P|524:230|479:177,1,104.65000199604,2|2,1:2|0:0,0:0:0:0:
383,291,171606,2,0,P|357:338|402:391,1,104.65000199604,10|0,0:0|0:0,0:0:0:0:
333,219,172068,6,0,B|296:156|240:195|240:195|205:260|156:231,1,209.300003992081,0|2,1:2|0:0,0:0:0:0:
163,234,172760,1,2,1:2:0:0:
11,92,172991,2,0,B|42:81|50:54|50:54|133:118|42:203,1,209.300003992081,2|10,1:2|0:0,0:0:0:0:
150,352,173914,6,0,P|85:304|-4:318,2,156.975002994061,6|2|2,1:2|0:0|1:2,0:0:0:0:
285,167,174837,2,0,P|205:138|178:255,1,209.300003992081,2|8,1:2|0:0,0:0:0:0:
162,233,175529,1,2,0:0:0:0:
307,358,175760,6,0,B|364:391|409:339|368:300|426:260|497:293,1,209.300003992081,2|0,1:2|0:0,0:0:0:0:
476,285,176452,1,0,1:0:0:0:
364,67,176683,5,10,1:2:0:0:
368,78,176799,2,0,B|308:73|308:73|312:70|312:70|246:68,1,104.65000199604,8|4,0:0|3:0,0:0:0:0:
71,175,177145,5,10,0:0:0:0:
198,13,177260,1,8,0:0:0:0:
244,225,177376,1,8,0:0:0:0:
19,29,177491,6,0,B|54:9|99:22|111:64|111:64|111:79|111:79|118:119|154:144|210:126,1,222.950002126217,6|0,1:2|0:0,0:0:0:0:
315,309,177836,2,0,B|270:325|257:353|257:353|175:294|250:217,1,227.5,8|0,0:2|1:2,0:0:0:0:
330,40,178182,1,0,1:2:0:0:
443,205,178298,2,0,P|395:232|339:199,1,113.75,8|0,0:2|0:0,0:0:0:0:
220,9,178529,6,0,L|355:46,1,113.75,2|0,1:2|0:0,0:0:0:0:
96,110,178759,2,0,L|67:0,1,113.75,10|0,0:2|3:2,0:0:0:0:
234,144,178990,2,0,L|134:242,1,113.75,2|0,1:2|1:2,0:0:0:0:
288,234,179221,1,10,0:2:0:0:
172,78,179336,1,2,0:0:0:0:
53,265,179452,6,0,B|86:233|124:239|145:283|145:283|141:291|141:291|156:332|198:348|251:303,1,227.5,6|8,1:2|0:2,0:0:0:0:
106,384,179798,1,0,3:2:0:0:
288,234,179913,2,0,L|274:103,1,113.75,0|0,1:2|1:2,0:0:0:0:
67,29,180144,2,0,L|54:142,1,113.75,8|0,0:2|0:0,0:0:0:0:
360,77,180375,6,0,B|377:51|408:33|408:33|303:-37|249:66,1,227.5,2|10,1:2|0:2,0:0:0:0:
190,187,180721,1,0,1:2:0:0:
440,240,180836,2,0,P|458:174|419:130,1,113.75,2|0,1:2|1:2,0:0:0:0:
301,262,181067,1,10,0:2:0:0:
485,347,181182,1,2,0:0:0:0:
348,185,181298,6,0,B|298:150|251:183|251:183|180:144|226:80,1,227.5,6|8,1:2|0:2,0:0:0:0:
214,308,181644,1,0,3:2:0:0:
440,240,181759,2,0,L|468:85,1,113.75,0|0,1:2|1:2,0:0:0:0:
304,342,181990,2,0,P|350:377|421:372,1,113.75,8|0,0:2|0:0,0:0:0:0:
101,237,182221,6,0,B|75:292|75:292|108:357,1,113.75,2|0,1:2|0:0,0:0:0:0:
324,182,182452,2,0,B|350:127|350:127|317:62,1,113.75,10|0,0:2|3:2,0:0:0:0:
113,109,182682,1,2,1:2:0:0:
251,221,182798,1,0,1:2:0:0:
40,153,182913,1,10,0:2:0:0:
221,41,183029,1,2,0:0:0:0:
101,237,183144,6,0,B|64:267|29:260|29:260|82:362|176:289,1,227.5,6|8,1:2|0:2,0:0:0:0:
396,266,183490,2,0,B|380:240|327:253|314:297|314:297|314:312|314:312|312:348|268:384|209:354,1,227.5,2|0,3:2|1:2,0:0:0:0:
208,129,183836,2,0,P|260:147|271:230,1,113.75,10|0,0:2|0:0,0:0:0:0:
40,153,184067,6,0,B|22:98|22:98|55:33,1,113.75,2|0,1:2|0:0,0:0:0:0:
171,295,184298,2,0,L|39:324,1,113.75,8|2,0:0|3:2,0:0:0:0:
208,129,184529,1,8,0:2:0:0:
340,268,184644,1,8,0:2:0:0:
266,63,184759,1,10,0:2:0:0:
133,207,184875,1,8,0:2:0:0:
405,150,184990,6,0,B|351:96|299:157|299:157|282:222|213:215,1,227.5,6|8,1:2|0:2,0:0:0:0:
334,365,185336,2,0,P|361:323|328:260,1,113.75,0|0,3:2|1:2,0:0:0:0:
208,129,185567,1,0,1:2:0:0:
120,315,185682,2,0,L|269:325,1,113.75,8|0,0:2|0:0,0:0:0:0:
47,123,185913,6,0,B|19:178|19:178|43:234,1,113.75,0|0,1:2|0:0,0:0:0:0:
229,145,186144,1,8,0:2:0:0:
147,20,186259,2,0,L|16:-4,1,113.75,0|0,3:2|1:2,0:0:0:0:
217,235,186490,1,0,1:2:0:0:
314,47,186606,1,10,0:2:0:0:
136,125,186721,1,2,0:0:0:0:
310,214,186836,6,0,B|356:203|371:158|371:158|389:251|460:265,1,227.5,6|8,1:2|0:2,0:0:0:0:
221,116,187182,1,0,3:2:0:0:
121,334,187298,2,0,L|103:206,1,113.75,0|0,1:2|1:2,0:0:0:0:
26,342,187529,1,10,0:2:0:0:
206,244,187644,1,0,0:0:0:0:
13,120,187759,6,0,B|29:94|82:107|95:151|95:151|95:166|95:166|97:202|141:238|200:208,1,227.5,2|8,1:2|0:2,0:0:0:0:
328,131,188106,1,0,1:2:0:0:
214,0,188221,2,0,P|159:17|144:97,1,113.75,2|0,1:2|1:2,0:0:0:0:
333,226,188452,2,0,L|456:197,1,113.75,8|0,0:2|0:0,0:0:0:0:
198,380,188682,6,0,B|224:322|224:322|193:244,1,113.75,4|0,1:2|0:0,0:0:0:0:
0,145,188913,2,0,B|146:114|146:114|91:130|86:182,1,227.5,10|0,0:2|1:2,0:0:0:0:
23,37,189259,1,0,1:2:0:0:
221,150,189375,2,0,P|235:89|191:49,1,113.75,8|0,0:2|0:0,0:0:0:0:
61,301,189606,6,0,B|35:315|-2:301|-2:301|65:378|149:305,1,227.5,0|8,1:2|0:2,0:0:0:0:
311,384,189952,2,0,B|347:343|332:300|309:279|309:279|306:284|306:284|277:248|269:203|314:158,1,227.5,0|0,3:2|1:2,0:0:0:0:
506,240,190298,2,0,B|462:280|462:280|393:266,1,113.75,10|0,0:2|0:0,0:0:0:0:
406,62,190529,6,0,L|426:189,1,113.75,4|0,1:2|0:0,0:0:0:0:
326,27,190759,1,10,0:2:0:0:
490,73,190875,1,2,3:2:0:0:
322,193,190990,2,0,P|265:222|222:197,1,113.75,2|2,1:2|1:2,0:0:0:0:
55,85,191221,1,10,0:2:0:0:
200,19,191336,1,2,0:0:0:0:
145,249,191452,6,0,L|128:118,1,113.75,2|2,1:2|0:0,0:0:0:0:
332,0,191682,2,0,L|315:131,1,113.75,10|2,0:2|1:2,0:0:0:0:
251,293,191913,1,10,0:2:0:0:
422,197,192029,1,10,0:2:0:0:
237,148,192144,1,10,0:2:0:0:
338,284,192259,1,10,0:2:0:0:
484,140,192375,6,0,B|457:121|415:127|402:171|402:171|402:186|402:186|400:222|356:258|297:228,1,227.5,6|8,1:2|0:2,0:0:0:0:
170,69,192721,2,0,B|185:37|163:10|163:10|279:22|234:136,1,227.5,0|0,3:2|1:2,0:0:0:0:
172,301,193067,2,0,P|184:238|244:220,1,113.75,8|0,0:2|0:0,0:0:0:0:
401,383,193298,5,2,1:2:0:0:
272,300,193413,1,0,0:0:0:0:
389,183,193529,2,0,L|370:299,1,113.75,10|2,0:2|3:2,0:0:0:0:
329,113,193759,1,2,1:2:0:0:
474,195,193874,1,2,1:2:0:0:
330,94,193989,1,10,0:2:0:0:
473,214,194105,1,2,0:0:0:0:
356,25,194221,5,6,1:2:0:0:
337,11,194298,1,2,0:0:0:0:
309,12,194375,1,2,0:0:0:0:
287,23,194452,2,0,P|249:64|253:126,1,113.75,8|0,0:2|3:2,0:0:0:0:
379,267,194682,2,0,P|355:210|284:199,1,113.75,0|0,1:2|1:2,0:0:0:0:
125,226,194913,2,0,P|185:233|230:177,1,113.75,10|2,0:2|0:0,0:0:0:0:
44,49,195144,6,0,L|62:169,1,113.75,2|2,1:2|0:0,0:0:0:0:
133,320,195375,1,10,0:2:0:0:
0,241,195490,1,2,1:2:0:0:
139,120,195606,1,2,1:2:0:0:
158,106,195683,1,0,0:0:0:0:
186,107,195760,1,0,0:0:0:0:
208,118,195837,2,0,L|199:232,1,113.75,10|0,0:2|0:0,0:0:0:0:
512,287,196067,6,0,B|485:268|443:274|430:318|430:318|430:333|430:333|428:369|384:405|325:375,1,227.5,4|8,1:2|0:2,0:0:0:0:
280,177,196413,2,0,B|277:209|303:243|347:232|347:232|360:225|360:225|393:208|446:228|449:294,1,227.5,0|0,3:2|1:2,0:0:0:0:
339,363,196759,2,0,P|301:322|318:260,1,113.75,10|0,0:2|0:0,0:0:0:0:
478,147,196990,6,0,P|500:90|461:48,1,113.75,0|0,1:2|0:0,0:0:0:0:
264,73,197221,2,0,B|262:40|212:34|212:34|299:-23|349:67,1,227.5,10|2,0:2|1:2,0:0:0:0:
368,191,197567,1,0,1:2:0:0:
160,271,197682,2,0,P|130:209|160:164,1,113.75,10|2,0:2|0:0,0:0:0:0:
461,348,197913,6,0,B|409:347|385:307|385:307|326:320|342:379,1,170.625,6|0,1:2|0:0,0:0:0:0:
342,377,198144,1,8,0:2:0:0:
461,268,198259,1,2,3:2:0:0:
368,191,198375,2,0,B|320:150|275:179|275:179|250:225|190:207,1,170.625,2|0,1:2|0:0,0:0:0:0:
218,212,198606,2,0,L|232:90,1,113.75,10|0,0:2|0:0,0:0:0:0:
256,328,198836,6,0,P|200:341|151:296,1,113.75,2|0,1:2|0:0,0:0:0:0:
22,108,199067,2,0,P|78:95|127:140,1,113.75,10|2,0:2|1:2,0:0:0:0:
120,302,199298,1,10,0:2:0:0:
223,173,199413,1,8,0:2:0:0:
253,352,199529,1,10,0:2:0:0:
140,211,199644,1,8,0:2:0:0:
88,375,199759,5,2,0:0:0:0:
88,375,199990,6,0,B|122:395|166:359|168:323|168:323|168:308|168:308|181:264|223:258|250:277,1,227.5,14|0,1:2|1:2,0:0:0:0:
409,217,200336,1,0,1:2:0:0:
359,384,200452,2,0,P|327:343|360:272,1,113.75,8|0,0:2|0:0,0:0:0:0:
446,129,200682,6,0,B|476:108|479:68|479:68|552:143|490:229,1,227.5,0|8,1:2|0:2,0:0:0:0:
304,87,201029,2,0,P|339:48|402:59,1,113.75,2|0,3:2|1:2,0:0:0:0:
303,217,201259,1,0,1:2:0:0:
198,12,201375,2,0,L|210:139,1,113.75,8|0,0:2|0:0,0:0:0:0:
49,254,201606,2,0,L|64:139,1,113.75,4|0,1:2|0:0,0:0:0:0:
160,338,201836,6,0,P|212:355|267:321,1,113.75,10|0,0:2|3:2,0:0:0:0:
332,139,202067,2,0,P|291:175|293:240,1,113.75,2|2,1:2|1:2,0:0:0:0:
405,379,202298,2,0,P|393:325|336:294,1,113.75,10|2,0:2|0:0,0:0:0:0:
240,100,202529,5,2,1:2:0:0:
399,219,202644,1,2,0:0:0:0:
358,41,202759,2,0,L|334:165,1,113.75,10|2,0:2|1:2,0:0:0:0:
248,235,202990,1,2,1:2:0:0:
438,132,203106,1,2,1:2:0:0:
274,13,203221,2,0,P|221:-5|164:30,1,113.75,10|0,0:2|0:0,0:0:0:0:
3,188,203452,6,0,B|47:175|69:130|69:130|75:228|176:231,1,227.5,4|10,1:2|0:2,0:0:0:0:
355,265,203798,2,0,B|328:246|286:252|273:296|273:296|273:311|273:311|271:347|227:383|168:353,1,227.5,2|0,3:2|1:2,0:0:0:0:
174,112,204144,2,0,P|231:137|243:193,1,113.75,10|0,0:2|0:0,0:0:0:0:
64,347,204375,6,0,L|60:290,1,56.875,0|0,1:2|3:0,0:0:0:0:
137,246,204490,2,0,L|141:303,1,56.875,0|0,3:0|3:0,0:0:0:0:
52,370,204606,2,0,L|44:257,1,113.75,10|0,0:2|0:0,0:0:0:0:
23,41,204836,6,0,L|18:116,1,56.875,0|0,1:2|3:0,0:0:0:0:
96,136,204952,2,0,L|101:61,1,56.875,0|0,1:2|3:0,0:0:0:0:
6,23,205067,2,0,L|-2:166,1,113.75,10|0,0:2|0:0,0:0:0:0:
206,82,205298,6,0,B|264:111|305:55|305:55|397:53|368:168,1,227.5,6|10,1:2|0:2,0:0:0:0:
230,5,205644,1,0,3:2:0:0:
474,119,205759,2,0,B|440:99|396:135|388:167|388:167|396:177|396:177|369:222|339:236|302:215,1,227.5,2|10,1:2|0:2,0:0:0:0:
467,243,206106,1,2,0:0:0:0:
273,156,206221,6,0,L|294:278,1,113.75,0|0,1:2|0:0,0:0:0:0:
141,362,206452,2,0,L|147:243,1,113.75,8|0,0:2|1:2,0:0:0:0:
81,125,206682,1,10,0:2:0:0:
248,236,206798,1,8,0:2:0:0:
54,315,206913,1,8,0:2:0:0:
54,315,207144,6,0,B|91:271|56:220|34:249|-1:189|29:146,1,175.175005345917,4|0,1:2|0:0,0:0:0:0:
81,89,208067,6,0,B|130:172|53:246|8:194|-75:302|41:386,1,349.44,2|0,0:0|0:0,0:0:0:0:
50,35,214528,5,12,0:2:0:0:
138,65,214990,1,10,0:0:0:0:
108,153,215451,1,10,0:0:0:0:
20,123,215913,1,10,0:0:0:0:
41,360,216374,5,10,0:0:0:0:
129,330,216836,1,10,0:0:0:0:
99,242,217297,1,10,0:0:0:0:
11,272,217759,1,10,0:0:0:0:
460,355,218220,5,14,1:2:0:0:
372,325,218682,1,10,0:0:0:0:
402,237,219143,1,10,0:0:0:0:
490,267,219605,1,10,0:0:0:0:
468,25,220067,5,10,0:0:0:0:
380,55,220529,1,10,0:0:0:0:
410,143,220990,1,10,0:0:0:0:
498,113,221452,1,10,0:0:0:0:
254,14,221913,5,10,0:0:0:0:
254,14,222374,1,10,0:0:0:0:
254,14,222836,5,10,0:0:0:0:
161,141,222951,1,8,0:0:0:0:
308,95,223067,1,8,0:0:0:0:
171,45,223182,1,8,0:0:0:0:
244,167,223297,1,10,0:0:0:0:
244,167,223528,5,8,0:0:0:0:
148,227,223644,1,4,3:0:0:0:
237,312,223759,6,0,L|306:301,1,68.250002603531,6|0,1:2|0:0,0:0:0:0:
425,235,223989,2,0,L|359:221,1,68.250002603531,2|0,0:2|0:0,0:0:0:0:
246,156,224220,1,10,0:2:0:0:
251,170,224297,1,8,0:2:0:0:
257,183,224374,1,8,0:2:0:0:
262,196,224450,1,10,0:2:0:0:
262,196,224682,6,0,P|283:162|263:116,1,68.250002603531,0|0,1:0|0:0,0:0:0:0:
217,11,224912,2,0,P|196:45|216:91,1,68.250002603531,8|0,0:0|0:0,0:0:0:0:
155,198,225143,5,8,0:0:0:0:
72,141,225259,1,8,0:0:0:0:
167,200,225374,1,10,0:0:0:0:
55,142,225489,1,8,0:0:0:0:
83,250,225605,6,0,L|88:324,1,68.250002603531,6|0,1:2|0:0,0:0:0:0:
166,384,225835,2,0,L|183:313,1,68.250002603531,2|4,0:2|3:0,0:0:0:0:
255,251,226066,1,10,0:2:0:0:
269,256,226143,1,8,0:2:0:0:
282,262,226220,1,8,0:2:0:0:
295,267,226296,1,10,0:2:0:0:
297,268,226528,6,0,P|334:284|375:265,1,68.250002603531,0|0,1:0|0:0,0:0:0:0:
486,209,226759,2,0,P|452:196|408:212,1,68.250002603531,8|0,0:0|0:0,0:0:0:0:
320,154,226989,5,8,0:0:0:0:
365,71,227105,1,8,0:0:0:0:
327,164,227220,1,10,0:0:0:0:
353,60,227335,1,8,0:0:0:0:
255,103,227451,6,0,L|187:87,1,68.250002603531,6|0,1:2|0:0,0:0:0:0:
93,15,227682,2,0,L|159:0,1,68.250002603531,2|4,0:2|3:0,0:0:0:0:
44,107,227912,1,10,0:2:0:0:
49,121,227989,1,8,0:2:0:0:
55,134,228066,1,8,0:2:0:0:
60,147,228142,1,10,0:2:0:0:
60,147,228374,6,0,P|45:182|50:220,1,68.250002603531,0|0,1:0|0:0,0:0:0:0:
105,350,228605,2,0,P|122:317|107:278,1,68.250002603531,8|0,0:0|0:0,0:0:0:0:
171,202,228835,5,8,0:0:0:0:
238,260,228951,1,8,0:0:0:0:
168,191,229066,1,10,0:0:0:0:
237,269,229182,1,8,0:0:0:0:
252,159,229297,6,0,L|320:137,1,68.250002603531,6|0,1:2|0:0,0:0:0:0:
418,260,229528,2,0,L|350:238,1,68.250002603531,2|4,0:2|3:0,0:0:0:0:
421,160,229759,1,10,0:2:0:0:
426,146,229836,1,8,0:2:0:0:
432,133,229913,1,8,0:2:0:0:
437,120,229989,1,10,0:2:0:0:
438,120,230220,6,0,P|442:80|420:52,1,68.250002603531,0|0,1:0|0:0,0:0:0:0:
317,0,230451,2,0,P|304:37|331:69,1,68.250002603531,8|0,0:0|0:0,0:0:0:0:
336,177,230682,5,8,0:0:0:0:
253,128,230797,1,8,0:0:0:0:
349,182,230912,1,10,0:0:0:0:
241,132,231027,1,8,0:0:0:0:
260,274,231143,6,0,B|312:302|353:255|326:221|371:171|453:208,1,191.099994168091,6|8,1:2|0:0,0:0:0:0:
450,383,231489,2,0,P|400:367|390:307,1,95.5499970840455,0|0,3:0|1:0,0:0:0:0:
512,162,231720,1,0,1:0:0:0:
512,162,231835,2,0,L|497:278,1,95.5499970840455,10|0,0:0|0:0,0:0:0:0:
395,73,232066,6,0,B|410:51|446:51|446:51|362:5|314:85,1,191.099994168091,0|8,1:2|0:0,0:0:0:0:
220,156,232412,2,0,L|206:50,1,95.5499970840455,0|2,3:0|1:2,0:0:0:0:
193,246,232643,1,0,1:0:0:0:
193,246,232759,2,0,P|249:256|285:222,1,95.5499970840455,8|0,0:0|0:0,0:0:0:0:
107,131,232989,6,0,B|68:157|21:132|21:132|-47:171|4:230,1,191.099994168091,0|8,1:2|0:0,0:0:0:0:
73,335,233335,2,0,P|97:290|77:250,1,95.5499970840455,0|2,3:0|1:2,0:0:0:0:
168,380,233566,1,0,1:0:0:0:
168,380,233682,2,0,L|289:361,1,95.5499970840455,8|0,0:0|0:0,0:0:0:0:
406,320,233912,6,0,B|379:339|374:371|374:371|384:215,1,191.099994168091,2|8,1:2|0:0,0:0:0:0:
495,123,234259,1,0,3:0:0:0:
495,123,234374,2,0,P|491:174|439:198,1,95.5499970840455,2|0,1:2|1:0,0:0:0:0:
300,68,234605,1,8,0:0:0:0:
455,17,234720,1,8,0:0:0:0:
366,158,234835,6,0,B|325:125|285:148|297:169|255:192|216:156,1,154.700002950668,14|0,0:2|1:2,0:0:0:0:
211,149,235182,1,0,1:2:0:0:
140,0,235297,2,0,B|78:24|78:24|105:121,1,154.700002950668,8|0,0:2|1:2,0:0:0:0:
106,123,235643,1,0,1:2:0:0:
6,277,235759,6,0,P|28:215|125:225,1,154.700002950668,8|0,0:2|1:2,0:0:0:0:
118,225,236105,1,0,1:2:0:0:
100,349,236220,2,0,L|255:318,1,154.700002950668,8|2,0:2|1:2,0:0:0:0:
272,332,236566,1,0,1:2:0:0:
427,384,236682,6,0,P|449:327|382:267,1,154.700002950668,10|0,0:2|1:2,0:0:0:0:
369,282,237028,1,0,1:2:0:0:
454,189,237143,2,0,P|432:132|499:72,1,154.700002950668,8|0,0:2|1:2,0:0:0:0:
512,87,237489,1,0,1:2:0:0:
397,13,237605,6,0,L|237:30,1,154.700002950668,8|0,0:2|1:2,0:0:0:0:
233,43,237951,1,0,1:2:0:0:
293,182,238066,2,0,P|316:145|292:101,1,77.3500014753342,10|0,0:2|0:0,0:0:0:0:
225,242,238297,1,10,0:0:0:0:
370,208,238412,1,8,0:0:0:0:
217,138,238528,6,0,L|148:126,1,68.250002603531,6|0,1:2|0:0,0:0:0:0:
48,42,238759,2,0,L|117:30,1,68.250002603531,2|0,0:2|0:0,0:0:0:0:
45,142,238989,1,10,0:2:0:0:
50,156,239066,1,8,0:2:0:0:
56,169,239143,1,8,0:2:0:0:
61,182,239219,1,10,0:2:0:0:
61,182,239451,6,0,P|83:218|82:267,1,68.250002603531,0|0,1:0|0:0,0:0:0:0:
0,354,239682,2,0,P|-6:319|16:285,1,68.250002603531,8|0,0:0|0:0,0:0:0:0:
158,327,239912,5,8,0:0:0:0:
86,374,240028,1,8,0:0:0:0:
171,329,240143,1,10,0:0:0:0:
88,362,240259,1,8,0:0:0:0:
144,242,240374,6,0,L|227:256,1,68.250002603531,6|0,1:2|0:0,0:0:0:0:
255,348,240605,2,0,L|324:329,1,68.250002603531,2|4,0:2|3:0,0:0:0:0:
429,372,240835,1,10,0:2:0:0:
434,358,240912,1,8,0:2:0:0:
440,345,240989,1,8,0:2:0:0:
445,332,241065,1,10,0:2:0:0:
445,332,241297,6,0,P|458:292|436:250,1,68.250002603531,0|0,1:0|0:0,0:0:0:0:
384,131,241528,2,0,P|371:165|387:203,1,68.250002603531,8|0,0:0|0:0,0:0:0:0:
275,241,241759,5,8,0:0:0:0:
348,288,241874,1,8,0:0:0:0:
264,236,241989,1,10,0:0:0:0:
360,288,242105,1,8,0:0:0:0:
276,384,242220,6,0,L|272:301,1,68.250002603531,6|0,1:2|0:0,0:0:0:0:
189,159,242451,2,0,L|178:227,1,68.250002603531,2|4,0:2|3:0,0:0:0:0:
93,293,242682,1,10,0:2:0:0:
79,288,242759,1,8,0:2:0:0:
66,282,242836,1,8,0:2:0:0:
53,277,242912,1,10,0:2:0:0:
53,277,243143,6,0,P|43:237|65:198,1,68.250002603531,0|0,1:0|0:0,0:0:0:0:
0,66,243374,2,0,P|11:103|-12:145,1,68.250002603531,8|0,0:0|0:0,0:0:0:0:
86,24,243605,5,8,0:0:0:0:
178,71,243720,1,8,0:0:0:0:
78,29,243835,1,10,0:0:0:0:
187,63,243951,1,8,0:0:0:0:
100,115,244066,6,0,L|113:184,1,68.250002603531,6|0,1:2|0:0,0:0:0:0:
205,258,244297,2,0,L|220:189,1,68.250002603531,2|4,0:2|3:0,0:0:0:0:
293,99,244528,1,10,0:2:0:0:
307,94,244605,1,8,0:2:0:0:
320,88,244682,1,8,0:2:0:0:
333,83,244758,1,10,0:2:0:0:
334,83,244989,6,0,P|374:73|424:91,1,68.250002603531,0|0,1:0|0:0,0:0:0:0:
512,174,245220,2,0,P|475:189|428:157,1,68.250002603531,8|0,0:0|0:0,0:0:0:0:
309,267,245451,5,8,0:0:0:0:
357,179,245566,1,8,0:0:0:0:
319,283,245682,1,10,0:0:0:0:
351,164,245797,1,8,0:0:0:0:
414,310,245912,6,0,B|369:267|312:304|340:331|292:379|232:330,1,191.099994168091,6|8,1:2|0:0,0:0:0:0:
123,284,246259,2,0,L|144:390,1,95.5499970840455,0|0,3:0|1:0,0:0:0:0:
215,240,246489,1,0,1:0:0:0:
215,240,246605,2,0,P|236:183|205:141,1,95.5499970840455,10|0,0:0|0:0,0:0:0:0:
69,158,246835,6,0,B|53:184|11:180|11:180|75:235|147:179,1,191.099994168091,0|8,1:2|0:0,0:0:0:0:
197,0,247182,2,0,P|151:25|149:72,1,95.5499970840455,0|2,3:0|1:2,0:0:0:0:
222,154,247412,1,0,1:0:0:0:
222,154,247528,2,0,L|320:138,1,95.5499970840455,8|0,0:0|0:0,0:0:0:0:
441,1,247759,6,0,B|398:47|429:88|429:88|473:132|430:185,1,191.099994168091,0|8,1:2|0:0,0:0:0:0:
337,289,248105,1,0,3:0:0:0:
337,289,248220,2,0,P|331:241|371:209,1,95.5499970840455,2|0,1:2|1:0,0:0:0:0:
512,384,248451,2,0,L|397:364,1,95.5499970840455,8|0,0:0|0:0,0:0:0:0:
276,356,248682,6,0,B|218:378|189:326|220:305|176:260|119:285,1,191.099994168091,2|8,1:2|0:0,0:0:0:0:
32,367,249028,1,0,3:0:0:0:
32,367,249143,2,0,P|3:325|33:265,1,95.5499970840455,2|0,1:2|1:0,0:0:0:0:
175,205,249374,1,8,0:0:0:0:
123,361,249489,1,8,0:0:0:0:
67,217,249605,6,0,B|91:176|43:141|35:155|-7:126|14:80,1,154.700002950668,14|0,0:2|1:2,0:0:0:0:
23,76,249951,1,0,1:2:0:0:
241,42,250066,2,0,P|210:116|135:102,1,154.700002950668,8|0,0:2|1:2,0:0:0:0:
136,88,250412,1,0,1:2:0:0:
244,224,250528,6,0,B|322:208|322:208|322:212|322:212|407:192,1,154.700002950668,8|0,0:2|1:2,0:0:0:0:
407,176,250874,1,0,1:2:0:0:
512,0,250989,2,0,B|450:27|450:27|481:124,1,154.700002950668,8|2,0:2|1:2,0:0:0:0:
495,121,251335,1,0,1:2:0:0:
500,326,251451,6,0,L|395:308,1,95.5499970840455,14|0,0:2|0:0,0:0:0:0:
267,113,251682,2,0,L|361:96,1,95.5499970840455,8|0,0:2|0:0,0:0:0:0:
301,382,251912,1,8,0:2:0:0:
196,165,252028,1,8,0:2:0:0:
366,330,252143,1,8,0:2:0:0:
393,101,252259,1,8,0:2:0:0:
224,290,252374,5,2,1:3:0:0:
224,290,252605,6,0,P|173:316|129:299,2,100.10000305481,2|2|2,0:0|0:0|0:0,0:0:0:0:
512,27,253297,6,0,B|496:1|443:14|430:58|430:58|430:73|430:73|428:109|384:145|325:115,1,227.5,6|8,1:2|0:0,0:0:0:0:
489,162,253643,1,0,0:0:0:0:
278,0,253759,2,0,P|238:41|263:117,1,113.75,2|0,1:2|1:0,0:0:0:0:
341,306,253989,2,0,P|385:272|356:189,1,113.75,10|0,0:0|0:0,0:0:0:0:
122,196,254220,6,0,B|92:169|53:172|53:172|109:67|200:149,1,227.5,2|8,1:2|0:0,0:0:0:0:
278,372,254566,2,0,P|220:382|181:340,1,113.75,2|0,1:2|0:0,0:0:0:0:
58,257,254797,1,0,1:0:0:0:
279,160,254912,2,0,L|247:303,1,113.75,10|0,0:0|0:0,0:0:0:0:
49,64,255143,6,0,B|101:61|129:17|129:17|113:111|206:144,1,227.5,2|8,1:2|0:0,0:0:0:0:
346,42,255489,2,0,P|282:34|244:96,1,113.75,2|0,0:0|1:2,0:0:0:0:
338,275,255720,1,0,1:0:0:0:
434,99,255835,2,0,P|461:59|423:-10,1,113.75,10|2,0:0|0:0,0:0:0:0:
366,352,256066,5,0,1:2:0:0:
213,265,256182,1,0,1:2:0:0:
336,161,256297,2,0,L|312:292,1,113.75,10|0,0:0|1:2,0:0:0:0:
264,100,256528,1,2,1:2:0:0:
419,195,256643,1,0,1:2:0:0:
228,377,256759,2,0,L|212:259,1,113.75,10|0,0:0|0:0,0:0:0:0:
0,75,256989,6,0,B|27:52|80:65|93:109|93:109|93:124|93:124|95:160|139:196|198:166,1,227.5,6|8,1:2|0:0,0:0:0:0:
338,64,257335,1,0,0:0:0:0:
207,0,257451,2,0,L|226:131,1,113.75,2|0,1:2|1:0,0:0:0:0:
365,282,257682,2,0,L|381:169,1,113.75,8|0,0:0|0:0,0:0:0:0:
213,379,257912,6,0,B|166:321|242:288|242:288|239:204|161:226,1,227.5,2|8,1:2|0:0,0:0:0:0:
0,288,258258,2,0,B|77:277|67:360|67:360|142:399|160:321,1,227.5,2|0,1:2|1:0,0:0:0:0:
111,168,258604,2,0,P|63:197|67:272,1,113.75,10|0,0:0|0:0,0:0:0:0:
326,123,258835,6,0,P|346:62|306:24,1,113.75,2|0,1:2|0:0,0:0:0:0:
403,195,259066,1,8,0:0:0:0:
226,181,259182,2,0,P|206:120|246:82,1,113.75,2|0,0:0|1:2,0:0:0:0:
155,246,259413,1,2,1:2:0:0:
298,311,259528,2,0,P|330:259|299:204,1,113.75,10|2,0:0|0:0,0:0:0:0:
142,328,259759,6,0,B|162:359|204:357|204:357|120:424|52:334,1,227.5,2|10,1:2|0:0,0:0:0:0:
39,149,260105,1,2,1:2:0:0:
243,75,260220,2,0,B|232:133|232:133|236:131|236:131|220:208,1,113.75,2|2,1:2|1:2,0:0:0:0:
389,277,260451,5,10,0:0:0:0:
419,291,260528,1,8,0:0:0:0:
454,285,260605,1,8,0:0:0:0:
483,272,260682,6,0,B|449:245|418:243|387:276|387:276|390:288|390:288|365:322|321:334|293:306,1,227.5,6|8,1:2|0:0,0:0:0:0:
343,105,261028,2,0,P|408:129|409:205,1,113.75,2|0,0:2|1:2,0:0:0:0:
297,310,261259,1,2,1:2:0:0:
203,132,261374,2,0,L|223:-10,1,113.75,8|2,0:0|0:0,0:0:0:0:
10,290,261605,6,0,B|38:263|83:277|94:315|94:315|94:328|94:328|96:359|142:396|186:352,1,227.5,0|8,1:2|0:0,0:0:0:0:
177,219,261951,2,0,B|148:192|103:206|92:244|92:244|92:257|92:257|90:288|44:325|0:281,1,227.5,0|0,1:2|1:0,0:0:0:0:
49,56,262297,2,0,P|26:110|64:157,1,113.75,10|0,0:2|0:0,0:0:0:0:
300,40,262528,6,0,B|155:0|155:0|197:13|208:62,1,227.5,2|10,1:2|0:0,0:0:0:0:
379,111,262874,2,0,P|414:58|388:6,1,113.75,2|0,0:0|1:2,0:0:0:0:
511,126,263105,1,2,1:2:0:0:
281,196,263220,2,0,B|346:204|346:204|343:200|343:200|424:215,1,113.75,8|2,0:0|0:0,0:0:0:0:
125,130,263451,6,0,B|59:89|111:8|111:8|184:16|166:86,1,227.5,0|8,1:2|0:0,0:0:0:0:
280,195,263797,1,0,1:2:0:0:
104,331,263912,2,0,P|44:348|2:303,1,113.75,2|0,1:2|1:2,0:0:0:0:
205,138,264143,1,10,0:0:0:0:
283,339,264259,1,8,0:0:0:0:
81,238,264374,6,0,B|119:209|160:247|152:256|178:297|226:277,1,154.700002950668,14|0,0:2|1:2,0:0:0:0:
227,263,264720,1,0,1:2:0:0:
346,79,264835,2,0,B|292:113|292:113|326:233,1,154.700002950668,8|0,0:2|1:2,0:0:0:0:
328,212,265182,1,0,1:2:0:0:
511,368,265297,6,0,P|501:298|408:292,1,154.700002950668,8|2,0:2|1:2,0:0:0:0:
416,298,265643,1,0,1:2:0:0:
263,365,265759,2,0,P|314:380|359:350,1,95.5499970840455,10|0,0:2|1:2,0:0:0:0:
160,185,265989,2,0,P|117:166|73:181,1,95.5499970840455,10|8,0:2|0:0,0:0:0:0:
342,77,266220,6,0,L|321:217,1,122.850000468636,14|0,0:2|1:0,0:0:0:0:
152,384,266451,2,0,L|131:244,1,122.850000468636,8|0,0:2|1:0,0:0:0:0:
112,48,266682,1,8,0:2:0:0:
283,184,266797,1,0,1:0:0:0:
59,114,266913,1,8,0:2:0:0:
250,22,267028,1,0,1:0:0:0:
0,60,267144,6,0,L|127:80,1,122.850000468636,8|0,0:2|1:0,0:0:0:0:
347,3,267374,1,4,3:0:0:0:
361,27,267451,1,4,3:0:0:0:
359,47,267528,1,4,3:0:0:0:
348,67,267605,2,0,L|359:196,1,122.850000468636,10|0,3:2|0:0,0:0:0:0:
305,358,267835,1,10,0:0:0:0:
496,248,267951,1,8,0:0:0:0:
252,161,268066,6,0,B|223:134|178:148|167:186|167:186|167:199|167:199|165:230|119:267|71:225,1,227.5,6|8,1:2|0:0,0:0:0:0:
201,55,268412,1,0,0:0:0:0:
367,243,268528,2,0,L|388:118,1,113.75,2|0,1:2|1:0,0:0:0:0:
176,272,268759,2,0,L|194:384,1,113.75,10|0,0:0|0:0,0:0:0:0:
130,85,268989,6,0,B|104:52|62:67|62:67|132:5|209:60,1,227.5,2|8,1:2|0:0,0:0:0:0:
81,255,269335,2,0,P|48:205|74:147,1,113.75,2|0,1:2|0:0,0:0:0:0:
265,254,269566,1,0,1:0:0:0:
109,369,269681,2,0,L|-18:334,1,113.75,10|0,0:0|0:0,0:0:0:0:
239,160,269912,6,0,B|287:148|302:103|302:103|303:202|389:209,1,227.5,2|8,1:2|0:0,0:0:0:0:
501,24,270259,2,0,P|436:34|419:103,1,113.75,2|0,0:0|1:2,0:0:0:0:
373,206,270489,1,0,1:0:0:0:
512,242,270605,2,0,P|533:190|469:139,1,113.75,10|2,0:0|0:0,0:0:0:0:
279,378,270835,5,0,1:2:0:0:
466,318,270951,1,0,1:2:0:0:
373,206,271066,2,0,L|351:325,1,113.75,10|0,0:0|1:2,0:0:0:0:
432,123,271297,1,2,1:2:0:0:
267,202,271412,1,0,1:2:0:0:
459,377,271528,2,0,L|448:260,1,113.75,10|0,0:0|0:0,0:0:0:0:
313,92,271759,6,0,B|261:109|227:60|227:60|138:89|182:162,1,227.5,6|8,1:2|0:0,0:0:0:0:
299,11,272105,1,0,0:0:0:0:
411,155,272220,2,0,P|443:108|399:49,1,113.75,2|0,1:2|1:0,0:0:0:0:
249,242,272451,2,0,P|217:289|261:348,1,113.75,10|0,0:0|0:0,0:0:0:0:
512,285,272682,6,0,B|483:258|438:272|427:310|427:310|427:323|427:323|425:354|379:391|335:347,1,227.5,2|8,1:2|0:0,0:0:0:0:
345,243,273028,2,0,B|373:216|418:230|429:268|429:268|429:281|429:281|431:312|477:349|521:305,1,227.5,2|0,1:2|1:0,0:0:0:0:
427,123,273374,2,0,B|451:180|451:180|424:231,1,113.75,10|0,0:0|0:0,0:0:0:0:
284,56,273605,6,0,P|235:20|178:39,1,113.75,2|0,1:2|0:0,0:0:0:0:
358,16,273835,1,8,0:0:0:0:
215,191,273951,2,0,P|162:215|116:182,1,113.75,2|0,0:0|1:2,0:0:0:0:
288,250,274182,1,0,1:0:0:0:
162,122,274297,2,0,P|108:91|49:122,1,113.75,10|2,0:0|0:0,0:0:0:0:
31,368,274528,6,0,B|2:336|-29:337|-29:337|37:241|128:333,1,227.5,2|10,1:2|0:0,0:0:0:0:
33,195,274874,1,2,1:2:0:0:
186,365,274989,2,0,P|209:312|170:262,1,113.75,2|2,1:2|1:2,0:0:0:0:
50,68,275220,5,10,0:0:0:0:
70,43,275297,1,8,0:0:0:0:
98,35,275374,1,8,0:0:0:0:
122,39,275451,6,0,B|150:12|195:26|206:64|206:64|206:77|206:77|208:108|254:145|298:101,1,227.5,6|8,1:2|0:0,0:0:0:0:
453,193,275797,1,2,0:2:0:0:
401,0,275912,2,0,L|374:114,1,113.75,0|2,1:2|1:2,0:0:0:0:
226,280,276143,2,0,P|230:225|287:200,1,113.75,8|2,0:0|0:0,0:0:0:0:
440,339,276374,6,0,B|507:317|507:317|334:273,1,227.5,0|8,1:2|0:0,0:0:0:0:
182,354,276720,2,0,P|237:375|285:339,1,113.75,0|0,1:2|0:0,0:0:0:0:
187,144,276951,1,0,1:0:0:0:
52,273,277066,2,0,L|75:401,1,113.75,10|2,0:2|0:0,0:0:0:0:
308,64,277297,6,0,B|259:83|229:29|229:29|246:124|162:155,1,227.5,2|10,1:2|0:0,0:0:0:0:
16,49,277643,2,0,P|71:37|108:80,1,113.75,2|0,0:0|1:2,0:0:0:0:
211,222,277874,1,2,1:2:0:0:
19,255,277989,2,0,L|40:133,1,113.75,8|2,0:0|0:0,0:0:0:0:
159,302,278220,6,0,B|207:347|266:300|266:300|341:333|305:396,1,227.5,0|8,1:2|0:0,0:0:0:0:
408,219,278566,1,0,1:2:0:0:
237,125,278682,2,0,P|202:166|225:238,1,113.75,2|0,1:2|1:2,0:0:0:0:
325,45,278912,1,8,0:0:0:0:
133,101,279028,1,0,0:0:0:0:
317,201,279143,6,0,B|360:222|396:183|374:159|412:124|475:153,1,154.700002950668,14|0,0:2|1:2,0:0:0:0:
475,160,279489,1,2,1:2:0:0:
512,384,279605,2,0,P|440:361|448:286,1,154.700002950668,10|2,0:2|1:2,0:0:0:0:
472,281,279951,1,2,1:2:0:0:
348,353,280066,6,0,L|191:320,1,154.700002950668,10|2,0:2|1:2,0:0:0:0:
175,341,280412,1,2,1:2:0:0:
19,375,280528,2,0,P|51:341|40:293,1,77.3500014753342,10|0,0:2|1:2,0:0:0:0:
132,68,280759,1,10,0:2:0:0:
33,209,280874,1,8,0:2:0:0:
201,151,280989,5,14,0:2:0:0:
256,192,281047,12,0,282720,0:0:0:0:
53,43,282835,5,8,0:0:0:0:
56,55,282912,2,0,B|50:88|50:88|46:87|46:87|39:117,1,63.6999980560303,4|4,0:3|0:3,0:0:0:0:
62,187,283066,5,8,0:0:0:0:
74,184,283143,2,0,B|107:190|107:190|106:194|106:194|136:201,1,63.6999980560303,4|4,0:3|0:3,0:0:0:0:
204,168,283297,5,8,0:2:0:0:
201,156,283374,2,0,B|207:123|207:123|211:124|211:124|218:94,1,63.6999980560303,4|4,0:3|0:3,0:0:0:0:
194,22,283528,5,8,0:2:0:0:
182,25,283605,2,0,B|149:19|149:19|150:15|150:15|120:8,1,63.6999980560303,4|4,0:3|0:3,0:0:0:0:
130,109,283759,5,10,0:0:0:0:
130,109,283989,6,0,B|180:119|180:119|181:123|181:123|246:132,1,100.10000305481,2|2,0:0|0:0,0:0:0:0:
365,63,284451,2,0,L|377:28,2,33.3666676849366,10|10|10,0:2|0:2|0:2,0:0:0:0:
414,122,284682,6,0,L|383:244,1,113.75,14|0,0:2|1:0,0:0:0:0:
228,384,284912,2,0,L|208:273,1,113.75,8|0,0:2|1:0,0:0:0:0:
0,90,285143,2,0,B|36:53|78:88|78:88|101:138|155:117,1,170.625,10|0,0:2|0:0,0:0:0:0:
144,120,285374,2,0,P|169:61|127:9,1,113.75,8|0,0:2|1:0,0:0:0:0:
100,306,285605,6,0,B|69:280|37:291|37:291|90:195|199:280,1,227.5,10|8,0:2|0:2,0:0:0:0:
351,382,285951,1,2,1:2:0:0:
308,127,286066,2,0,P|272:172|291:242,1,113.75,8|0,0:2|1:2,0:0:0:0:
485,107,286297,2,0,P|509:51|474:-9,1,113.75,10|0,0:2|1:2,0:0:0:0:
246,73,286528,5,14,0:2:0:0:
383,201,286643,1,0,1:2:0:0:
331,22,286759,5,10,0:2:0:0:
218,164,286874,1,2,1:2:0:0:
377,116,286989,5,8,0:2:0:0:
207,1,287105,1,2,1:2:0:0:
293,209,287220,5,8,0:2:0:0:
414,48,287335,1,2,1:2:0:0:
218,164,287451,6,0,B|169:202|103:144|103:144|171:126,1,170.625,8|0,0:2|0:0,0:0:0:0:
144,133,287682,2,0,B|126:192|126:192|130:191|130:191|112:247,1,113.75,10|0,0:2|1:2,0:2:0:0:
350,119,287912,2,0,B|307:73|307:73|306:77|306:77|266:34,1,113.75,8|0,0:2|1:2,0:0:0:0:
225,337,288143,2,0,B|285:322|285:322|282:320|282:320|339:306,1,113.75,10|0,0:2|1:2,0:2:0:0:
512,118,288374,6,0,B|496:92|443:105|430:149|430:149|430:164|430:164|428:200|384:236|325:206,1,227.5,14|8,0:2|0:2,0:0:0:0:
474,254,288720,1,0,1:2:0:0:
406,22,288835,2,0,P|379:72|425:136,1,113.75,10|0,0:2|1:2,0:0:0:0:
225,337,289066,2,0,P|252:287|206:223,1,113.75,8|0,0:2|1:2,0:0:0:0:
21,89,289297,6,0,B|71:77|71:77|129:127|129:127|198:113,1,170.625,10|0,0:2|0:0,0:0:0:0:
170,118,289528,2,0,L|194:5,1,113.75,8|2,0:2|1:2,0:0:0:0:
274,234,289759,1,8,0:2:0:0:
54,180,289874,1,0,1:2:0:0:
186,373,289989,2,0,L|171:258,1,113.75,10|0,0:2|1:2,0:0:0:0:
328,52,290220,6,0,B|338:108|338:108|335:108|335:108|349:187,1,113.75,14|0,0:2|1:2,0:0:0:0:
442,17,290451,1,8,0:2:0:0:
256,141,290566,2,0,B|248:199|248:199|252:196|252:196|243:260,1,113.75,2|10,1:2|0:2,0:0:0:0:
149,99,290797,1,0,1:2:0:0:
337,245,290912,2,0,B|342:301|342:301|344:298|344:298|350:364,1,113.75,10|0,0:2|1:2,0:0:0:0:
487,146,291143,6,0,P|431:122|384:153,1,113.75,10|2,0:2|1:2,0:0:0:0:
211,358,291374,2,0,P|267:382|314:351,1,113.75,10|10,0:0|0:2,0:0:0:0:
290,80,291605,1,10,0:2:0:0:
422,275,291720,1,10,0:2:0:0:
387,26,291835,1,10,0:2:0:0:
289,212,291951,1,10,0:2:0:0:
203,64,292066,6,0,B|171:40|187:4|187:4|80:32|148:148,1,227.5,6|8,1:2|0:0,0:0:0:0:
0,244,292412,2,0,B|29:209|82:222|95:266|95:266|95:281|95:281|97:317|141:353|200:323,1,227.5,2|2,3:2|1:2,0:0:0:0:
308,237,292759,2,0,P|279:194|205:201,1,113.75,8|2,0:0|0:0,0:0:0:0:
451,384,292989,6,0,B|380:349|380:349|434:202,2,227.5,0|8|0,1:2|0:0|0:0,0:0:0:0:
308,237,293566,1,0,1:0:0:0:
501,150,293682,2,0,P|456:112|389:132,1,113.75,10|0,0:2|0:0,0:0:0:0:
166,54,293912,6,0,B|189:5|130:-8|130:-8|40:52|129:130,1,227.5,2|10,1:2|0:0,0:0:0:0:
18,231,294259,2,0,B|77:261|117:217|117:217|194:233|160:319,1,227.5,2|2,0:0|1:2,0:0:0:0:
307,133,294605,2,0,P|244:132|207:181,1,113.75,8|2,0:0|0:0,0:0:0:0:
500,319,294835,6,0,B|448:336|417:307|411:284|411:284|413:270|413:270|397:238|359:204|301:257,1,227.5,0|8,1:2|0:0,0:0:0:0:
390,384,295182,1,0,1:2:0:0:
448,136,295297,2,0,L|413:253,1,113.75,2|0,1:2|1:2,0:0:0:0:
261,384,295528,2,0,L|246:260,1,113.75,10|8,0:0|0:2,0:0:0:0:
137,63,295759,6,0,P|68:54|34:136,1,154.700002950668,14|0,0:2|1:2,0:0:0:0:
39,145,296105,1,0,1:2:0:0:
209,26,296220,2,0,P|278:17|312:99,1,154.700002950668,8|0,0:2|1:2,0:0:0:0:
307,108,296566,1,0,1:2:0:0:
174,230,296682,6,0,B|128:194|87:228|104:246|66:269|10:247,1,154.700002950668,8|2,0:2|1:2,0:0:0:0:
19,237,297028,1,0,1:2:0:0:
244,361,297143,2,0,L|261:206,1,154.700002950668,10|10,0:2|0:2,0:0:0:0:
276,193,297489,1,8,0:2:0:0:
157,47,297605,6,0,P|106:10|46:32,1,122.850000468636,14|0,0:2|1:0,0:0:0:0:
238,274,297835,2,0,P|295:288|342:252,1,122.850000468636,8|0,0:2|1:0,0:0:0:0:
79,147,298066,1,8,0:2:0:0:
185,339,298182,1,0,1:0:0:0:
257,94,298297,1,8,0:2:0:0:
110,273,298412,1,0,1:0:0:0:
190,3,298528,6,0,L|215:142,1,122.850000468636,8|0,0:2|1:0,0:0:0:0:
415,234,298759,1,6,3:0:0:0:
416,215,298835,1,4,3:0:0:0:
405,197,298912,1,4,3:0:0:0:
388,183,298989,2,0,P|325:167|262:211,1,122.850000468636,10|0,0:2|0:0,0:0:0:0:
360,343,299220,1,10,0:0:0:0:
511,152,299335,1,8,0:0:0:0:
361,360,299451,5,6,1:2:0:0:
0,113,300374,6,0,B|16:87|69:100|82:144|82:144|82:159|82:159|84:195|128:231|194:199,1,227.5,2|0,1:2|0:0,0:0:0:0:
242,5,300720,2,0,B|256:31|218:71|174:60|174:60|161:53|161:53|128:36|75:56|70:130,1,227.5,2|0,1:2|0:0,0:0:0:0:
202,192,301066,2,0,P|232:142|186:74,1,113.75,2|0,1:2|0:0,0:0:0:0:
34,259,301297,5,6,1:2:0:0:
371,296,302220,6,0,P|406:251|485:260,1,104.65000199604,2|0,1:2|1:2,0:0:0:0:
404,373,302451,1,8,0:0:0:0:
279,232,302566,2,0,P|231:192|184:207,1,104.65000199604,2|0,1:2|0:0,0:0:0:0:
239,306,302797,1,0,1:2:0:0:
331,138,302912,2,0,P|379:98|426:113,1,104.65000199604,10|0,0:0|0:0,0:0:0:0:
188,44,303143,5,6,1:2:0:0:
41,290,304066,6,0,B|106:298|106:298|142:376|142:376|223:388,1,209.300003992081,2|0,1:2|1:2,0:0:0:0:
200,196,304412,2,0,B|135:204|135:204|99:282|99:282|18:294,1,209.300003992081,2|0,1:2|1:2,0:0:0:0:
74,98,304759,2,0,L|106:218,1,104.65000199604,10|8,0:0|0:0,0:0:0:0:
202,30,304989,6,0,B|333:6|333:6|276:17|268:64,1,209.300003992081,6|10,1:2|0:0,0:0:0:0:
496,137,305335,1,2,1:2:0:0:
318,234,305451,2,0,L|334:102,1,104.65000199604,8|0,0:0|1:2,0:0:0:0:
500,271,305682,2,0,L|512:374,1,104.65000199604,10|0,0:0|1:2,0:0:0:0:
310,356,305912,6,0,P|262:376|210:352,1,104.65000199604,10|0,0:0|1:2,0:0:0:0:
18,181,306143,2,0,P|66:161|118:185,1,104.65000199604,10|10,0:0|0:0,0:0:0:0:
166,360,306374,1,10,0:0:0:0:
236,173,306489,1,10,0:0:0:0:
109,300,306605,1,10,0:0:0:0:
68,86,306720,1,10,0:0:0:0:
224,300,306835,6,0,B|240:326|293:313|306:269|306:269|306:254|306:254|308:218|352:182|411:212,1,227.5,6|8,1:2|0:0,0:0:0:0:
276,8,307182,2,0,B|199:30|199:30|247:217,1,227.5,2|2,3:2|1:2,0:0:0:0:
462,126,307528,2,0,B|438:69|438:69|359:65,1,113.75,8|2,0:0|0:0,0:0:0:0:
357,352,307759,6,0,P|395:256|504:283,1,227.5,0|8,1:2|0:0,0:0:0:0:
450,376,308105,1,0,1:2:0:0:
292,234,308220,2,0,P|244:187|189:202,1,113.75,0|0,0:0|1:0,0:0:0:0:
150,330,308451,2,0,P|198:377|253:362,1,113.75,10|0,0:2|0:0,0:0:0:0:
104,90,308682,6,0,B|119:38|65:26|65:26|-10:82|59:154,1,227.5,2|10,1:2|0:0,0:0:0:0:
306,87,309028,2,0,P|255:54|202:80,1,113.75,2|0,0:0|1:2,0:0:0:0:
46,179,309259,1,2,1:2:0:0:
229,262,309374,2,0,L|250:108,1,113.75,8|2,0:0|0:0,0:0:0:0:
512,272,309605,6,0,B|481:253|443:259|430:303|430:303|430:318|430:318|428:354|384:390|325:360,1,227.5,0|8,1:2|0:0,0:0:0:0:
123,220,309951,1,0,1:2:0:0:
306,87,310066,2,0,P|355:128|344:207,1,113.75,2|0,1:2|1:2,0:0:0:0:
214,0,310297,1,10,0:0:0:0:
447,94,310412,1,8,0:0:0:0:
247,200,310528,6,0,B|196:216|171:171|194:159|157:117|98:142,1,154.700002950668,14|0,0:2|1:2,0:0:0:0:
99,122,310874,1,2,1:2:0:0:
0,30,310989,2,0,L|28:196,1,154.700002950668,10|2,0:2|1:2,0:0:0:0:
8,204,311335,1,0,1:2:0:0:
70,368,311451,6,0,P|89:302|175:314,1,154.700002950668,10|2,0:2|1:2,0:0:0:0:
167,326,311797,1,2,1:2:0:0:
323,378,311912,2,0,L|305:278,1,77.3500014753342,10|0,0:2|1:2,0:0:0:0:
222,120,312143,1,10,1:2:0:0:
376,233,312259,1,8,0:0:0:0:
151,220,312374,5,14,0:2:0:0:
256,192,312432,12,0,314105,0:0:0:0:
457,48,314220,6,0,B|441:27|448:-8|448:-8|404:-1|343:44|410:116,1,209.300003992081,4|8,1:2|0:2,0:0:0:0:
512,243,314566,2,0,B|463:199|416:249|416:249|399:318|327:302,1,209.300003992081,0|0,1:2|1:2,0:0:0:0:
223,168,314912,2,0,P|249:123|318:125,1,104.65000199604,8|0,0:2|0:0,0:0:0:0:
214,382,315143,6,0,L|95:351,1,104.65000199604,2|0,1:2|0:0,0:0:0:0:
304,213,315374,1,8,0:2:0:0:
111,30,315489,2,0,B|169:70|131:125|131:125|58:150|101:242,1,209.300003992081,0|0,1:2|1:2,0:0:0:0:
0,363,315835,2,0,P|2:305|57:276,1,104.65000199604,8|0,0:2|0:0,0:0:0:0:
349,347,316066,6,0,B|324:365|288:357|267:326|267:326|267:314|267:314|254:280|218:261|181:291,1,209.300003992081,2|8,1:2|0:0,0:0:0:0:
342,261,316412,2,0,B|383:129|383:129|370:179|325:177,1,209.300003992081,0|0,1:2|1:0,0:0:0:0:
252,0,316759,2,0,P|252:41|312:79,1,104.65000199604,8|0,0:0|0:0,0:0:0:0:
509,3,316989,6,0,L|397:23,1,104.65000199604,2|0,1:2|0:0,0:0:0:0:
233,158,317220,2,0,L|336:176,1,104.65000199604,8|0,0:0|1:0,0:0:0:0:
509,262,317451,1,0,0:2:0:0:
416,101,317566,1,0,1:0:0:0:
263,291,317682,2,0,L|366:272,1,104.65000199604,8|0,0:0|0:0,0:0:0:0:
221,25,317912,6,0,B|180:74|248:111|248:111|241:182|167:173,1,209.300003992081,4|8,1:2|0:2,0:0:0:0:
10,110,318258,2,0,B|75:118|73:39|73:39|148:0|168:75,1,209.300003992081,0|0,1:2|1:2,0:0:0:0:
143,188,318604,2,0,P|90:165|96:100,1,104.65000199604,8|0,0:2|0:0,0:0:0:0:
304,44,318835,6,0,L|431:62,1,104.65000199604,2|0,1:2|0:0,0:0:0:0:
512,184,319066,1,8,0:2:0:0:
329,305,319182,2,0,B|401:273|401:273|355:143,1,209.300003992081,0|0,1:2|1:2,0:0:0:0:
186,332,319528,2,0,P|220:372|285:354,1,104.65000199604,8|0,0:2|0:0,0:0:0:0:
23,131,319759,6,0,B|50:112|87:118|103:166|103:166|100:177|100:177|102:213|146:249|194:221,1,209.300003992081,2|8,1:2|0:0,0:0:0:0:
322,58,320105,2,0,B|299:23|314:4|314:4|199:46|289:142,1,209.300003992081,0|0,1:2|1:0,0:0:0:0:
472,230,320451,2,0,P|454:182|387:171,1,104.65000199604,8|0,0:0|0:0,0:0:0:0:
314,365,320682,6,0,L|431:333,1,104.65000199604,2|10,1:2|0:0,0:0:0:0:
195,160,320912,2,0,L|78:128,1,104.65000199604,10|2,0:0|1:2,0:0:0:0:
220,331,321143,1,10,0:0:0:0:
364,194,321259,1,10,0:0:0:0:
167,81,321374,1,10,0:0:0:0:
298,261,321489,1,10,0:0:0:0:
453,66,321605,6,0,B|498:31|498:31|336:68,1,209.300003992081,6|8,1:2|0:0,0:0:0:0:
145,180,321951,2,0,B|172:161|209:167|225:215|225:215|222:226|222:226|224:262|268:298|316:270,1,209.300003992081,0|0,1:0|1:2,0:0:0:0:
490,373,322297,2,0,P|513:322|471:276,1,104.65000199604,8|0,0:0|0:0,0:0:0:0:
275,94,322528,6,0,L|250:213,1,104.65000199604,0|0,1:2|0:0,0:0:0:0:
71,121,322759,1,8,0:0:0:0:
291,7,322874,2,0,L|321:234,1,209.300003992081,0|0,1:0|1:2,0:0:0:0:
392,4,323220,1,10,0:0:0:0:
165,97,323335,1,2,0:0:0:0:
461,227,323451,6,0,B|478:197|516:193|516:193|446:106|367:216,1,209.300003992081,2|8,1:2|0:0,0:0:0:0:
245,374,323797,2,0,B|263:307|329:330|329:330|350:410|442:370,1,209.300003992081,0|0,1:0|1:2,0:0:0:0:
258,139,324143,2,0,P|232:180|258:246,1,104.65000199604,8|0,0:0|0:0,0:0:0:0:
512,63,324374,6,0,B|461:67|438:17|438:17|427:120|354:115,1,209.300003992081,0|8,1:2|0:0,0:0:0:0:
176,49,324720,2,0,B|315:10|315:10|273:22|269:83,1,209.300003992081,0|0,1:2|1:2,0:0:0:0:
102,229,325066,1,10,0:0:0:0:
20,40,325182,1,2,0:0:0:0:
231,122,325297,6,0,B|293:157|293:157|237:319,1,209.300003992081,2|8,1:2|0:0,0:0:0:0:
76,345,325643,2,0,B|64:313|19:304|19:304|101:232|153:332,1,209.300003992081,0|0,1:0|1:2,0:0:0:0:
314,364,325989,2,0,P|260:378|211:336,1,104.65000199604,8|0,0:0|0:0,0:0:0:0:
16,83,326220,6,0,B|43:60|85:70|98:114|98:114|98:129|98:129|100:165|144:201|203:171,1,209.300003992081,0|8,1:2|0:0,0:0:0:0:
262,26,326566,2,0,P|166:1|128:111,1,209.300003992081,0|0,1:0|1:2,0:0:0:0:
250,222,326912,2,0,P|268:167|228:116,1,104.65000199604,8|0,0:0|0:0,0:0:0:0:
126,288,327143,6,0,B|72:256|26:293|26:293|-29:250|14:197,1,209.300003992081,2|8,1:2|0:0,0:0:0:0:
178,359,327489,2,0,B|220:344|223:297|223:297|240:387|314:379,1,209.300003992081,0|0,1:0|1:2,0:0:0:0:
388,190,327835,2,0,P|335:211|323:268,1,104.65000199604,8|0,0:0|0:0,0:0:0:0:
511,378,328066,6,0,L|491:267,1,104.65000199604,2|0,1:2|1:2,0:0:0:0:
383,52,328297,2,0,L|364:154,1,104.65000199604,8|0,0:0|1:0,0:0:0:0:
284,19,328528,1,8,0:0:0:0:
488,153,328643,1,8,0:0:0:0:
270,187,328759,1,8,0:0:0:0:
481,62,328874,1,8,0:0:0:0:
300,315,328989,6,0,B|284:336|291:371|291:371|247:364|186:319|253:247,1,209.300003992081,4|8,1:2|0:2,0:0:0:0:
334,136,329335,2,0,B|283:178|245:135|245:135|221:61|152:77,1,209.300003992081,0|0,1:2|1:2,0:0:0:0:
42,259,329681,2,0,B|85:225|85:225|76:167,1,104.65000199604,8|0,0:2|0:0,0:0:0:0:
1,0,329912,6,0,L|110:21,1,104.65000199604,2|0,1:2|0:0,0:0:0:0:
158,155,330143,1,8,0:2:0:0:
0,322,330258,2,0,B|32:309|44:263|16:235|16:235|4:228|4:228|-21:212|-33:156|28:129,1,209.300003992081,0|0,1:2|1:2,0:0:0:0:
197,338,330605,2,0,P|155:372|94:345,1,104.65000199604,8|0,0:2|0:0,0:0:0:0:
233,234,330835,6,0,B|240:173|309:191|309:191|337:255|396:230,1,209.300003992081,2|8,1:2|0:0,0:0:0:0:
463,71,331181,2,0,B|440:57|431:21|431:21|343:65|393:153,1,209.300003992081,0|0,1:2|1:0,0:0:0:0:
498,257,331528,2,0,P|508:204|460:170,1,104.65000199604,8|0,0:0|0:0,0:0:0:0:
420,352,331758,6,0,B|361:364|361:364|310:330,1,104.65000199604,2|0,1:2|0:0,0:0:0:0:
199,118,331989,2,0,B|252:106|252:106|309:140,1,104.65000199604,8|0,0:0|1:0,0:0:0:0:
141,359,332220,1,0,0:0:0:0:
102,291,332335,1,0,1:0:0:0:
233,234,332451,2,0,L|221:351,1,104.65000199604,8|0,0:0|0:0,0:0:0:0:
0,126,332681,6,0,B|54:152|96:115|96:115|149:164|108:213,1,209.300003992081,4|8,1:2|0:2,0:0:0:0:
59,354,333028,2,0,B|31:343|-3:355|-3:355|22:238|143:313,1,209.300003992081,0|0,1:2|1:2,0:0:0:0:
310,367,333374,2,0,P|253:370|218:326,1,104.65000199604,8|0,0:2|0:0,0:0:0:0:
422,269,333605,6,0,L|441:386,1,104.65000199604,2|0,1:2|0:0,0:0:0:0:
296,280,333835,1,8,0:2:0:0:
443,167,333951,2,0,B|383:144|347:204|347:204|273:196|285:139,1,209.300003992081,0|0,1:2|1:2,0:0:0:0:
307,0,334297,2,0,P|349:32|337:81,1,104.65000199604,8|0,0:2|0:0,0:0:0:0:
146,108,334528,6,0,B|118:88|81:91|81:91|240:41,1,209.300003992081,2|8,1:2|0:0,0:0:0:0:
283,149,334874,1,0,1:2:0:0:
132,261,334989,2,0,P|90:228|108:168,1,104.65000199604,2|0,0:0|1:0,0:0:0:0:
301,282,335220,2,0,L|280:391,1,104.65000199604,8|0,0:0|0:0,0:0:0:0:
396,273,335451,5,10,1:2:0:0:
251,170,335566,1,10,0:0:0:0:
369,72,335682,2,0,P|398:115|366:189,1,104.65000199604,10|2,0:0|1:2,0:0:0:0:
269,297,335912,5,10,0:0:0:0:
488,235,336028,1,10,0:0:0:0:
282,87,336143,1,10,0:0:0:0:
353,342,336259,1,10,0:0:0:0:
497,123,336374,6,0,B|473:104|428:110|415:154|415:154|415:169|415:169|413:205|369:241|310:211,1,209.300003992081,6|8,1:2|0:0,0:0:0:0:
187,58,336720,2,0,B|210:24|196:-1|196:-1|291:23|254:130,1,209.300003992081,0|0,1:0|1:2,0:0:0:0:
199,303,337066,2,0,P|211:237|254:217,1,104.65000199604,8|0,0:0|0:0,0:0:0:0:
468,329,337297,6,0,B|485:356|521:369|521:369|350:328,1,209.300003992081,0|8,1:2|0:0,0:0:0:0:
348,84,337643,2,0,B|424:57|424:57|387:196,1,209.300003992081,0|0,1:0|1:2,0:0:0:0:
286,340,337989,1,10,0:0:0:0:
490,239,338105,1,2,0:0:0:0:
266,44,338220,6,0,B|242:25|197:31|184:75|184:75|184:90|184:90|182:126|138:162|79:132,1,209.300003992081,2|8,1:2|0:0,0:0:0:0:
0,0,338566,2,0,L|39:231,1,209.300003992081,0|0,1:0|1:2,0:0:0:0:
153,318,338912,2,0,P|175:268|133:226,1,104.65000199604,8|0,0:0|0:0,0:0:0:0:
41,372,339143,6,0,L|278:335,1,209.300003992081,2|8,1:2|0:0,0:0:0:0:
361,125,339489,2,0,L|337:256,1,104.65000199604,2|0,1:2|0:0,0:0:0:0:
478,75,339720,1,0,1:2:0:0:
252,16,339835,2,0,L|264:120,1,104.65000199604,10|0,0:0|0:0,0:0:0:0:
512,209,340066,6,0,B|487:191|451:199|430:230|430:230|430:242|430:242|417:276|381:295|344:265,1,209.300003992081,2|8,1:2|0:0,0:0:0:0:
174,192,340412,2,0,B|306:151|306:151|256:164|258:209,1,209.300003992081,0|0,1:0|1:2,0:0:0:0:
283,373,340758,2,0,P|247:339|279:276,1,104.65000199604,8|0,0:0|0:0,0:0:0:0:
512,384,340989,6,0,L|395:361,1,104.65000199604,0|0,1:2|0:0,0:0:0:0:
346,261,341220,1,8,0:0:0:0:
468,113,341335,2,0,B|497:95|503:70|503:70|561:125|545:184|495:214,1,209.300003992081,0|0,1:0|1:2,0:0:0:0:
321,54,341682,2,0,P|367:23|434:44,1,104.65000199604,10|2,0:0|0:0,0:0:0:0:
257,233,341912,6,0,B|211:228|192:184|192:184|184:271|97:292,1,209.300003992081,2|8,1:2|0:0,0:0:0:0:
23,32,342259,2,0,P|98:6|156:117,1,209.300003992081,0|0,1:0|1:2,0:0:0:0:
0,265,342605,2,0,P|-2:210|67:183,1,104.65000199604,8|0,0:0|0:0,0:0:0:0:
217,365,342835,6,0,L|106:345,1,104.65000199604,2|0,1:2|1:2,0:0:0:0:
295,130,343066,2,0,L|406:110,1,104.65000199604,8|0,0:0|1:0,0:0:0:0:
154,32,343297,1,8,0:0:0:0:
288,266,343412,1,8,0:0:0:0:
295,0,343528,1,8,0:0:0:0:
98,194,343643,1,8,0:0:0:0:
379,102,343759,6,0,L|456:123,1,61.4250002343178,2|0,1:2|0:0,0:0:0:0:
483,213,344027,2,0,L|423:196,1,61.4250002343178
375,88,344246,6,0,L|452:109,1,61.4250002343178,2|0,0:0|0:0,0:0:0:0:
486,225,344473,2,0,L|417:202,1,61.4250002343178
288,266,344700,6,0,L|310:200,1,61.4250002343178,2|0,0:0|0:0,0:0:0:0:
183,281,344927,2,0,L|198:347,1,61.4250002343178
299,279,345155,6,0,L|321:213,1,61.4250002343178,2|0,0:0|0:0,0:0:0:0:
196,291,345382,2,0,L|211:357,1,61.4250002343178
225,167,345609,6,0,P|193:151|156:157,1,61.4250002343178,2|0,0:0|0:0,0:0:0:0:
68,199,345845,2,0,P|100:215|137:209,1,61.4250002343178
234,157,346081,6,0,P|202:141|165:147,1,61.4250002343178,2|0,0:0|0:0,0:0:0:0:
60,203,346317,2,0,P|92:219|129:213,1,61.4250002343178
109,25,346553,6,0,L|87:106,1,61.4250002343178,2|0,0:0|0:0,0:0:0:0:
0,124,346790,2,0,L|16:64,1,61.4250002343178
205,27,347026,5,2,0:0:0:0:
286,26,347144,1,2,0:0:0:0:
319,67,347262,1,2,0:0:0:0:
328,104,347380,1,2,0:0:0:0:
