osu file format v14

[General]
AudioFilename: audio.mp3
AudioLeadIn: 0
PreviewTime: 114117
Countdown: 0
SampleSet: Soft
StackLeniency: 0.3
Mode: 0
LetterboxInBreaks: 0
WidescreenStoryboard: 1

[Editor]
Bookmarks: 65337,80222,86684,88760,181990,214558,296682,314250,343701
DistanceSpacing: 0.2
BeatDivisor: 4
GridSize: 32
TimelineZoom: 3.499999

[Metadata]
Title:Kegare Naki Bara Juuji
TitleUnicode:穢れなき薔薇十字
Artist:Ariabl'eyeS
ArtistUnicode:Ariabl'eyeS
Creator:Kujinn
Version:Anguish
Source:
Tags:featured artist fa Reform Nymphe Kiyoshi Guarden Armin A_r_M_i_N Vulkin Sytho matthewrigaud11 ariableyes japanese rock gothic metal 瑠璃色のローゼンクロイツ Ruriiro no Rena Luna Lyse リゼ Rosicrucian
BeatmapID:2332088
BeatmapSetID:1116349

[Difficulty]
HPDrainRate:5
CircleSize:4.2
OverallDifficulty:10
ApproachRate:10
SliderMultiplier:1.84
SliderTickRate:1

[Events]
//Background and Video events
0,0,"BG.jpg",0,0
//Break Periods
2,211036,214019
//Storyboard Layer 0 (Background)
//Storyboard Layer 1 (Fail)
//Storyboard Layer 2 (Pass)
//Storyboard Layer 3 (Foreground)
//Storyboard Layer 4 (Overlay)
//Storyboard Sound Samples

[TimingPoints]
816,666.666666666667,4,1,0,40,1,0
10422,714.285714285714,4,2,1,45,1,8
11136,693.64161849711,4,2,1,45,1,8
11482,666.666666666667,4,2,1,45,1,0
12148,722.89156626506,4,2,1,45,1,8
12509,666.666666666667,4,2,1,45,1,8
12842,666.666666666667,4,2,1,45,1,8
13842,625,4,2,1,45,1,8
14154,722.89156626506,4,2,1,45,1,0
14696,666.666666666667,4,2,1,45,1,8
15529,526.315789473684,4,2,1,45,1,8
15792,740.740740740741,4,2,1,45,1,8
16162,666.666666666667,4,2,1,45,1,8
16828,631.578947368421,4,2,1,45,1,0
17459,645.161290322581,4,2,1,45,1,8
18104,697.674418604651,4,2,1,45,1,8
19150,661.521499448732,4,2,1,45,1,8
19480,666.666666666667,4,2,1,45,1,0
21480,710.059171597633,4,2,1,45,1,8
21835,681.818181818182,4,2,1,45,1,8
22175,633.579725448786,4,2,1,45,1,0
22650,664.451827242525,4,2,1,45,1,0
24145,645.161290322581,4,2,1,45,1,8
24790,645.161290322581,4,2,1,45,1,0
25273,645.161290322581,4,2,1,45,1,0
25918,444.444444444444,4,2,1,45,1,8
26140,630.252100840336,4,2,1,45,1,8
26770,689.655172413793,4,2,1,45,1,8
27459,676.437429537768,4,2,1,45,1,0
29150,697.674418604651,4,2,1,45,1,8
30196,645.161290322581,4,2,1,45,1,0
31163,659.340659340659,4,2,1,45,1,8
31492,666.666666666667,4,2,1,45,1,8
32825,657.390161060589,4,2,1,40,1,0
32825,-500,4,2,1,40,0,0
35454,461.538461538462,4,2,1,55,1,0
37300,-95.2380952380952,4,2,1,55,0,0
43761,-95.2380952380952,4,2,1,75,0,0
44684,230.769230769231,4,2,1,75,1,0
44684,-74.0740740740741,4,2,1,75,0,0
52068,-64.5161290322581,4,2,1,75,0,0
52414,-74.0740740740741,4,2,1,75,0,0
53914,-64.5161290322581,4,2,1,75,0,0
54260,-74.0740740740741,4,2,1,75,0,0
66837,-117.647058823529,4,2,1,55,0,0
70530,-117.647058823529,4,2,1,65,0,0
77914,-95.238095238095,4,2,1,65,0,0
92568,-666.666666666667,4,2,1,65,0,0
92857,-666.666666666667,4,2,1,5,0,0
92914,-95.2380952380952,4,2,1,65,0,0
100068,-133.333333333333,4,2,1,55,0,0
107453,-95.238095238095,4,2,1,65,0,0
114145,-222.222222222222,4,2,1,65,0,0
114837,-68.9655172413793,4,2,1,85,0,1
125914,-105.263157894737,4,2,1,85,0,1
127760,-68.9655172413794,4,2,1,85,0,1
129607,-68.9655172413793,4,2,1,85,0,1
140684,-80,4,2,1,85,0,1
144376,461.538461538462,4,2,1,45,1,0
144376,-153.846153846153,4,2,1,45,0,0
148068,-105.263157894737,4,2,1,40,0,0
162837,-86.9565217391302,4,2,1,55,0,0
177491,-37.7358490566038,4,2,1,65,0,0
177606,230.769230769231,4,2,1,65,1,0
177606,-74.0740740740741,4,2,1,65,0,0
192375,-64.5161290322581,4,2,1,65,0,0
192721,-74.0740740740741,4,2,1,65,0,0
199990,-60.6060606060606,4,2,1,65,0,0
200336,-74.0740740740741,4,2,1,65,0,0
207144,461.538461538462,4,2,1,45,1,0
207144,-117.647058823529,4,2,1,45,0,0
207951,-117.647058823529,4,2,1,5,0,0
208067,-166.666666666667,4,2,1,45,0,0
214528,-181.818181818182,4,2,1,55,0,0
223528,-111.111111111111,4,2,1,55,0,0
223759,230.769230769231,4,2,1,55,1,0
223759,-117.647058823529,4,2,1,55,0,0
231143,-95.2380952380954,4,2,1,65,0,0
238528,-117.647058823529,4,2,1,55,0,0
245912,-95.238095238095,4,2,1,65,0,0
252605,-181.818181818182,4,2,1,65,0,0
253297,-68.9655172413793,4,2,1,85,0,1
264374,-105.263157894737,4,2,1,85,0,1
266220,-68.9655172413794,4,2,1,85,0,1
268066,-68.9655172413793,4,2,1,85,0,1
279143,-80,4,2,1,85,0,1
280989,-86.9565217391306,4,2,1,65,0,0
282835,-95.2380952380952,4,2,1,65,0,0
283989,-181.818181818182,4,2,1,65,0,0
284682,-64.5161290322581,4,2,1,95,0,1
287797,-64.5161290322581,4,2,1,80,0,1
287912,-64.5161290322581,4,2,1,95,0,1
292066,-60.6060606060606,4,2,1,85,0,1
292412,-68.9655172413793,4,2,1,85,0,1
295759,-105.263157894737,4,2,1,85,0,1
297605,-68.9655172413794,4,2,1,85,0,1
299451,-133.333333333334,4,2,1,65,0,0
300374,-86.9565217391304,4,2,1,65,0,0
301297,-181.818181818182,4,2,1,65,0,0
302220,-86.9565217391304,4,2,1,65,0,0
303143,-133.333333333334,4,2,1,65,0,0
304066,-86.9565217391304,4,2,1,65,0,0
304989,-86.9565217391304,4,2,1,85,0,0
306835,-68.9655172413793,4,2,1,85,0,1
310528,-80,4,2,1,85,0,0
312374,-222.222222222222,4,2,1,85,0,0
314220,-68.9655172413793,4,2,1,75,0,0
343759,600,4,2,1,45,1,0
343759,-74.0740740740741,4,2,1,45,0,0
344027,400,4,2,1,45,1,8
344027,-74.0740740740741,4,2,1,45,0,0
344246,454.545454545455,4,2,1,45,1,8
344246,-74.0740740740741,4,2,1,45,0,0
345609,472.44094488189,4,2,1,45,1,8
345609,-74.0740740740741,4,2,1,45,0,0

[Colours]
Combo1 : 222,223,208
Combo2 : 155,118,160
Combo3 : 91,126,170

[HitObjects]
117,139,10422,6,0,P|109:89|96:38,2,92,2|2|2,0:0|0:0|0:0,0:0:0:0:
48,318,11482,6,0,B|78:298|113:322|113:322|138:362|193:346,1,138,2|0,0:0|0:0,0:0:0:0:
260,251,12148,2,0,P|222:237|173:280,1,92,2|2,0:0|0:0,0:0:0:0:
424,347,12842,6,0,B|482:366|501:318|501:318|464:309|452:262,2,138,2|2|2,0:0|0:0|0:0,0:0:0:0:
247,192,14154,6,0,B|245:168|225:151|225:151|241:130|237:98,1,92,2|2,0:0|0:0,0:0:0:0:
387,84,14696,2,0,B|367:97|362:123|362:123|336:120|310:139,2,92,2|2|2,0:0|0:0|0:0,0:0:0:0:
227,14,15792,6,0,B|248:24|273:15|273:15|283:39|313:52,1,92,2|2,0:0|0:0,0:0:0:0:
302,47,16495,1,2,0:0:0:0:
62,114,16828,6,0,B|43:161|90:201|90:201|83:168|97:142,1,138,2|0,0:0|0:0,0:0:0:0:
252,194,17459,6,0,B|220:154|162:174|162:174|194:185|210:210,1,138,2|0,0:0|0:0,0:0:0:0:
85,322,18104,6,0,B|135:314|146:254|146:254|121:276|91:277,2,138,2|2|2,0:0|0:0|0:0,0:0:0:0:
265,336,19480,6,0,B|291:339|310:324|310:324|320:351|355:369,1,92,2|2,0:0|0:0,0:0:0:0:
454,296,19980,2,0,B|445:253|445:253|449:234|449:234|437:178,1,92,2|2,0:0|0:0,0:0:0:0:
499,61,20646,6,0,B|465:30|415:33|388:77|388:77|388:129|342:152|295:132,1,230,2|0,0:0|0:0,0:0:0:0:
325,139,21835,1,2,0:0:0:0:
89,49,22175,6,0,B|80:73|55:84|55:84|80:110|72:148,1,92,2|2,0:0|0:0,0:0:0:0:
204,150,22650,2,0,B|187:130|190:103|190:103|155:111|126:85,1,92,2|2,0:0|0:0,0:0:0:0:
99,302,23314,6,0,B|78:293|51:303|51:303|83:268|134:292|134:292|161:340|219:326,1,230,2|0,0:0|0:0,0:0:0:0:
209,327,24467,1,2,0:0:0:0:
418,184,24790,6,0,B|388:175|370:207|370:207|388:226|374:263,1,92,2|2,0:0|0:0,0:0:0:0:
479,317,25273,2,0,B|501:295|483:263|483:263|457:270|432:239,2,92,2|2|2,0:0|0:0|0:0,0:0:0:0:
479,317,26770,5,2,0:0:0:0:
405,267,27114,5,2,0:0:0:0:
203,287,27459,6,0,B|197:345|116:361|116:361|51:297|90:227|90:227|95:259|113:275,1,322,2|0,0:0|0:0,0:0:0:0:
109,272,29150,2,0,P|90:229|106:163,2,92,2|2|2,0:0|0:0|0:0,0:0:0:0:
319,318,30196,6,0,B|360:283|336:231|336:231|287:208|302:143,1,184,2|0,0:0|0:0,0:0:0:0:
299,158,31163,1,2,0:0:0:0:
468,99,31492,6,0,B|491:46|438:14|438:14|455:37|446:58,1,138,2|0,0:0|0:0,0:0:0:0:
428,165,32158,6,0,B|461:211|516:181|516:181|487:184|474:166,1,138,2|0,0:0|0:0,0:0:0:0:
384,95,32825,6,0,B|327:100|325:163|325:163|337:136|359:133,1,138,2|0,0:0|0:0,0:0:0:0:
356,138,35454,5,2,0:0:0:0:
358,144,35915,5,2,0:0:0:0:
362,152,36377,5,8,0:3:0:0:
291,211,36492,1,8,0:3:0:0:
355,256,36607,1,4,0:3:0:0:
291,304,36723,1,4,0:3:0:0:
383,368,36838,5,8,0:0:0:0:
190,111,36954,1,8,0:0:0:0:
427,224,37069,1,8,0:0:0:0:
151,337,37184,1,8,0:0:0:0:
345,67,37300,6,0,B|330:36|294:29|294:29|360:13|406:52|413:115,1,193.199994104004,4|2,1:2|0:0,0:0:0:0:
430,278,37992,5,2,0:0:0:0:
435,288,38107,1,0,0:0:0:0:
439,296,38223,2,0,P|388:311|337:353,1,96.5999970520021,10|0,0:0|0:0,0:0:0:0:
100,322,38684,6,0,P|69:274|95:210,1,96.5999970520021,2|0,0:0|1:2,0:0:0:0:
108,167,38992,1,0,0:0:0:0:
108,167,39069,1,0,0:0:0:0:
108,167,39146,2,0,P|94:106|80:61,1,96.599997052002,2|0,1:2|0:0,0:0:0:0:
201,10,39492,5,0,1:2:0:0:
195,17,39607,2,0,P|246:32|297:74,1,96.5999970520021,2|0,0:0|1:0,0:0:0:0:
277,62,39954,1,0,1:0:0:0:
273,68,40069,1,10,0:0:0:0:
330,279,40300,5,0,3:0:0:0:
342,288,40377,1,0,3:0:0:0:
356,293,40454,1,0,3:0:0:0:
371,295,40530,1,10,0:0:0:0:
134,358,40761,5,8,0:0:0:0:
146,349,40838,1,8,0:0:0:0:
160,344,40915,1,8,0:0:0:0:
175,342,40992,6,0,B|124:320|117:259|146:225|146:225|148:264|175:284,1,193.199994104004,6|2,1:2|0:0,0:0:0:0:
164,273,41684,1,0,1:0:0:0:
388,157,41915,6,0,P|416:113|400:53,1,96.5999970520021,10|0,0:0|1:0,0:0:0:0:
351,23,42261,1,0,1:0:0:0:
357,16,42377,2,0,P|304:13|260:57,1,96.5999970520021,10|0,0:0|1:2,0:0:0:0:
73,249,42838,6,0,P|45:205|61:145,1,96.5999970520021,10|0,1:2|1:0,0:0:0:0:
110,115,43184,1,0,1:0:0:0:
104,108,43300,2,0,P|156:105|200:149,1,96.5999970520021,10|0,0:0|1:0,0:0:0:0:
393,365,43761,5,2,0:0:0:0:
340,293,43877,1,10,0:0:0:0:
345,219,43992,1,2,1:2:0:0:
375,174,44107,1,2,1:2:0:0:
473,349,44223,5,10,0:0:0:0:
308,81,44338,1,10,0:0:0:0:
221,352,44454,1,10,0:0:0:0:
397,155,44569,1,10,0:0:0:0:
120,247,44684,6,0,B|81:255|68:298|68:298|5:290|-39:187|52:137,1,248.400000947571,6|8,1:2|0:0,0:0:0:0:
179,17,45030,2,0,B|205:46|249:36|249:36|273:95|206:184|117:130,1,248.400000947571,0|0,1:0|1:2,0:0:0:0:
0,73,45376,2,0,B|-6:45|11:16|11:16|42:8|79:36,1,124.200000473785,8|0,0:0|0:0,0:0:0:0:
189,290,45607,6,0,P|131:306|61:336,1,124.200000473785,0|0,1:2|0:0,0:0:0:0:
157,145,45837,1,8,0:0:0:0:
359,287,45953,2,0,B|354:323|379:346|379:346|280:350|236:259|310:185,1,248.400000947571,0|0,1:0|1:2,0:0:0:0:
512,93,46299,1,10,0:0:0:0:
444,278,46414,1,2,0:0:0:0:
195,45,46530,6,0,B|229:17|284:31|298:77|298:77|298:93|298:93|300:131|348:171|411:123,1,248.400000947571,2|8,1:2|0:0,0:0:0:0:
502,32,46876,2,0,P|474:140|441:278,1,248.400000947571,0|0,1:0|1:2,0:0:0:0:
234,327,47222,2,0,P|293:343|352:364,1,124.200000473785,8|0,0:0|0:0,0:0:0:0:
170,41,47453,6,0,B|155:76|118:81|118:81|110:116|164:156,1,124.200000473785,0|0,1:2|0:0,0:0:0:0:
336,227,47684,2,0,B|313:196|327:161|327:161|301:137|239:164,1,124.200000473785,8|0,0:0|1:0,0:0:0:0:
93,285,47914,2,0,B|130:280|153:310|153:310|187:299|195:232,1,124.200000473785,2|0,0:0|1:2,0:0:0:0:
1,165,48145,1,10,0:0:0:0:
182,59,48260,1,2,0:0:0:0:
60,3,48376,6,0,B|35:32|36:83|77:113|82:106|95:96|140:126|148:184|117:224,1,248.400000947571,6|8,1:2|0:0,0:0:0:0:
41,329,48722,2,0,B|36:265|129:223|179:256|179:256|134:259|112:302,1,248.400000947571,0|0,1:0|1:2,0:0:0:0:
318,384,49068,2,0,P|266:383|230:298,1,124.200000473785,8|0,0:0|0:0,0:0:0:0:
476,249,49299,6,0,P|452:319|439:384,1,124.200000473785,0|0,1:2|0:0,0:0:0:0:
293,221,49530,1,8,0:0:0:0:
436,129,49645,2,0,B|415:99|436:57|436:57|356:64|329:155|400:209,1,248.400000947571,0|0,1:0|1:2,0:0:0:0:
510,36,49991,2,0,P|435:20|370:-1,1,124.200000473785,8|0,0:0|0:0,0:0:0:0:
46,138,50222,6,0,B|62:99|117:84|151:118|151:118|159:132|159:132|179:164|246:178|278:104,1,248.400000947571,2|8,1:2|0:0,0:0:0:0:
417,275,50568,2,0,B|422:305|460:321|460:321|408:367|300:335|321:233,1,248.400000947571,0|0,1:0|1:2,0:0:0:0:
264,57,50914,2,0,P|311:76|337:152,1,124.200000473785,8|0,0:0|0:0,0:0:0:0:
125,303,51145,5,2,1:2:0:0:
252,140,51260,1,0,1:2:0:0:
344,348,51376,2,0,B|324:374|283:377|283:377|250:357|243:310,1,124.200000473785,8|0,0:0|1:0,0:0:0:0:
69,137,51607,5,8,0:0:0:0:
404,227,51722,1,8,0:0:0:0:
75,122,51837,5,8,0:0:0:0:
398,240,51952,1,8,0:0:0:0:
249,111,52068,6,0,B|243:72|283:44|283:44|198:31|144:131|223:197,1,285.200002175903,4|8,1:2|0:2,0:0:0:0:
305,281,52414,2,0,B|271:253|216:267|202:313|202:313|202:329|202:329|200:367|152:407|89:359,1,248.400000947571,0|0,1:2|1:2,0:0:0:0:
4,224,52760,2,0,P|50:218|86:301,1,124.200000473785,8|0,0:2|0:0,0:0:0:0:
334,373,52991,6,0,P|393:373|422:321,1,124.200000473785,2|0,1:2|0:0,0:0:0:0:
191,157,53222,1,8,0:2:0:0:
305,281,53337,2,0,B|345:119|345:119|319:176|277:179,1,248.400000947571,0|0,1:2|1:2,0:0:0:0:
83,352,53684,2,0,B|48:291|48:291|90:247,1,124.200000473785,8|0,0:2|0:0,0:0:0:0:
210,60,53914,6,0,B|195:122|108:163|55:115|55:115|48:65|86:40|116:49,1,285.200002175903,2|8,1:2|0:0,0:0:0:0:
271,176,54260,2,0,B|335:146|377:205|377:205|374:211|374:211|388:266|452:290|500:251,1,248.400000947571,0|0,1:2|1:0,0:0:0:0:
483,19,54607,2,0,P|444:20|420:96,1,124.200000473785,8|0,0:0|0:0,0:0:0:0:
400,339,54837,6,0,P|439:338|463:262,1,124.200000473785,2|0,1:2|0:0,0:0:0:0:
235,130,55068,2,0,P|305:150|383:174,1,124.200000473785,8|0,0:0|1:0,0:0:0:0:
223,297,55299,1,0,0:0:0:0:
354,164,55414,1,0,1:0:0:0:
157,64,55530,2,0,B|114:106|114:106|135:167,1,124.200000473785,8|0,0:0|0:0,0:0:0:0:
402,262,55760,6,0,B|366:239|315:256|298:305|306:309|318:320|297:370|255:397|197:366,1,248.400000947571,4|8,1:2|0:2,0:0:0:0:
54,225,56107,2,0,B|24:252|-24:256|-24:256|170:302,1,248.400000947571,0|0,1:2|1:2,0:0:0:0:
318,151,56453,2,0,P|265:110|210:131,1,124.200000473785,8|0,0:2|0:0,0:0:0:0:
445,362,56684,6,0,P|459:293|482:209,1,124.200000473785,2|0,1:2|0:0,0:0:0:0:
303,263,56914,1,8,0:2:0:0:
474,71,57030,2,0,B|451:50|456:3|456:3|380:45|384:131|459:166,1,248.400000947571,0|0,1:2|1:2,0:0:0:0:
314,263,57376,2,0,P|255:277|211:237,1,124.200000473785,8|0,0:2|0:0,0:0:0:0:
56,33,57607,6,0,P|75:112|92:182,1,124.200000473785,2|0,1:2|0:0,0:0:0:0:
160,6,57837,2,0,P|179:85|196:155,1,124.200000473785,8|0,0:0|1:2,0:0:0:0:
284,383,58068,6,0,P|297:322|312:262,1,124.200000473785,2|0,0:0|1:0,0:0:0:0:
182,358,58298,2,0,P|195:297|210:237,1,124.200000473785,8|0,0:0|0:0,0:0:0:0:
346,89,58530,5,2,1:2:0:0:
421,270,58645,1,10,0:0:0:0:
240,35,58760,1,10,0:0:0:0:
501,160,58876,1,2,1:2:0:0:
231,283,58991,5,10,0:0:0:0:
393,0,59107,1,10,0:0:0:0:
502,326,59222,1,10,0:0:0:0:
327,74,59337,1,10,0:0:0:0:
155,307,59453,6,0,B|166:344|200:358|200:358|152:400|46:364|69:263,1,248.400000947571,6|8,1:2|0:0,0:0:0:0:
185,119,59799,2,0,B|212:89|207:53|207:53|267:74|289:184|189:214,1,248.400000947571,0|0,1:0|1:2,0:0:0:0:
10,180,60145,2,0,P|32:109|98:90,1,124.200000473785,8|0,0:0|0:0,0:0:0:0:
229,287,60376,6,0,B|195:259|140:273|126:319|126:319|126:335|126:335|124:373|76:413|13:365,1,248.400000947571,0|8,1:2|0:0,0:0:0:0:
242,118,60722,2,0,B|217:147|218:198|259:228|264:221|277:211|322:241|330:299|299:339,1,248.400000947571,0|0,1:0|1:2,0:0:0:0:
340,3,61068,1,10,0:0:0:0:
142,95,61184,1,2,0:0:0:0:
475,195,61299,6,0,B|501:196|529:175|532:131|532:131|478:87|387:124|395:194,1,248.400000947571,2|8,1:2|0:0,0:0:0:0:
290,292,61645,2,0,B|272:311|271:346|303:376|303:376|372:362|400:268|341:230,1,248.400000947571,0|0,1:0|1:2,0:0:0:0:
232,96,61991,2,0,B|223:121|238:153|238:153|267:181|310:172,1,124.200000473785,8|0,0:0|0:0,0:0:0:0:
469,15,62222,6,0,P|491:132|527:288,1,248.400000947571,2|8,1:2|0:0,0:0:0:0:
434,377,62568,2,0,P|420:307|402:235,1,124.200000473785,2|0,1:2|0:0,0:0:0:0:
297,173,62799,1,2,1:2:0:0:
353,13,62914,2,0,P|367:73|379:134,1,124.200000473785,8|2,0:0|0:0,0:0:0:0:
229,328,63145,6,0,B|197:377|94:358|74:304|74:304|135:299|139:227,1,248.400000947571,2|8,1:2|0:0,0:0:0:0:
160,76,63491,2,0,B|218:79|253:177|216:222|216:222|181:171|117:204,1,248.400000947571,0|0,1:0|1:2,0:0:0:0:
12,221,63837,2,0,P|16:169|86:148,1,124.200000473785,8|0,0:0|0:0,0:0:0:0:
391,384,64068,6,0,P|404:317|426:245,1,124.200000473785,0|0,1:2|0:0,0:0:0:0:
476,107,64299,1,8,0:0:0:0:
512,246,64414,2,0,B|470:272|428:256|410:226|414:211|415:198|406:149|334:132|291:179,1,248.400000947571,0|0,1:0|1:2,0:0:0:0:
138,357,64760,1,10,0:0:0:0:
331,266,64876,1,2,0:0:0:0:
149,106,64991,6,0,B|136:72|165:42|165:42|91:49|56:151|132:205,1,248.400000947571,6|8,1:2|0:0,0:0:0:0:
240,313,65337,2,0,B|272:321|284:361|284:361|315:294|244:212|159:251,1,248.400000947571,0|0,1:0|1:2,0:0:0:0:
0,302,65684,2,0,P|66:309|103:246,1,124.200000473785,8|0,0:0|0:0,0:0:0:0:
197,15,65914,5,2,1:2:0:0:
363,125,66030,1,0,1:2:0:0:
194,241,66145,2,0,B|165:241|145:208|145:208|148:167|174:147,1,124.200000473785,8|0,0:0|1:0,0:0:0:0:
444,22,66376,5,8,0:0:0:0:
387,326,66491,1,8,0:0:0:0:
434,21,66607,5,8,0:0:0:0:
395,323,66722,1,8,0:0:0:0:
139,89,66837,6,0,P|181:91|215:126,1,78.2000014915467,6|0,1:2|0:0,0:0:0:0:
357,57,67068,2,0,P|316:66|289:107,1,78.2000014915467,2|0,0:0|0:0,0:0:0:0:
141,83,67299,6,0,P|183:85|217:120,1,78.2000014915467,2|0,1:2|0:0,0:0:0:0:
353,52,67530,2,0,P|312:61|285:102,1,78.2000014915467,2|0,0:0|0:0,0:0:0:0:
47,232,67760,6,0,P|58:280|67:327,1,78.2000014915467,2|0,1:2|0:0,0:0:0:0:
192,354,67991,2,0,P|181:306|172:259,1,78.2000014915467,2|0,0:0|0:0,0:0:0:0:
53,227,68222,6,0,P|64:275|73:322,1,78.2000014915467,2|0,1:2|0:0,0:0:0:0:
198,349,68453,2,0,P|187:301|178:254,1,78.2000014915467,2|0,0:0|0:0,0:0:0:0:
418,155,68684,6,0,B|459:164|459:164|475:209,1,78.2000014915467,2|0,1:2|0:0,0:0:0:0:
464,319,68914,2,0,B|435:350|435:350|388:341,1,78.2000014915467,2|0,0:0|0:0,0:0:0:0:
423,150,69145,6,0,B|464:159|464:159|480:204,1,78.2000014915467,2|0,1:2|0:0,0:0:0:0:
461,313,69376,2,0,B|432:344|432:344|385:335,1,78.2000014915467,2|0,0:0|0:0,0:0:0:0:
216,225,69607,6,0,P|227:164|236:120,1,78.2000014915467,2|0,1:2|0:0,0:0:0:0:
133,21,69837,2,0,P|122:82|113:126,1,78.2000014915467,2|0,0:0|0:0,0:0:0:0:
2,284,70068,5,10,0:0:0:0:
21,276,70145,1,10,0:0:0:0:
40,268,70222,1,10,0:0:0:0:
59,259,70299,1,10,0:0:0:0:
215,376,70414,1,10,0:0:0:0:
311,134,70530,6,0,P|260:124|209:226,1,156.400002983093,4|10,1:2|0:0,0:0:0:0:
248,300,70876,1,0,0:0:0:0:
248,300,70991,2,0,P|296:314|357:336,1,78.2000014915467,2|0,0:2|1:2,0:0:0:0:
449,219,71222,2,0,P|401:205|340:183,1,78.2000014915467,10|0,0:0|0:0,0:0:0:0:
401,376,71453,6,0,P|415:328|437:267,1,78.2000014915467,2|0,1:2|0:0,0:0:0:0:
310,97,71684,2,0,P|299:134|286:171,1,78.2000014915467,10|0,0:0|0:0,0:0:0:0:
78,213,71914,6,0,P|129:203|180:305,1,156.400002983093,2|10,0:2|0:0,0:0:0:0:
101,347,72260,2,0,P|47:362|9:376,1,78.2000014915467,2|0,0:2|1:2,0:0:0:0:
26,369,72607,6,0,P|15:320|0:276,1,78.2000014915467,10|0,0:0|0:0,0:0:0:0:
57,150,72837,2,0,P|68:199|83:243,1,78.2000014915467,2|0,0:2|1:2,0:0:0:0:
167,103,73068,2,0,P|158:64|147:27,1,78.2000014915467,10|0,0:0|0:0,0:0:0:0:
258,167,73299,6,0,P|301:180|348:198,1,78.2000014915467,2|0,1:2|0:0,0:0:0:0:
221,267,73530,2,0,P|183:278|146:291,1,78.2000014915467,10|0,0:0|1:2,0:0:0:0:
282,361,73760,1,2,0:2:0:0:
282,361,73876,1,0,1:2:0:0:
409,280,73991,2,0,P|397:317|389:355,1,78.2000014915467,10|0,0:0|0:0,0:0:0:0:
493,199,74222,6,0,P|520:152|440:90,1,156.400002983093,6|8,1:2|0:0,0:0:0:0:
314,65,74568,2,0,P|341:111|434:73,1,156.400002983093,2|0,0:2|1:2,0:0:0:0:
448,0,74914,2,0,P|424:33|434:80,1,78.2000014915467,10|0,0:0|0:0,0:0:0:0:
377,212,75145,6,0,P|330:231|292:253,1,78.2000014915467,0|0,1:2|0:0,0:0:0:0:
165,103,75376,2,0,P|183:137|197:174,1,78.2000014915467,8|0,0:0|0:0,0:0:0:0:
88,22,75607,1,0,0:0:0:0:
261,63,75722,1,0,1:2:0:0:
144,267,75837,2,0,P|126:233|112:196,1,78.2000014915467,8|0,0:0|0:0,0:0:0:0:
241,285,76068,6,0,P|219:345|112:354,2,156.400002983093,0|8|0,1:2|0:0|0:0,0:0:0:0:
241,148,76645,1,0,1:2:0:0:
362,236,76760,1,10,0:0:0:0:
378,243,76837,1,0,0:0:0:0:
391,249,76914,1,0,0:0:0:0:
404,254,76991,6,0,P|453:240|500:228,1,78.2000014915467,0|0,1:2|0:0,0:0:0:0:
306,367,77222,2,0,P|268:356|230:346,1,78.2000014915467,8|0,0:0|0:0,0:0:0:0:
334,152,77453,5,8,0:0:0:0:
395,363,77568,1,8,0:0:0:0:
341,147,77684,1,8,0:0:0:0:
402,358,77799,1,8,0:0:0:0:
239,268,77914,6,0,B|180:251|158:302|163:311|164:320|141:376|72:346,1,193.199994104004,4|10,1:2|0:0,0:0:0:0:
9,259,78260,1,0,0:0:0:0:
0,253,78376,2,0,P|53:265|107:281,1,96.5999970520021,2|0,0:2|1:2,0:0:0:0:
292,102,78607,2,0,P|245:115|198:125,1,96.5999970520021,10|0,0:0|0:0,0:0:0:0:
52,25,78837,6,0,P|65:71|75:118,1,96.5999970520021,2|0,1:2|0:0,0:0:0:0:
199,312,79068,2,0,P|209:264|222:218,1,96.5999970520021,10|0,0:0|0:0,0:0:0:0:
437,50,79299,2,0,P|406:113|291:87,1,193.199994104004,2|10,0:2|0:0,0:0:0:0:
280,1,79645,2,0,P|329:9|358:49,1,96.5999970520021,2|0,0:2|1:2,0:0:0:0:
356,44,79991,6,0,P|345:104|334:168,1,96.5999970520021,10|0,0:0|0:0,0:0:0:0:
162,141,80222,2,0,P|219:120|280:98,1,96.5999970520021,2|0,0:2|1:2,0:0:0:0:
335,261,80453,2,0,P|288:221|238:179,1,96.5999970520021,10|0,0:0|0:0,0:0:0:0:
0,191,80684,6,0,P|46:230|96:272,1,96.5999970520021,2|0,1:2|0:0,0:0:0:0:
146,359,80914,2,0,P|157:299|168:235,1,96.5999970520021,10|0,0:0|1:2,0:0:0:0:
216,153,81145,2,0,P|158:173|97:195,1,96.5999970520021,2|0,0:2|1:2,0:0:0:0:
318,342,81376,2,0,P|375:362|436:384,1,96.5999970520021,10|0,0:0|0:0,0:0:0:0:
494,136,81607,6,0,P|426:137|389:257,1,193.199994104004,6|8,1:2|0:0,0:0:0:0:
458,308,81953,2,0,P|475:254|458:209,1,96.5999970520021,2|0,0:2|0:0,0:0:0:0:
286,103,82184,1,0,1:2:0:0:
286,103,82299,2,0,P|324:144|371:152,1,96.5999970520021,10|0,0:0|0:0,0:0:0:0:
482,16,82530,6,0,P|467:88|455:145,1,96.5999970520021,0|0,1:2|0:0,0:0:0:0:
381,247,82760,2,0,P|371:199|361:152,1,96.5999970520021,8|0,0:0|0:0,0:0:0:0:
211,277,82991,1,2,0:0:0:0:
365,353,83107,1,0,1:2:0:0:
251,77,83222,2,0,P|241:124|231:171,1,96.5999970520021,10|0,0:0|0:0,0:0:0:0:
4,365,83453,6,0,P|23:295|160:300,1,193.199994104004,2|8,1:2|0:0,0:0:0:0:
275,367,83799,1,0,0:0:0:0:
230,171,83914,2,0,P|180:159|121:142,1,96.5999970520021,0|0,0:0|1:2,0:0:0:0:
339,262,84145,2,0,P|385:248|432:237,1,96.5999970520021,8|0,0:0|0:0,0:0:0:0:
229,364,84376,6,0,P|203:319|222:267,1,96.5999970520021,0|0,1:2|0:0,0:0:0:0:
329,163,84607,2,0,P|338:116|312:76,1,96.5999970520021,8|0,0:0|1:0,0:0:0:0:
133,179,84837,5,8,0:0:0:0:
359,279,84953,1,8,0:0:0:0:
132,170,85068,1,8,0:0:0:0:
358,270,85184,1,8,0:0:0:0:
43,364,85299,6,0,B|18:238|18:238|40:283|78:287,1,193.199994104004,4|10,1:2|0:0,0:0:0:0:
239,184,85645,1,0,0:0:0:0:
239,184,85760,2,0,P|229:245|224:303,1,96.5999970520021,2|0,0:2|1:2,0:0:0:0:
172,118,85991,2,0,P|218:86|278:111,1,96.5999970520021,10|0,0:0|0:0,0:0:0:0:
287,331,86222,6,0,P|241:363|181:338,1,96.5999970520021,2|0,1:2|0:0,0:0:0:0:
360,240,86453,2,0,P|416:255|493:278,1,96.5999970520021,10|0,0:0|0:0,0:0:0:0:
239,184,86684,6,0,B|180:167|158:218|163:227|164:236|141:292|72:262,1,193.199994104004,2|10,0:2|0:0,0:0:0:0:
24,195,87030,2,0,P|9:135|-7:82,1,96.5999970520021,2|0,0:2|1:2,0:0:0:0:
0,101,87376,6,0,P|40:129|88:116,1,96.5999970520021,10|0,0:0|0:0,0:0:0:0:
226,0,87607,2,0,P|181:20|169:68,1,96.5999970520021,2|0,0:2|1:2,0:0:0:0:
202,239,87837,2,0,P|206:190|170:155,1,96.5999970520021,10|0,0:0|0:0,0:0:0:0:
21,223,88068,6,0,P|77:244|143:289,1,96.5999970520021,2|0,1:2|0:0,0:0:0:0:
345,60,88299,2,0,P|298:97|226:132,1,96.5999970520021,10|0,0:0|1:2,0:0:0:0:
281,371,88530,2,0,P|271:312|277:232,1,96.5999970520021,2|0,0:2|1:2,0:0:0:0:
113,51,88760,2,0,P|122:109|116:189,1,96.5999970520021,10|0,0:0|0:0,0:0:0:0:
271,275,88991,6,0,P|321:329|432:275,1,193.199994104004,6|8,1:2|0:0,0:0:0:0:
495,221,89337,2,0,P|445:208|397:194,1,96.5999970520021,2|0,0:2|0:0,0:0:0:0:
195,140,89568,1,0,1:2:0:0:
318,4,89684,2,0,P|343:57|319:102,1,96.5999970520021,10|0,0:0|0:0,0:0:0:0:
267,347,89914,6,0,P|242:294|266:249,1,96.5999970520021,0|0,1:2|0:0,0:0:0:0:
443,125,90145,2,0,P|425:216|402:345,1,193.199994104004,8|0,0:0|0:0,0:0:0:0:
408,315,90491,1,0,1:2:0:0:
271,163,90607,2,0,P|236:156|186:192,1,96.5999970520021,8|0,0:0|0:0,0:0:0:0:
74,337,90837,6,0,P|135:350|193:373,1,96.5999970520021,0|0,1:2|0:0,0:0:0:0:
253,254,91068,2,0,P|159:234|56:204,1,193.199994104004,8|0,0:0|0:0,0:0:0:0:
65,207,91414,1,0,1:2:0:0:
136,106,91530,6,0,P|181:121|229:130,1,96.5999970520021,8|0,0:0|0:0,0:0:0:0:
278,346,91760,2,0,P|268:298|252:253,1,96.5999970520021,0|0,1:2|0:0,0:0:0:0:
412,109,91991,2,0,P|375:141|344:177,1,96.5999970520021,8|0,0:0|1:0,0:0:0:0:
396,294,92222,5,8,0:0:0:0:
331,32,92337,1,8,0:0:0:0:
405,297,92453,1,8,0:0:0:0:
339,28,92568,2,0,L|347:62,1,34.4999989471436,8|0,0:0|0:0,0:0:0:0:
346,22,92914,6,0,P|278:84|192:51,1,193.199994104004,14|2,0:0|0:2,0:0:0:0:
58,194,93260,1,0,1:2:0:0:
58,194,93376,2,0,P|113:195|158:153,1,96.5999970520021,10|0,0:0|0:0,0:0:0:0:
109,0,93607,2,0,P|87:41|94:107,1,96.5999970520021,2|0,1:2|0:0,0:0:0:0:
254,127,93837,2,0,P|224:84|168:60,1,96.5999970520021,10|0,0:0|0:0,0:0:0:0:
162,307,94068,6,0,P|231:280|362:253,1,193.199994104004,2|10,0:2|0:0,0:0:0:0:
408,192,94414,2,0,P|434:243|420:299,1,96.5999970520021,2|0,0:2|1:2,0:0:0:0:
340,372,94645,5,0,0:0:0:0:
232,159,94760,2,0,P|245:218|264:274,1,96.5999970520021,10|0,0:0|0:0,0:0:0:0:
93,374,94991,2,0,P|137:333|176:288,1,96.5999970520021,2|0,0:2|1:2,0:0:0:0:
340,372,95222,2,0,P|282:353|224:342,1,96.5999970520021,10|0,0:0|0:0,0:0:0:0:
139,132,95453,6,0,P|196:150|254:161,1,96.5999970520021,2|0,1:2|0:0,0:0:0:0:
340,17,95684,2,0,P|295:57|256:102,1,96.5999970520021,10|0,0:0|1:2,0:0:0:0:
358,252,95914,2,0,P|345:193|325:136,1,96.5999970520021,2|0,0:2|1:2,0:0:0:0:
167,289,96145,2,0,P|179:348|199:404,1,96.5999970520021,10|0,0:0|0:0,0:0:0:0:
393,381,96376,6,0,P|446:370|449:247,1,193.199994104004,6|8,1:2|0:0,0:0:0:0:
337,133,96722,2,0,P|320:184|425:248,1,193.199994104004,2|0,0:2|1:2,0:0:0:0:
506,181,97068,2,0,P|462:181|433:222,1,96.5999970520021,10|0,0:0|0:0,0:0:0:0:
294,355,97299,6,0,P|237:339|159:323,1,96.5999970520021,0|0,1:2|0:0,0:0:0:0:
84,159,97530,2,0,P|173:183|294:208,1,193.199994104004,8|0,0:0|0:0,0:0:0:0:
271,204,97876,1,0,1:2:0:0:
349,96,97991,2,0,P|309:65|241:85,1,96.5999970520021,10|0,0:0|0:0,0:0:0:0:
132,255,98222,6,0,P|146:193|162:139,1,96.5999970520021,2|0,1:2|0:0,0:0:0:0:
87,27,98453,1,8,0:0:0:0:
87,27,98568,2,0,P|73:89|57:143,1,96.5999970520021
204,358,98799,1,0,1:2:0:0:
204,358,98914,2,0,P|218:296|234:242,1,96.5999970520021,8|0,0:0|0:0,0:0:0:0:
48,226,99145,6,0,P|88:257|156:237,1,96.5999970520021,2|0,1:2|0:0,0:0:0:0:
370,179,99376,2,0,P|330:148|262:168,1,96.5999970520021,8|0,0:0|1:0,0:0:0:0:
224,352,99607,5,10,0:0:0:0:
170,68,99722,1,8,0:0:0:0:
219,358,99837,1,8,0:0:0:0:
165,74,99952,1,8,0:0:0:0:
372,252,100068,6,0,P|410:268|465:285,1,69.0000026321412,6|0,1:2|0:0,0:0:0:0:
273,125,100299,2,0,P|240:136|208:149,1,69.0000026321412,2|0,0:2|0:0,0:0:0:0:
380,146,100530,1,10,0:2:0:0:
384,128,100607,1,8,0:2:0:0:
388,110,100684,1,8,0:2:0:0:
392,92,100760,1,10,0:2:0:0:
392,92,100991,6,0,L|408:171,1,69.0000026321412,0|0,1:0|0:0,0:0:0:0:
499,304,101222,2,0,L|512:236,1,69.0000026321412,8|0,0:0|0:0,0:0:0:0:
512,103,101453,5,8,0:0:0:0:
346,232,101568,1,8,0:0:0:0:
503,97,101684,1,10,0:0:0:0:
337,226,101799,1,8,0:0:0:0:
272,22,101914,6,0,P|295:2|349:9,1,69.0000026321412,6|0,1:2|0:0,0:0:0:0:
368,133,102145,2,0,P|345:153|291:146,1,69.0000026321412,2|4,0:2|3:0,0:0:0:0:
137,72,102376,1,10,0:2:0:0:
141,85,102453,1,8,0:2:0:0:
144,98,102530,1,8,0:2:0:0:
149,111,102607,1,10,0:2:0:0:
149,111,102837,6,0,P|138:158|128:207,1,69.0000026321412,0|0,1:0|0:0,0:0:0:0:
51,320,103068,2,0,P|43:286|35:252,1,69.0000026321412,8|0,0:0|0:0,0:0:0:0:
86,64,103299,5,8,0:0:0:0:
150,290,103414,1,8,0:0:0:0:
92,56,103530,1,10,0:0:0:0:
156,282,103645,1,8,0:0:0:0:
319,127,103760,6,0,P|333:81|348:31,1,69.0000026321412,6|0,1:2|0:0,0:0:0:0:
403,251,103991,2,0,P|412:284|423:317,1,69.0000026321412,2|4,0:2|3:0,0:0:0:0:
493,169,104222,1,10,0:2:0:0:
480,162,104299,1,8,0:2:0:0:
467,156,104376,1,8,0:2:0:0:
454,150,104453,1,10,0:2:0:0:
454,150,104684,6,0,P|413:161|376:173,1,69.0000026321412,0|0,1:0|0:0,0:0:0:0:
272,79,104914,2,0,P|313:68|350:56,1,69.0000026321412,8|0,0:0|0:0,0:0:0:0:
128,227,105145,5,8,0:0:0:0:
183,0,105260,1,8,0:0:0:0:
133,234,105376,1,10,0:0:0:0:
188,7,105491,1,8,0:0:0:0:
286,178,105607,6,0,P|303:210|297:253,1,69.0000026321412,6|0,1:2|0:0,0:0:0:0:
200,384,105837,2,0,P|183:352|189:309,1,69.0000026321412,2|4,0:2|3:0,0:0:0:0:
369,332,106068,1,10,0:2:0:0:
355,336,106145,1,8,0:2:0:0:
341,339,106222,1,8,0:2:0:0:
327,343,106299,1,10,0:2:0:0:
327,343,106530,6,0,P|287:332|247:324,1,69.0000026321412,0|0,1:0|0:0,0:0:0:0:
109,237,106760,2,0,P|149:226|189:218,1,69.0000026321412,8|0,0:0|0:0,0:0:0:0:
365,146,106991,5,8,0:0:0:0:
163,70,107107,1,8,0:0:0:0:
363,139,107222,1,10,0:0:0:0:
161,63,107338,1,8,0:0:0:0:
298,10,107453,6,0,P|283:76|259:200,1,193.199994104004,6|8,1:2|0:0,0:0:0:0:
194,262,107799,2,0,P|145:262|112:215,1,96.5999970520021,0|0,3:0|1:0,0:0:0:0:
49,108,108030,1,0,1:0:0:0:
57,106,108145,2,0,P|45:158|29:224,1,96.5999970520021,10|0,0:0|0:0,0:0:0:0:
0,316,108376,6,0,B|45:293|86:333|85:338|84:345|118:404|188:363,1,193.199994104004,0|8,1:2|0:0,0:0:0:0:
256,283,108722,2,0,P|302:273|349:321,1,96.5999970520021,0|2,3:0|1:2,0:0:0:0:
446,369,108953,1,0,1:0:0:0:
437,356,109068,2,0,P|450:299|464:242,1,96.5999970520021,8|0,0:0|0:0,0:0:0:0:
391,85,109299,6,0,P|342:126|226:53,1,193.199994104004,0|8,1:2|0:0,0:0:0:0:
184,20,109645,1,0,3:0:0:0:
173,14,109760,2,0,P|147:54|154:114,1,96.5999970520021,2|0,1:2|1:0,0:0:0:0:
212,303,109991,2,0,P|238:263|231:203,1,96.5999970520021,8|0,0:0|0:0,0:0:0:0:
27,133,110222,6,0,P|40:203|63:345,1,193.199994104004,2|8,1:2|0:0,0:0:0:0:
156,367,110568,1,0,3:0:0:0:
143,361,110684,2,0,P|193:346|250:336,1,96.5999970520021,2|0,1:2|1:0,0:0:0:0:
336,230,110914,2,0,P|286:215|229:205,1,96.5999970520021,10|8,0:0|0:0,0:0:0:0:
60,60,111145,6,0,P|78:138|108:274,1,193.199994104004,14|0,0:2|1:2,0:0:0:0:
85,273,111491,1,0,1:2:0:0:
358,30,111607,6,0,P|340:108|310:244,1,193.199994104004,8|0,0:2|1:2,0:0:0:0:
333,243,111953,1,0,1:2:0:0:
36,50,112068,6,0,P|54:128|84:264,1,193.199994104004,8|0,0:2|1:2,0:0:0:0:
61,263,112414,1,0,1:2:0:0:
378,26,112530,6,0,P|360:104|330:240,1,193.199994104004,8|2,0:2|1:2,0:0:0:0:
353,239,112876,1,0,1:2:0:0:
159,92,112991,6,0,P|133:47|155:-2,1,96.5999970520021,14|0,0:2|0:0,0:0:0:0:
246,249,113222,2,0,P|256:301|269:366,1,96.5999970520021,8|0,0:2|0:0,0:0:0:0:
400,81,113453,5,8,0:2:0:0:
55,175,113568,1,8,0:2:0:0:
397,329,113684,1,8,0:2:0:0:
205,7,113799,1,8,0:2:0:0:
154,370,113914,1,2,1:3:0:0:
148,382,114145,6,0,P|121:351|127:312,2,82.7999974731446,2|2|2,0:0|0:0|0:0,0:0:0:0:
467,99,114837,6,0,B|435:76|380:90|366:136|366:136|366:152|366:152|364:190|307:234|253:182,1,266.80000814209,6|8,1:2|0:0,0:0:0:0:
44,50,115184,1,0,0:0:0:0:
163,275,115299,1,2,1:2:0:0:
237,31,115414,1,0,1:0:0:0:
32,177,115530,2,0,B|-9:198|0:243|0:243|43:259|50:310,1,133.400004071045,10|0,0:0|0:0,0:0:0:0:
283,350,115760,6,0,B|347:400|429:349|424:269|424:269|388:291|349:273,1,266.80000814209,2|8,1:2|0:0,0:0:0:0:
219,116,116107,2,0,P|245:190|262:271,1,133.400004071045,2|0,1:2|0:0,0:0:0:0:
438,106,116337,1,0,1:0:0:0:
248,9,116453,2,0,P|192:1|140:76,1,133.400004071045,10|0,0:0|0:0,0:0:0:0:
360,213,116684,6,0,B|379:269|452:297|506:253|506:253|503:209|475:188|436:181,1,266.80000814209,2|10,1:2|0:0,0:0:0:0:
284,330,117030,2,0,P|237:377|160:370,1,133.400004071045,2|0,0:0|1:2,0:0:0:0:
17,220,117260,1,2,1:2:0:0:
217,130,117376,2,0,P|197:206|173:295,1,133.400004071045,10|2,0:0|0:0,0:0:0:0:
142,0,117607,5,0,1:2:0:0:
315,114,117722,1,0,1:2:0:0:
99,220,117837,2,0,P|64:158|114:79,1,133.400004071045,10|0,0:0|1:2,0:0:0:0:
342,254,118068,1,2,1:2:0:0:
143,363,118184,1,0,1:2:0:0:
195,127,118299,2,0,P|215:205|239:294,1,133.400004071045,10|0,0:0|0:0,0:0:0:0:
455,378,118530,6,0,B|481:347|480:293|437:261|431:269|418:279|370:247|354:185|394:144,1,266.80000814209,6|8,1:2|0:0,0:0:0:0:
492,0,118876,1,0,0:0:0:0:
298,100,118991,1,2,1:2:0:0:
509,205,119107,1,0,1:0:0:0:
307,1,119222,2,0,P|241:15|206:87,1,133.400004071045,8|0,0:0|0:0,0:0:0:0:
249,376,119453,6,0,B|315:370|348:272|289:226|289:226|222:245|231:304,1,266.80000814209,2|8,1:2|0:0,0:0:0:0:
67,214,119799,2,0,B|1:208|-32:110|27:64|27:64|94:83|85:142,1,266.80000814209,2|0,1:2|1:0,0:0:0:0:
144,326,120145,2,0,P|79:345|1:382,1,133.400004071045,10|0,0:0|0:0,0:0:0:0:
281,70,120376,6,0,P|341:97|405:115,1,133.400004071045,2|0,1:2|0:0,0:0:0:0:
201,220,120607,1,8,0:0:0:0:
380,359,120722,2,0,P|433:314|419:244,1,133.400004071045,2|0,0:0|1:2,0:0:0:0:
281,70,120953,1,0,1:0:0:0:
127,319,121068,2,0,P|74:274|88:204,1,133.400004071045,10|2,0:0|0:0,0:0:0:0:
170,37,121299,5,2,1:2:0:0:
205,230,121414,1,2,1:2:0:0:
344,26,121530,5,10,0:0:0:0:
309,303,121645,1,2,1:2:0:0:
512,77,121760,5,2,1:2:0:0:
407,384,121876,1,2,1:2:0:0:
76,241,121991,5,10,0:0:0:0:
104,202,122068,1,8,0:0:0:0:
137,183,122145,1,8,0:0:0:0:
171,182,122222,6,0,B|156:216|179:249|179:249|79:247|47:126|140:73,1,266.80000814209,6|8,1:2|0:0,0:0:0:0:
360,173,122568,1,2,0:2:0:0:
185,34,122684,1,0,1:2:0:0:
268,283,122799,1,2,1:2:0:0:
427,46,122914,2,0,B|388:11|345:30|345:30|337:58|296:66,1,133.400004071045,8|2,0:0|0:0,0:0:0:0:
370,289,123145,6,0,B|392:343|477:368|519:316|519:316|518:270|480:252|454:265,1,266.80000814209,0|8,1:2|0:0,0:0:0:0:
224,250,123491,2,0,P|193:311|229:389,1,133.400004071045,0|0,1:2|0:0,0:0:0:0:
155,69,123722,1,0,1:0:0:0:
333,200,123837,2,0,P|348:126|370:54,1,133.400004071045,10|0,0:2|0:0,0:0:0:0:
37,200,124068,6,0,B|15:233|-21:233|-21:233|9:274|96:281|138:242|137:172,1,266.80000814209,2|10,1:2|0:0,0:0:0:0:
289,8,124414,1,2,0:0:0:0:
53,105,124530,1,0,1:2:0:0:
291,219,124645,1,2,1:2:0:0:
154,0,124760,2,0,B|125:31|149:70|149:70|184:82|187:137,1,133.400004071045,8|2,0:0|0:0,0:0:0:0:
427,334,124991,6,0,B|401:303|402:249|445:217|451:225|464:235|512:203|528:141|488:100,1,266.80000814209,0|8,1:0|0:0,0:0:0:0:
387,0,125337,1,0,1:2:0:0:
183,155,125453,2,0,P|219:214|309:208,1,133.400004071045,2|0,1:2|1:2,0:0:0:0:
412,138,125684,1,10,0:0:0:0:
246,20,125799,1,8,0:0:0:0:
188,290,125914,6,0,P|117:317|16:374,1,174.799995332337,14|0,0:2|1:2,0:0:0:0:
30,364,126260,1,0,1:2:0:0:
298,169,126376,6,0,P|374:211|455:243,1,174.799995332337,8|0,0:2|1:2,0:0:0:0:
455,243,126722,1,0,1:2:0:0:
163,12,126837,6,0,P|180:72|213:221,1,174.799995332337,8|2,0:2|1:2,0:0:0:0:
205,181,127184,1,0,1:2:0:0:
300,343,127299,6,0,P|322:303|308:252,1,87.3999976661683,10|0,0:2|1:2,0:0:0:0:
100,120,127530,2,0,P|78:160|92:211,1,87.3999976661683,10|8,0:2|1:2,0:0:0:0:
457,383,127760,5,14,0:2:0:0:
422,77,127876,1,0,1:0:0:0:
301,344,127991,5,8,0:2:0:0:
330,26,128107,1,0,1:0:0:0:
225,383,128222,5,8,0:2:0:0:
198,68,128338,1,0,1:0:0:0:
59,343,128453,5,8,0:2:0:0:
104,15,128569,1,0,1:0:0:0:
449,361,128684,6,0,B|495:329|474:272|474:272|464:300|442:314,1,133.400004071045,8|0,0:0|1:2,0:0:0:0:
176,121,128914,1,4,3:0:0:0:
167,130,128991,1,4,3:0:0:0:
158,140,129068,1,4,3:0:0:0:
150,149,129145,2,0,B|144:204|202:225|202:225|187:199|190:173,1,133.400004071045,10|0,0:0|0:0,0:0:0:0:
366,97,129376,1,10,0:0:0:0:
162,0,129491,1,8,0:0:0:0:
71,318,129607,6,0,B|121:347|163:331|181:301|177:286|176:273|185:224|257:207|300:254,1,266.80000814209,6|8,1:2|0:0,0:0:0:0:
474,358,129953,1,0,0:0:0:0:
314,121,130068,1,2,1:2:0:0:
512,245,130184,1,0,1:0:0:0:
371,382,130299,2,0,B|331:345|347:307|347:307|379:288|382:238,1,133.400004071045,10|0,0:0|0:0,0:0:0:0:
109,92,130530,6,0,B|74:70|69:34|69:34|17:71|26:183|131:184,1,266.80000814209,2|8,1:2|0:0,0:0:0:0:
346,103,130876,2,0,P|322:66|229:58,1,133.400004071045,2|0,1:2|0:0,0:0:0:0:
228,315,131107,1,0,1:0:0:0:
420,209,131222,2,0,P|478:163|480:100,1,133.400004071045,10|0,0:0|0:0,0:0:0:0:
235,333,131453,6,0,B|254:277|327:249|381:293|381:293|378:337|350:358|311:365,1,266.80000814209,2|8,1:2|0:0,0:0:0:0:
93,354,131799,2,0,P|30:324|17:242,1,133.400004071045,2|0,0:0|1:2,0:0:0:0:
203,122,132030,1,2,1:2:0:0:
38,15,132145,2,0,P|55:92|76:184,1,133.400004071045,10|2,0:0|0:0,0:0:0:0:
260,296,132376,5,0,1:2:0:0:
348,65,132491,1,0,1:2:0:0:
138,247,132607,2,0,P|138:318|199:371,1,133.400004071045,10|0,0:0|1:2,0:0:0:0:
373,194,132837,1,2,1:2:0:0:
185,67,132953,1,0,1:2:0:0:
303,312,133068,2,0,P|370:354|433:334,1,133.400004071045,10|0,0:0|0:0,0:0:0:0:
465,36,133299,6,0,B|433:4|372:23|356:74|356:74|359:80|359:80|345:135|294:167|225:116,1,266.80000814209,6|8,1:2|0:0,0:0:0:0:
40,56,133645,1,0,0:0:0:0:
206,281,133760,1,2,1:2:0:0:
196,1,133876,1,0,1:0:0:0:
11,205,133991,2,0,B|33:240|75:235|75:235|94:202|130:204,1,133.400004071045,10|0,0:0|0:0,0:0:0:0:
478,338,134222,6,0,B|439:365|385:344|367:296|378:288|390:277|379:225|316:192|261:232,1,266.80000814209,2|8,1:2|0:0,0:0:0:0:
149,381,134568,2,0,B|145:333|190:297|240:305|241:319|245:335|296:351|356:313|348:245,1,266.80000814209,2|0,1:2|1:0,0:0:0:0:
211,169,134914,2,0,P|181:208|200:297,1,133.400004071045,10|0,0:0|0:0,0:0:0:0:
363,75,135145,6,0,P|325:23|261:20,1,133.400004071045,2|0,1:2|0:0,0:0:0:0:
70,87,135376,1,8,0:0:0:0:
370,205,135491,2,0,P|434:198|469:144,1,133.400004071045,2|0,0:0|1:2,0:0:0:0:
109,296,135722,1,2,1:2:0:0:
182,38,135837,2,0,P|198:115|222:218,1,133.400004071045,10|2,0:0|0:0,0:0:0:0:
473,298,136068,5,2,1:2:0:0:
416,98,136184,1,2,1:2:0:0:
277,302,136299,5,10,0:0:0:0:
336,26,136414,1,2,1:2:0:0:
210,364,136530,5,2,1:2:0:0:
123,48,136645,1,2,1:2:0:0:
2,309,136760,5,10,0:0:0:0:
49,310,136837,1,8,0:0:0:0:
86,271,136914,1,8,0:0:0:0:
100,238,136991,6,0,B|85:204|108:171|108:171|8:173|-24:294|69:347,1,266.80000814209,6|8,1:2|0:0,0:0:0:0:
312,149,137337,1,2,0:2:0:0:
144,367,137453,1,0,1:2:0:0:
169,91,137568,1,2,1:2:0:0:
292,337,137684,2,0,P|337:378|423:351,1,133.400004071045,8|2,0:0|0:0,0:0:0:0:
410,33,137914,6,0,B|346:-17|264:34|269:114|269:114|305:92|344:110,1,266.80000814209,0|8,1:2|0:0,0:0:0:0:
450,286,138260,2,0,B|525:255|522:159|450:123|450:123|451:165|416:190,1,266.80000814209,0|0,1:2|1:0,0:0:0:0:
240,240,138607,2,0,P|267:315|273:388,1,133.400004071045,10|0,0:2|0:0,0:0:0:0:
273,39,138837,6,0,B|237:10|178:27|158:70|158:70|156:86|156:86|149:123|91:161|35:103,1,266.80000814209,2|10,1:2|0:0,0:0:0:0:
327,195,139184,1,2,0:0:0:0:
59,296,139299,1,0,1:2:0:0:
231,105,139414,1,2,1:2:0:0:
163,376,139530,2,0,P|172:306|192:231,1,133.400004071045,8|2,0:0|0:0,0:0:0:0:
129,8,139760,6,0,P|85:35|93:125,1,133.400004071045,0|0,1:0|0:0,0:0:0:0:
306,319,139991,2,0,P|350:292|342:202,1,133.400004071045,8|0,0:0|1:2,0:0:0:0:
81,271,140222,1,2,1:2:0:0:
271,60,140337,1,0,1:2:0:0:
254,384,140453,5,10,0:0:0:0:
145,78,140568,1,8,0:0:0:0:
456,323,140684,6,0,B|395:341|367:283|367:283|368:264|368:264|362:196|297:194,1,230,14|0,0:2|1:2,0:0:0:0:
305,194,141030,1,0,1:2:0:0:
150,329,141145,6,0,B|164:267|229:271|229:271|245:282|245:282|306:311|341:255,1,230,10|0,0:2|1:2,0:0:0:0:
335,263,141491,1,0,1:2:0:0:
283,53,141607,6,0,B|329:96|292:150|292:150|275:158|275:158|220:197|250:255,1,230,10|2,0:2|1:2,0:0:0:0:
246,247,141953,1,2,1:2:0:0:
15,104,142068,6,0,P|25:33|81:20,1,115,10|0,0:2|1:2,0:0:0:0:
215,103,142299,1,10,0:2:0:0:
12,228,142414,1,8,0:2:0:0:
260,376,142530,1,14,0:2:0:0:
256,192,142587,12,0,144260,0:0:0:0:
37,351,144376,6,0,P|69:339|102:332,1,59.7999972625734,2|0,0:0|0:0,0:0:0:0:
74,261,144837,2,0,P|45:268|18:279,1,59.7999972625734,2|0,0:0|0:0,0:0:0:0:
232,240,145299,6,0,P|200:228|167:221,1,59.7999972625734,2|0,0:0|0:0,0:0:0:0:
194,150,145760,2,0,P|223:157|250:167,1,59.7999972625734,2|0,0:0|0:0,0:0:0:0:
42,100,146222,6,0,P|74:88|107:81,1,59.7999972625734,2|0,0:0|0:0,0:0:0:0:
79,10,146683,2,0,P|49:17|22:27,1,59.7999972625734,2|0,0:0|0:0,0:0:0:0:
153,178,147145,5,2,0:0:0:0:
154,183,147222,1,0,0:0:0:0:
155,188,147299,1,2,0:0:0:0:
156,193,147376,1,0,0:0:0:0:
157,204,147606,5,2,0:0:0:0:
295,316,148068,6,0,P|346:329|408:349,1,87.3999976661683,0|2,3:2|0:0,0:0:0:0:
478,279,148529,2,0,P|427:266|365:246,1,87.3999976661683,2|2,0:0|0:0,0:0:0:0:
288,165,148991,6,0,P|280:115|317:79,1,87.3999976661683,2|2,0:0|0:0,0:0:0:0:
374,60,149452,2,0,P|382:110|345:146,1,87.3999976661683,2|2,0:0|0:0,0:0:0:0:
288,165,149799,1,2,0:0:0:0:
288,165,149914,6,0,P|241:148|198:133,1,87.3999976661683,0|2,3:2|0:0,0:0:0:0:
48,236,150376,2,0,P|89:221|130:206,1,87.3999976661683,2|2,0:0|3:2,0:0:0:0:
156,29,150837,2,0,P|142:76|123:143,1,87.3999976661683,2|2,0:0|0:0,0:0:0:0:
193,237,151299,1,2,0:0:0:0:
197,258,151529,1,2,0:0:0:0:
203,280,151760,6,0,P|248:272|294:346,2,131.099996499252,2|2|2,3:2|0:0|3:2,0:0:0:0:
26,304,152683,6,0,B|131:313|63:368|180:384,1,174.799995332337
174,384,153376,1,0,0:0:0:0:
273,253,153606,6,0,P|258:173|240:73,1,174.799995332337,0|0,3:2|0:0,0:0:0:0:
241,81,154529,6,0,P|191:76|162:114,1,87.3999976661683,2|0,0:0|0:0,0:0:0:0:
163,110,154837,1,0,0:0:0:0:
164,119,154914,1,0,0:0:0:0:
164,129,154991,2,0,P|131:155|89:147,1,87.3999976661683,2|0,0:0|0:0,0:0:0:0:
260,270,155452,6,0,P|316:282|381:298,1,87.3999976661683,0|2,3:2|0:0,0:0:0:0:
182,356,155914,2,0,P|139:365|96:374,1,87.3999976661683,2|2,0:0|3:2,0:0:0:0:
13,295,156376,2,0,P|-6:251|13:200,1,87.3999976661683,2|2,0:0|0:0,0:0:0:0:
31,71,156837,2,0,P|50:115|31:166,1,87.3999976661683,2|2,0:0|0:0,0:0:0:0:
2,214,157183,1,2,0:0:0:0:
2,214,157299,6,0,P|50:227|110:244,1,87.3999976661683,0|2,3:2|0:0,0:0:0:0:
233,50,157760,2,0,P|185:63|125:80,1,87.3999976661683,2|2,0:0|3:2,0:0:0:0:
318,113,158222,2,0,P|330:64|346:4,1,87.3999976661683,2|0,0:0|0:0,0:0:0:0:
217,165,158683,2,0,P|252:200|296:243,1,87.3999976661683,2|2,0:0|0:0,0:0:0:0:
453,274,159145,6,0,P|401:280|376:365,2,131.099996499252,2|2|2,3:2|0:0|3:2,0:0:0:0:
341,187,160068,2,0,P|353:118|373:8,1,174.799995332337,2|0,0:0|0:0,0:0:0:0:
371,14,160760,1,2,0:0:0:0:
243,103,160991,6,0,B|193:87|150:131|187:144|142:198|80:166,1,174.799995332337,2|0,3:2|0:0,0:0:0:0:
10,99,161683,1,2,3:2:0:0:
5,68,161799,1,0,0:0:0:0:
0,32,161914,2,0,P|58:50|113:67,1,87.3999976661683,2|0,0:0|0:0,0:0:0:0:
88,51,162222,1,0,0:0:0:0:
95,45,162299,1,0,0:0:0:0:
102,39,162376,2,0,P|84:97|67:152,1,87.3999976661683,2|8,0:0|0:3,0:0:0:0:
297,320,162837,6,0,B|310:289|357:281|389:313|389:313|388:318|388:318|414:366|470:371|505:323,1,211.60000403595,4|2,1:2|0:0,0:0:0:0:
470,351,163529,1,2,1:2:0:0:
271,144,163760,6,0,B|235:138|224:100|224:100|149:127|148:202|193:232,1,211.60000403595,2|10,1:2|0:0,0:0:0:0:
0,341,164683,6,0,B|36:347|47:385|47:385|122:358|123:283|78:253,1,211.60000403595,0|2,1:2|0:0,0:0:0:0:
97,272,165376,1,2,1:2:0:0:
14,190,165606,6,0,P|65:203|104:162,1,105.800002017975,2|2,1:2|0:0,0:0:0:0:
87,88,166068,2,0,P|36:75|-3:116,1,105.800002017975,10|2,0:0|0:0,0:0:0:0:
220,186,166529,6,0,P|208:104|189:-17,2,158.700003026962,6|2|2,1:2|0:0|1:2,0:0:0:0:
397,304,167452,6,0,B|446:313|482:265|482:265|527:288|533:349|502:378,1,211.60000403595,0|8,1:0|0:0,0:0:0:0:
216,238,168376,6,0,B|177:177|221:145|228:147|234:151|275:127|285:64|221:26,1,211.60000403595,0|0,1:2|0:0,0:0:0:0:
249,52,169068,1,0,1:0:0:0:
63,10,169299,6,0,B|135:6|141:60|135:65|129:69|129:116|179:156|244:120,1,211.60000403595,0|8,1:0|0:0,0:0:0:0:
353,94,169991,5,8,0:3:0:0:
356,106,170106,1,4,0:3:0:0:
360,116,170222,2,0,B|287:112|281:166|287:171|293:175|293:222|243:262|178:226,1,211.60000403595,4|2,1:2|0:0,0:0:0:0:
215,237,170914,1,2,1:2:0:0:
3,280,171145,6,0,P|-2:327|48:367,1,105.800002017975,2|2,1:2|0:0,0:0:0:0:
121,330,171606,2,0,P|126:283|76:243,1,105.800002017975,10|0,0:0|0:0,0:0:0:0:
44,29,172068,6,0,B|99:13|162:57|96:91|157:158|240:119,1,211.60000403595,0|2,1:2|0:0,0:0:0:0:
206,128,172760,1,2,1:2:0:0:
326,47,172991,2,0,P|265:35|197:17,1,105.800002017975,2|2,1:2|0:2,0:0:0:0:
288,252,173452,2,0,P|236:239|185:230,1,105.800002017975,10|2,0:0|0:0,0:0:0:0:
397,208,173914,6,0,P|423:265|354:343,2,158.700003026962,6|2|2,1:2|0:0|1:2,0:0:0:0:
358,52,174837,2,0,P|354:142|341:270,1,211.60000403595,2|8,1:2|0:0,0:0:0:0:
341,262,175529,1,2,0:0:0:0:
191,375,175760,6,0,B|129:392|88:319|109:281|109:281|157:273|173:316,1,211.60000403595,2|0,1:2|0:0,0:0:0:0:
163,297,176452,1,0,1:0:0:0:
266,20,176683,5,10,1:2:0:0:
165,176,176799,1,8,0:0:0:0:
73,42,176914,1,4,3:0:0:0:
73,42,177029,1,4,3:0:0:0:
278,228,177145,5,10,0:0:0:0:
154,3,177260,1,8,0:0:0:0:
50,220,177376,1,8,0:0:0:0:
226,72,177491,6,0,B|256:51|311:65|325:111|325:111|325:127|325:127|327:165|378:207|435:161,1,243.800010230256,6|0,1:2|0:0,0:0:0:0:
508,24,177836,2,0,P|457:15|423:85,1,124.200000473785,8|0,0:2|3:2,0:0:0:0:
340,320,178067,1,0,1:2:0:0:
233,162,178182,1,0,1:2:0:0:
479,240,178298,2,0,P|493:293|437:355,1,124.200000473785,8|0,0:2|0:0,0:0:0:0:
184,85,178529,6,0,B|188:39|245:29|245:29|264:54|311:53,1,124.200000473785,2|0,1:2|0:0,0:0:0:0:
145,211,178759,2,0,B|103:229|66:185|66:185|78:156|53:116,1,124.200000473785,10|0,0:2|3:2,0:0:0:0:
276,198,178990,2,0,B|313:225|293:279|293:279|262:283|240:324,1,124.200000473785,2|0,1:2|1:2,0:0:0:0:
118,20,179221,1,10,0:2:0:0:
321,112,179336,1,2,0:0:0:0:
94,293,179452,6,0,B|48:234|116:150|182:175|182:175|143:190|141:229,1,248.400000947571,6|8,1:2|0:2,0:0:0:0:
16,370,179798,1,0,3:2:0:0:
225,265,179913,1,0,1:2:0:0:
32,146,180029,1,0,1:2:0:0:
190,365,180144,2,0,P|252:369|302:322,1,124.200000473785,8|0,0:2|0:0,0:0:0:0:
445,48,180375,6,0,B|398:61|364:8|364:8|306:10|275:114|346:151,1,248.400000947571,2|10,1:2|0:2,0:0:0:0:
381,278,180721,1,0,1:2:0:0:
156,280,180836,2,0,P|188:225|251:218,1,124.200000473785,2|0,1:2|1:2,0:0:0:0:
447,354,181067,1,10,0:2:0:0:
396,129,181182,1,2,0:0:0:0:
236,358,181298,6,0,B|173:402|100:358|105:278|105:278|141:265|172:290,1,248.400000947571,6|8,1:2|0:2,0:0:0:0:
349,321,181644,1,0,3:2:0:0:
201,114,181759,1,0,1:2:0:0:
233,368,181875,1,0,1:2:0:0:
396,156,181990,2,0,B|424:128|418:67|418:67|404:89|380:96,1,124.200000473785,8|0,0:2|0:0,0:0:0:0:
109,81,182221,5,2,1:2:0:0:
316,206,182336,1,0,0:0:0:0:
178,12,182452,1,10,0:2:0:0:
232,288,182567,1,0,3:2:0:0:
295,14,182682,5,2,1:2:0:0:
121,266,182798,1,0,1:2:0:0:
405,133,182913,1,10,0:2:0:0:
90,101,183029,1,2,0:0:0:0:
306,270,183144,6,0,B|348:232|400:262|412:304|412:304|412:316|412:316|412:358|454:384|494:373,1,248.400000947571,6|8,1:2|0:2,0:0:0:0:
486,168,183490,2,0,B|439:138|390:164|378:206|378:206|378:218|378:218|378:260|336:286|296:275,1,248.400000947571,2|0,3:2|1:2,0:0:0:0:
165,60,183836,2,0,B|207:37|262:63|261:122,1,124.200000473785,10|0,0:2|0:0,0:0:0:0:
66,296,184067,6,0,P|135:239|310:200,1,248.400000947571,2|8,1:2|0:0,0:0:0:0:
450,230,184413,1,2,3:2:0:0:
367,24,184529,5,8,0:2:0:0:
292,357,184644,1,8,0:2:0:0:
363,16,184759,5,10,0:2:0:0:
441,349,184874,1,8,0:2:0:0:
159,171,184990,6,0,B|133:172|105:151|102:107|102:107|156:63|247:100|239:170,1,248.400000947571,6|8,1:2|0:2,0:0:0:0:
360,365,185336,2,0,P|326:320|347:238,1,124.200000473785,0|0,3:2|1:2,0:0:0:0:
450,84,185567,1,0,1:2:0:0:
206,274,185682,2,0,P|124:270|91:215,1,124.200000473785,8|0,0:2|0:0,0:0:0:0:
234,33,185913,6,0,P|316:37|349:92,1,124.200000473785,0|0,1:2|0:0,0:0:0:0:
400,266,186144,1,8,0:2:0:0:
115,128,186259,2,0,P|77:54|108:-1,1,124.200000473785,0|0,3:2|1:2,0:0:0:0:
364,166,186490,1,0,1:2:0:0:
160,296,186606,1,10,0:2:0:0:
221,81,186721,1,2,0:0:0:0:
379,292,186836,6,0,B|384:356|291:398|241:365|241:365|286:362|308:319,1,248.400000947571,6|8,1:2|0:2,0:0:0:0:
394,141,187182,2,0,P|454:145|495:229,1,124.200000473785,0|0,3:2|1:2,0:0:0:0:
211,234,187413,1,0,1:2:0:0:
345,31,187529,1,10,0:2:0:0:
388,296,187644,1,0,0:0:0:0:
225,108,187759,6,0,B|193:81|136:95|124:142|124:142|127:148|127:148|119:200|65:230|8:186,1,248.400000947571,2|8,1:2|0:2,0:0:0:0:
114,16,188106,1,0,1:2:0:0:
264,174,188221,2,0,P|304:118|284:60,1,124.200000473785,2|0,1:2|1:2,0:0:0:0:
125,226,188452,2,0,P|153:288|213:300,1,124.200000473785,8|0,0:2|0:0,0:0:0:0:
284,59,188682,6,0,P|215:52|175:98,1,124.200000473785,4|0,1:2|0:0,0:0:0:0:
453,324,188913,2,0,B|478:295|477:244|436:214|431:221|418:231|373:201|365:143|397:103,1,248.400000947571,10|0,0:2|1:2,0:0:0:0:
492,7,189259,1,0,1:2:0:0:
504,150,189375,2,0,P|463:206|379:198,1,124.200000473785,8|0,0:2|0:0,0:0:0:0:
180,225,189606,6,0,B|163:198|120:196|120:196|178:156|269:206|265:289,1,248.400000947571,0|8,1:2|0:2,0:0:0:0:
29,290,189952,2,0,P|-5:229|24:159,1,124.200000473785,0|0,3:2|1:2,0:0:0:0:
97,65,190182,1,0,1:2:0:0:
239,367,190298,2,0,P|273:306|244:236,1,124.200000473785,10|0,0:2|0:0,0:0:0:0:
86,56,190529,6,0,P|103:109|186:123,1,124.200000473785,4|0,1:2|0:0,0:0:0:0:
368,0,190759,5,10,0:2:0:0:
152,234,190875,1,2,3:2:0:0:
419,92,190990,5,2,1:2:0:0:
163,130,191106,1,2,1:2:0:0:
379,198,191221,5,10,0:2:0:0:
235,69,191336,1,2,0:0:0:0:
268,262,191452,5,2,1:2:0:0:
334,100,191567,1,2,0:0:0:0:
337,315,191682,5,10,0:2:0:0:
263,153,191798,1,2,1:2:0:0:
130,323,191913,5,10,0:2:0:0:
465,92,192029,1,10,0:2:0:0:
106,206,192144,1,10,0:2:0:0:
480,365,192259,1,10,0:2:0:0:
261,91,192375,6,0,B|265:45|305:29|305:29|212:13|161:122|223:175,1,285.200002175903,6|8,1:2|0:2,0:0:0:0:
337,233,192721,2,0,B|307:212|252:226|238:272|238:272|238:288|238:288|236:326|185:368|124:320,1,248.400000947571,0|0,3:2|1:2,0:0:0:0:
0,144,193067,2,0,P|20:192|97:199,1,124.200000473785,8|0,0:2|0:0,0:0:0:0:
334,106,193298,5,2,1:2:0:0:
168,17,193413,1,0,0:0:0:0:
360,100,193529,1,10,0:2:0:0:
172,184,193644,1,2,3:2:0:0:
364,288,193759,5,2,1:2:0:0:
234,66,193875,1,2,1:2:0:0:
170,300,193990,1,10,0:2:0:0:
306,29,194106,1,2,0:0:0:0:
379,319,194221,5,6,1:2:0:0:
408,351,194298,1,2,0:0:0:0:
446,360,194375,1,2,0:0:0:0:
483,343,194452,2,0,P|502:294|451:230,1,124.200000473785,8|0,0:2|3:2,0:0:0:0:
126,173,194682,5,0,1:2:0:0:
351,84,194798,1,0,1:2:0:0:
161,288,194913,1,10,0:2:0:0:
247,24,195029,1,2,0:0:0:0:
307,328,195144,5,2,1:2:0:0:
154,48,195259,1,2,0:0:0:0:
80,352,195375,1,10,0:2:0:0:
268,116,195490,1,2,1:2:0:0:
451,336,195606,5,2,1:2:0:0:
419,370,195682,1,0,0:0:0:0:
379,374,195759,1,0,0:0:0:0:
343,353,195836,2,0,P|322:304|367:233,1,124.200000473785,10|0,0:2|0:0,0:0:0:0:
496,90,196067,6,0,B|479:147|408:177|361:136|361:136|356:75|410:72,1,248.400000947571,4|8,1:2|0:2,0:0:0:0:
290,49,196413,2,0,B|307:-8|378:-38|425:3|425:3|430:64|376:67,1,248.400000947571,0|0,3:2|1:2,0:0:0:0:
216,140,196759,2,0,P|174:110|172:27,1,124.200000473785,10|0,0:2|0:0,0:0:0:0:
388,259,196990,6,0,P|383:310|312:353,1,124.200000473785,0|0,1:2|0:0,0:0:0:0:
81,220,197221,2,0,B|75:161|167:111|216:141|216:141|172:169|184:223,1,248.400000947571,10|2,0:2|1:2,0:0:0:0:
302,276,197567,1,0,1:2:0:0:
473,41,197682,2,0,P|414:48|379:122,1,124.200000473785,10|2,0:2|0:0,0:0:0:0:
447,334,197913,6,0,P|464:226|489:106,1,186.300000710678,6|0,1:2|0:0,0:0:0:0:
470,139,198144,2,0,P|454:216|442:294,1,124.200000473785,8|2,0:2|3:2,0:0:0:0:
171,255,198375,6,0,P|154:147|129:27,1,186.300000710678,2|0,1:2|0:0,0:0:0:0:
147,60,198606,2,0,P|162:137|174:215,1,124.200000473785,10|0,0:2|0:0,0:0:0:0:
237,322,198836,6,0,P|176:353|118:330,1,124.200000473785,2|0,1:2|0:0,0:0:0:0:
317,78,199067,2,0,P|375:62|428:92,1,124.200000473785,10|2,0:2|1:2,0:0:0:0:
87,129,199298,5,10,0:2:0:0:
406,263,199413,1,8,0:2:0:0:
79,121,199529,5,10,0:2:0:0:
298,384,199644,1,8,0:2:0:0:
219,30,199759,5,2,0:0:0:0:
216,25,199990,6,0,B|179:58|180:125|234:164|240:155|257:142|326:175|333:255|275:307,1,303.600002895355,14|0,1:2|1:2,0:0:0:0:
375,66,200336,1,0,1:2:0:0:
213,262,200452,2,0,P|225:185|284:161,1,124.200000473785,8|0,0:2|0:0,0:0:0:0:
425,345,200682,6,0,B|431:372|479:386|479:386|538:340|505:242|439:236,1,248.400000947571,0|8,1:2|0:2,0:0:0:0:
300,324,201029,2,0,P|259:371|188:366,1,124.200000473785,2|0,3:2|1:2,0:0:0:0:
61,274,201259,1,0,1:2:0:0:
197,155,201375,2,0,P|213:237|227:303,1,124.200000473785,8|0,0:2|0:0,0:0:0:0:
112,109,201606,6,0,P|153:62|224:67,1,124.200000473785,4|0,1:2|0:0,0:0:0:0:
476,251,201836,1,10,0:2:0:0:
363,33,201952,1,0,3:2:0:0:
325,292,202067,1,2,1:2:0:0:
450,82,202182,1,2,1:2:0:0:
496,353,202298,1,10,0:2:0:0:
343,117,202413,1,2,0:0:0:0:
173,317,202529,5,2,1:2:0:0:
434,193,202644,1,2,0:0:0:0:
152,49,202759,1,10,0:2:0:0:
329,352,202875,1,2,1:2:0:0:
388,14,202990,1,2,1:2:0:0:
122,231,203106,1,2,1:2:0:0:
485,270,203221,2,0,P|523:224|500:150,1,124.200000473785,10|0,0:2|0:0,0:0:0:0:
262,0,203452,6,0,B|220:15|205:70|238:105|238:105|252:113|252:113|283:133|286:205|221:226,1,248.400000947571,4|10,1:2|0:2,0:0:0:0:
59,226,203798,2,0,B|92:254|147:240|162:194|162:194|162:178|162:178|169:138|215:105|274:148,1,248.400000947571,2|0,3:2|1:2,0:0:0:0:
265,297,204144,2,0,P|204:293|168:245,1,124.200000473785,10|0,0:2|0:0,0:0:0:0:
379,91,204375,5,0,1:2:0:0:
382,104,204432,1,0,3:0:0:0:
386,120,204490,1,0,3:0:0:0:
390,133,204548,1,0,3:0:0:0:
393,146,204606,2,0,P|376:209|354:295,1,124.200000473785,10|0,0:2|0:0,0:0:0:0:
258,384,204836,5,0,1:2:0:0:
261,371,204893,1,0,3:0:0:0:
265,355,204951,1,0,1:2:0:0:
269,342,205009,1,0,3:0:0:0:
272,328,205067,2,0,P|255:265|233:179,1,124.200000473785,10|0,0:2|0:0,0:0:0:0:
76,58,205298,6,0,B|59:24|13:23|13:23|78:-1|148:20|154:88,1,248.400000947571,6|10,1:2|0:2,0:0:0:0:
4,135,205644,1,0,3:2:0:0:
217,184,205759,2,0,B|187:154|130:162|112:206|112:206|110:222|110:222|104:259|48:298|-9:243,1,248.400000947571,2|10,1:2|0:2,0:0:0:0:
204,366,206106,1,2,0:0:0:0:
369,258,206221,6,0,P|348:322|329:396,1,124.200000473785,0|0,1:2|0:0,0:0:0:0:
217,184,206452,2,0,P|200:124|181:65,1,124.200000473785,8|0,0:2|1:2,0:0:0:0:
451,44,206682,5,10,0:2:0:0:
74,195,206798,1,8,0:2:0:0:
435,358,206913,1,8,0:2:0:0:
445,357,207144,6,0,B|411:315|350:328|350:328|317:282|344:199|424:209,1,273.700005220413,4|0,1:2|0:0,0:0:0:0:
328,40,208067,6,0,B|328:85|374:117|422:101|422:101|445:160|401:227|317:204|293:156|293:156|247:115|200:121|163:163|175:224|175:224|230:224|259:264|251:302,1,662.399979785157,2|0,0:0|0:0,0:0:0:0:
251,324,214528,5,12,0:2:0:0:
251,324,214990,1,10,0:0:0:0:
251,324,215451,1,10,0:0:0:0:
251,324,215913,1,10,0:0:0:0:
251,324,216374,1,10,0:0:0:0:
251,324,216836,1,10,0:0:0:0:
251,324,217297,1,10,0:0:0:0:
251,324,217759,1,10,0:0:0:0:
451,15,218220,6,0,P|485:27|490:96,3,101.200003088379,14|10|10|10,1:2|0:0|0:0|0:0,0:0:0:0:
67,366,220067,6,0,P|33:354|28:285,5,101.200003088379,10|10|10|10|10|10,0:0|0:0|0:0|0:0|0:0|0:0,0:0:0:0:
21,295,222836,5,10,0:0:0:0:
232,137,222951,1,8,0:0:0:0:
33,210,223067,1,8,0:0:0:0:
263,339,223182,1,8,0:0:0:0:
131,179,223297,1,10,0:0:0:0:
126,174,223528,5,8,0:0:0:0:
155,288,223644,1,4,3:0:0:0:
285,98,223759,6,0,P|329:109|374:125,1,78.2000014915467,6|0,1:2|0:0,0:0:0:0:
230,267,223989,2,0,P|192:279|154:288,1,78.2000014915467,2|0,0:2|0:0,0:0:0:0:
418,263,224220,1,10,0:2:0:0:
419,247,224297,1,8,0:2:0:0:
421,231,224374,1,8,0:2:0:0:
423,215,224451,1,10,0:2:0:0:
423,215,224682,6,0,P|413:166|404:123,1,78.2000014915467,0|0,1:0|0:0,0:0:0:0:
273,29,224912,2,0,P|265:67|257:105,1,78.2000014915467,8|0,0:0|0:0,0:0:0:0:
141,263,225143,5,8,0:0:0:0:
92,67,225259,1,8,0:0:0:0:
134,260,225374,1,10,0:0:0:0:
85,64,225490,1,8,0:0:0:0:
224,198,225605,6,0,P|253:220|303:212,1,78.2000014915467,6|0,1:2|0:0,0:0:0:0:
422,151,225835,2,0,P|393:129|343:137,1,78.2000014915467,2|4,0:2|3:0,0:0:0:0:
377,311,226066,1,10,0:2:0:0:
388,307,226143,1,8,0:2:0:0:
399,303,226220,1,8,0:2:0:0:
410,299,226297,1,10,0:2:0:0:
410,299,226528,6,0,P|420:341|430:394,1,78.2000014915467,0|0,1:0|0:0,0:0:0:0:
495,171,226759,2,0,P|502:132|511:94,1,78.2000014915467,8|0,0:0|0:0,0:0:0:0:
326,207,226989,5,8,0:0:0:0:
512,276,227105,1,8,0:0:0:0:
325,199,227220,1,10,0:0:0:0:
511,268,227336,1,8,0:0:0:0:
272,345,227451,6,0,P|222:366|187:382,1,78.2000014915467,6|0,1:2|0:0,0:0:0:0:
49,258,227682,2,0,P|99:279|134:295,1,78.2000014915467,2|4,0:2|3:0,0:0:0:0:
237,174,227912,1,10,0:2:0:0:
235,185,227989,1,8,0:2:0:0:
233,196,228066,1,8,0:2:0:0:
231,207,228143,1,10,0:2:0:0:
231,207,228374,6,0,P|223:158|215:107,1,78.2000014915467,0|0,1:0|0:0,0:0:0:0:
402,302,228605,2,0,P|410:253|418:202,1,78.2000014915467,8|0,0:0|0:0,0:0:0:0:
149,322,228835,5,8,0:0:0:0:
328,256,228951,1,8,0:0:0:0:
146,331,229066,1,10,0:0:0:0:
325,265,229182,1,8,0:0:0:0:
96,168,229297,6,0,P|57:153|12:134,1,78.2000014915467,6|0,1:2|0:0,0:0:0:0:
219,40,229528,2,0,P|255:24|291:10,1,78.2000014915467,2|4,0:2|3:0,0:0:0:0:
208,203,229759,1,10,0:2:0:0:
207,191,229835,1,8,0:2:0:0:
205,179,229912,1,8,0:2:0:0:
203,167,229989,1,10,0:2:0:0:
203,167,230220,6,0,L|186:265,1,78.2000014915467,0|0,1:0|0:0,0:0:0:0:
315,365,230451,2,0,L|328:287,1,78.2000014915467,8|0,0:0|0:0,0:0:0:0:
440,139,230682,5,8,0:0:0:0:
480,305,230797,1,8,0:0:0:0:
446,132,230912,1,10,0:0:0:0:
486,298,231027,1,8,0:0:0:0:
344,221,231143,6,0,B|295:199|241:243|286:265|239:323|172:287,1,193.199994104004,6|8,1:2|0:0,0:0:0:0:
112,347,231489,2,0,P|60:334|2:340,1,96.5999970520021,0|0,3:0|1:0,0:0:0:0:
10,252,231720,1,0,1:0:0:0:
0,255,231835,2,0,P|-17:206|17:156,1,96.5999970520021,10|0,0:0|0:0,0:0:0:0:
8,67,232066,6,0,P|76:86|204:115,1,193.199994104004,0|8,1:2|0:0,0:0:0:0:
260,61,232412,2,0,P|225:29|154:45,1,96.5999970520021,0|2,3:0|1:2,0:0:0:0:
140,175,232643,1,0,1:0:0:0:
138,185,232759,2,0,P|173:217|244:201,1,96.5999970520021,8|0,0:0|0:0,0:0:0:0:
357,146,232989,6,0,P|341:224|316:349,1,193.199994104004,0|8,1:2|0:0,0:0:0:0:
394,377,233335,1,0,3:0:0:0:
398,384,233451,2,0,B|433:348|433:348|414:292,1,96.5999970520021,2|0,1:2|1:0,0:0:0:0:
259,194,233682,2,0,B|224:230|224:230|243:286,1,96.5999970520021,8|0,0:0|0:0,0:0:0:0:
484,137,233912,6,0,P|423:121|290:91,1,193.199994104004,2|8,1:2|0:0,0:0:0:0:
153,99,234259,1,0,3:0:0:0:
143,96,234374,2,0,P|134:41|164:2,1,96.5999970520021,2|0,1:2|1:0,0:0:0:0:
275,220,234605,1,8,0:0:0:0:
370,37,234720,1,8,0:0:0:0:
496,184,234835,6,0,P|521:253|478:369,1,193.199994104004,14|0,0:2|1:2,0:0:0:0:
472,351,235182,1,0,1:2:0:0:
266,344,235297,6,0,P|241:275|284:159,1,193.199994104004,8|0,0:2|1:2,0:0:0:0:
290,177,235644,1,0,1:2:0:0:
508,183,235759,6,0,P|533:252|490:368,1,193.199994104004,8|0,0:2|1:2,0:0:0:0:
484,350,236106,1,0,1:2:0:0:
239,346,236221,6,0,P|214:277|257:161,1,193.199994104004,8|2,0:2|1:2,0:0:0:0:
263,179,236566,1,0,1:2:0:0:
382,287,236682,6,0,P|368:196|343:77,1,193.199994104004,10|0,0:2|1:2,0:0:0:0:
367,72,237028,1,0,1:2:0:0:
99,271,237143,6,0,P|113:180|138:61,1,193.199994104004,8|0,0:2|1:2,0:0:0:0:
114,56,237489,1,0,1:2:0:0:
409,301,237605,6,0,P|395:210|370:91,1,193.199994104004,8|0,0:2|1:2,0:0:0:0:
394,86,237951,1,0,1:2:0:0:
113,309,238066,6,0,P|123:247|137:186,1,96.5999970520021,10|0,0:2|0:0,0:0:0:0:
226,25,238297,1,10,0:0:0:0:
296,248,238412,1,8,0:0:0:0:
137,132,238528,6,0,P|93:138|60:178,1,78.2000014915467,6|0,1:2|0:0,0:0:0:0:
114,274,238759,2,0,P|158:268|191:228,1,78.2000014915467,2|0,0:2|0:0,0:0:0:0:
292,127,238989,1,10,0:2:0:0:
303,129,239066,1,8,0:2:0:0:
314,132,239143,1,8,0:2:0:0:
324,136,239220,1,10,0:2:0:0:
324,136,239451,6,0,P|314:180|304:225,1,78.2000014915467,0|0,1:0|0:0,0:0:0:0:
430,354,239682,2,0,P|421:315|412:277,1,78.2000014915467,8|0,0:0|0:0,0:0:0:0:
263,293,239912,5,8,0:0:0:0:
496,190,240028,1,8,0:0:0:0:
258,283,240143,1,10,0:0:0:0:
491,180,240259,1,8,0:0:0:0:
304,98,240374,6,0,P|315:43|325:-3,1,78.2000014915467,6|0,1:2|0:0,0:0:0:0:
112,149,240605,2,0,P|120:187|127:225,1,78.2000014915467,2|4,0:2|3:0,0:0:0:0:
179,51,240835,1,10,0:2:0:0:
167,49,240912,1,8,0:2:0:0:
155,46,240989,1,8,0:2:0:0:
143,43,241066,1,10,0:2:0:0:
143,43,241297,6,0,P|105:54|54:66,1,78.2000014915467,0|0,1:0|0:0,0:0:0:0:
235,171,241528,2,0,P|272:180|310:191,1,78.2000014915467,8|0,0:0|0:0,0:0:0:0:
221,19,241759,5,8,0:0:0:0:
163,258,241874,1,8,0:0:0:0:
228,26,241989,1,10,0:0:0:0:
170,265,242104,1,8,0:0:0:0:
354,359,242220,6,0,P|394:376|440:365,1,78.2000014915467,6|0,1:2|0:0,0:0:0:0:
440,255,242451,2,0,P|400:238|354:249,1,78.2000014915467,2|4,0:2|3:0,0:0:0:0:
257,349,242682,1,10,0:2:0:0:
246,345,242759,1,8,0:2:0:0:
234,341,242835,1,8,0:2:0:0:
222,338,242912,1,10,0:2:0:0:
222,338,243143,6,0,P|234:289|250:230,1,78.2000014915467,0|0,1:0|0:0,0:0:0:0:
94,132,243374,2,0,P|103:169|113:207,1,78.2000014915467,8|0,0:0|0:0,0:0:0:0:
267,70,243605,5,8,0:0:0:0:
73,16,243720,1,8,0:0:0:0:
266,62,243835,1,10,0:0:0:0:
72,8,243950,1,8,0:0:0:0:
252,197,244066,6,0,P|295:196|331:167,1,78.2000014915467,6|0,1:2|0:0,0:0:0:0:
447,26,244297,2,0,P|404:27|368:56,1,78.2000014915467,2|4,0:2|3:0,0:0:0:0:
458,184,244528,1,10,0:2:0:0:
455,172,244605,1,8,0:2:0:0:
452,160,244682,1,8,0:2:0:0:
448,148,244759,1,10,0:2:0:0:
448,148,244989,6,0,P|437:202|427:254,1,78.2000014915467,0|0,1:0|0:0,0:0:0:0:
290,104,245220,2,0,P|279:50|267:-2,1,78.2000014915467,8|0,0:0|0:0,0:0:0:0:
104,259,245451,5,8,0:0:0:0:
157,64,245566,1,8,0:0:0:0:
109,266,245682,1,10,0:0:0:0:
162,71,245797,1,8,0:0:0:0:
318,277,245912,6,0,B|376:264|414:310|368:325|425:378|483:356,1,193.199994104004,6|8,1:2|0:0,0:0:0:0:
468,265,246259,2,0,P|480:214|497:151,1,96.5999970520021,0|0,3:0|1:0,0:0:0:0:
457,75,246489,1,0,1:0:0:0:
466,82,246605,2,0,P|420:114|368:93,1,96.5999970520021,10|0,0:0|0:0,0:0:0:0:
265,16,246835,6,0,P|197:0|133:92,1,193.199994104004,0|8,1:2|0:0,0:0:0:0:
51,113,247182,2,0,P|72:178|89:248,1,96.5999970520021,0|2,3:0|1:2,0:0:0:0:
172,254,247412,1,0,1:0:0:0:
181,247,247528,2,0,P|160:312|143:382,1,96.5999970520021,8|0,0:0|0:0,0:0:0:0:
389,352,247759,6,0,P|475:360|509:263,1,193.199994104004,0|8,1:2|0:0,0:0:0:0:
462,193,248105,1,0,3:0:0:0:
468,182,248220,2,0,P|418:159|356:146,1,96.5999970520021,2|0,1:2|1:0,0:0:0:0:
269,62,248451,2,0,P|319:39|381:26,1,96.5999970520021,8|0,0:0|0:0,0:0:0:0:
204,243,248682,6,0,P|185:162|146:37,1,193.199994104004,2|8,1:2|0:0,0:0:0:0:
75,15,249028,1,0,3:0:0:0:
58,14,249143,2,0,P|47:55|90:103,1,96.5999970520021,2|0,1:2|1:0,0:0:0:0:
278,187,249374,1,8,0:0:0:0:
109,301,249489,1,8,0:0:0:0:
223,40,249605,6,0,P|290:74|401:139,1,193.199994104004,14|0,0:2|1:2,0:0:0:0:
377,141,249951,1,0,1:2:0:0:
296,312,250066,6,0,P|291:236|292:108,1,193.199994104004,8|0,0:2|1:2,0:0:0:0:
306,128,250412,1,0,1:2:0:0:
481,125,250528,6,0,P|418:166|306:229,1,193.199994104004,8|0,0:2|1:2,0:0:0:0:
316,208,250874,1,0,1:2:0:0:
223,27,250989,6,0,P|290:61|401:126,1,193.199994104004,8|2,0:2|1:2,0:0:0:0:
377,128,251335,1,0,1:2:0:0:
151,152,251451,6,0,P|125:191|134:238,1,96.5999970520021,14|0,0:2|0:0,0:0:0:0:
407,366,251682,2,0,P|432:326|424:279,1,96.5999970520021,8|0,0:2|0:0,0:0:0:0:
160,0,251912,5,8,0:2:0:0:
231,371,252028,1,8,0:2:0:0:
425,35,252143,1,8,0:2:0:0:
81,194,252259,1,8,0:2:0:0:
424,279,252374,1,2,1:3:0:0:
429,286,252605,6,0,P|465:277|473:211,2,101.200003088379,2|2|2,0:0|0:0|0:0,0:0:0:0:
159,119,253297,6,0,B|100:112|56:35|104:-18|104:-18|151:-17|167:15|165:48,1,266.80000814209,6|8,1:2|0:0,0:0:0:0:
109,274,253643,1,0,0:0:0:0:
273,56,253759,1,2,1:2:0:0:
35,159,253874,1,0,1:0:0:0:
266,286,253989,2,0,B|319:249|302:199|302:199|283:201|269:240,1,133.400004071045,10|0,0:0|0:0,0:0:0:0:
104,384,254220,6,0,B|130:353|129:299|86:267|80:275|67:285|19:253|3:191|43:150,1,266.80000814209,2|8,1:2|0:0,0:0:0:0:
259,34,254566,2,0,P|229:105|213:194,1,133.400004071045,2|0,1:2|0:0,0:0:0:0:
57,49,254797,1,0,1:0:0:0:
233,301,254912,2,0,P|311:285|337:231,1,133.400004071045,10|0,0:0|0:0,0:0:0:0:
512,102,255143,6,0,B|448:152|366:101|371:21|371:21|407:43|446:25,1,266.80000814209,2|8,1:2|0:0,0:0:0:0:
229,182,255489,2,0,P|205:246|243:309,1,133.400004071045,2|0,0:0|1:2,0:0:0:0:
417,363,255720,1,0,1:0:0:0:
324,140,255835,2,0,P|280:87|207:88,1,133.400004071045,10|2,0:0|0:0,0:0:0:0:
72,352,256066,5,0,1:2:0:0:
280,237,256182,1,0,1:2:0:0:
77,93,256297,2,0,P|94:175|109:258,1,133.400004071045,10|0,0:0|1:2,0:0:0:0:
331,337,256528,1,2,1:2:0:0:
219,108,256643,1,0,1:2:0:0:
86,325,256759,2,0,P|147:367|214:344,1,133.400004071045,10|0,0:0|0:0,0:0:0:0:
443,102,256989,6,0,B|408:69|353:87|339:133|339:133|339:149|339:149|337:187|280:233|226:179,1,266.80000814209,6|8,1:2|0:0,0:0:0:0:
19,65,257335,1,0,0:0:0:0:
155,282,257451,1,2,1:2:0:0:
203,32,257566,1,0,1:0:0:0:
15,185,257682,2,0,B|-9:210|0:252|0:252|46:256|55:307,1,133.400004071045,8|0,0:0|0:0,0:0:0:0:
412,281,257912,6,0,B|461:227|435:139|361:122|361:122|360:172|311:192,1,266.80000814209,2|8,1:2|0:0,0:0:0:0:
208,319,258259,2,0,B|229:388|319:410|370:354|370:354|327:328|335:276,1,266.80000814209,2|0,1:2|1:0,0:0:0:0:
261,104,258605,2,0,P|226:143|250:235,1,133.400004071045,10|0,0:0|0:0,0:0:0:0:
460,46,258835,6,0,P|394:32|331:9,1,133.400004071045,2|0,1:2|0:0,0:0:0:0:
495,165,259066,1,8,0:0:0:0:
283,317,259182,2,0,P|345:294|411:280,1,133.400004071045,2|0,0:0|1:2,0:0:0:0:
251,97,259412,1,2,1:2:0:0:
85,368,259528,2,0,P|53:305|78:235,1,133.400004071045,10|2,0:0|0:0,0:0:0:0:
144,47,259759,5,2,1:2:0:0:
201,255,259874,1,2,1:2:0:0:
329,56,259989,5,10,0:0:0:0:
276,328,260105,1,2,1:2:0:0:
440,11,260220,5,2,1:2:0:0:
512,313,260335,1,2,1:2:0:0:
168,200,260451,5,10,0:0:0:0:
200,155,260528,1,8,0:0:0:0:
250,143,260605,1,8,0:0:0:0:
294,157,260682,6,0,B|329:179|334:215|334:215|392:176|376:60|274:59,1,266.80000814209,6|8,1:2|0:0,0:0:0:0:
87,240,261028,1,2,0:2:0:0:
180,26,261143,1,0,1:2:0:0:
233,253,261259,1,2,1:2:0:0:
45,111,261374,2,0,B|12:76|25:38|25:38|59:19|65:-20,1,133.400004071045,8|2,0:0|0:0,0:0:0:0:
335,214,261605,6,0,B|300:181|245:199|231:245|231:245|231:261|231:261|229:299|172:345|118:291,1,266.80000814209,0|8,1:2|0:0,0:0:0:0:
394,287,261951,2,0,P|431:234|415:171,1,133.400004071045,0|0,1:2|0:0,0:0:0:0:
220,82,262182,1,0,1:0:0:0:
298,307,262297,2,0,P|324:365|387:382,1,133.400004071045,10|0,0:2|0:0,0:0:0:0:
387,85,262528,6,0,B|422:67|453:85|453:85|457:34|395:-12|320:-1|286:59,1,266.80000814209,2|10,1:2|0:0,0:0:0:0:
112,247,262874,1,2,0:0:0:0:
337,157,262989,1,0,1:2:0:0:
110,27,263105,1,2,1:2:0:0:
273,284,263220,2,0,B|295:319|346:309|346:309|360:269|404:261,1,133.400004071045,8|2,0:0|0:0,0:0:0:0:
269,51,263451,6,0,B|261:23|214:9|214:9|155:55|188:153|254:159,1,266.80000814209,0|8,1:2|0:0,0:0:0:0:
410,53,263797,1,0,1:2:0:0:
273,284,263912,2,0,B|251:319|200:309|200:309|186:269|142:261,1,133.400004071045,2|0,1:2|1:2,0:0:0:0:
46,60,264143,1,10,0:0:0:0:
253,158,264259,1,8,0:0:0:0:
68,319,264374,6,0,P|94:240|126:129,1,174.799995332337,14|0,0:2|1:2,0:0:0:0:
119,152,264720,1,0,1:2:0:0:
348,40,264835,6,0,P|372:123|399:206,1,174.799995332337,8|0,0:2|1:2,0:0:0:0:
399,206,265182,1,0,1:2:0:0:
176,302,265297,6,0,P|258:332|339:367,1,174.799995332337,8|2,0:2|1:2,0:0:0:0:
338,367,265643,1,0,1:2:0:0:
153,169,265759,6,0,P|96:186|29:202,1,87.3999976661683,10|0,0:2|1:2,0:0:0:0:
349,26,265989,2,0,P|391:37|433:49,1,87.3999976661683,10|8,0:2|0:0,0:0:0:0:
127,364,266220,5,14,0:2:0:0:
66,47,266335,1,0,1:0:0:0:
190,296,266451,5,8,0:2:0:0:
237,2,266566,1,0,1:0:0:0:
360,384,266682,5,8,0:2:0:0:
313,69,266797,1,0,1:0:0:0:
424,320,266913,5,8,0:2:0:0:
471,16,267028,1,0,1:0:0:0:
82,200,267143,6,0,B|36:168|57:111|57:111|83:132|83:152,1,133.400004071045,8|0,0:2|1:0,0:0:0:0:
280,285,267374,1,4,3:0:0:0:
287,291,267451,1,4,3:0:0:0:
293,298,267528,1,4,3:0:0:0:
299,304,267605,2,0,B|345:272|324:215|324:215|298:236|298:256,1,133.400004071045,10|0,3:2|0:0,0:0:0:0:
219,32,267835,1,10,0:0:0:0:
431,163,267951,1,8,0:0:0:0:
198,379,268066,6,0,B|224:348|223:294|180:262|174:270|161:280|113:248|97:186|137:145,1,266.80000814209,6|8,1:2|0:0,0:0:0:0:
249,9,268412,1,0,0:0:0:0:
22,103,268528,1,2,1:2:0:0:
264,202,268643,1,0,1:0:0:0:
149,19,268759,2,0,B|114:16|101:-14|101:-14|60:-19|32:13,1,133.400004071045,10|0,0:0|0:0,0:0:0:0:
49,290,268989,6,0,B|80:316|134:315|166:272|158:266|148:253|180:205|242:189|283:229,1,266.80000814209,2|8,1:2|0:0,0:0:0:0:
390,384,269335,2,0,P|345:331|375:249,1,133.400004071045,2|0,1:2|0:0,0:0:0:0:
487,156,269566,1,0,1:0:0:0:
322,11,269682,2,0,P|339:83|353:177,1,133.400004071045,10|0,0:0|0:0,0:0:0:0:
229,300,269912,6,0,B|215:361|124:395|79:340|79:340|98:273|157:282,1,266.80000814209,2|8,1:2|0:0,0:0:0:0:
366,225,270259,2,0,P|343:302|330:383,1,133.400004071045,2|0,0:0|1:2,0:0:0:0:
142,169,270489,1,0,1:0:0:0:
342,74,270605,2,0,P|412:71|464:132,1,133.400004071045,10|2,0:0|0:0,0:0:0:0:
228,308,270835,5,0,1:2:0:0:
148,58,270951,1,0,1:2:0:0:
371,162,271066,2,0,P|380:225|336:293,1,133.400004071045,10|0,0:0|1:2,0:0:0:0:
97,147,271297,1,2,1:2:0:0:
302,22,271412,1,0,1:2:0:0:
234,228,271528,2,0,P|163:247|72:285,1,133.400004071045,10|0,0:0|0:0,0:0:0:0:
426,64,271759,6,0,B|441:30|418:-3|418:-3|518:-1|550:120|457:173,1,266.80000814209,6|8,1:2|0:0,0:0:0:0:
206,153,272105,1,0,0:0:0:0:
435,316,272220,1,2,1:2:0:0:
334,56,272335,1,0,1:0:0:0:
212,301,272451,2,0,B|234:336|285:326|285:326|299:286|343:278,1,133.400004071045,10|0,0:0|0:0,0:0:0:0:
209,48,272682,6,0,B|174:15|119:33|105:79|105:79|105:95|105:95|103:133|46:179|-8:125,1,266.80000814209,2|8,1:2|0:0,0:0:0:0:
219,165,273028,2,0,B|184:198|129:180|115:134|115:134|115:118|115:118|113:80|56:34|2:88,1,266.80000814209,2|0,1:2|1:0,0:0:0:0:
291,216,273374,2,0,P|310:155|264:84,1,133.400004071045,10|0,0:0|0:0,0:0:0:0:
187,307,273605,6,0,P|230:353|314:349,1,133.400004071045,2|0,1:2|0:0,0:0:0:0:
435,197,273835,1,8,0:0:0:0:
188,189,273951,2,0,P|125:203|87:278,1,133.400004071045,2|0,0:0|1:2,0:0:0:0:
419,345,274182,1,0,1:0:0:0:
321,84,274297,2,0,P|304:166|287:248,1,133.400004071045,10|2,0:0|0:0,0:0:0:0:
97,343,274528,5,2,1:2:0:0:
35,73,274643,1,2,1:2:0:0:
164,273,274759,5,10,0:0:0:0:
202,12,274874,1,2,1:2:0:0:
354,353,274989,5,2,1:2:0:0:
304,59,275105,1,2,1:2:0:0:
484,212,275220,5,10,0:0:0:0:
452,257,275297,1,8,0:0:0:0:
402,269,275374,1,8,0:0:0:0:
364,247,275451,6,0,B|379:213|356:180|356:180|456:182|498:313|395:356,1,266.80000814209,6|8,1:2|0:0,0:0:0:0:
191,177,275797,1,2,0:2:0:0:
394,71,275912,1,0,1:2:0:0:
276,310,276028,1,2,1:2:0:0:
150,70,276143,2,0,P|188:31|284:64,1,133.400004071045,8|2,0:0|0:0,0:0:0:0:
143,301,276374,6,0,B|154:338|188:352|188:352|140:394|25:359|53:249,1,266.80000814209,0|8,1:2|0:0,0:0:0:0:
206,176,276720,2,0,B|232:147|227:111|227:111|288:132|315:249|205:279,1,266.80000814209,0|0,1:2|1:0,0:0:0:0:
26,169,277066,2,0,P|71:118|152:123,1,133.400004071045,10|2,0:2|0:0,0:0:0:0:
358,349,277297,6,0,B|325:378|259:368|242:321|252:308|259:303|231:255|165:248|134:286,1,266.80000814209,2|10,1:2|0:0,0:0:0:0:
399,149,277643,1,2,0:0:0:0:
222,44,277759,1,0,1:2:0:0:
327,260,277874,1,2,1:2:0:0:
471,58,277989,2,0,P|417:21|353:32,1,133.400004071045,8|2,0:0|0:0,0:0:0:0:
161,190,278220,6,0,P|143:116|123:49,1,133.400004071045,0|0,1:2|0:0,0:0:0:0:
391,252,278451,2,0,P|372:316|356:380,1,133.400004071045,8|0,0:0|1:2,0:0:0:0:
238,79,278682,1,2,1:2:0:0:
476,197,278797,1,0,1:2:0:0:
225,310,278912,1,8,0:0:0:0:
369,65,279028,1,0,0:0:0:0:
397,351,279143,6,0,B|414:313|388:261|350:252|342:265|332:273|287:262|259:214|287:154,1,230,14|0,0:2|1:2,0:0:0:0:
278,187,279489,1,2,1:2:0:0:
145,299,279605,6,0,B|186:295|218:246|207:209|191:209|179:204|166:159|194:111|260:105,1,230,10|2,0:2|1:2,0:0:0:0:
227,114,279951,1,2,1:2:0:0:
63,60,280066,6,0,B|86:93|145:97|171:69|163:55|162:42|194:9|249:9|288:63,1,230,10|2,0:2|1:2,0:0:0:0:
264,38,280412,1,2,1:2:0:0:
348,356,280528,6,0,P|298:367|244:322,1,115,10|0,0:2|1:2,0:0:0:0:
436,66,280759,1,10,0:2:0:0:
186,177,280874,1,8,0:2:0:0:
453,322,280989,1,14,0:2:0:0:
256,192,281047,12,0,282605,0:0:0:0:
130,210,282835,5,8,0:0:0:0:
138,216,282912,2,0,P|130:167|120:116,1,64.399998034668,4|4,0:3|0:3,0:0:0:0:
201,52,283066,5,8,0:0:0:0:
208,59,283143,2,0,P|216:108|226:159,1,64.399998034668,4|4,0:3|0:3,0:0:0:0:
323,205,283297,5,8,0:2:0:0:
330,213,283374,2,0,P|322:164|312:113,1,64.399998034668,4|4,0:3|0:3,0:0:0:0:
392,48,283528,5,8,0:2:0:0:
400,56,283605,2,0,P|408:105|418:156,1,64.399998034668,4|4,0:3|0:3,0:0:0:0:
440,347,283759,5,10,0:0:0:0:
447,353,283989,6,0,P|483:341|492:279,1,101.200003088379,2|2,0:0|0:0,0:0:0:0:
156,131,284451,5,10,0:2:0:0:
156,131,284528,1,10,0:2:0:0:
156,131,284605,1,10,0:2:0:0:
156,131,284682,5,14,0:2:0:0:
271,365,284797,1,0,1:0:0:0:
345,65,284912,1,8,0:2:0:0:
175,298,285028,1,0,1:0:0:0:
74,49,285143,2,0,P|122:0|216:13,1,142.600001087952,10|0,0:2|1:0,0:0:0:0:
280,254,285374,1,8,0:2:0:0:
35,157,285489,1,0,1:0:0:0:
470,43,285605,6,0,B|435:6|372:24|363:73|363:73|363:89|363:89|361:127|304:173|244:117,1,285.200002175903,10|8,0:2|0:2,0:0:0:0:
116,367,285951,2,0,P|56:315|73:232,1,142.600001087952,2|8,1:2|0:2,0:0:0:0:
125,51,286182,1,0,1:2:0:0:
357,243,286297,2,0,P|270:276|205:311,1,142.600001087952,10|0,0:2|1:2,0:0:0:0:
392,0,286528,6,0,P|452:52|435:135,1,142.600001087952,14|0,0:2|1:2,0:0:0:0:
353,344,286759,1,10,0:2:0:0:
136,148,286874,2,0,P|223:115|288:80,1,142.600001087952,2|8,1:2|0:2,0:0:0:0:
463,307,287105,2,0,P|441:247|346:237,1,142.600001087952,2|8,1:2|0:2,0:0:0:0:
85,242,287335,1,2,1:2:0:0:
360,341,287451,1,8,0:2:0:0:
245,84,287566,1,0,1:2:0:0:
147,344,287682,6,0,B|177:376|213:364|213:364|235:319|286:329,1,142.600001087952,10|0,0:2|1:2,0:2:0:0:
353,53,287912,1,8,0:2:0:0:
154,195,288028,1,0,1:2:0:0:
455,283,288143,2,0,B|467:240|439:214|439:214|389:218|372:169,1,142.600001087952,10|0,0:2|1:2,0:2:0:0:
82,7,288374,5,14,0:2:0:0:
322,105,288489,1,0,1:2:0:0:
77,241,288605,1,8,0:2:0:0:
197,2,288720,1,0,1:2:0:0:
284,282,288835,2,0,P|246:326|149:314,1,142.600001087952,10|0,0:2|1:2,0:0:0:0:
358,141,289066,2,0,P|427:162|529:202,1,142.600001087952,8|0,0:2|1:2,0:0:0:0:
119,17,289297,6,0,B|90:55|111:119|157:131|164:120|173:110|230:130|252:207|198:257,1,285.200002175903,10|8,0:2|0:2,0:0:0:0:
0,290,289643,2,0,P|15:220|92:200,1,142.600001087952,2|8,1:2|0:2,0:0:0:0:
329,356,289874,1,0,1:2:0:0:
191,56,289989,2,0,P|171:135|149:211,1,142.600001087952,10|0,0:2|1:2,0:0:0:0:
413,177,290220,6,0,P|380:117|301:120,1,142.600001087952,14|0,0:2|1:2,0:0:0:0:
89,274,290451,1,8,0:2:0:0:
419,278,290566,2,0,P|474:264|502:167,1,142.600001087952,2|10,1:2|0:2,0:0:0:0:
300,2,290797,1,0,1:2:0:0:
283,259,290912,2,0,P|299:317|370:363,1,142.600001087952,10|0,0:2|1:2,0:0:0:0:
106,84,291143,5,10,0:2:0:0:
407,184,291259,1,2,1:2:0:0:
96,256,291374,1,10,0:0:0:0:
438,154,291489,1,10,0:2:0:0:
93,47,291605,1,10,0:2:0:0:
445,330,291720,1,10,0:2:0:0:
33,184,291835,1,10,0:2:0:0:
457,38,291951,1,10,0:2:0:0:
235,311,292066,6,0,B|224:340|242:381|293:382|293:382|349:337|329:242|257:218,1,303.600002895355,6|8,1:2|0:0,0:0:0:0:
62,131,292412,1,2,3:2:0:0:
247,12,292528,1,0,1:2:0:0:
146,257,292643,1,2,1:2:0:0:
17,24,292759,2,0,B|56:-11|99:8|99:8|107:36|148:44,1,133.400004071045,8|2,0:0|0:0,0:0:0:0:
475,84,292989,6,0,B|443:61|388:75|374:121|374:121|374:137|374:137|372:175|315:219|261:167,1,266.80000814209,0|8,1:2|0:0,0:0:0:0:
89,360,293335,2,0,P|169:353|199:279,1,133.400004071045,0|0,1:2|0:0,0:0:0:0:
98,147,293566,1,0,1:0:0:0:
334,377,293682,2,0,P|352:301|381:237,1,133.400004071045,10|0,0:2|0:0,0:0:0:0:
296,60,293912,6,0,B|275:30|296:-12|296:-12|208:-3|180:86|251:143,1,266.80000814209,2|10,1:2|0:0,0:0:0:0:
441,327,294259,1,2,0:0:0:0:
384,24,294374,1,0,1:2:0:0:
277,270,294489,1,2,1:2:0:0:
491,186,294605,2,0,B|526:147|507:104|507:104|479:96|471:55,1,133.400004071045,8|2,0:0|0:0,0:0:0:0:
217,153,294835,6,0,B|191:184|192:238|235:270|241:262|254:252|302:284|318:346|278:387,1,266.80000814209,0|8,1:2|0:0,0:0:0:0:
365,138,295182,1,0,1:2:0:0:
185,345,295297,2,0,P|123:371|58:332,1,133.400004071045,2|0,1:2|1:2,0:0:0:0:
209,82,295528,1,10,0:0:0:0:
345,284,295643,1,8,0:2:0:0:
123,286,295759,6,0,P|105:196|77:93,1,174.799995332337,14|0,0:2|1:2,0:0:0:0:
83,115,296105,1,0,1:2:0:0:
432,11,296220,6,0,P|409:95|392:181,1,174.799995332337,8|0,0:2|1:2,0:0:0:0:
392,181,296566,1,0,1:2:0:0:
101,102,296682,6,0,P|174:77|286:29,1,174.799995332337,8|2,0:2|1:2,0:0:0:0:
264,39,297028,1,0,1:2:0:0:
277,245,297143,6,0,B|234:260|234:260|193:216,1,87.3999976661683,10|0,0:2|1:2,0:0:0:0:
438,107,297374,2,0,B|481:92|481:92|522:136,1,87.3999976661683,10|8,0:2|0:2,0:0:0:0:
479,352,297605,5,14,0:2:0:0:
435,16,297720,1,0,1:0:0:0:
302,384,297835,5,8,0:2:0:0:
334,55,297951,1,0,1:0:0:0:
216,341,298066,5,8,0:2:0:0:
187,5,298181,1,0,1:0:0:0:
44,383,298296,5,8,0:2:0:0:
93,52,298412,1,0,1:0:0:0:
347,200,298528,6,0,B|398:191|397:138|397:138|360:130|349:170,1,133.400004071045,8|0,0:2|1:0,0:0:0:0:
125,290,298759,1,6,3:0:0:0:
129,300,298835,1,4,3:0:0:0:
132,311,298912,1,4,3:0:0:0:
135,320,298989,2,0,B|84:311|85:258|85:258|122:250|133:290,1,133.400004071045,10|0,0:2|0:0,0:0:0:0:
225,61,299220,1,10,0:0:0:0:
357,315,299335,1,8,0:0:0:0:
432,75,299451,6,0,B|416:30|362:29|362:29|430:-4|516:47|502:135,1,276.000010528565,6|2,1:2|0:0,0:0:0:0:
267,323,300374,6,0,B|280:274|223:222|211:246|197:253|130:231|154:135,1,211.60000403595,2|0,1:2|0:0,0:0:0:0:
70,298,300720,6,0,B|118:285|135:210|108:211|95:203|90:132|176:107,1,211.60000403595,2|0,1:2|0:0,0:0:0:0:
69,65,301066,6,0,P|117:90|176:49,1,105.800002017975,2|0,1:2|0:0,0:0:0:0:
426,143,301297,6,0,B|474:99|441:15|344:21|297:93|302:159|328:220|380:249,1,354.200010809327,6|0,1:2|0:0,0:0:0:0:
486,351,302220,6,0,P|426:380|368:365,1,105.800002017975,2|0,1:2|1:2,0:0:0:0:
238,171,302451,1,8,0:0:0:0:
205,384,302566,2,0,P|149:346|133:288,1,105.800002017975,2|0,1:2|0:0,0:0:0:0:
192,42,302797,1,0,1:2:0:0:
2,257,302912,2,0,P|6:190|48:147,1,105.800002017975,10|0,0:0|0:0,0:0:0:0:
380,210,303143,6,0,B|406:210|431:234|430:278|430:278|371:317|285:270|300:202,1,276.000010528565,6|2,1:2|0:0,0:0:0:0:
129,32,304066,6,0,B|93:84|139:124|151:118|162:116|204:125|227:172|192:237,1,211.60000403595,2|0,1:2|1:2,0:0:0:0:
33,299,304412,2,0,B|96:304|107:244|96:236|89:228|76:187|105:144|179:141,1,211.60000403595,2|0,1:2|1:2,0:0:0:0:
232,275,304759,2,0,P|180:286|125:249,1,105.800002017975,10|8,0:0|0:0,0:0:0:0:
366,198,304989,6,0,P|389:267|410:336,1,105.800002017975,6|0,1:2|1:2,0:0:0:0:
476,104,305220,2,0,P|491:53|508:3,1,105.800002017975,10|2,0:0|1:2,0:0:0:0:
475,323,305451,5,8,0:0:0:0:
336,27,305566,1,0,1:2:0:0:
255,328,305682,5,10,0:0:0:0:
402,82,305797,1,0,1:2:0:0:
443,384,305912,5,10,0:0:0:0:
296,118,306028,1,0,1:2:0:0:
114,305,306143,5,10,0:0:0:0:
438,195,306259,1,10,0:0:0:0:
126,81,306374,1,10,0:0:0:0:
441,330,306489,1,10,0:0:0:0:
45,185,306605,1,10,0:0:0:0:
433,45,306720,1,10,0:0:0:0:
229,315,306835,6,0,B|214:349|237:382|237:382|137:380|105:259|198:206,1,266.80000814209,6|8,1:2|0:0,0:0:0:0:
300,20,307182,1,2,3:2:0:0:
59,141,307297,1,0,1:2:0:0:
305,238,307412,1,2,1:2:0:0:
130,1,307528,2,0,B|105:29|122:67|122:67|162:87|156:137,1,133.400004071045,8|2,0:0|0:0,0:0:0:0:
422,326,307759,6,0,B|396:295|397:241|440:209|446:217|459:227|507:195|523:133|483:92,1,266.80000814209,0|8,1:2|0:0,0:0:0:0:
250,28,308105,2,0,B|289:20|336:48|342:102|332:103|317:109|320:167|366:211|422:197,1,266.80000814209,0|0,1:2|1:0,0:0:0:0:
512,17,308451,2,0,P|465:10|407:82,1,133.400004071045,10|0,0:2|0:0,0:0:0:0:
197,318,308682,6,0,B|211:351|194:380|194:380|290:356|307:257|212:198,1,266.80000814209,2|10,1:2|0:0,0:0:0:0:
22,49,309028,1,2,0:0:0:0:
129,266,309143,1,0,1:2:0:0:
199,30,309259,1,2,1:2:0:0:
0,181,309374,2,0,B|-25:209|-8:247|-8:247|32:267|26:317,1,133.400004071045,8|2,0:0|0:0,0:0:0:0:
308,156,309605,6,0,B|374:150|407:52|348:6|348:6|281:25|290:84,1,266.80000814209,0|8,1:2|0:0,0:0:0:0:
412,254,309951,1,0,1:2:0:0:
163,259,310066,2,0,P|147:186|114:98,1,133.400004071045,2|0,1:2|1:2,0:0:0:0:
70,382,310297,1,10,0:0:0:0:
285,255,310412,1,8,0:0:0:0:
194,10,310528,6,0,B|211:48|185:100|147:109|139:96|129:88|84:99|56:147|84:207,1,230,14|0,0:2|1:2,0:0:0:0:
75,173,310874,1,2,1:2:0:0:
261,311,310989,6,0,B|219:306|187:258|198:220|214:220|225:215|238:171|211:122|145:117,1,230,10|2,0:2|1:2,0:0:0:0:
179,126,311335,1,0,1:2:0:0:
0,240,311451,6,0,B|24:206|82:202|109:231|101:244|100:257|132:290|187:291|225:236,1,230,10|2,0:2|1:2,0:0:0:0:
201,261,311797,1,2,1:2:0:0:
408,24,311912,6,0,P|349:15|305:74,1,115,10|0,0:2|1:2,0:0:0:0:
273,344,312143,1,10,1:2:0:0:
501,129,312259,1,8,0:0:0:0:
182,174,312374,1,14,0:2:0:0:
256,192,312432,12,0,313989,0:0:0:0:
40,70,314220,6,0,B|74:42|129:56|143:102|143:102|143:118|143:118|145:156|195:203|254:163,1,266.80000814209,4|8,1:2|0:2,0:0:0:0:
427,0,314566,2,0,B|363:-50|281:1|286:81|286:81|322:59|361:77,1,266.80000814209,0|0,1:2|1:2,0:0:0:0:
386,222,314912,2,0,P|453:206|474:126,1,133.400004071045,8|0,0:2|0:0,0:0:0:0:
182,212,315143,6,0,P|202:284|225:375,1,133.400004071045,2|0,1:2|0:0,0:0:0:0:
322,145,315374,1,8,0:2:0:0:
47,265,315489,2,0,B|21:234|22:180|65:148|71:156|84:166|132:134|148:72|108:31,1,266.80000814209,0|0,1:2|1:2,0:0:0:0:
182,212,315835,2,0,P|216:263|297:255,1,133.400004071045,8|0,0:2|0:0,0:0:0:0:
433,110,316066,6,0,B|412:80|433:38|433:38|353:45|318:136|406:201,1,266.80000814209,2|8,1:2|0:0,0:0:0:0:
512,254,316412,2,0,B|475:224|420:238|406:284|406:284|406:300|406:300|404:338|356:378|293:330,1,266.80000814209,0|0,1:2|1:0,0:0:0:0:
60,281,316759,2,0,P|84:345|161:354,1,133.400004071045,8|0,0:0|0:0,0:0:0:0:
116,118,316989,6,0,P|48:106|2:168,1,133.400004071045,2|0,1:2|0:0,0:0:0:0:
237,272,317220,2,0,P|251:199|276:115,1,133.400004071045,8|0,0:0|1:0,0:0:0:0:
498,253,317451,1,0,0:2:0:0:
402,53,317566,1,0,1:0:0:0:
348,317,317682,2,0,P|396:363|484:352,1,133.400004071045,8|0,0:0|0:0,0:0:0:0:
108,80,317912,6,0,B|75:75|56:35|56:35|-9:72|7:176|72:197,1,266.80000814209,4|8,1:2|0:2,0:0:0:0:
231,298,318259,2,0,B|251:272|295:275|295:275|296:200|197:162|147:208,1,266.80000814209,0|0,1:2|1:2,0:0:0:0:
0,338,318605,2,0,P|76:327|101:267,1,133.400004071045,8|0,0:2|0:0,0:0:0:0:
247,0,318835,6,0,P|218:71|257:122,1,133.400004071045,2|0,1:2|0:0,0:0:0:0:
412,224,319066,1,8,0:2:0:0:
512,44,319182,2,0,B|478:16|423:30|409:76|409:76|409:92|409:92|407:130|357:177|298:137,1,266.80000814209,0|0,1:2|1:2,0:0:0:0:
105,33,319528,2,0,P|136:113|157:201,1,133.400004071045,8|0,0:2|0:0,0:0:0:0:
132,337,319759,6,0,P|94:372|6:357,1,133.400004071045,2|0,1:2|0:0,0:0:0:0:
282,232,319989,2,0,P|345:220|397:260,1,133.400004071045,8|0,0:0|1:2,0:0:0:0:
105,252,320220,6,0,P|53:209|64:117,1,133.400004071045,2|0,1:2|1:0,0:0:0:0:
397,260,320451,2,0,P|390:324|339:365,1,133.400004071045,8|0,0:0|0:0,0:0:0:0:
193,85,320682,5,2,1:2:0:0:
281,297,320797,1,10,0:0:0:0:
108,52,320912,1,10,0:0:0:0:
367,171,321028,1,2,1:2:0:0:
141,297,321143,5,10,0:0:0:0:
271,26,321259,1,10,0:0:0:0:
362,326,321374,1,10,0:0:0:0:
192,70,321489,1,10,0:0:0:0:
129,316,321605,6,0,B|116:381|15:403|-24:340|-24:340|1:275|59:290,1,266.80000814209,6|8,1:2|0:0,0:0:0:0:
192,169,321951,2,0,B|254:147|324:223|289:289|289:289|220:299|204:242,1,266.80000814209,0|0,1:0|1:2,0:0:0:0:
75,184,322297,2,0,P|41:123|87:48,1,133.400004071045,8|0,0:0|0:0,0:0:0:0:
440,6,322528,6,0,B|469:38|458:87|423:116|418:109|405:99|355:127|352:187|388:243,1,266.80000814209,0|8,1:2|0:0,0:0:0:0:
471,330,322874,2,0,B|462:270|374:226|316:271|316:271|382:277|404:343,1,266.80000814209,0|0,1:0|1:2,0:0:0:0:
143,362,323220,1,10,0:0:0:0:
288,152,323335,1,2,0:0:0:0:
248,384,323451,6,0,P|232:280|184:121,1,266.80000814209,2|8,1:2|0:0,0:0:0:0:
296,27,323797,2,0,B|262:-1|207:13|193:59|193:59|193:75|193:75|191:113|141:160|82:120,1,266.80000814209,0|0,1:0|1:2,0:0:0:0:
379,131,324143,2,0,P|429:86|412:11,1,133.400004071045,8|0,0:0|0:0,0:0:0:0:
258,251,324374,6,0,B|224:308|284:391|355:371|355:371|380:306|327:278,1,266.80000814209,0|8,1:2|0:0,0:0:0:0:
167,146,324720,2,0,B|200:203|140:286|69:266|69:266|44:201|97:173,1,266.80000814209,0|0,1:2|1:2,0:0:0:0:
334,85,325066,1,10,0:0:0:0:
143,0,325182,1,2,0:0:0:0:
400,250,325297,6,0,B|474:247|506:156|452:97|452:97|438:137|396:147,1,266.80000814209,2|8,1:2|0:0,0:0:0:0:
274,261,325643,2,0,B|308:233|363:247|377:293|377:293|377:309|377:309|379:347|429:394|488:354,1,266.80000814209,0|0,1:0|1:2,0:0:0:0:
195,228,325989,2,0,P|196:302|258:340,1,133.400004071045,8|0,0:0|0:0,0:0:0:0:
131,54,326220,6,0,B|123:24|152:-5|152:-5|86:-27|0:44|59:130,1,266.80000814209,0|8,1:2|0:0,0:0:0:0:
251,143,326566,2,0,B|280:151|291:191|291:191|343:145|324:34|221:42,1,266.80000814209,0|0,1:0|1:2,0:0:0:0:
58,212,326912,2,0,P|119:250|191:217,1,133.400004071045,8|0,0:0|0:0,0:0:0:0:
492,223,327143,6,0,P|428:208|375:245,1,133.400004071045,2|0,1:2|0:0,0:0:0:0:
210,384,327374,1,8,0:0:0:0:
285,128,327489,2,0,B|256:160|267:209|302:238|307:231|320:221|370:249|384:310|337:365,1,266.80000814209,0|0,1:0|1:2,0:0:0:0:
477,82,327835,2,0,P|413:55|356:13,1,133.400004071045,8|0,0:0|0:0,0:0:0:0:
173,263,328066,5,2,1:2:0:0:
409,167,328182,1,0,1:2:0:0:
199,2,328297,2,0,P|160:56|189:128,1,133.400004071045,8|0,0:0|1:0,0:0:0:0:
267,323,328528,5,8,0:0:0:0:
361,17,328643,1,8,0:0:0:0:
277,332,328759,1,8,0:0:0:0:
371,26,328874,1,8,0:0:0:0:
488,336,328989,6,0,B|448:368|386:336|375:284|387:273|395:269|378:220|324:198|287:225,1,266.80000814209,4|8,1:2|0:2,0:0:0:0:
93,361,329335,2,0,P|170:359|203:292,1,133.400004071045,0|0,1:2|0:0,0:0:0:0:
0,198,329566,1,0,1:2:0:0:
147,135,329682,2,0,P|128:207|109:298,1,133.400004071045,8|0,0:2|0:0,0:0:0:0:
21,23,329912,6,0,B|55:-5|110:9|124:55|124:55|124:71|124:71|126:109|176:156|235:116,1,266.80000814209,2|8,1:2|0:2,0:0:0:0:
402,19,330259,2,0,P|348:40|345:134,1,133.400004071045,0|0,1:2|0:0,0:0:0:0:
495,194,330489,1,0,1:2:0:0:
315,299,330605,2,0,P|382:321|452:357,1,133.400004071045,8|0,0:2|0:0,0:0:0:0:
140,149,330835,6,0,B|64:144|22:230|69:295|69:295|87:258|130:252,1,266.80000814209,2|8,1:2|0:0,0:0:0:0:
281,135,331182,2,0,B|322:72|269:-7|189:0|189:0|212:35|195:74,1,266.80000814209,0|0,1:2|1:0,0:0:0:0:
251,271,331528,2,0,P|299:325|391:309,1,133.400004071045,8|0,0:0|0:0,0:0:0:0:
471,129,331759,6,0,P|400:143|368:231,1,133.400004071045,2|0,1:2|0:0,0:0:0:0:
456,373,331989,2,0,P|478:304|418:232,1,133.400004071045,8|0,0:0|1:0,0:0:0:0:
256,140,332220,1,0,0:0:0:0:
463,46,332335,1,0,1:0:0:0:
357,312,332451,2,0,P|292:304|251:254,1,133.400004071045,8|0,0:0|0:0,0:0:0:0:
96,83,332682,6,0,B|102:44|62:16|62:16|147:3|201:103|130:169,1,266.80000814209,4|8,1:2|0:2,0:0:0:0:
1,218,333028,2,0,B|35:190|90:204|104:250|104:250|104:266|104:266|106:304|161:354|224:300,1,266.80000814209,0|0,1:2|1:2,0:0:0:0:
367,119,333374,2,0,P|308:130|281:221,1,133.400004071045,8|0,0:2|0:0,0:0:0:0:
434,347,333605,6,0,P|453:290|388:221,1,133.400004071045,2|0,1:2|0:0,0:0:0:0:
273,344,333835,1,8,0:2:0:0:
487,117,333951,6,0,B|472:46|371:26|322:77|322:77|383:106|372:176,1,266.80000814209,0|0,1:2|1:2,0:0:0:0:
170,174,334297,2,0,P|142:116|187:31,1,133.400004071045,8|0,0:2|0:0,0:0:0:0:
298,311,334528,6,0,P|252:356|169:339,1,133.400004071045,2|0,1:2|0:0,0:0:0:0:
421,218,334759,2,0,P|482:235|509:315,1,133.400004071045,8|0,0:0|1:2,0:0:0:0:
186,351,334989,6,0,P|170:288|226:225,1,133.400004071045,2|0,0:0|1:0,0:0:0:0:
385,73,335220,2,0,P|354:129|269:137,1,133.400004071045,8|0,0:0|0:0,0:0:0:0:
114,62,335451,5,10,1:2:0:0:
244,299,335566,1,10,0:0:0:0:
19,66,335682,1,10,0:0:0:0:
313,231,335797,1,2,1:2:0:0:
110,34,335912,5,10,0:0:0:0:
186,349,336028,1,10,0:0:0:0:
216,2,336143,1,10,0:0:0:0:
76,294,336259,1,10,0:0:0:0:
407,67,336374,6,0,B|422:33|399:0|399:0|499:2|531:123|438:176,1,266.80000814209,6|8,1:2|0:0,0:0:0:0:
292,244,336720,2,0,B|255:248|237:284|237:284|189:196|278:108|370:162,1,266.80000814209,0|0,1:0|1:2,0:0:0:0:
507,287,337066,2,0,P|451:282|410:202,1,133.400004071045,8|0,0:0|0:0,0:0:0:0:
281,46,337297,6,0,B|314:17|369:31|383:77|383:77|383:93|383:93|385:131|448:174|496:123,1,266.80000814209,0|8,1:2|0:0,0:0:0:0:
245,251,337643,2,0,B|180:236|133:305|133:305|78:295|48:228|105:181,1,266.80000814209,0|0,1:0|1:2,0:0:0:0:
317,146,337989,1,10,0:0:0:0:
227,355,338105,1,2,0:0:0:0:
64,37,338220,6,0,B|129:-4|209:44|205:118|205:118|169:96|130:114,1,266.80000814209,2|8,1:2|0:0,0:0:0:0:
40,290,338566,2,0,B|-31:256|-28:158|39:127|39:127|38:169|73:194,1,266.80000814209,0|0,1:0|1:2,0:0:0:0:
232,209,338912,2,0,P|182:264|106:247,1,133.400004071045,8|0,0:0|0:0,0:0:0:0:
214,75,339143,6,0,B|256:45|316:75|327:127|316:134|307:142|324:191|378:210|420:185,1,266.80000814209,2|8,1:2|0:0,0:0:0:0:
494,64,339489,2,0,P|430:66|390:128,1,133.400004071045,2|0,1:2|0:0,0:0:0:0:
291,280,339720,1,0,1:2:0:0:
469,269,339835,2,0,P|502:191|465:125,1,133.400004071045,10|0,0:0|0:0,0:0:0:0:
100,300,340066,6,0,B|132:332|193:313|209:262|209:262|206:256|206:256|220:201|271:169|340:220,1,266.80000814209,2|8,1:2|0:0,0:0:0:0:
406,382,340412,2,0,B|417:338|370:294|318:306|318:306|314:312|314:312|260:327|207:299|216:214,1,266.80000814209,0|0,1:0|1:2,0:0:0:0:
358,150,340759,2,0,P|384:192|350:273,1,133.400004071045,8|0,0:0|0:0,0:0:0:0:
136,116,340989,6,0,P|108:57|136:0,1,133.400004071045,0|0,1:2|0:0,0:0:0:0:
292,95,341220,1,8,0:0:0:0:
197,240,341335,2,0,B|164:213|109:227|95:273|95:273|95:289|95:289|93:327|30:370|-18:319,1,266.80000814209,0|0,1:0|1:2,0:0:0:0:
58,159,341682,1,10,0:0:0:0:
174,345,341797,1,2,0:0:0:0:
396,175,341912,6,0,B|462:169|495:71|436:25|436:25|369:44|378:103,1,266.80000814209,2|8,1:2|0:0,0:0:0:0:
271,246,342259,2,0,B|241:305|306:385|377:359|377:359|396:292|341:268,1,266.80000814209,0|0,1:0|1:2,0:0:0:0:
276,113,342605,2,0,P|217:67|151:77,1,133.400004071045,8|0,0:0|0:0,0:0:0:0:
15,296,342835,5,2,1:2:0:0:
192,179,342951,1,0,1:2:0:0:
14,49,343066,2,0,P|37:128|53:201,1,133.400004071045,8|0,0:0|1:0,0:0:0:0:
369,60,343297,5,8,0:0:0:0:
272,373,343412,1,8,0:0:0:0:
378,69,343528,1,8,0:0:0:0:
281,382,343643,1,8,0:0:0:0:
171,238,343759,6,0,P|209:226|258:216,1,62.1000002368927,2|0,1:2|0:0,0:0:0:0:
106,135,344027,2,0,P|75:127|46:117,1,62.1000002368927
173,231,344246,6,0,P|211:219|260:209,1,62.1000002368927,2|0,0:0|0:0,0:0:0:0:
114,132,344473,2,0,P|83:124|54:114,1,62.1000002368927
343,14,344700,6,0,P|353:62|363:113,1,62.1000002368927,2|0,0:0|0:0,0:0:0:0:
436,179,344927,2,0,P|442:149|449:119,1,62.1000002368927
350,17,345155,6,0,P|360:65|370:116,1,62.1000002368927,2|0,0:0|0:0,0:0:0:0:
443,182,345382,2,0,P|449:151|455:121,1,62.1000002368927
357,296,345609,6,0,P|390:320|421:321,1,62.1000002368927,2|0,0:0|0:0,0:0:0:0:
261,193,345845,2,0,P|230:199|207:219,1,62.1000002368927
355,302,346081,6,0,P|388:326|419:327,1,62.1000002368927,2|0,0:0|0:0,0:0:0:0:
262,199,346317,2,0,P|231:205|208:225,1,62.1000002368927
23,359,346553,6,0,P|14:317|2:274,1,62.1000002368927,2|0,0:0|0:0,0:0:0:0:
95,160,346790,2,0,P|87:190|81:220,1,62.1000002368927
130,321,347026,5,2,0:0:0:0:
200,363,347144,1,2,0:0:0:0:
269,355,347262,1,2,0:0:0:0:
307,327,347380,1,2,0:0:0:0:
