osu file format v14

[General]
AudioFilename: audio.mp3
AudioLeadIn: 0
PreviewTime: 114117
Countdown: 0
SampleSet: Normal
StackLeniency: 0.7
Mode: 1
LetterboxInBreaks: 0
WidescreenStoryboard: 1

[Editor]
Bookmarks: 177521
DistanceSpacing: 0.9
BeatDivisor: 4
GridSize: 32
TimelineZoom: 1.899999

[Metadata]
Title:Kegare Naki Bara Juuji
TitleUnicode:穢れなき薔薇十字
Artist:Ariabl'eyeS
ArtistUnicode:Ariabl'eyeS
Creator:Kujinn
Version:A r M i N & Vulkin's Brennende Rose
Source:
Tags:featured artist fa Reform Nymphe Kiyoshi Guarden Armin A_r_M_i_N Vulkin Sytho matthewrigaud11 ariableyes japanese rock gothic metal 瑠璃色のローゼンクロイツ Ruriiro no Rena Luna Lyse リゼ Rosicrucian
BeatmapID:2383166
BeatmapSetID:1116349

[Difficulty]
HPDrainRate:4.5
CircleSize:4.5
OverallDifficulty:7.2
ApproachRate:10
SliderMultiplier:1.4
SliderTickRate:1

[Events]
//Background and Video events
0,0,"BG.jpg",0,0
//Break Periods
//Storyboard Layer 0 (Background)
//Storyboard Layer 1 (Fail)
//Storyboard Layer 2 (Pass)
//Storyboard Layer 3 (Foreground)
//Storyboard Layer 4 (Overlay)
//Storyboard Sound Samples

[TimingPoints]
816,666.666666666667,4,1,0,40,1,0
10422,714.285714285714,4,1,0,40,1,8
10422,-93.3358222885944,4,1,0,40,0,8
11136,693.64161849711,4,1,0,40,1,8
11136,-96.1076405574243,4,1,0,40,0,8
11482,666.666666666667,4,1,0,40,1,0
12148,722.89156626506,4,1,0,40,1,8
12148,-92.2253988748501,4,1,0,40,0,8
12509,666.666666666667,4,1,0,40,1,8
12842,666.666666666667,4,1,0,40,1,8
13842,625,4,1,0,40,1,8
13842,-106.666666666667,4,1,0,40,0,8
14154,722.89156626506,4,1,0,40,1,0
14154,-92.2253988748501,4,1,0,40,0,0
14696,666.666666666667,4,1,0,40,1,8
15529,526.315789473684,4,1,0,40,1,8
15529,-160,4,1,0,40,0,8
15792,740.740740740741,4,1,0,40,1,8
15792,-90.0009000090001,4,1,0,40,0,8
16162,666.666666666667,4,1,0,40,1,8
16828,631.578947368421,4,1,0,40,1,0
16828,-105.552037154317,4,1,0,40,0,0
17459,645.161290322581,4,1,0,40,1,8
17459,-103.337811305157,4,1,0,40,0,8
18104,697.674418604651,4,1,0,40,1,8
18104,-95.5566172957477,4,1,0,40,0,8
19150,661.521499448732,4,1,0,40,1,8
19150,-100.775975007558,4,1,0,40,0,8
19480,666.666666666667,4,1,0,40,1,0
21480,710.059171597633,4,1,0,40,1,8
21480,-93.8967136150235,4,1,0,40,0,8
21835,681.818181818182,4,1,0,40,1,8
21835,-97.7803852547179,4,1,0,40,0,8
22175,633.579725448786,4,1,0,40,1,0
22175,-105.218855218855,4,1,0,40,0,0
22650,664.451827242525,4,1,0,40,1,8
22650,-100.331092605598,4,1,0,40,0,0
24145,645.161290322581,4,1,0,40,1,8
24145,-103.337811305157,4,1,0,40,0,8
24790,645.161290322581,4,1,0,40,1,0
24790,-103.337811305157,4,1,0,40,0,0
25273,645.161290322581,4,1,0,40,1,8
25273,-103.337811305157,4,1,0,40,0,0
25918,444.444444444444,4,1,0,40,1,8
25918,-149.992500374981,4,1,0,40,0,8
26140,630.252100840336,4,1,0,40,1,8
26140,-105.7753331923,4,1,0,40,0,8
26770,689.655172413793,4,1,0,40,1,8
26770,-96.665055582407,4,1,0,40,0,8
27459,676.437429537768,4,1,0,40,1,0
27459,-98.5512959495417,4,1,0,40,0,0
29150,697.674418604651,4,1,0,40,1,8
29150,-95.5566172957477,4,1,0,40,0,8
30196,645.161290322581,4,1,0,40,1,0
30196,-103.337811305157,4,1,0,40,0,0
31163,659.340659340659,4,1,0,40,1,8
31163,-101.112234580384,4,1,0,40,0,8
31492,666.666666666667,4,1,0,40,1,8
32825,657.390161060589,4,1,0,40,1,0
32825,-101.409593347531,4,1,0,40,0,0
32989,-101.409593347531,4,1,0,10,0,0
35290,-101.409593347531,4,1,0,50,0,0
35454,461.538461538462,4,1,0,50,1,0
36261,-100,4,1,0,70,0,0
37242,-100,4,1,0,70,0,0
43751,-100,4,1,0,70,0,0
43867,-88.8888888888889,4,1,0,70,0,0
43982,-80,4,1,0,70,0,0
44097,-72.7272727272727,4,1,0,70,0,0
44213,-66.6666666666667,4,1,0,70,0,0
44270,-64,4,1,0,70,0,0
44328,-61.5384615384615,4,1,0,70,0,0
44444,-57.1428571428571,4,1,0,70,0,0
44559,-53.3333333333333,4,1,0,70,0,0
44684,230.769230769231,4,1,0,70,1,0
51597,-101.132686084142,4,1,0,70,0,0
51654,-102.280863250486,4,1,0,70,0,0
51712,-103.455410717981,4,1,0,70,0,0
51827,-105.887335874629,4,1,0,70,0,0
51943,-108.436347863804,4,1,0,70,0,0
52057,-111.111111111111,4,1,0,70,0,0
58635,-109.89010989011,4,1,0,70,0,0
58750,-108.695652173913,4,1,0,70,0,0
58866,-107.52688172043,4,1,0,70,0,0
58981,-106.382978723404,4,1,0,70,0,0
59039,-105.263157894737,4,1,0,70,0,0
59097,-104.166666666667,4,1,0,70,0,0
59212,-103.092783505155,4,1,0,70,0,0
59327,-102.040816326531,4,1,0,70,0,0
59385,-101.010101010101,4,1,0,70,0,0
59443,-100,4,1,0,70,0,0
66366,-100,4,1,0,70,0,0
66424,-98.7654320987654,4,1,0,70,0,0
66481,-97.5609756097561,4,1,0,70,0,0
66597,-95.2380952380952,4,1,0,70,0,0
66712,-93.0232558139535,4,1,0,70,0,0
66827,-90.9090909090909,4,1,0,70,0,0
66943,-91.6895355649955,4,1,0,70,0,0
67058,-92.4834963200817,4,1,0,70,0,0
67174,-93.2912403256984,4,1,0,70,0,0
67289,-94.1133067745582,4,1,0,70,0,0
67347,-94.5298416530623,4,1,0,70,0,0
67404,-94.9499898403511,4,1,0,70,0,0
67520,-95.801682852361,4,1,0,70,0,0
67635,-96.668793380121,4,1,0,70,0,0
67750,-97.551648720415,4,1,0,70,0,0
67866,-98.4508754744102,4,1,0,70,0,0
67981,-99.3668345303725,4,1,0,70,0,0
68097,-100.2999972919,4,1,0,70,0,0
68212,-101.250853038437,4,1,0,70,0,0
68289,-101.894836377272,4,1,0,70,0,0
68366,-102.546958816116,4,1,0,70,0,0
68443,-103.207588647578,4,1,0,70,0,0
68558,-104.214648827898,4,1,0,70,0,0
68674,-105.241555680676,4,1,0,70,0,0
68789,-106.288901738036,4,1,0,70,0,0
68904,-107.357303356311,4,1,0,70,0,0
69020,-108.44728431733,4,1,0,70,0,0
69135,-109.559745120209,4,1,0,70,0,0
69193,-110.124639066495,4,1,0,70,0,0
69250,-110.695265895563,4,1,0,70,0,0
69366,-111.85457116076,4,1,0,70,0,0
69481,-113.038416105714,4,1,0,70,0,0
69597,-114.247457708447,4,1,0,70,0,0
69712,-115.482775743998,4,1,0,70,0,0
69827,-116.745099916294,4,1,0,70,0,0
69943,-118.035325612249,4,1,0,70,0,0
70058,-119.354388243115,4,1,0,70,0,0
70135,-120.250264851208,4,1,0,70,0,0
70212,-121.159545312458,4,1,0,70,0,0
70289,-122.082830759013,4,1,0,70,0,0
70404,-123.494448307076,4,1,0,70,0,0
70510,-125,4,1,0,70,0,0
70520,-124.939092192556,4,1,0,70,0,0
77904,-117.647058823529,4,1,0,70,0,0
85289,-111.111111111111,4,1,0,70,0,0
92904,-80,4,1,0,70,0,0
92962,-105.263157894737,4,1,0,70,0,0
99597,-105.263157894737,4,1,0,70,0,0
99654,-107.38255033557,4,1,0,70,0,0
99712,-109.58904109589,4,1,0,70,0,0
99827,-114.285714285714,4,1,0,70,0,0
99943,-119.402985074627,4,1,0,70,0,0
100058,-125,4,1,0,70,0,0
107443,-111.111111111111,4,1,0,70,0,0
111135,-100,4,1,0,70,0,0
114809,-90.9090909090909,4,1,0,70,0,0
114837,-90.9090909090909,4,1,0,70,0,1
142530,-90.9090909090909,4,1,0,70,0,0
142544,-40,4,1,0,20,0,0
142760,-90.9090909090909,4,1,0,20,0,0
143424,-125,4,1,0,20,0,0
144347,-200,4,1,0,40,0,0
144376,461.538461538462,4,1,0,40,1,0
148010,-88.8888888888889,4,1,0,40,0,0
162779,-66.6666666666667,4,1,0,60,0,0
176558,-66.6666666666667,4,1,0,70,0,0
176673,-66.6666666666667,4,1,0,70,0,0
176789,-64,4,1,0,70,0,0
176904,-61.5384615384615,4,1,0,70,0,0
177019,-59.2592592592593,4,1,0,70,0,0
177135,-57.1428571428571,4,1,0,70,0,0
177250,-55.1724137931034,4,1,0,70,0,0
177366,-53.3333333333333,4,1,0,70,0,0
177481,-51.6129032258064,4,1,0,70,0,0
177538,-50.7936507936508,4,1,0,70,0,0
177606,230.769230769231,4,1,0,70,1,0
199932,-80,4,1,0,70,0,0
200048,-100,4,1,0,70,0,0
203394,-95.2380952380952,4,1,0,70,0,0
205240,-90.9090909090909,4,1,0,70,0,0
207086,-86.9565217391304,4,1,0,70,0,0
207144,461.538461538462,4,1,0,70,1,0
207144,-43.4782608695652,4,1,0,70,0,0
207259,-40,4,1,0,20,0,0
207490,-100,4,1,0,20,0,0
214182,-100,4,1,0,60,0,0
222826,-100,4,1,0,60,0,0
222941,-94.1176470588235,4,1,0,60,0,0
223057,-88.8888888888889,4,1,0,60,0,0
223172,-84.2105263157895,4,1,0,60,0,0
223287,-80,4,1,0,60,0,0
223403,-76.1904761904762,4,1,0,60,0,0
223518,-72.7272727272727,4,1,0,60,0,0
223634,-69.5652173913043,4,1,0,60,0,0
223701,-66.6666666666667,4,1,0,70,0,0
223759,230.769230769231,4,1,0,70,1,0
223759,-133.333333333333,4,1,0,70,0,0
231075,-111.111111111111,4,1,0,70,0,0
234825,-100,4,1,0,70,0,0
237999,-105.263157894737,4,1,0,70,0,0
238114,-111.111111111111,4,1,0,70,0,0
238229,-117.647058823529,4,1,0,70,0,0
238345,-125,4,1,0,70,0,0
238460,-133.333333333333,4,1,0,70,0,0
245902,-111.111111111111,4,1,0,70,0,0
249595,-100,4,1,0,70,0,0
253268,-90.9090909090909,4,1,0,70,0,0
253297,-90.9090909090909,4,1,0,70,0,1
280989,-90.9090909090909,4,1,0,70,0,0
281047,-40,4,1,0,20,0,0
281220,-100,4,1,0,20,0,0
282778,-100,4,1,0,70,0,0
284643,-83.3333333333333,4,1,0,70,0,0
284682,-83.3333333333333,4,1,0,70,0,1
291893,-86.9565217391304,4,1,0,70,0,1
292009,-90.9090909090909,4,1,0,70,0,1
297547,-83.3333333333333,4,1,0,70,0,1
298701,-90.9090909090909,4,1,0,70,0,1
299451,-90.9090909090909,4,1,0,70,0,0
299465,-100,4,1,0,70,0,0
304932,-90.9090909090909,4,1,0,70,0,0
305855,-86.9565217391304,4,1,0,70,0,0
306778,-83.3333333333333,4,1,0,70,0,0
306835,-83.3333333333333,4,1,0,70,0,1
312201,-86.9565217391304,4,1,0,70,0,1
312316,-90.9090909090909,4,1,0,70,0,1
312374,-90.9090909090909,4,1,0,70,0,0
312388,-40,4,1,0,20,0,0
312547,-100,4,1,0,20,0,0
314162,-100,4,1,0,70,0,0
320672,-100,4,1,0,70,0,0
320729,-99.3788819875776,4,1,0,70,0,0
320787,-98.7654320987654,4,1,0,70,0,0
320845,-98.159509202454,4,1,0,70,0,0
320902,-97.5609756097561,4,1,0,70,0,0
321018,-96.3855421686747,4,1,0,70,0,0
321133,-95.2380952380952,4,1,0,70,0,0
321191,-94.6745562130178,4,1,0,70,0,0
321249,-94.1176470588235,4,1,0,70,0,0
321306,-93.5672514619883,4,1,0,70,0,0
321364,-93.0232558139535,4,1,0,70,0,0
321479,-91.9540229885058,4,1,0,70,0,0
321595,-90.9090909090909,4,1,0,70,0,0
328056,-90.9090909090909,4,1,0,70,0,0
328172,-91.9540229885058,4,1,0,70,0,0
328229,-92.485549132948,4,1,0,70,0,0
328287,-93.0232558139535,4,1,0,70,0,0
328402,-94.1176470588235,4,1,0,70,0,0
328518,-95.2380952380952,4,1,0,70,0,0
328575,-95.8118191486378,4,1,0,70,0,0
328633,-96.3855421686747,4,1,0,70,0,0
328749,-97.5609756097561,4,1,0,70,0,0
328864,-98.7654320987654,4,1,0,70,0,0
328979,-100,4,1,0,70,0,0
335441,-100,4,1,0,70,0,0
335498,-99.3788819875776,4,1,0,70,0,0
335556,-98.7654320987654,4,1,0,70,0,0
335614,-98.159509202454,4,1,0,70,0,0
335671,-97.5609756097561,4,1,0,70,0,0
335787,-96.3855421686747,4,1,0,70,0,0
335902,-95.2380952380952,4,1,0,70,0,0
335960,-94.6745562130178,4,1,0,70,0,0
336018,-94.1176470588235,4,1,0,70,0,0
336075,-93.5672514619883,4,1,0,70,0,0
336133,-93.0232558139535,4,1,0,70,0,0
336248,-91.9540229885058,4,1,0,70,0,0
336364,-90.9090909090909,4,1,0,70,0,0
342825,-90.9090909090909,4,1,0,70,0,0
342941,-91.9485272144654,4,1,0,70,0,0
342998,-92.477252907716,4,1,0,70,0,0
343056,-93.0120078502135,4,1,0,70,0,0
343172,-94.100465420902,4,1,0,70,0,0
343287,-95.2146089678832,4,1,0,70,0,0
343345,-95.7816790719905,4,1,0,70,0,0
343402,-96.3554514060187,4,1,0,70,0,0
343460,-96.9362334069402,4,1,0,70,0,0
343518,-97.5239640760726,4,1,0,70,0,0
343633,-98.7212634742184,4,1,0,70,0,0
343701,-100,4,1,0,70,0,0
343759,600,4,1,0,70,1,0
343759,-38.4615384615385,4,1,0,70,0,0
343834,-38.4615384615385,4,1,0,20,0,0
344027,400,4,1,0,20,1,8
344246,454.545454545455,4,1,0,20,1,8
345609,472.44094488189,4,1,0,20,1,0

[Colours]
Combo1 : 222,223,208
Combo2 : 155,118,160
Combo3 : 91,126,170

[HitObjects]
233,155,10422,5,0,0:0:0:0:
231,252,10779,1,0,0:0:0:0:
125,261,11136,1,8,0:0:0:0:
221,188,11482,1,8,0:0:0:0:
134,235,12148,1,0,0:0:0:0:
183,253,12509,1,0,0:0:0:0:
183,253,12842,1,8,0:0:0:0:
183,253,13342,1,8,0:0:0:0:
191,253,13842,1,0,0:0:0:0:
191,253,14154,1,8,0:0:0:0:
191,253,14515,1,8,0:0:0:0:
191,253,14696,1,0,0:0:0:0:
191,253,15029,1,0,0:0:0:0:
191,253,15362,1,8,0:0:0:0:
148,214,15792,1,0,0:0:0:0:
226,223,16162,1,0,0:0:0:0:
148,214,16495,1,8,0:0:0:0:
214,243,16828,1,8,0:0:0:0:
214,243,17459,1,0,0:0:0:0:
214,243,18104,1,8,0:0:0:0:
214,243,18627,1,0,0:0:0:0:
214,243,19150,1,8,0:0:0:0:
214,243,19480,1,8,0:0:0:0:
226,187,19813,1,0,0:0:0:0:
220,219,19980,1,8,0:0:0:0:
214,243,20313,1,0,0:0:0:0:
214,243,20646,1,8,0:0:0:0:
167,206,21835,1,8,0:0:0:0:
203,177,22175,1,8,0:0:0:0:
158,181,22491,1,8,0:0:0:0:
158,181,22650,1,0,0:0:0:0:
158,181,22982,1,0,0:0:0:0:
158,181,23314,1,8,0:0:0:0:
158,181,24467,1,0,0:0:0:0:
158,181,24790,1,8,0:0:0:0:
158,181,25112,1,8,0:0:0:0:
147,189,25273,1,0,0:0:0:0:
158,181,25595,1,0,0:0:0:0:
146,178,25918,1,0,0:0:0:0:
150,190,26770,1,0,0:0:0:0:
150,190,27114,1,0,0:0:0:0:
150,190,27459,1,8,0:0:0:0:
150,190,29150,1,0,0:0:0:0:
150,190,29498,1,8,0:0:0:0:
150,190,29847,1,8,0:0:0:0:
150,190,30196,1,0,0:0:0:0:
150,190,31163,1,0,0:0:0:0:
150,190,31492,1,8,0:0:0:0:
150,190,32158,1,8,0:0:0:0:
150,190,32825,1,0,0:0:0:0:
256,192,33153,12,0,35125,0:0:0:0:
278,195,35454,5,8,0:0:0:0:
327,261,35915,1,8,0:0:0:0:
159,205,36377,1,8,0:0:0:0:
154,100,36492,5,8,0:0:0:0:
123,191,36607,1,0,0:0:0:0:
119,195,36723,1,0,0:0:0:0:
212,144,36838,1,8,0:0:0:0:
234,95,36954,1,8,0:0:0:0:
332,138,37069,1,8,0:0:0:0:
239,176,37184,1,8,0:0:0:0:
192,213,37300,1,4,0:0:0:0:
304,219,37761,1,8,0:0:0:0:
233,223,37992,1,0,0:0:0:0:
233,223,38107,1,0,0:0:0:0:
233,223,38223,1,8,0:0:0:0:
256,113,38454,1,8,0:0:0:0:
181,170,38684,1,0,0:0:0:0:
181,170,38915,1,0,0:0:0:0:
260,178,38992,1,8,0:0:0:0:
282,176,39069,1,8,0:0:0:0:
312,179,39146,1,0,0:0:0:0:
251,116,39492,1,0,0:0:0:0:
296,57,39607,1,8,0:0:0:0:
190,79,39838,1,0,0:0:0:0:
190,79,39954,1,0,0:0:0:0:
190,79,40069,1,8,0:0:0:0:
259,125,40184,1,8,0:0:0:0:
181,170,40300,1,0,0:0:0:0:
260,178,40377,1,8,0:0:0:0:
282,176,40454,1,8,0:0:0:0:
312,179,40531,1,0,0:0:0:0:
336,173,40646,1,0,0:0:0:0:
486,142,40761,1,8,0:0:0:0:
391,192,40838,1,8,0:0:0:0:
401,191,40915,1,8,0:0:0:0:
192,213,40992,1,4,0:0:0:0:
304,219,41453,1,8,0:0:0:0:
241,129,41684,1,0,0:0:0:0:
266,191,41915,1,8,0:0:0:0:
247,201,42146,1,0,0:0:0:0:
301,177,42261,1,0,0:0:0:0:
312,119,42377,1,8,0:0:0:0:
120,157,42607,1,0,0:0:0:0:
188,150,42838,1,8,0:0:0:0:
174,187,43069,1,0,0:0:0:0:
195,193,43184,1,0,0:0:0:0:
239,203,43300,1,8,0:0:0:0:
348,256,43530,1,0,0:0:0:0:
274,176,43761,1,8,0:0:0:0:
128,175,43877,1,8,0:0:0:0:
169,194,43992,1,0,0:0:0:0:
210,227,44107,1,0,0:0:0:0:
213,157,44223,1,8,0:0:0:0:
346,211,44280,1,8,0:0:0:0:
169,170,44338,1,8,0:0:0:0:
153,179,44454,1,8,0:0:0:0:
158,168,44569,1,0,0:0:0:0:
256,192,44684,1,12,0:0:0:0:
256,192,44914,1,8,0:0:0:0:
256,192,45030,1,0,0:0:0:0:
256,192,45088,1,0,0:0:0:0:
256,192,45145,1,0,0:0:0:0:
256,192,45261,1,0,0:0:0:0:
256,192,45376,1,8,0:0:0:0:
256,192,45607,1,0,0:0:0:0:
256,192,45838,1,8,0:0:0:0:
256,192,45953,1,0,0:0:0:0:
256,192,46011,1,0,0:0:0:0:
256,192,46068,1,0,0:0:0:0:
256,192,46184,1,0,0:0:0:0:
256,192,46299,1,8,0:0:0:0:
256,192,46414,1,8,0:0:0:0:
256,192,46530,1,0,0:0:0:0:
256,192,46761,1,8,0:0:0:0:
256,192,46876,1,0,0:0:0:0:
256,192,46934,1,0,0:0:0:0:
256,192,46991,1,0,0:0:0:0:
256,192,47107,1,0,0:0:0:0:
256,192,47222,1,8,0:0:0:0:
256,192,47453,1,0,0:0:0:0:
256,192,47568,1,0,0:0:0:0:
156,152,47626,1,0,0:0:0:0:
256,192,47684,1,8,0:0:0:0:
256,192,47799,1,0,0:0:0:0:
256,192,48030,1,0,0:0:0:0:
256,192,48145,1,8,0:0:0:0:
256,192,48261,1,8,0:0:0:0:
256,192,48376,1,0,0:0:0:0:
256,192,48607,1,8,0:0:0:0:
256,192,48722,1,0,0:0:0:0:
256,192,48780,1,0,0:0:0:0:
256,192,48838,1,0,0:0:0:0:
256,192,48953,1,0,0:0:0:0:
256,192,49068,1,8,0:0:0:0:
256,192,49299,1,0,0:0:0:0:
256,192,49530,1,8,0:0:0:0:
256,192,49645,1,0,0:0:0:0:
147,62,49703,1,0,0:0:0:0:
351,187,49760,1,0,0:0:0:0:
77,122,49876,1,0,0:0:0:0:
220,133,49991,1,8,0:0:0:0:
158,187,50107,1,0,0:0:0:0:
256,192,50222,1,8,0:0:0:0:
256,192,50453,1,8,0:0:0:0:
256,192,50568,1,0,0:0:0:0:
256,192,50626,1,0,0:0:0:0:
256,192,50684,1,0,0:0:0:0:
256,192,50799,1,0,0:0:0:0:
256,192,50914,1,8,0:0:0:0:
256,192,51145,1,8,0:0:0:0:
256,192,51261,1,0,0:0:0:0:
256,192,51318,1,0,0:0:0:0:
256,192,51376,1,8,0:0:0:0:
256,192,51491,1,0,0:0:0:0:
256,192,51607,1,8,0:0:0:0:
256,192,51664,1,8,0:0:0:0:
256,192,51722,1,8,0:0:0:0:
256,192,51838,1,8,0:0:0:0:
256,192,51953,1,8,0:0:0:0:
256,192,52068,5,4,0:0:0:0:
302,186,52299,1,8,0:0:0:0:
287,195,52414,1,0,0:0:0:0:
203,183,52530,1,0,0:0:0:0:
203,257,52587,1,0,0:0:0:0:
255,211,52645,1,0,0:0:0:0:
270,236,52760,1,8,0:0:0:0:
207,195,52991,1,0,0:0:0:0:
117,99,53107,1,0,0:0:0:0:
231,238,53222,1,8,0:0:0:0:
200,249,53337,1,8,0:0:0:0:
205,247,53453,1,0,0:0:0:0:
349,267,53510,1,0,0:0:0:0:
205,247,53568,1,0,0:0:0:0:
205,247,53684,1,8,0:0:0:0:
108,250,53914,1,0,0:0:0:0:
108,155,54030,1,0,0:0:0:0:
250,142,54145,1,8,0:0:0:0:
250,142,54260,1,0,0:0:0:0:
250,142,54376,1,8,0:0:0:0:
250,142,54434,1,8,0:0:0:0:
250,142,54491,1,0,0:0:0:0:
315,157,54607,1,8,0:0:0:0:
215,174,54837,1,0,0:0:0:0:
134,85,54953,1,0,0:0:0:0:
405,168,55068,1,8,0:0:0:0:
411,153,55145,1,0,0:0:0:0:
431,123,55222,1,0,0:0:0:0:
352,127,55299,1,8,0:0:0:0:
262,135,55414,1,0,0:0:0:0:
213,142,55530,1,8,0:0:0:0:
318,255,55760,1,4,0:0:0:0:
218,267,55991,1,8,0:0:0:0:
136,247,56107,1,0,0:0:0:0:
203,183,56222,1,0,0:0:0:0:
246,138,56280,1,0,0:0:0:0:
242,156,56337,1,0,0:0:0:0:
197,140,56453,1,8,0:0:0:0:
207,195,56684,1,8,0:0:0:0:
138,221,56800,1,0,0:0:0:0:
231,238,56915,1,8,0:0:0:0:
200,249,57030,1,8,0:0:0:0:
205,247,57146,1,0,0:0:0:0:
349,267,57203,1,0,0:0:0:0:
205,247,57261,1,0,0:0:0:0:
205,247,57377,1,8,0:0:0:0:
108,250,57606,1,8,0:0:0:0:
186,144,57664,1,8,0:0:0:0:
170,198,57722,1,0,0:0:0:0:
192,206,57837,1,8,0:0:0:0:
206,211,57953,1,0,0:0:0:0:
250,142,58068,1,8,0:0:0:0:
239,206,58126,1,8,0:0:0:0:
239,206,58184,1,8,0:0:0:0:
248,207,58299,1,0,0:0:0:0:
215,174,58529,1,8,0:0:0:0:
241,135,58645,1,0,0:0:0:0:
314,154,58760,1,8,0:0:0:0:
330,166,58876,1,0,0:0:0:0:
339,175,58991,1,8,0:0:0:0:
155,179,59049,1,8,0:0:0:0:
361,190,59107,1,0,0:0:0:0:
379,216,59222,1,8,0:0:0:0:
379,216,59337,1,0,0:0:0:0:
216,159,59395,1,0,0:0:0:0:
379,216,59453,1,12,0:0:0:0:
291,241,59684,1,0,0:0:0:0:
316,246,59799,1,8,0:0:0:0:
229,221,60030,1,0,0:0:0:0:
282,213,60145,1,8,0:0:0:0:
193,157,60203,1,0,0:0:0:0:
364,219,60260,1,0,0:0:0:0:
372,217,60376,1,0,0:0:0:0:
351,207,60607,1,0,0:0:0:0:
364,207,60722,1,8,0:0:0:0:
374,210,60953,1,0,0:0:0:0:
374,210,61068,1,8,0:0:0:0:
224,153,61126,1,8,0:0:0:0:
374,210,61184,1,0,0:0:0:0:
374,210,61299,1,8,0:0:0:0:
374,210,61530,1,0,0:0:0:0:
374,210,61645,1,8,0:0:0:0:
374,210,61876,1,0,0:0:0:0:
374,210,61991,1,8,0:0:0:0:
260,261,62107,1,0,0:0:0:0:
241,162,62222,1,8,0:0:0:0:
361,106,62280,1,8,0:0:0:0:
185,242,62337,1,8,0:0:0:0:
156,132,62453,1,8,0:0:0:0:
67,151,62568,1,0,0:0:0:0:
140,189,62799,1,0,0:0:0:0:
140,189,62914,1,8,0:0:0:0:
179,221,63030,1,0,0:0:0:0:
179,221,63145,1,8,0:0:0:0:
318,133,63376,1,8,0:0:0:0:
260,176,63491,1,0,0:0:0:0:
222,105,63722,1,0,0:0:0:0:
284,95,63837,1,8,0:0:0:0:
343,205,63953,1,0,0:0:0:0:
382,142,64068,1,0,0:0:0:0:
296,177,64299,1,8,0:0:0:0:
296,177,64414,1,0,0:0:0:0:
270,168,64645,1,0,0:0:0:0:
333,165,64760,1,8,0:0:0:0:
194,133,64876,1,8,0:0:0:0:
236,203,64991,1,0,0:0:0:0:
326,225,65049,1,0,0:0:0:0:
326,225,65107,1,0,0:0:0:0:
221,209,65222,1,8,0:0:0:0:
215,205,65337,1,0,0:0:0:0:
205,207,65568,1,0,0:0:0:0:
215,203,65684,1,8,0:0:0:0:
160,181,65914,1,0,0:0:0:0:
163,201,66145,1,8,0:0:0:0:
165,201,66260,1,0,0:0:0:0:
165,201,66376,1,8,0:0:0:0:
277,297,66434,1,8,0:0:0:0:
165,201,66491,1,8,0:0:0:0:
165,201,66607,1,8,0:0:0:0:
251,212,66722,1,8,0:0:0:0:
256,164,66837,1,4,0:0:0:0:
365,202,66953,1,8,0:0:0:0:
315,216,67068,1,0,0:0:0:0:
325,223,67184,1,8,0:0:0:0:
256,164,67299,1,0,0:0:0:0:
193,181,67357,1,0,0:0:0:0:
365,202,67414,1,8,0:0:0:0:
315,216,67530,1,0,0:0:0:0:
325,223,67645,1,8,0:0:0:0:
256,164,67760,1,0,0:0:0:0:
365,202,67876,1,8,0:0:0:0:
315,216,67991,1,0,0:0:0:0:
325,223,68107,1,8,0:0:0:0:
256,164,68222,1,0,0:0:0:0:
134,194,68299,1,8,0:0:0:0:
365,202,68376,1,8,0:0:0:0:
315,216,68453,1,0,0:0:0:0:
325,223,68568,1,8,0:0:0:0:
256,164,68684,1,0,0:0:0:0:
365,202,68799,1,8,0:0:0:0:
315,216,68914,1,0,0:0:0:0:
325,223,69030,1,8,0:0:0:0:
256,164,69145,1,0,0:0:0:0:
113,217,69203,1,0,0:0:0:0:
365,202,69260,1,8,0:0:0:0:
315,216,69376,1,0,0:0:0:0:
325,223,69491,1,8,0:0:0:0:
256,164,69607,1,0,0:0:0:0:
365,202,69722,1,8,0:0:0:0:
315,216,69837,1,8,0:0:0:0:
325,223,69953,1,0,0:0:0:0:
157,174,70068,1,8,0:0:0:0:
193,218,70145,1,8,0:0:0:0:
194,231,70222,1,8,0:0:0:0:
204,232,70299,1,8,0:0:0:0:
348,207,70414,1,8,0:0:0:0:
281,212,70530,1,4,0:0:0:0:
185,120,70760,1,8,0:0:0:0:
160,197,70876,1,0,0:0:0:0:
111,183,70991,1,8,0:0:0:0:
87,120,71107,1,8,0:0:0:0:
87,120,71222,1,0,0:0:0:0:
321,173,71453,1,8,0:0:0:0:
191,110,71684,1,0,0:0:0:0:
283,265,71914,1,8,0:0:0:0:
327,218,72030,1,0,0:0:0:0:
228,88,72145,1,0,0:0:0:0:
185,240,72260,1,8,0:0:0:0:
231,167,72376,1,0,0:0:0:0:
122,145,72607,1,8,0:0:0:0:
287,141,72837,1,8,0:0:0:0:
240,232,73068,1,0,0:0:0:0:
202,225,73184,1,0,0:0:0:0:
152,211,73299,1,8,0:0:0:0:
102,205,73414,1,0,0:0:0:0:
87,197,73530,1,8,0:0:0:0:
60,232,73760,1,0,0:0:0:0:
34,206,73876,1,0,0:0:0:0:
158,145,73991,1,8,0:0:0:0:
376,194,74222,1,12,0:0:0:0:
176,183,74453,1,0,0:0:0:0:
251,190,74568,1,8,0:0:0:0:
371,135,74684,1,0,0:0:0:0:
254,197,74799,1,8,0:0:0:0:
254,197,74914,1,8,0:0:0:0:
316,224,75145,1,0,0:0:0:0:
287,262,75376,1,8,0:0:0:0:
219,101,75607,1,0,0:0:0:0:
105,122,75722,1,0,0:0:0:0:
122,229,75837,1,8,0:0:0:0:
68,198,75953,1,0,0:0:0:0:
99,193,76068,1,0,0:0:0:0:
308,234,76299,1,8,0:0:0:0:
252,181,76530,1,0,0:0:0:0:
205,116,76645,1,0,0:0:0:0:
234,211,76760,1,8,0:0:0:0:
352,232,76837,1,0,0:0:0:0:
389,235,76914,1,0,0:0:0:0:
411,235,76991,1,8,0:0:0:0:
369,161,77222,1,8,0:0:0:0:
258,239,77337,1,0,0:0:0:0:
330,203,77453,1,8,0:0:0:0:
373,246,77568,1,8,0:0:0:0:
396,257,77684,1,8,0:0:0:0:
294,266,77799,1,0,0:0:0:0:
312,261,77914,1,12,0:0:0:0:
231,171,78145,1,0,0:0:0:0:
128,256,78260,1,0,0:0:0:0:
185,120,78376,1,8,0:0:0:0:
226,259,78491,1,0,0:0:0:0:
111,183,78607,1,8,0:0:0:0:
87,120,78837,1,0,0:0:0:0:
321,173,79068,1,8,0:0:0:0:
222,217,79184,1,0,0:0:0:0:
393,198,79300,1,8,0:0:0:0:
213,103,79414,1,8,0:0:0:0:
283,265,79530,1,0,0:0:0:0:
252,253,79646,1,8,0:0:0:0:
185,240,79761,1,0,0:0:0:0:
225,125,79992,1,0,0:0:0:0:
185,240,80107,1,8,0:0:0:0:
122,145,80223,1,8,0:0:0:0:
148,75,80337,1,0,0:0:0:0:
287,141,80453,1,8,0:0:0:0:
240,232,80684,1,0,0:0:0:0:
152,211,80915,1,8,0:0:0:0:
102,205,81030,1,0,0:0:0:0:
87,197,81146,1,8,0:0:0:0:
320,162,81260,1,8,0:0:0:0:
60,232,81376,1,0,0:0:0:0:
34,206,81492,1,0,0:0:0:0:
158,145,81607,1,12,0:0:0:0:
222,152,81837,1,0,0:0:0:0:
166,125,81953,1,8,0:0:0:0:
297,187,82068,1,0,0:0:0:0:
176,124,82184,1,0,0:0:0:0:
229,91,82299,1,8,0:0:0:0:
262,223,82414,1,8,0:0:0:0:
390,157,82530,1,0,0:0:0:0:
310,177,82760,1,8,0:0:0:0:
310,177,82876,1,0,0:0:0:0:
279,132,83107,1,0,0:0:0:0:
287,133,83222,1,8,0:0:0:0:
191,228,83337,1,0,0:0:0:0:
306,153,83453,1,0,0:0:0:0:
251,229,83684,1,8,0:0:0:0:
367,235,83799,1,0,0:0:0:0:
367,235,84030,1,0,0:0:0:0:
300,222,84145,1,8,0:0:0:0:
247,239,84260,1,0,0:0:0:0:
171,211,84376,1,0,0:0:0:0:
171,211,84607,1,8,0:0:0:0:
192,204,84837,1,8,0:0:0:0:
359,229,84895,1,8,0:0:0:0:
281,176,84953,1,8,0:0:0:0:
286,177,85068,1,8,0:0:0:0:
223,149,85184,1,8,0:0:0:0:
331,208,85299,1,4,0:0:0:0:
261,248,85530,1,8,0:0:0:0:
128,288,85645,1,0,0:0:0:0:
301,104,85760,1,8,0:0:0:0:
191,78,85876,1,0,0:0:0:0:
270,64,85991,1,0,0:0:0:0:
87,120,86222,1,8,0:0:0:0:
321,173,86453,1,8,0:0:0:0:
192,192,86568,1,0,0:0:0:0:
393,198,86684,1,8,0:0:0:0:
213,103,86799,1,0,0:0:0:0:
283,265,86915,1,8,0:0:0:0:
252,253,87031,1,8,0:0:0:0:
185,240,87146,1,0,0:0:0:0:
225,125,87377,1,8,0:0:0:0:
185,240,87492,1,8,0:0:0:0:
122,145,87608,1,0,0:0:0:0:
287,141,87838,1,0,0:0:0:0:
96,256,87953,1,0,0:0:0:0:
240,232,88069,1,8,0:0:0:0:
265,251,88184,1,0,0:0:0:0:
152,211,88299,1,8,0:0:0:0:
249,134,88414,1,0,0:0:0:0:
87,197,88530,1,8,0:0:0:0:
320,162,88645,1,8,0:0:0:0:
60,232,88761,1,0,0:0:0:0:
158,145,88992,1,12,0:0:0:0:
222,152,89222,1,0,0:0:0:0:
166,125,89338,1,8,0:0:0:0:
297,187,89453,1,0,0:0:0:0:
176,124,89569,1,0,0:0:0:0:
229,91,89684,1,8,0:0:0:0:
262,223,89799,1,0,0:0:0:0:
390,157,89915,1,0,0:0:0:0:
310,177,90145,1,8,0:0:0:0:
310,177,90261,1,0,0:0:0:0:
279,132,90492,1,0,0:0:0:0:
287,133,90607,1,8,0:0:0:0:
191,228,90722,1,0,0:0:0:0:
306,153,90838,1,0,0:0:0:0:
251,229,91069,1,8,0:0:0:0:
367,235,91184,1,0,0:0:0:0:
367,235,91415,1,0,0:0:0:0:
300,222,91530,1,8,0:0:0:0:
247,239,91645,1,0,0:0:0:0:
171,211,91761,1,0,0:0:0:0:
171,211,91992,1,8,0:0:0:0:
274,210,92107,1,0,0:0:0:0:
192,204,92222,1,8,0:0:0:0:
359,229,92280,1,8,0:0:0:0:
281,176,92338,1,8,0:0:0:0:
286,177,92453,1,8,0:0:0:0:
223,149,92569,1,8,0:0:0:0:
185,129,92684,1,0,0:0:0:0:
324,197,92914,1,12,0:0:0:0:
411,258,93145,1,8,0:0:0:0:
361,268,93260,1,8,0:0:0:0:
225,276,93376,1,0,0:0:0:0:
141,191,93607,1,8,0:0:0:0:
327,238,93837,1,8,0:0:0:0:
232,122,93953,1,0,0:0:0:0:
186,76,94068,1,8,0:0:0:0:
235,173,94184,1,8,0:0:0:0:
121,125,94299,1,0,0:0:0:0:
180,143,94414,1,8,0:0:0:0:
270,125,94530,1,0,0:0:0:0:
156,215,94760,1,8,0:0:0:0:
251,186,94876,1,0,0:0:0:0:
61,147,94991,1,8,0:0:0:0:
106,165,95222,1,0,0:0:0:0:
231,222,95337,1,0,0:0:0:0:
106,165,95453,1,8,0:0:0:0:
188,135,95568,1,0,0:0:0:0:
293,232,95684,1,8,0:0:0:0:
202,263,95799,1,0,0:0:0:0:
182,207,95914,1,0,0:0:0:0:
210,162,96030,1,8,0:0:0:0:
113,232,96145,1,0,0:0:0:0:
238,217,96376,1,12,0:0:0:0:
228,136,96607,1,0,0:0:0:0:
317,166,96722,1,8,0:0:0:0:
294,222,96837,1,8,0:0:0:0:
281,228,96953,1,0,0:0:0:0:
234,231,97068,1,8,0:0:0:0:
165,223,97184,1,0,0:0:0:0:
187,223,97299,1,8,0:0:0:0:
214,237,97530,1,8,0:0:0:0:
284,256,97645,1,8,0:0:0:0:
237,263,97760,1,0,0:0:0:0:
237,263,97876,1,0,0:0:0:0:
269,163,97991,1,8,0:0:0:0:
227,121,98107,1,0,0:0:0:0:
356,189,98222,1,0,0:0:0:0:
408,235,98453,1,8,0:0:0:0:
239,232,98568,1,8,0:0:0:0:
302,201,98684,1,0,0:0:0:0:
230,227,98799,1,0,0:0:0:0:
187,198,98914,1,8,0:0:0:0:
175,195,99145,1,8,0:0:0:0:
343,247,99260,1,0,0:0:0:0:
265,157,99376,1,0,0:0:0:0:
271,127,99491,1,0,0:0:0:0:
233,240,99607,1,8,0:0:0:0:
210,145,99664,1,8,0:0:0:0:
248,246,99722,1,8,0:0:0:0:
263,252,99837,1,8,0:0:0:0:
330,237,99953,1,8,0:0:0:0:
251,195,100068,1,4,0:0:0:0:
144,173,100299,1,8,0:0:0:0:
256,96,100414,1,0,0:0:0:0:
279,205,100530,1,8,0:0:0:0:
288,206,100607,1,8,0:0:0:0:
289,206,100684,1,8,0:0:0:0:
290,206,100760,1,8,0:0:0:0:
241,108,100991,1,0,0:0:0:0:
320,151,101222,1,8,0:0:0:0:
261,201,101453,1,8,0:0:0:0:
261,202,101568,1,8,0:0:0:0:
166,213,101684,1,8,0:0:0:0:
236,172,101741,1,8,0:0:0:0:
166,213,101799,1,8,0:0:0:0:
166,213,101914,1,0,0:0:0:0:
257,227,102145,1,8,0:0:0:0:
317,239,102260,1,0,0:0:0:0:
282,182,102376,1,8,0:0:0:0:
268,169,102453,1,8,0:0:0:0:
268,169,102530,1,8,0:0:0:0:
268,169,102607,1,8,0:0:0:0:
346,162,102837,1,0,0:0:0:0:
192,161,103068,1,8,0:0:0:0:
255,187,103299,1,8,0:0:0:0:
270,193,103414,1,8,0:0:0:0:
273,201,103530,1,8,0:0:0:0:
256,177,103587,1,8,0:0:0:0:
273,201,103645,1,8,0:0:0:0:
217,225,103760,1,0,0:0:0:0:
217,225,103991,1,0,0:0:0:0:
217,225,104107,1,0,0:0:0:0:
348,216,104222,1,8,0:0:0:0:
363,212,104299,1,8,0:0:0:0:
380,211,104376,1,8,0:0:0:0:
385,209,104453,1,8,0:0:0:0:
248,245,104684,1,0,0:0:0:0:
275,243,104914,1,8,0:0:0:0:
205,196,105145,1,8,0:0:0:0:
205,196,105260,1,8,0:0:0:0:
205,196,105376,1,8,0:0:0:0:
206,172,105434,1,8,0:0:0:0:
205,196,105491,1,8,0:0:0:0:
205,196,105607,1,0,0:0:0:0:
205,196,105837,1,0,0:0:0:0:
205,196,105953,1,0,0:0:0:0:
298,188,106068,1,8,0:0:0:0:
359,181,106145,1,8,0:0:0:0:
373,183,106222,1,8,0:0:0:0:
376,183,106299,1,8,0:0:0:0:
205,196,106530,1,0,0:0:0:0:
183,104,106760,1,8,0:0:0:0:
247,155,106991,1,8,0:0:0:0:
218,158,107107,1,8,0:0:0:0:
168,173,107222,1,8,0:0:0:0:
248,213,107280,1,8,0:0:0:0:
174,165,107337,1,8,0:0:0:0:
129,151,107453,1,4,0:0:0:0:
69,158,107684,1,8,0:0:0:0:
137,216,107799,1,0,0:0:0:0:
165,214,107914,1,0,0:0:0:0:
184,203,107972,1,0,0:0:0:0:
364,188,108030,1,0,0:0:0:0:
188,208,108145,1,8,0:0:0:0:
282,196,108376,1,0,0:0:0:0:
69,158,108607,1,8,0:0:0:0:
137,216,108722,1,0,0:0:0:0:
165,214,108837,1,0,0:0:0:0:
265,267,108895,1,0,0:0:0:0:
185,210,108953,1,0,0:0:0:0:
188,208,109068,1,8,0:0:0:0:
240,185,109184,1,8,0:0:0:0:
219,129,109299,1,0,0:0:0:0:
219,129,109530,1,8,0:0:0:0:
219,129,109645,1,0,0:0:0:0:
220,242,109760,1,0,0:0:0:0:
195,199,109818,1,0,0:0:0:0:
219,129,109876,1,0,0:0:0:0:
219,129,109991,1,8,0:0:0:0:
238,169,110222,1,8,0:0:0:0:
169,178,110453,1,8,0:0:0:0:
169,178,110568,1,8,0:0:0:0:
123,187,110684,1,0,0:0:0:0:
220,242,110741,1,0,0:0:0:0:
123,187,110799,1,0,0:0:0:0:
275,247,110914,1,8,0:0:0:0:
275,247,111030,1,0,0:0:0:0:
275,205,111145,1,12,0:0:0:0:
197,215,111376,1,0,0:0:0:0:
220,231,111491,1,0,0:0:0:0:
279,222,111607,1,12,0:0:0:0:
251,254,111837,1,0,0:0:0:0:
273,261,111953,1,0,0:0:0:0:
299,241,112068,1,12,0:0:0:0:
272,268,112299,1,0,0:0:0:0:
272,268,112414,1,0,0:0:0:0:
299,241,112530,1,12,0:0:0:0:
272,268,112760,1,0,0:0:0:0:
272,268,112876,1,0,0:0:0:0:
256,192,112991,1,12,0:0:0:0:
166,182,113222,1,0,0:0:0:0:
196,222,113337,1,0,0:0:0:0:
337,236,113453,1,8,0:0:0:0:
325,146,113568,1,8,0:0:0:0:
234,248,113684,1,8,0:0:0:0:
314,199,113799,1,8,0:0:0:0:
241,197,113914,1,4,0:0:0:0:
248,191,114837,1,12,0:0:0:0:
216,250,115068,1,8,0:0:0:0:
343,173,115184,1,0,0:0:0:0:
326,241,115241,1,0,0:0:0:0:
178,177,115299,1,8,0:0:0:0:
229,189,115357,1,8,0:0:0:0:
160,102,115414,1,0,0:0:0:0:
99,202,115530,1,8,0:0:0:0:
240,119,115645,1,0,0:0:0:0:
172,267,115760,1,8,0:0:0:0:
364,273,115818,1,8,0:0:0:0:
159,328,115876,1,0,0:0:0:0:
256,303,115991,1,8,0:0:0:0:
278,227,116107,1,8,0:0:0:0:
360,209,116164,1,8,0:0:0:0:
312,231,116222,1,0,0:0:0:0:
315,179,116280,1,0,0:0:0:0:
197,219,116337,1,8,0:0:0:0:
142,168,116453,1,8,0:0:0:0:
234,167,116510,1,0,0:0:0:0:
250,164,116568,1,0,0:0:0:0:
312,170,116684,1,8,0:0:0:0:
108,235,116741,1,8,0:0:0:0:
220,129,116799,1,0,0:0:0:0:
265,253,116914,1,8,0:0:0:0:
353,237,117030,1,8,0:0:0:0:
147,202,117087,1,0,0:0:0:0:
375,277,117145,1,0,0:0:0:0:
237,232,117260,1,8,0:0:0:0:
191,207,117376,1,0,0:0:0:0:
142,187,117491,1,8,0:0:0:0:
126,118,117722,1,0,0:0:0:0:
229,149,117837,1,8,0:0:0:0:
246,258,117895,1,8,0:0:0:0:
172,145,117953,1,0,0:0:0:0:
261,142,118068,1,8,0:0:0:0:
330,169,118184,1,0,0:0:0:0:
231,250,118299,1,8,0:0:0:0:
274,212,118357,1,8,0:0:0:0:
280,210,118414,1,0,0:0:0:0:
97,211,118530,1,12,0:0:0:0:
156,249,118760,1,8,0:0:0:0:
204,82,118876,1,0,0:0:0:0:
232,164,118934,1,0,0:0:0:0:
282,239,118991,1,8,0:0:0:0:
436,130,119049,1,8,0:0:0:0:
323,257,119107,1,0,0:0:0:0:
356,213,119222,1,8,0:0:0:0:
304,113,119337,1,0,0:0:0:0:
220,186,119453,1,8,0:0:0:0:
284,288,119510,1,8,0:0:0:0:
398,251,119568,1,0,0:0:0:0:
161,254,119684,1,0,0:0:0:0:
142,250,119799,1,8,0:0:0:0:
311,196,119857,1,8,0:0:0:0:
232,105,119914,1,0,0:0:0:0:
152,104,119972,1,0,0:0:0:0:
202,283,120030,1,8,0:0:0:0:
161,200,120145,1,8,0:0:0:0:
252,251,120260,1,0,0:0:0:0:
208,222,120376,1,8,0:0:0:0:
351,180,120434,1,8,0:0:0:0:
363,184,120491,1,0,0:0:0:0:
325,182,120607,1,8,0:0:0:0:
244,147,120722,1,8,0:0:0:0:
198,142,120780,1,0,0:0:0:0:
238,212,120837,1,0,0:0:0:0:
327,232,120953,1,0,0:0:0:0:
181,168,121068,1,8,0:0:0:0:
125,200,121184,1,0,0:0:0:0:
163,74,121241,1,0,0:0:0:0:
53,150,121299,1,8,0:0:0:0:
94,249,121414,1,0,0:0:0:0:
247,299,121530,1,8,0:0:0:0:
233,116,121587,1,8,0:0:0:0:
173,279,121645,1,0,0:0:0:0:
210,108,121703,1,0,0:0:0:0:
92,303,121760,1,8,0:0:0:0:
302,183,121818,1,8,0:0:0:0:
172,310,121876,1,0,0:0:0:0:
311,255,121991,1,8,0:0:0:0:
349,289,122068,1,8,0:0:0:0:
349,289,122145,1,8,0:0:0:0:
416,232,122222,1,4,0:0:0:0:
310,194,122453,1,0,0:0:0:0:
222,143,122568,1,8,0:0:0:0:
256,98,122626,1,0,0:0:0:0:
375,241,122684,1,0,0:0:0:0:
246,230,122799,1,8,0:0:0:0:
378,144,122914,1,8,0:0:0:0:
357,217,123030,1,0,0:0:0:0:
150,101,123087,1,0,0:0:0:0:
320,257,123145,1,8,0:0:0:0:
288,169,123376,1,0,0:0:0:0:
204,178,123491,1,8,0:0:0:0:
259,210,123607,1,0,0:0:0:0:
252,246,123722,1,0,0:0:0:0:
137,231,123837,1,8,0:0:0:0:
224,256,123895,1,0,0:0:0:0:
352,198,123953,1,0,0:0:0:0:
250,143,124010,1,8,0:0:0:0:
181,162,124068,1,8,0:0:0:0:
200,263,124299,1,8,0:0:0:0:
156,257,124414,1,0,0:0:0:0:
357,240,124530,1,0,0:0:0:0:
251,216,124645,1,8,0:0:0:0:
196,231,124760,1,0,0:0:0:0:
183,185,124876,1,8,0:0:0:0:
349,210,124934,1,8,0:0:0:0:
258,152,124991,1,0,0:0:0:0:
293,139,125107,1,0,0:0:0:0:
196,65,125222,1,8,0:0:0:0:
220,171,125337,1,8,0:0:0:0:
333,212,125453,1,0,0:0:0:0:
248,267,125568,1,0,0:0:0:0:
369,135,125684,1,8,0:0:0:0:
206,218,125799,1,0,0:0:0:0:
99,200,125914,1,12,0:0:0:0:
162,278,126145,1,0,0:0:0:0:
270,178,126260,1,0,0:0:0:0:
335,257,126376,1,12,0:0:0:0:
211,149,126607,1,0,0:0:0:0:
261,208,126722,1,0,0:0:0:0:
151,125,126837,1,12,0:0:0:0:
192,224,126953,1,0,0:0:0:0:
102,243,127068,1,8,0:0:0:0:
157,274,127184,1,0,0:0:0:0:
95,292,127299,1,12,0:0:0:0:
118,313,127530,1,8,0:0:0:0:
255,250,127760,1,12,0:0:0:0:
278,264,127876,1,0,0:0:0:0:
255,250,127991,1,12,0:0:0:0:
278,264,128107,1,0,0:0:0:0:
255,250,128222,1,12,0:0:0:0:
278,264,128338,1,0,0:0:0:0:
255,250,128453,1,12,0:0:0:0:
278,264,128569,1,0,0:0:0:0:
381,232,128626,1,0,0:0:0:0:
255,250,128684,1,12,0:0:0:0:
239,139,128914,1,8,0:0:0:0:
181,177,128991,1,0,0:0:0:0:
186,186,129068,1,0,0:0:0:0:
51,207,129145,1,8,0:0:0:0:
149,257,129376,1,8,0:0:0:0:
375,232,129434,1,8,0:0:0:0:
246,231,129491,1,0,0:0:0:0:
382,227,129549,1,0,0:0:0:0:
309,215,129607,1,12,0:0:0:0:
291,288,129837,1,8,0:0:0:0:
240,131,129953,1,0,0:0:0:0:
178,94,130010,1,0,0:0:0:0:
205,175,130068,1,8,0:0:0:0:
275,130,130126,1,8,0:0:0:0:
165,168,130184,1,0,0:0:0:0:
89,162,130299,1,8,0:0:0:0:
394,218,130414,1,0,0:0:0:0:
325,146,130530,1,8,0:0:0:0:
216,131,130587,1,8,0:0:0:0:
255,189,130645,1,0,0:0:0:0:
262,261,130760,1,8,0:0:0:0:
216,82,130876,1,8,0:0:0:0:
273,100,130934,1,8,0:0:0:0:
338,228,130991,1,0,0:0:0:0:
239,288,131049,1,0,0:0:0:0:
133,228,131107,1,8,0:0:0:0:
133,228,131222,1,8,0:0:0:0:
144,144,131280,1,0,0:0:0:0:
223,157,131337,1,0,0:0:0:0:
220,260,131453,1,8,0:0:0:0:
183,168,131510,1,8,0:0:0:0:
272,179,131568,1,0,0:0:0:0:
156,269,131684,1,8,0:0:0:0:
122,282,131799,1,8,0:0:0:0:
263,254,131857,1,0,0:0:0:0:
221,162,131914,1,0,0:0:0:0:
181,213,132030,1,8,0:0:0:0:
122,214,132145,1,0,0:0:0:0:
60,208,132260,1,8,0:0:0:0:
126,118,132491,1,0,0:0:0:0:
229,149,132606,1,8,0:0:0:0:
278,235,132664,1,8,0:0:0:0:
172,145,132722,1,0,0:0:0:0:
261,142,132837,1,8,0:0:0:0:
330,169,132953,1,0,0:0:0:0:
231,250,133068,1,8,0:0:0:0:
274,212,133126,1,8,0:0:0:0:
280,210,133183,1,0,0:0:0:0:
97,211,133299,1,12,0:0:0:0:
156,249,133529,1,8,0:0:0:0:
223,290,133645,1,0,0:0:0:0:
223,290,133703,1,0,0:0:0:0:
216,294,133760,1,8,0:0:0:0:
226,290,133818,1,8,0:0:0:0:
226,290,133876,1,0,0:0:0:0:
356,213,133991,1,8,0:0:0:0:
165,324,134107,1,0,0:0:0:0:
220,186,134222,1,8,0:0:0:0:
275,206,134280,1,8,0:0:0:0:
398,251,134337,1,0,0:0:0:0:
154,210,134395,1,0,0:0:0:0:
161,254,134453,1,8,0:0:0:0:
142,250,134568,1,8,0:0:0:0:
264,277,134626,1,0,0:0:0:0:
267,276,134684,1,0,0:0:0:0:
202,283,134799,1,0,0:0:0:0:
161,200,134914,1,8,0:0:0:0:
252,251,135029,1,0,0:0:0:0:
208,222,135145,1,8,0:0:0:0:
117,252,135203,1,8,0:0:0:0:
144,288,135260,1,0,0:0:0:0:
325,182,135376,1,8,0:0:0:0:
244,147,135491,1,8,0:0:0:0:
177,271,135549,1,0,0:0:0:0:
231,224,135606,1,0,0:0:0:0:
327,232,135722,1,0,0:0:0:0:
171,174,135837,1,8,0:0:0:0:
125,200,135953,1,0,0:0:0:0:
210,126,136010,1,8,0:0:0:0:
53,150,136068,1,8,0:0:0:0:
94,249,136183,1,0,0:0:0:0:
247,299,136299,1,8,0:0:0:0:
218,209,136357,1,8,0:0:0:0:
173,279,136414,1,0,0:0:0:0:
218,209,136472,1,0,0:0:0:0:
92,303,136529,1,8,0:0:0:0:
296,206,136587,1,8,0:0:0:0:
172,310,136645,1,0,0:0:0:0:
297,103,136760,1,8,0:0:0:0:
361,144,136837,1,8,0:0:0:0:
369,162,136914,1,8,0:0:0:0:
374,254,136991,1,4,0:0:0:0:
310,194,137222,1,0,0:0:0:0:
222,143,137337,1,8,0:0:0:0:
256,98,137395,1,0,0:0:0:0:
375,241,137453,1,0,0:0:0:0:
246,230,137568,1,8,0:0:0:0:
378,144,137683,1,8,0:0:0:0:
357,217,137799,1,0,0:0:0:0:
150,101,137856,1,0,0:0:0:0:
320,257,137914,1,8,0:0:0:0:
288,169,138145,1,0,0:0:0:0:
204,178,138260,1,8,0:0:0:0:
259,210,138376,1,0,0:0:0:0:
252,246,138491,1,0,0:0:0:0:
137,231,138606,1,8,0:0:0:0:
224,256,138664,1,0,0:0:0:0:
352,198,138722,1,0,0:0:0:0:
250,143,138779,1,8,0:0:0:0:
181,162,138837,1,8,0:0:0:0:
200,263,139068,1,8,0:0:0:0:
156,257,139183,1,0,0:0:0:0:
268,190,139241,1,0,0:0:0:0:
284,255,139299,1,0,0:0:0:0:
251,216,139414,1,8,0:0:0:0:
196,231,139529,1,0,0:0:0:0:
352,128,139587,1,8,0:0:0:0:
183,185,139645,1,8,0:0:0:0:
156,150,139760,1,8,0:0:0:0:
225,140,139876,1,0,0:0:0:0:
196,65,139991,1,0,0:0:0:0:
220,171,140106,1,8,0:0:0:0:
333,212,140222,1,8,0:0:0:0:
293,139,140337,1,0,0:0:0:0:
261,191,140395,1,0,0:0:0:0:
369,135,140453,1,8,0:0:0:0:
203,163,140510,1,8,0:0:0:0:
206,218,140568,1,0,0:0:0:0:
99,200,140683,1,12,0:0:0:0:
162,278,140914,1,0,0:0:0:0:
271,275,141030,1,0,0:0:0:0:
335,257,141145,1,8,0:0:0:0:
126,230,141260,1,8,0:0:0:0:
288,153,141376,1,0,0:0:0:0:
374,162,141491,1,0,0:0:0:0:
274,223,141607,1,8,0:0:0:0:
341,198,141664,1,0,0:0:0:0:
197,209,141722,1,0,0:0:0:0:
182,119,141837,1,0,0:0:0:0:
266,272,141953,1,8,0:0:0:0:
324,213,142010,1,8,0:0:0:0:
342,268,142068,1,8,0:0:0:0:
354,248,142184,1,0,0:0:0:0:
354,248,142299,1,8,0:0:0:0:
297,202,142357,1,8,0:0:0:0:
354,248,142414,1,0,0:0:0:0:
301,208,142472,1,0,0:0:0:0:
258,163,142530,1,12,0:0:0:0:
256,192,142645,12,0,144145,0:0:0:0:
148,100,144376,5,8,0:0:0:0:
171,242,144606,1,0,0:0:0:0:
265,241,144837,1,8,0:0:0:0:
197,189,145068,1,0,0:0:0:0:
232,192,145299,1,8,0:0:0:0:
264,168,145529,1,8,0:0:0:0:
287,184,145760,1,0,0:0:0:0:
292,205,145991,1,0,0:0:0:0:
337,120,146222,1,8,0:0:0:0:
165,111,146452,1,0,0:0:0:0:
165,111,146683,1,8,0:0:0:0:
218,101,146914,1,8,0:0:0:0:
311,57,147145,1,0,0:0:0:0:
342,136,147222,1,0,0:0:0:0:
284,132,147299,1,8,0:0:0:0:
285,137,147376,1,8,0:0:0:0:
326,224,147606,1,0,0:0:0:0:
218,180,148068,1,8,0:0:0:0:
152,224,148760,1,0,0:0:0:0:
220,137,148991,1,8,0:0:0:0:
215,246,149452,1,0,0:0:0:0:
267,147,149683,1,8,0:0:0:0:
231,251,149914,1,8,0:0:0:0:
287,242,150606,1,0,0:0:0:0:
119,100,150837,1,8,0:0:0:0:
198,179,151068,1,8,0:0:0:0:
247,165,151299,1,0,0:0:0:0:
141,211,151760,1,8,0:0:0:0:
60,195,152222,1,0,0:0:0:0:
70,190,152452,1,8,0:0:0:0:
96,162,152683,1,8,0:0:0:0:
179,190,153145,1,0,0:0:0:0:
250,177,153376,1,8,0:0:0:0:
185,129,153606,1,8,0:0:0:0:
353,184,153683,1,8,0:0:0:0:
348,251,154068,1,0,0:0:0:0:
184,227,154529,1,0,0:0:0:0:
184,227,154760,1,8,0:0:0:0:
184,227,154991,1,8,0:0:0:0:
184,227,155222,1,0,0:0:0:0:
218,180,155452,1,8,0:0:0:0:
152,224,156144,1,0,0:0:0:0:
169,128,156376,1,8,0:0:0:0:
327,237,156837,1,0,0:0:0:0:
271,160,157068,1,8,0:0:0:0:
231,251,157298,1,8,0:0:0:0:
224,256,157376,1,8,0:0:0:0:
279,159,157760,1,0,0:0:0:0:
287,242,157990,1,8,0:0:0:0:
119,100,158222,1,8,0:0:0:0:
279,73,158452,1,0,0:0:0:0:
194,131,158683,1,8,0:0:0:0:
141,211,159144,1,8,0:0:0:0:
60,195,159606,1,0,0:0:0:0:
70,190,159836,1,8,0:0:0:0:
96,162,160067,1,8,0:0:0:0:
182,165,160299,1,0,0:0:0:0:
234,190,160529,1,0,0:0:0:0:
185,129,160990,1,8,0:0:0:0:
253,158,161068,1,8,0:0:0:0:
262,172,161683,1,0,0:0:0:0:
243,232,161799,1,8,0:0:0:0:
184,227,161913,1,8,0:0:0:0:
144,157,162145,1,0,0:0:0:0:
196,132,162376,1,8,0:0:0:0:
277,178,162837,1,4,0:0:0:0:
340,315,163068,1,0,0:0:0:0:
162,273,163299,1,8,0:0:0:0:
240,156,163414,1,0,0:0:0:0:
64,269,163529,1,0,0:0:0:0:
245,190,163760,1,8,0:0:0:0:
311,206,163991,1,8,0:0:0:0:
340,252,164222,1,0,0:0:0:0:
183,158,164337,1,8,0:0:0:0:
119,225,164568,1,8,0:0:0:0:
208,235,164683,1,0,0:0:0:0:
211,88,164914,1,0,0:0:0:0:
191,157,165145,1,8,0:0:0:0:
281,184,165376,1,0,0:0:0:0:
179,239,165606,1,8,0:0:0:0:
229,192,165722,1,0,0:0:0:0:
266,271,165837,1,8,0:0:0:0:
343,267,166068,1,0,0:0:0:0:
382,197,166299,1,0,0:0:0:0:
233,152,166529,1,12,0:0:0:0:
256,219,166760,1,0,0:0:0:0:
262,167,166876,1,8,0:0:0:0:
283,229,167106,1,8,0:0:0:0:
270,200,167222,1,0,0:0:0:0:
337,163,167452,1,0,0:0:0:0:
193,151,167914,1,8,0:0:0:0:
242,175,168376,1,0,0:0:0:0:
276,231,169068,1,0,0:0:0:0:
370,192,169299,1,0,0:0:0:0:
241,178,169760,1,8,0:0:0:0:
329,207,169991,1,0,0:0:0:0:
228,205,170106,1,8,0:0:0:0:
169,208,170222,1,4,0:0:0:0:
239,131,170452,1,0,0:0:0:0:
127,114,170683,1,8,0:0:0:0:
111,205,170914,1,0,0:0:0:0:
171,197,171145,1,8,0:0:0:0:
270,214,171376,1,8,0:0:0:0:
306,248,171606,1,0,0:0:0:0:
318,212,171722,1,8,0:0:0:0:
181,246,171952,1,8,0:0:0:0:
247,108,172068,1,0,0:0:0:0:
171,178,172299,1,0,0:0:0:0:
285,202,172529,1,8,0:0:0:0:
308,256,172760,1,0,0:0:0:0:
376,195,172991,1,8,0:0:0:0:
293,255,173106,1,0,0:0:0:0:
326,140,173222,1,8,0:0:0:0:
172,207,173452,1,8,0:0:0:0:
191,280,173683,1,0,0:0:0:0:
300,213,173914,1,12,0:0:0:0:
221,204,174145,1,8,0:0:0:0:
300,213,174260,1,0,0:0:0:0:
221,204,174491,1,0,0:0:0:0:
226,202,174606,1,8,0:0:0:0:
182,200,174837,1,0,0:0:0:0:
236,231,175299,1,8,0:0:0:0:
120,222,175529,1,0,0:0:0:0:
164,243,175645,1,0,0:0:0:0:
195,263,175760,1,0,0:0:0:0:
208,162,176452,1,0,0:0:0:0:
113,163,176683,1,0,0:0:0:0:
194,192,176799,1,8,0:0:0:0:
330,225,176914,1,0,0:0:0:0:
264,186,177029,1,0,0:0:0:0:
323,196,177145,1,8,0:0:0:0:
300,204,177260,1,0,0:0:0:0:
239,256,177376,1,8,0:0:0:0:
187,265,177491,1,8,0:0:0:0:
102,169,177548,1,8,0:0:0:0:
256,192,177606,5,4,0:0:0:0:
256,192,177836,1,8,0:0:0:0:
256,192,177952,1,0,0:0:0:0:
256,192,178009,1,0,0:0:0:0:
256,192,178067,1,0,0:0:0:0:
256,192,178182,1,0,0:0:0:0:
256,192,178298,1,8,0:0:0:0:
256,192,178529,1,0,0:0:0:0:
256,192,178644,1,0,0:0:0:0:
256,192,178702,1,0,0:0:0:0:
256,192,178759,1,8,0:0:0:0:
256,192,178875,1,0,0:0:0:0:
256,192,178990,1,8,0:0:0:0:
256,192,179048,1,8,0:0:0:0:
256,192,179106,1,0,0:0:0:0:
256,192,179221,1,8,0:0:0:0:
256,192,179336,1,8,0:0:0:0:
256,192,179452,1,0,0:0:0:0:
256,192,179682,1,8,0:0:0:0:
256,192,179798,1,0,0:0:0:0:
256,192,179856,1,8,0:0:0:0:
256,192,179913,1,0,0:0:0:0:
256,192,180029,1,0,0:0:0:0:
256,192,180144,1,8,0:0:0:0:
256,192,180375,1,0,0:0:0:0:
256,192,180490,1,0,0:0:0:0:
256,192,180548,1,0,0:0:0:0:
256,192,180606,1,8,0:0:0:0:
256,192,180721,1,0,0:0:0:0:
256,192,180779,1,0,0:0:0:0:
256,192,180836,1,8,0:0:0:0:
256,192,180894,1,8,0:0:0:0:
256,192,180952,1,0,0:0:0:0:
256,192,181067,1,8,0:0:0:0:
256,192,181182,1,8,0:0:0:0:
256,192,181298,1,4,0:0:0:0:
256,192,181529,1,8,0:0:0:0:
256,192,181644,1,0,0:0:0:0:
256,192,181702,1,0,0:0:0:0:
256,192,181759,1,8,0:0:0:0:
256,192,181875,1,0,0:0:0:0:
256,192,181990,1,8,0:0:0:0:
256,192,182221,1,0,0:0:0:0:
256,192,182279,1,0,0:0:0:0:
256,192,182336,1,8,0:0:0:0:
256,192,182452,1,0,0:0:0:0:
256,192,182567,1,0,0:0:0:0:
256,192,182682,1,8,0:0:0:0:
256,192,182740,1,8,0:0:0:0:
256,192,182798,1,0,0:0:0:0:
256,192,182913,1,8,0:0:0:0:
256,192,183029,1,8,0:0:0:0:
256,192,183144,1,0,0:0:0:0:
256,192,183375,1,8,0:0:0:0:
256,192,183490,1,0,0:0:0:0:
256,192,183548,1,8,0:0:0:0:
256,192,183606,1,8,0:0:0:0:
256,192,183721,1,0,0:0:0:0:
256,192,183836,1,8,0:0:0:0:
256,192,184067,1,0,0:0:0:0:
256,192,184182,1,0,0:0:0:0:
256,192,184298,1,8,0:0:0:0:
256,192,184413,1,0,0:0:0:0:
256,192,184471,1,0,0:0:0:0:
256,192,184529,1,8,0:0:0:0:
256,192,184644,1,0,0:0:0:0:
256,192,184759,1,8,0:0:0:0:
256,192,184875,1,8,0:0:0:0:
256,192,184990,1,4,0:0:0:0:
256,192,185221,1,8,0:0:0:0:
256,192,185336,1,0,0:0:0:0:
256,192,185394,1,0,0:0:0:0:
256,192,185452,1,0,0:0:0:0:
256,192,185567,1,0,0:0:0:0:
256,192,185682,1,8,0:0:0:0:
256,192,185913,1,0,0:0:0:0:
256,192,185971,1,0,0:0:0:0:
256,192,186029,1,0,0:0:0:0:
256,192,186144,1,8,0:0:0:0:
256,192,186259,1,0,0:0:0:0:
256,192,186375,1,0,0:0:0:0:
256,192,186490,1,0,0:0:0:0:
256,192,186606,1,8,0:0:0:0:
256,192,186721,1,8,0:0:0:0:
256,192,186836,1,0,0:0:0:0:
256,192,187067,1,8,0:0:0:0:
256,192,187182,1,0,0:0:0:0:
256,192,187240,1,8,0:0:0:0:
256,192,187298,1,0,0:0:0:0:
256,192,187413,1,0,0:0:0:0:
256,192,187529,1,8,0:0:0:0:
256,192,187586,1,0,0:0:0:0:
256,192,187644,1,8,0:0:0:0:
256,192,187759,1,0,0:0:0:0:
256,192,187990,1,8,0:0:0:0:
256,192,188106,1,0,0:0:0:0:
256,192,188163,1,8,0:0:0:0:
256,192,188221,1,8,0:0:0:0:
256,192,188336,1,0,0:0:0:0:
256,192,188452,1,8,0:0:0:0:
256,192,188567,1,8,0:0:0:0:
256,192,188682,1,4,0:0:0:0:
256,192,188913,1,8,0:0:0:0:
256,192,189029,1,0,0:0:0:0:
256,192,189086,1,0,0:0:0:0:
256,192,189144,1,8,0:0:0:0:
256,192,189259,1,0,0:0:0:0:
256,192,189375,1,8,0:0:0:0:
256,192,189606,1,0,0:0:0:0:
256,192,189721,1,0,0:0:0:0:
256,192,189836,1,8,0:0:0:0:
256,192,189952,1,0,0:0:0:0:
256,192,190067,1,8,0:0:0:0:
256,192,190125,1,8,0:0:0:0:
256,192,190182,1,0,0:0:0:0:
256,192,190240,1,0,0:0:0:0:
256,192,190298,1,8,0:0:0:0:
256,192,190413,1,8,0:0:0:0:
256,192,190529,1,0,0:0:0:0:
256,192,190759,1,8,0:0:0:0:
256,192,190875,1,8,0:0:0:0:
256,192,190932,1,8,0:0:0:0:
256,192,190990,1,0,0:0:0:0:
256,192,191106,1,8,0:0:0:0:
256,192,191221,1,0,0:0:0:0:
256,192,191279,1,0,0:0:0:0:
256,192,191336,1,8,0:0:0:0:
256,192,191452,1,0,0:0:0:0:
256,192,191567,1,0,0:0:0:0:
256,192,191682,1,8,0:0:0:0:
256,192,191798,1,0,0:0:0:0:
256,192,191913,1,8,0:0:0:0:
256,192,191971,1,8,0:0:0:0:
256,192,192029,1,0,0:0:0:0:
256,192,192144,1,8,0:0:0:0:
256,192,192259,1,8,0:0:0:0:
256,192,192375,1,4,0:0:0:0:
256,192,192606,1,8,0:0:0:0:
256,192,192721,1,0,0:0:0:0:
256,192,192779,1,0,0:0:0:0:
256,192,192836,1,0,0:0:0:0:
256,192,192952,1,0,0:0:0:0:
256,192,193067,1,8,0:0:0:0:
256,192,193298,1,0,0:0:0:0:
256,192,193413,1,0,0:0:0:0:
256,192,193471,1,0,0:0:0:0:
256,192,193529,1,8,0:0:0:0:
256,192,193644,1,0,0:0:0:0:
256,192,193759,1,8,0:0:0:0:
256,192,193817,1,8,0:0:0:0:
256,192,193875,1,0,0:0:0:0:
256,192,193990,1,8,0:0:0:0:
256,192,194106,1,8,0:0:0:0:
256,192,194221,1,0,0:0:0:0:
256,192,194279,1,0,0:0:0:0:
256,192,194336,1,0,0:0:0:0:
256,192,194394,1,0,0:0:0:0:
256,192,194452,1,8,0:0:0:0:
256,192,194567,1,8,0:0:0:0:
256,192,194682,1,0,0:0:0:0:
256,192,194798,1,0,0:0:0:0:
256,192,194856,1,0,0:0:0:0:
256,192,194913,1,8,0:0:0:0:
256,192,195029,1,0,0:0:0:0:
256,192,195144,1,8,0:0:0:0:
256,192,195202,1,8,0:0:0:0:
256,192,195259,1,0,0:0:0:0:
256,192,195375,1,8,0:0:0:0:
256,192,195490,1,0,0:0:0:0:
256,192,195548,1,0,0:0:0:0:
256,192,195606,1,8,0:0:0:0:
256,192,195663,1,8,0:0:0:0:
256,192,195721,1,0,0:0:0:0:
256,192,195836,1,8,0:0:0:0:
256,192,196067,1,4,0:0:0:0:
256,192,196298,1,8,0:0:0:0:
256,192,196413,1,0,0:0:0:0:
256,192,196471,1,0,0:0:0:0:
256,192,196529,1,8,0:0:0:0:
256,192,196644,1,0,0:0:0:0:
256,192,196759,1,8,0:0:0:0:
256,192,196990,1,0,0:0:0:0:
256,192,197106,1,8,0:0:0:0:
256,192,197163,1,8,0:0:0:0:
256,192,197221,1,8,0:0:0:0:
256,192,197336,1,0,0:0:0:0:
256,192,197452,1,8,0:0:0:0:
256,192,197567,1,0,0:0:0:0:
256,192,197682,1,8,0:0:0:0:
256,192,197913,1,0,0:0:0:0:
256,192,198144,1,0,0:0:0:0:
256,192,198259,1,0,0:0:0:0:
256,192,198375,1,8,0:0:0:0:
256,192,198432,1,8,0:0:0:0:
256,192,198490,1,0,0:0:0:0:
256,192,198606,1,8,0:0:0:0:
256,192,198836,1,0,0:0:0:0:
256,192,199067,1,8,0:0:0:0:
256,192,199182,1,0,0:0:0:0:
256,192,199298,1,8,0:0:0:0:
256,192,199356,1,8,0:0:0:0:
256,192,199413,1,8,0:0:0:0:
256,192,199529,1,8,0:0:0:0:
256,192,199644,1,8,0:0:0:0:
256,192,199759,1,0,0:0:0:0:
256,192,199990,1,12,0:0:0:0:
256,192,200336,1,0,0:0:0:0:
256,192,200452,1,8,0:0:0:0:
256,192,200682,1,0,0:0:0:0:
256,192,200798,1,0,0:0:0:0:
256,192,200856,1,0,0:0:0:0:
256,192,200913,1,8,0:0:0:0:
256,192,201029,1,0,0:0:0:0:
256,192,201144,1,8,0:0:0:0:
256,192,201202,1,8,0:0:0:0:
256,192,201259,1,0,0:0:0:0:
256,192,201375,1,8,0:0:0:0:
256,192,201490,1,8,0:0:0:0:
256,192,201606,1,0,0:0:0:0:
256,192,201836,1,8,0:0:0:0:
256,192,201894,1,8,0:0:0:0:
256,192,201952,1,0,0:0:0:0:
256,192,202067,1,8,0:0:0:0:
256,192,202182,1,8,0:0:0:0:
256,192,202298,1,0,0:0:0:0:
256,192,202413,1,8,0:0:0:0:
256,192,202529,1,0,0:0:0:0:
256,192,202586,1,0,0:0:0:0:
256,192,202644,1,8,0:0:0:0:
256,192,202759,1,0,0:0:0:0:
256,192,202875,1,0,0:0:0:0:
256,192,202932,1,0,0:0:0:0:
256,192,202990,1,8,0:0:0:0:
256,192,203048,1,0,0:0:0:0:
256,192,203106,1,8,0:0:0:0:
256,192,203221,1,0,0:0:0:0:
256,192,203336,1,8,0:0:0:0:
256,192,203452,1,4,0:0:0:0:
256,192,203682,1,8,0:0:0:0:
256,192,203798,1,0,0:0:0:0:
256,192,203856,1,8,0:0:0:0:
256,192,203913,1,0,0:0:0:0:
256,192,204029,1,0,0:0:0:0:
256,192,204144,1,8,0:0:0:0:
256,192,204375,1,0,0:0:0:0:
256,192,204432,1,0,0:0:0:0:
256,192,204490,1,8,0:0:0:0:
256,192,204548,1,8,0:0:0:0:
256,192,204606,1,0,0:0:0:0:
256,192,204721,1,0,0:0:0:0:
256,192,204836,1,8,0:0:0:0:
256,192,204894,1,8,0:0:0:0:
256,192,204952,1,0,0:0:0:0:
256,192,205009,1,0,0:0:0:0:
256,192,205067,1,8,0:0:0:0:
256,192,205182,1,0,0:0:0:0:
256,192,205298,1,8,0:0:0:0:
256,192,205529,1,8,0:0:0:0:
256,192,205644,1,0,0:0:0:0:
256,192,205702,1,0,0:0:0:0:
256,192,205759,1,8,0:0:0:0:
256,192,205817,1,0,0:0:0:0:
256,192,205875,1,8,0:0:0:0:
256,192,205990,1,0,0:0:0:0:
256,192,206106,1,8,0:0:0:0:
256,192,206163,1,8,0:0:0:0:
256,192,206221,1,8,0:0:0:0:
256,192,206336,1,8,0:0:0:0:
256,192,206452,1,0,0:0:0:0:
256,192,206567,1,8,0:0:0:0:
256,192,206682,1,0,0:0:0:0:
256,192,206798,1,0,0:0:0:0:
256,192,206913,1,0,0:0:0:0:
256,192,207144,1,12,0:0:0:0:
256,192,207374,12,0,210605,0:0:0:0:
256,192,210836,12,0,214067,0:0:0:0:
256,192,214297,5,0,0:0:0:0:
256,192,214528,1,8,0:0:0:0:
256,192,214990,1,0,0:0:0:0:
256,192,215451,1,8,0:0:0:0:
256,192,215913,1,0,0:0:0:0:
256,192,216374,1,8,0:0:0:0:
256,192,216836,1,8,0:0:0:0:
256,192,217297,1,0,0:0:0:0:
256,192,217759,1,0,0:0:0:0:
256,192,218220,1,8,0:0:0:0:
256,192,218682,1,8,0:0:0:0:
256,192,219144,1,8,0:0:0:0:
256,192,219605,1,8,0:0:0:0:
256,192,220067,1,0,0:0:0:0:
256,192,220528,1,0,0:0:0:0:
256,192,220990,1,0,0:0:0:0:
256,192,221451,1,0,0:0:0:0:
256,192,221913,1,0,0:0:0:0:
256,192,222374,1,0,0:0:0:0:
256,192,222836,1,8,0:0:0:0:
256,192,222951,1,8,0:0:0:0:
256,192,223067,1,0,0:0:0:0:
256,192,223182,1,8,0:0:0:0:
256,192,223297,1,0,0:0:0:0:
256,192,223413,1,0,0:0:0:0:
256,192,223528,1,8,0:0:0:0:
256,192,223644,1,0,0:0:0:0:
256,192,223759,1,4,0:0:0:0:
256,192,223989,1,0,0:0:0:0:
256,192,224105,1,0,0:0:0:0:
256,192,224220,1,8,0:0:0:0:
256,192,224297,1,0,0:0:0:0:
256,192,224374,1,0,0:0:0:0:
256,192,224451,1,8,0:0:0:0:
256,192,224682,1,0,0:0:0:0:
256,192,224912,1,8,0:0:0:0:
256,192,225143,1,0,0:0:0:0:
256,192,225259,1,0,0:0:0:0:
256,192,225374,1,0,0:0:0:0:
256,192,225489,1,0,0:0:0:0:
256,192,225605,1,8,0:0:0:0:
256,192,225835,1,0,0:0:0:0:
256,192,225951,1,0,0:0:0:0:
256,192,226066,1,8,0:0:0:0:
256,192,226143,1,8,0:0:0:0:
256,192,226220,1,0,0:0:0:0:
256,192,226297,1,8,0:0:0:0:
256,192,226528,1,0,0:0:0:0:
256,192,226759,1,8,0:0:0:0:
256,192,226874,1,0,0:0:0:0:
256,192,226989,1,8,0:0:0:0:
256,192,227105,1,8,0:0:0:0:
256,192,227220,1,0,0:0:0:0:
256,192,227335,1,8,0:0:0:0:
256,192,227451,1,0,0:0:0:0:
256,192,227682,1,8,0:0:0:0:
256,192,227797,1,8,0:0:0:0:
256,192,227912,1,0,0:0:0:0:
256,192,227989,1,0,0:0:0:0:
256,192,228066,1,0,0:0:0:0:
256,192,228143,1,8,0:0:0:0:
256,192,228374,1,0,0:0:0:0:
256,192,228605,1,8,0:0:0:0:
256,192,228835,1,0,0:0:0:0:
256,192,228951,1,0,0:0:0:0:
256,192,229066,1,0,0:0:0:0:
256,192,229182,1,0,0:0:0:0:
256,192,229297,1,8,0:0:0:0:
256,192,229528,1,0,0:0:0:0:
256,192,229643,1,8,0:0:0:0:
256,192,229759,1,0,0:0:0:0:
256,192,229835,1,0,0:0:0:0:
256,192,229912,1,8,0:0:0:0:
256,192,229989,1,8,0:0:0:0:
256,192,230220,1,0,0:0:0:0:
256,192,230451,1,8,0:0:0:0:
256,192,230566,1,8,0:0:0:0:
256,192,230682,1,0,0:0:0:0:
256,192,230797,1,8,0:0:0:0:
256,192,230912,1,0,0:0:0:0:
256,192,231028,1,0,0:0:0:0:
256,192,231143,1,12,0:0:0:0:
256,192,231374,1,8,0:0:0:0:
256,192,231605,1,0,0:0:0:0:
256,192,231720,1,0,0:0:0:0:
256,192,231835,1,8,0:0:0:0:
256,192,232066,1,0,0:0:0:0:
256,192,232182,1,0,0:0:0:0:
256,192,232297,1,8,0:0:0:0:
256,192,232412,1,0,0:0:0:0:
256,192,232528,1,0,0:0:0:0:
256,192,232643,1,8,0:0:0:0:
256,192,232759,1,8,0:0:0:0:
256,192,232989,1,0,0:0:0:0:
256,192,233220,1,8,0:0:0:0:
256,192,233451,1,8,0:0:0:0:
256,192,233566,1,0,0:0:0:0:
256,192,233682,1,8,0:0:0:0:
256,192,233912,1,0,0:0:0:0:
256,192,234028,1,8,0:0:0:0:
256,192,234143,1,8,0:0:0:0:
256,192,234259,1,0,0:0:0:0:
256,192,234316,1,0,0:0:0:0:
256,192,234374,1,0,0:0:0:0:
256,192,234489,1,0,0:0:0:0:
256,192,234605,1,8,0:0:0:0:
256,192,234720,1,0,0:0:0:0:
256,192,234835,1,12,0:0:0:0:
256,192,235066,1,0,0:0:0:0:
256,192,235297,1,12,0:0:0:0:
256,192,235528,1,0,0:0:0:0:
256,192,235759,1,12,0:0:0:0:
256,192,235989,1,0,0:0:0:0:
256,192,236220,1,12,0:0:0:0:
256,192,236451,1,8,0:0:0:0:
256,192,236682,1,4,0:0:0:0:
256,192,236912,1,8,0:0:0:0:
256,192,237143,1,4,0:0:0:0:
256,192,237374,1,8,0:0:0:0:
256,192,237605,1,4,0:0:0:0:
256,192,237835,1,0,0:0:0:0:
256,192,238066,1,12,0:0:0:0:
256,192,238297,1,8,0:0:0:0:
256,192,238412,1,8,0:0:0:0:
256,192,238528,1,4,0:0:0:0:
256,192,238758,1,0,0:0:0:0:
256,192,238874,1,0,0:0:0:0:
256,192,238989,1,8,0:0:0:0:
256,192,239066,1,0,0:0:0:0:
256,192,239143,1,0,0:0:0:0:
256,192,239220,1,8,0:0:0:0:
256,192,239451,1,0,0:0:0:0:
256,192,239681,1,8,0:0:0:0:
256,192,239912,1,0,0:0:0:0:
256,192,240028,1,0,0:0:0:0:
256,192,240143,1,0,0:0:0:0:
256,192,240258,1,0,0:0:0:0:
256,192,240374,1,8,0:0:0:0:
256,192,240604,1,0,0:0:0:0:
256,192,240720,1,0,0:0:0:0:
256,192,240835,1,8,0:0:0:0:
256,192,240912,1,8,0:0:0:0:
256,192,240989,1,0,0:0:0:0:
256,192,241066,1,8,0:0:0:0:
256,192,241297,1,0,0:0:0:0:
256,192,241528,1,8,0:0:0:0:
256,192,241643,1,0,0:0:0:0:
256,192,241758,1,8,0:0:0:0:
256,192,241874,1,8,0:0:0:0:
256,192,241989,1,0,0:0:0:0:
256,192,242104,1,8,0:0:0:0:
256,192,242220,1,0,0:0:0:0:
256,192,242451,1,8,0:0:0:0:
256,192,242566,1,8,0:0:0:0:
256,192,242681,1,0,0:0:0:0:
256,192,242758,1,0,0:0:0:0:
256,192,242835,1,0,0:0:0:0:
256,192,242912,1,8,0:0:0:0:
256,192,243143,1,0,0:0:0:0:
256,192,243374,1,8,0:0:0:0:
256,192,243604,1,0,0:0:0:0:
256,192,243720,1,0,0:0:0:0:
256,192,243835,1,0,0:0:0:0:
256,192,243951,1,0,0:0:0:0:
256,192,244066,1,8,0:0:0:0:
256,192,244297,1,0,0:0:0:0:
256,192,244412,1,8,0:0:0:0:
256,192,244528,1,0,0:0:0:0:
256,192,244604,1,0,0:0:0:0:
256,192,244681,1,8,0:0:0:0:
256,192,244758,1,8,0:0:0:0:
256,192,244989,1,0,0:0:0:0:
256,192,245220,1,8,0:0:0:0:
256,192,245335,1,8,0:0:0:0:
256,192,245451,1,0,0:0:0:0:
256,192,245566,1,8,0:0:0:0:
256,192,245681,1,0,0:0:0:0:
256,192,245797,1,0,0:0:0:0:
256,192,245912,1,12,0:0:0:0:
256,192,246143,1,8,0:0:0:0:
256,192,246259,1,0,0:0:0:0:
256,192,246374,1,0,0:0:0:0:
256,192,246489,1,0,0:0:0:0:
256,192,246605,1,8,0:0:0:0:
256,192,246835,1,0,0:0:0:0:
256,192,246951,1,0,0:0:0:0:
256,192,247066,1,8,0:0:0:0:
256,192,247182,1,0,0:0:0:0:
256,192,247297,1,0,0:0:0:0:
256,192,247412,1,8,0:0:0:0:
256,192,247528,1,8,0:0:0:0:
256,192,247759,1,0,0:0:0:0:
256,192,247989,1,8,0:0:0:0:
256,192,248105,1,8,0:0:0:0:
256,192,248220,1,0,0:0:0:0:
256,192,248335,1,0,0:0:0:0:
256,192,248451,1,8,0:0:0:0:
256,192,248682,1,0,0:0:0:0:
256,192,248797,1,8,0:0:0:0:
256,192,248912,1,8,0:0:0:0:
256,192,249028,1,0,0:0:0:0:
256,192,249085,1,0,0:0:0:0:
256,192,249143,1,0,0:0:0:0:
256,192,249259,1,0,0:0:0:0:
256,192,249374,1,8,0:0:0:0:
256,192,249489,1,0,0:0:0:0:
256,192,249605,1,12,0:0:0:0:
256,192,249835,1,0,0:0:0:0:
256,192,250066,1,12,0:0:0:0:
256,192,250297,1,0,0:0:0:0:
256,192,250528,1,12,0:0:0:0:
256,192,250759,1,0,0:0:0:0:
256,192,250989,1,12,0:0:0:0:
256,192,251220,1,8,0:0:0:0:
256,192,251451,1,4,0:0:0:0:
256,192,251682,1,8,0:0:0:0:
256,192,251912,1,8,0:0:0:0:
256,192,252028,1,8,0:0:0:0:
256,192,252143,1,8,0:0:0:0:
256,192,252259,1,8,0:0:0:0:
256,192,252374,1,4,0:0:0:0:
256,192,253297,1,12,0:0:0:0:
256,192,253528,1,8,0:0:0:0:
256,192,253643,1,0,0:0:0:0:
256,192,253759,1,8,0:0:0:0:
256,192,253816,1,8,0:0:0:0:
256,192,253874,1,0,0:0:0:0:
256,192,253989,1,8,0:0:0:0:
256,192,254105,1,0,0:0:0:0:
256,192,254220,1,8,0:0:0:0:
256,192,254278,1,0,0:0:0:0:
256,192,254335,1,8,0:0:0:0:
256,192,254451,1,0,0:0:0:0:
256,192,254566,1,8,0:0:0:0:
256,192,254624,1,8,0:0:0:0:
256,192,254682,1,8,0:0:0:0:
256,192,254797,1,8,0:0:0:0:
256,192,254912,1,0,0:0:0:0:
256,192,255028,1,0,0:0:0:0:
256,192,255143,1,8,0:0:0:0:
256,192,255201,1,8,0:0:0:0:
256,192,255259,1,0,0:0:0:0:
256,192,255374,1,0,0:0:0:0:
256,192,255489,1,8,0:0:0:0:
256,192,255547,1,8,0:0:0:0:
256,192,255605,1,0,0:0:0:0:
256,192,255662,1,0,0:0:0:0:
256,192,255720,1,8,0:0:0:0:
256,192,255835,1,0,0:0:0:0:
256,192,255951,1,8,0:0:0:0:
256,192,256009,1,8,0:0:0:0:
256,192,256066,1,8,0:0:0:0:
256,192,256182,1,8,0:0:0:0:
256,192,256297,1,0,0:0:0:0:
256,192,256412,1,0,0:0:0:0:
256,192,256470,1,0,0:0:0:0:
256,192,256528,1,8,0:0:0:0:
256,192,256585,1,8,0:0:0:0:
256,192,256643,1,0,0:0:0:0:
256,192,256759,1,8,0:0:0:0:
256,192,256874,1,0,0:0:0:0:
256,192,256989,1,12,0:0:0:0:
256,192,257220,1,8,0:0:0:0:
256,192,257335,1,0,0:0:0:0:
256,192,257451,1,8,0:0:0:0:
256,192,257509,1,8,0:0:0:0:
256,192,257566,1,0,0:0:0:0:
256,192,257682,1,8,0:0:0:0:
256,192,257797,1,0,0:0:0:0:
256,192,257912,1,8,0:0:0:0:
256,192,257970,1,8,0:0:0:0:
256,192,258028,1,8,0:0:0:0:
256,192,258143,1,0,0:0:0:0:
256,192,258259,1,8,0:0:0:0:
256,192,258316,1,8,0:0:0:0:
256,192,258374,1,0,0:0:0:0:
256,192,258489,1,0,0:0:0:0:
256,192,258605,1,8,0:0:0:0:
256,192,258720,1,0,0:0:0:0:
256,192,258778,1,0,0:0:0:0:
256,192,258835,1,8,0:0:0:0:
256,192,258951,1,0,0:0:0:0:
256,192,259009,1,0,0:0:0:0:
256,192,259066,1,0,0:0:0:0:
256,192,259182,1,8,0:0:0:0:
256,192,259239,1,8,0:0:0:0:
256,192,259297,1,0,0:0:0:0:
256,192,259355,1,0,0:0:0:0:
256,192,259412,1,8,0:0:0:0:
256,192,259528,1,0,0:0:0:0:
256,192,259643,1,8,0:0:0:0:
256,192,259701,1,8,0:0:0:0:
256,192,259759,1,8,0:0:0:0:
256,192,259874,1,8,0:0:0:0:
256,192,259989,1,0,0:0:0:0:
256,192,260105,1,0,0:0:0:0:
256,192,260162,1,0,0:0:0:0:
256,192,260220,1,8,0:0:0:0:
256,192,260278,1,8,0:0:0:0:
256,192,260335,1,0,0:0:0:0:
256,192,260451,1,8,0:0:0:0:
256,192,260528,1,8,0:0:0:0:
256,192,260605,1,8,0:0:0:0:
256,192,260682,1,4,0:0:0:0:
256,192,260912,1,8,0:0:0:0:
256,192,261028,1,0,0:0:0:0:
256,192,261143,1,8,0:0:0:0:
256,192,261201,1,0,0:0:0:0:
256,192,261259,1,8,0:0:0:0:
256,192,261316,1,8,0:0:0:0:
256,192,261374,1,0,0:0:0:0:
256,192,261489,1,8,0:0:0:0:
256,192,261547,1,8,0:0:0:0:
256,192,261605,1,8,0:0:0:0:
256,192,261720,1,8,0:0:0:0:
256,192,261835,1,0,0:0:0:0:
256,192,261951,1,0,0:0:0:0:
256,192,262066,1,8,0:0:0:0:
256,192,262124,1,8,0:0:0:0:
256,192,262182,1,0,0:0:0:0:
256,192,262297,1,8,0:0:0:0:
256,192,262412,1,8,0:0:0:0:
256,192,262528,1,0,0:0:0:0:
256,192,262643,1,0,0:0:0:0:
256,192,262701,1,0,0:0:0:0:
256,192,262759,1,8,0:0:0:0:
256,192,262874,1,0,0:0:0:0:
256,192,262989,1,8,0:0:0:0:
256,192,263047,1,8,0:0:0:0:
256,192,263105,1,0,0:0:0:0:
256,192,263162,1,8,0:0:0:0:
256,192,263220,1,0,0:0:0:0:
256,192,263335,1,8,0:0:0:0:
256,192,263393,1,8,0:0:0:0:
256,192,263451,1,0,0:0:0:0:
256,192,263566,1,0,0:0:0:0:
256,192,263682,1,8,0:0:0:0:
256,192,263797,1,0,0:0:0:0:
256,192,263912,1,0,0:0:0:0:
256,192,263970,1,0,0:0:0:0:
256,192,264028,1,8,0:0:0:0:
256,192,264085,1,8,0:0:0:0:
256,192,264143,1,0,0:0:0:0:
256,192,264259,1,8,0:0:0:0:
256,192,264374,1,4,0:0:0:0:
256,192,264605,1,8,0:0:0:0:
256,192,264720,1,8,0:0:0:0:
256,192,264835,1,4,0:0:0:0:
256,192,265066,1,8,0:0:0:0:
256,192,265182,1,8,0:0:0:0:
256,192,265297,1,4,0:0:0:0:
256,192,265528,1,8,0:0:0:0:
256,192,265643,1,8,0:0:0:0:
256,192,265759,1,4,0:0:0:0:
256,192,265874,1,0,0:0:0:0:
256,192,265989,1,8,0:0:0:0:
256,192,266105,1,0,0:0:0:0:
256,192,266220,1,12,0:0:0:0:
256,192,266451,1,12,0:0:0:0:
256,192,266566,1,0,0:0:0:0:
256,192,266682,1,12,0:0:0:0:
256,192,266797,1,0,0:0:0:0:
256,192,266912,1,12,0:0:0:0:
256,192,267143,1,4,0:0:0:0:
256,192,267374,1,0,0:0:0:0:
256,192,267451,1,0,0:0:0:0:
256,192,267528,1,0,0:0:0:0:
256,192,267605,1,8,0:0:0:0:
256,192,267720,1,0,0:0:0:0:
256,192,267778,1,0,0:0:0:0:
256,192,267835,1,8,0:0:0:0:
256,192,267951,1,8,0:0:0:0:
256,192,268066,1,4,0:0:0:0:
256,192,268297,1,8,0:0:0:0:
256,192,268412,1,0,0:0:0:0:
256,192,268528,1,8,0:0:0:0:
256,192,268585,1,8,0:0:0:0:
256,192,268643,1,0,0:0:0:0:
256,192,268759,1,8,0:0:0:0:
256,192,268874,1,0,0:0:0:0:
256,192,268989,1,8,0:0:0:0:
256,192,269047,1,0,0:0:0:0:
256,192,269105,1,8,0:0:0:0:
256,192,269220,1,0,0:0:0:0:
256,192,269335,1,8,0:0:0:0:
256,192,269393,1,8,0:0:0:0:
256,192,269451,1,8,0:0:0:0:
256,192,269566,1,8,0:0:0:0:
256,192,269682,1,0,0:0:0:0:
256,192,269797,1,0,0:0:0:0:
256,192,269912,1,8,0:0:0:0:
256,192,269970,1,8,0:0:0:0:
256,192,270028,1,0,0:0:0:0:
256,192,270143,1,0,0:0:0:0:
256,192,270259,1,8,0:0:0:0:
256,192,270316,1,8,0:0:0:0:
256,192,270374,1,0,0:0:0:0:
256,192,270432,1,0,0:0:0:0:
256,192,270489,1,8,0:0:0:0:
256,192,270605,1,0,0:0:0:0:
256,192,270720,1,8,0:0:0:0:
256,192,270778,1,8,0:0:0:0:
256,192,270835,1,8,0:0:0:0:
256,192,270951,1,8,0:0:0:0:
256,192,271066,1,0,0:0:0:0:
256,192,271182,1,8,0:0:0:0:
256,192,271297,1,0,0:0:0:0:
256,192,271355,1,0,0:0:0:0:
256,192,271412,1,8,0:0:0:0:
256,192,271470,1,0,0:0:0:0:
256,192,271528,1,8,0:0:0:0:
256,192,271643,1,0,0:0:0:0:
256,192,271759,1,12,0:0:0:0:
256,192,271989,1,8,0:0:0:0:
256,192,272105,1,0,0:0:0:0:
256,192,272220,1,8,0:0:0:0:
256,192,272278,1,8,0:0:0:0:
256,192,272335,1,0,0:0:0:0:
256,192,272451,1,8,0:0:0:0:
256,192,272566,1,0,0:0:0:0:
256,192,272682,1,8,0:0:0:0:
256,192,272739,1,8,0:0:0:0:
256,192,272797,1,0,0:0:0:0:
256,192,272855,1,8,0:0:0:0:
256,192,272912,1,0,0:0:0:0:
256,192,273028,1,8,0:0:0:0:
256,192,273085,1,8,0:0:0:0:
256,192,273143,1,0,0:0:0:0:
256,192,273259,1,0,0:0:0:0:
256,192,273374,1,8,0:0:0:0:
256,192,273489,1,0,0:0:0:0:
256,192,273547,1,0,0:0:0:0:
256,192,273605,1,8,0:0:0:0:
256,192,273720,1,0,0:0:0:0:
256,192,273778,1,0,0:0:0:0:
256,192,273835,1,0,0:0:0:0:
256,192,273951,1,8,0:0:0:0:
256,192,274009,1,8,0:0:0:0:
256,192,274066,1,0,0:0:0:0:
256,192,274124,1,0,0:0:0:0:
256,192,274182,1,8,0:0:0:0:
256,192,274297,1,0,0:0:0:0:
256,192,274412,1,8,0:0:0:0:
256,192,274470,1,8,0:0:0:0:
256,192,274528,1,8,0:0:0:0:
256,192,274643,1,8,0:0:0:0:
256,192,274759,1,0,0:0:0:0:
256,192,274874,1,0,0:0:0:0:
256,192,274932,1,0,0:0:0:0:
256,192,274989,1,8,0:0:0:0:
256,192,275047,1,8,0:0:0:0:
256,192,275105,1,0,0:0:0:0:
256,192,275220,1,8,0:0:0:0:
256,192,275297,1,8,0:0:0:0:
256,192,275374,1,8,0:0:0:0:
256,192,275451,1,4,0:0:0:0:
256,192,275682,1,8,0:0:0:0:
256,192,275797,1,0,0:0:0:0:
256,192,275912,1,8,0:0:0:0:
256,192,275970,1,0,0:0:0:0:
256,192,276028,1,8,0:0:0:0:
256,192,276085,1,8,0:0:0:0:
256,192,276143,1,0,0:0:0:0:
256,192,276259,1,8,0:0:0:0:
256,192,276316,1,8,0:0:0:0:
256,192,276374,1,8,0:0:0:0:
256,192,276489,1,8,0:0:0:0:
256,192,276605,1,0,0:0:0:0:
256,192,276720,1,0,0:0:0:0:
256,192,276835,1,8,0:0:0:0:
256,192,276893,1,8,0:0:0:0:
256,192,276951,1,0,0:0:0:0:
256,192,277009,1,0,0:0:0:0:
256,192,277066,1,8,0:0:0:0:
256,192,277182,1,8,0:0:0:0:
256,192,277297,1,0,0:0:0:0:
256,192,277412,1,0,0:0:0:0:
256,192,277470,1,0,0:0:0:0:
256,192,277528,1,8,0:0:0:0:
256,192,277643,1,0,0:0:0:0:
256,192,277759,1,8,0:0:0:0:
256,192,277816,1,8,0:0:0:0:
256,192,277874,1,0,0:0:0:0:
256,192,277932,1,8,0:0:0:0:
256,192,277989,1,0,0:0:0:0:
256,192,278105,1,8,0:0:0:0:
256,192,278162,1,8,0:0:0:0:
256,192,278220,1,0,0:0:0:0:
256,192,278335,1,8,0:0:0:0:
256,192,278451,1,0,0:0:0:0:
256,192,278566,1,0,0:0:0:0:
256,192,278624,1,0,0:0:0:0:
256,192,278682,1,8,0:0:0:0:
256,192,278739,1,8,0:0:0:0:
256,192,278797,1,0,0:0:0:0:
256,192,278912,1,8,0:0:0:0:
256,192,279028,1,0,0:0:0:0:
256,192,279143,1,12,0:0:0:0:
256,192,279374,1,8,0:0:0:0:
256,192,279489,1,0,0:0:0:0:
256,192,279605,1,12,0:0:0:0:
256,192,279720,1,8,0:0:0:0:
256,192,279835,1,0,0:0:0:0:
256,192,279951,1,8,0:0:0:0:
256,192,280066,1,4,0:0:0:0:
256,192,280297,1,0,0:0:0:0:
256,192,280412,1,8,0:0:0:0:
256,192,280528,1,4,0:0:0:0:
256,192,280643,1,0,0:0:0:0:
256,192,280759,1,8,0:0:0:0:
256,192,280874,1,0,0:0:0:0:
256,192,280989,1,12,0:0:0:0:
256,192,281105,12,0,282720,0:0:0:0:
256,192,282835,5,0,0:0:0:0:
256,192,282912,1,0,0:0:0:0:
256,192,282989,1,0,0:0:0:0:
256,192,283066,1,8,0:0:0:0:
256,192,283143,1,0,0:0:0:0:
256,192,283220,1,0,0:0:0:0:
256,192,283297,1,8,0:0:0:0:
256,192,283412,1,0,0:0:0:0:
256,192,283528,1,8,0:0:0:0:
256,192,283643,1,0,0:0:0:0:
256,192,283759,1,12,0:0:0:0:
256,192,284451,1,8,0:0:0:0:
256,192,284528,1,8,0:0:0:0:
256,192,284605,1,8,0:0:0:0:
0,64,284682,1,4,0:0:0:0:
64,352,284797,1,0,0:0:0:0:
256,192,284855,1,0,0:0:0:0:
160,32,284912,1,8,0:0:0:0:
192,320,285028,1,0,0:0:0:0:
352,32,285143,1,8,0:0:0:0:
256,192,285201,1,8,0:0:0:0:
320,320,285259,1,0,0:0:0:0:
256,192,285316,1,0,0:0:0:0:
512,64,285374,1,8,0:0:0:0:
448,352,285489,1,0,0:0:0:0:
0,64,285605,1,8,0:0:0:0:
256,192,285662,1,0,0:0:0:0:
64,352,285720,1,8,0:0:0:0:
256,192,285777,1,8,0:0:0:0:
160,32,285835,1,0,0:0:0:0:
192,320,285951,1,8,0:0:0:0:
256,192,286008,1,8,0:0:0:0:
352,32,286066,1,0,0:0:0:0:
256,192,286124,1,0,0:0:0:0:
320,320,286181,1,8,0:0:0:0:
512,64,286297,1,8,0:0:0:0:
448,352,286412,1,0,0:0:0:0:
256,192,286470,1,0,0:0:0:0:
0,64,286528,1,8,0:0:0:0:
256,192,286585,1,8,0:0:0:0:
64,352,286643,1,0,0:0:0:0:
160,32,286759,1,0,0:0:0:0:
192,320,286874,1,8,0:0:0:0:
256,192,286932,1,0,0:0:0:0:
352,32,286989,1,0,0:0:0:0:
256,192,287047,1,0,0:0:0:0:
320,320,287105,1,8,0:0:0:0:
512,64,287220,1,0,0:0:0:0:
448,352,287335,1,8,0:0:0:0:
256,192,287393,1,8,0:0:0:0:
0,64,287451,1,0,0:0:0:0:
64,352,287566,1,8,0:0:0:0:
192,320,287682,1,0,0:0:0:0:
256,192,287739,1,0,0:0:0:0:
352,32,287796,1,8,0:0:0:0:
256,192,287854,1,8,0:0:0:0:
320,320,287912,1,0,0:0:0:0:
256,192,288028,1,0,0:0:0:0:
512,64,288143,1,8,0:0:0:0:
256,192,288201,1,8,0:0:0:0:
448,352,288259,1,0,0:0:0:0:
256,192,288316,1,0,0:0:0:0:
0,64,288374,1,12,0:0:0:0:
64,352,288489,1,0,0:0:0:0:
256,192,288547,1,0,0:0:0:0:
160,32,288605,1,8,0:0:0:0:
192,320,288720,1,0,0:0:0:0:
352,32,288835,1,8,0:0:0:0:
256,192,288893,1,8,0:0:0:0:
320,320,288951,1,0,0:0:0:0:
256,192,289009,1,0,0:0:0:0:
512,64,289066,1,8,0:0:0:0:
448,352,289182,1,0,0:0:0:0:
0,64,289297,1,8,0:0:0:0:
256,192,289355,1,8,0:0:0:0:
64,352,289412,1,0,0:0:0:0:
256,192,289470,1,8,0:0:0:0:
160,32,289528,1,0,0:0:0:0:
192,320,289643,1,8,0:0:0:0:
256,192,289701,1,8,0:0:0:0:
352,32,289759,1,0,0:0:0:0:
256,192,289816,1,0,0:0:0:0:
320,320,289874,1,8,0:0:0:0:
512,64,289989,1,8,0:0:0:0:
448,352,290105,1,0,0:0:0:0:
256,192,290162,1,0,0:0:0:0:
0,64,290220,1,8,0:0:0:0:
256,192,290278,1,8,0:0:0:0:
64,352,290335,1,0,0:0:0:0:
160,32,290451,1,0,0:0:0:0:
192,320,290566,1,8,0:0:0:0:
256,192,290624,1,8,0:0:0:0:
352,32,290682,1,0,0:0:0:0:
256,192,290739,1,0,0:0:0:0:
320,320,290797,1,8,0:0:0:0:
512,64,290912,1,0,0:0:0:0:
448,352,291028,1,8,0:0:0:0:
256,192,291085,1,8,0:0:0:0:
0,64,291143,1,8,0:0:0:0:
64,352,291259,1,8,0:0:0:0:
160,32,291374,1,0,0:0:0:0:
192,320,291489,1,8,0:0:0:0:
256,192,291547,1,8,0:0:0:0:
352,32,291605,1,0,0:0:0:0:
256,192,291662,1,8,0:0:0:0:
320,320,291720,1,0,0:0:0:0:
256,192,291778,1,0,0:0:0:0:
512,96,291835,1,8,0:0:0:0:
448,352,291951,1,8,0:0:0:0:
0,64,292066,1,4,0:0:0:0:
256,192,292297,1,8,0:0:0:0:
256,192,292412,1,0,0:0:0:0:
256,192,292528,1,8,0:0:0:0:
256,192,292585,1,0,0:0:0:0:
256,192,292643,1,8,0:0:0:0:
256,192,292701,1,8,0:0:0:0:
256,192,292759,1,0,0:0:0:0:
256,192,292874,1,8,0:0:0:0:
256,192,292932,1,8,0:0:0:0:
256,192,292989,1,8,0:0:0:0:
256,192,293105,1,8,0:0:0:0:
256,192,293220,1,0,0:0:0:0:
256,192,293335,1,0,0:0:0:0:
256,192,293393,1,0,0:0:0:0:
256,192,293451,1,8,0:0:0:0:
256,192,293509,1,8,0:0:0:0:
256,192,293566,1,0,0:0:0:0:
256,192,293682,1,8,0:0:0:0:
256,192,293797,1,8,0:0:0:0:
256,192,293912,1,0,0:0:0:0:
256,192,294143,1,8,0:0:0:0:
256,192,294259,1,0,0:0:0:0:
256,192,294374,1,8,0:0:0:0:
256,192,294432,1,8,0:0:0:0:
256,192,294489,1,0,0:0:0:0:
256,192,294547,1,8,0:0:0:0:
256,192,294605,1,0,0:0:0:0:
256,192,294720,1,8,0:0:0:0:
256,192,294778,1,8,0:0:0:0:
256,192,294835,1,0,0:0:0:0:
256,192,294951,1,0,0:0:0:0:
256,192,295066,1,8,0:0:0:0:
256,192,295182,1,0,0:0:0:0:
256,192,295297,1,8,0:0:0:0:
256,192,295355,1,8,0:0:0:0:
256,192,295412,1,0,0:0:0:0:
256,192,295470,1,0,0:0:0:0:
256,192,295528,1,8,0:0:0:0:
256,192,295643,1,8,0:0:0:0:
256,192,295759,1,4,0:0:0:0:
256,192,295989,1,8,0:0:0:0:
256,192,296105,1,8,0:0:0:0:
256,192,296220,1,4,0:0:0:0:
256,192,296451,1,8,0:0:0:0:
256,192,296566,1,8,0:0:0:0:
256,192,296682,1,4,0:0:0:0:
256,192,296912,1,8,0:0:0:0:
256,192,297028,1,8,0:0:0:0:
256,192,297143,1,4,0:0:0:0:
256,192,297259,1,0,0:0:0:0:
256,192,297374,1,8,0:0:0:0:
256,192,297489,1,0,0:0:0:0:
256,192,297605,1,12,0:0:0:0:
256,192,297835,1,12,0:0:0:0:
256,192,297951,1,0,0:0:0:0:
256,192,298066,1,12,0:0:0:0:
256,192,298182,1,0,0:0:0:0:
256,192,298297,1,12,0:0:0:0:
256,192,298412,1,8,0:0:0:0:
256,192,298528,1,4,0:0:0:0:
256,192,298759,1,0,0:0:0:0:
256,192,298835,1,0,0:0:0:0:
256,192,298912,1,0,0:0:0:0:
256,192,298989,1,8,0:0:0:0:
256,192,299105,1,0,0:0:0:0:
256,192,299220,1,8,0:0:0:0:
256,192,299335,1,8,0:0:0:0:
256,192,299451,1,4,0:0:0:0:
256,192,300374,1,12,0:0:0:0:
256,192,300720,1,12,0:0:0:0:
256,192,301066,1,12,0:0:0:0:
256,192,301297,1,4,0:0:0:0:
256,192,302220,1,4,0:0:0:0:
256,192,302451,1,8,0:0:0:0:
256,192,302566,1,0,0:0:0:0:
256,192,302624,1,0,0:0:0:0:
256,192,302682,1,8,0:0:0:0:
256,192,302797,1,0,0:0:0:0:
256,192,302912,1,8,0:0:0:0:
256,192,303143,1,4,0:0:0:0:
256,192,304066,1,12,0:0:0:0:
256,192,304412,1,12,0:0:0:0:
256,192,304759,1,12,0:0:0:0:
256,192,304989,1,4,0:0:0:0:
256,192,305220,1,0,0:0:0:0:
256,192,305335,1,0,0:0:0:0:
256,192,305451,1,8,0:0:0:0:
256,192,305566,1,0,0:0:0:0:
256,192,305624,1,0,0:0:0:0:
256,192,305682,1,8,0:0:0:0:
256,192,305797,1,0,0:0:0:0:
256,192,305912,1,8,0:0:0:0:
256,192,305970,1,8,0:0:0:0:
256,192,306028,1,0,0:0:0:0:
256,192,306085,1,0,0:0:0:0:
256,192,306143,1,8,0:0:0:0:
256,192,306259,1,8,0:0:0:0:
256,192,306375,1,0,0:0:0:0:
256,192,306432,1,0,0:0:0:0:
256,192,306490,1,8,0:0:0:0:
256,192,306548,1,8,0:0:0:0:
256,192,306605,1,0,0:0:0:0:
256,192,306720,1,0,0:0:0:0:
256,192,306835,1,12,0:0:0:0:
256,192,307066,1,8,0:0:0:0:
256,192,307182,1,0,0:0:0:0:
256,192,307297,1,8,0:0:0:0:
256,192,307355,1,0,0:0:0:0:
256,192,307412,1,8,0:0:0:0:
256,192,307470,1,8,0:0:0:0:
256,192,307528,1,0,0:0:0:0:
256,192,307643,1,8,0:0:0:0:
256,192,307701,1,8,0:0:0:0:
256,192,307759,1,0,0:0:0:0:
256,192,307874,1,8,0:0:0:0:
256,192,307989,1,0,0:0:0:0:
256,192,308105,1,0,0:0:0:0:
256,192,308162,1,0,0:0:0:0:
256,192,308220,1,8,0:0:0:0:
256,192,308278,1,8,0:0:0:0:
256,192,308335,1,0,0:0:0:0:
256,192,308451,1,8,0:0:0:0:
256,192,308566,1,0,0:0:0:0:
256,192,308624,1,0,0:0:0:0:
256,192,308682,1,8,0:0:0:0:
256,192,308912,1,8,0:0:0:0:
256,192,309028,1,0,0:0:0:0:
256,192,309143,1,8,0:0:0:0:
256,192,309201,1,8,0:0:0:0:
256,192,309259,1,0,0:0:0:0:
256,192,309316,1,8,0:0:0:0:
256,192,309374,1,0,0:0:0:0:
256,192,309489,1,8,0:0:0:0:
256,192,309547,1,8,0:0:0:0:
256,192,309605,1,8,0:0:0:0:
256,192,309720,1,8,0:0:0:0:
256,192,309835,1,0,0:0:0:0:
256,192,309951,1,0,0:0:0:0:
256,192,310009,1,0,0:0:0:0:
256,192,310066,1,8,0:0:0:0:
256,192,310124,1,8,0:0:0:0:
256,192,310182,1,0,0:0:0:0:
256,192,310297,1,8,0:0:0:0:
256,192,310412,1,0,0:0:0:0:
256,192,310528,1,12,0:0:0:0:
256,192,310759,1,0,0:0:0:0:
256,192,310874,1,0,0:0:0:0:
256,192,310989,1,12,0:0:0:0:
256,192,311220,1,0,0:0:0:0:
256,192,311451,1,12,0:0:0:0:
256,192,311566,1,8,0:0:0:0:
256,192,311682,1,0,0:0:0:0:
256,192,311797,1,0,0:0:0:0:
256,192,311912,1,12,0:0:0:0:
256,192,312143,1,0,0:0:0:0:
256,192,312259,1,8,0:0:0:0:
256,192,312374,1,4,0:0:0:0:
256,192,312489,12,0,314105,0:0:0:0:
256,192,314220,5,4,0:0:0:0:
256,192,314451,1,8,0:0:0:0:
256,192,314566,1,0,0:0:0:0:
256,192,314682,1,8,0:0:0:0:
256,192,314739,1,8,0:0:0:0:
256,192,314797,1,0,0:0:0:0:
256,192,314912,1,8,0:0:0:0:
256,192,315143,1,0,0:0:0:0:
256,192,315259,1,0,0:0:0:0:
256,192,315316,1,0,0:0:0:0:
256,192,315374,1,8,0:0:0:0:
256,192,315489,1,0,0:0:0:0:
256,192,315605,1,0,0:0:0:0:
256,192,315662,1,0,0:0:0:0:
256,192,315720,1,0,0:0:0:0:
256,192,315835,1,8,0:0:0:0:
256,192,316066,1,0,0:0:0:0:
256,192,316297,1,8,0:0:0:0:
256,192,316412,1,8,0:0:0:0:
256,192,316528,1,0,0:0:0:0:
256,192,316585,1,0,0:0:0:0:
256,192,316643,1,0,0:0:0:0:
256,192,316759,1,8,0:0:0:0:
256,192,316989,1,0,0:0:0:0:
256,192,317105,1,0,0:0:0:0:
256,192,317162,1,0,0:0:0:0:
256,192,317220,1,8,0:0:0:0:
256,192,317335,1,0,0:0:0:0:
256,192,317451,1,8,0:0:0:0:
256,192,317509,1,8,0:0:0:0:
256,192,317566,1,0,0:0:0:0:
256,192,317624,1,0,0:0:0:0:
256,192,317682,1,8,0:0:0:0:
256,192,317912,1,4,0:0:0:0:
256,192,318143,1,8,0:0:0:0:
256,192,318258,1,0,0:0:0:0:
256,192,318374,1,8,0:0:0:0:
256,192,318431,1,8,0:0:0:0:
256,192,318489,1,0,0:0:0:0:
256,192,318604,1,8,0:0:0:0:
256,192,318835,1,0,0:0:0:0:
256,192,318951,1,0,0:0:0:0:
256,192,319008,1,0,0:0:0:0:
256,192,319066,1,8,0:0:0:0:
256,192,319181,1,0,0:0:0:0:
256,192,319297,1,0,0:0:0:0:
256,192,319354,1,0,0:0:0:0:
256,192,319412,1,0,0:0:0:0:
256,192,319527,1,8,0:0:0:0:
256,192,319759,1,0,0:0:0:0:
256,192,319989,1,8,0:0:0:0:
256,192,320105,1,0,0:0:0:0:
256,192,320220,1,8,0:0:0:0:
256,192,320278,1,8,0:0:0:0:
256,192,320335,1,0,0:0:0:0:
256,192,320451,1,8,0:0:0:0:
256,192,320566,1,0,0:0:0:0:
256,192,320682,1,8,0:0:0:0:
256,192,320739,1,0,0:0:0:0:
256,192,320797,1,8,0:0:0:0:
256,192,320855,1,8,0:0:0:0:
256,192,320912,1,0,0:0:0:0:
256,192,321028,1,8,0:0:0:0:
256,192,321143,1,0,0:0:0:0:
256,192,321201,1,0,0:0:0:0:
256,192,321259,1,8,0:0:0:0:
256,192,321316,1,8,0:0:0:0:
256,192,321374,1,0,0:0:0:0:
256,192,321489,1,8,0:0:0:0:
256,192,321605,1,4,0:0:0:0:
256,192,321835,1,8,0:0:0:0:
256,192,321951,1,0,0:0:0:0:
256,192,322009,1,0,0:0:0:0:
256,192,322066,1,0,0:0:0:0:
256,192,322182,1,0,0:0:0:0:
256,192,322297,1,8,0:0:0:0:
256,192,322528,1,0,0:0:0:0:
256,192,322759,1,8,0:0:0:0:
256,192,322874,1,0,0:0:0:0:
256,192,322932,1,0,0:0:0:0:
256,192,322989,1,0,0:0:0:0:
256,192,323105,1,0,0:0:0:0:
256,192,323220,1,8,0:0:0:0:
256,192,323335,1,8,0:0:0:0:
256,192,323451,1,0,0:0:0:0:
256,192,323682,1,8,0:0:0:0:
256,192,323797,1,0,0:0:0:0:
256,192,323855,1,8,0:0:0:0:
256,192,323912,1,0,0:0:0:0:
256,192,324028,1,0,0:0:0:0:
256,192,324143,1,8,0:0:0:0:
256,192,324374,1,0,0:0:0:0:
256,192,324489,1,0,0:0:0:0:
256,192,324547,1,0,0:0:0:0:
256,192,324605,1,8,0:0:0:0:
256,192,324720,1,0,0:0:0:0:
256,192,324835,1,8,0:0:0:0:
256,192,324893,1,8,0:0:0:0:
256,192,324951,1,0,0:0:0:0:
256,192,325066,1,8,0:0:0:0:
256,192,325182,1,8,0:0:0:0:
256,192,325297,1,0,0:0:0:0:
256,192,325528,1,8,0:0:0:0:
256,192,325643,1,8,0:0:0:0:
256,192,325701,1,8,0:0:0:0:
256,192,325759,1,0,0:0:0:0:
256,192,325874,1,0,0:0:0:0:
256,192,325989,1,8,0:0:0:0:
256,192,326220,1,0,0:0:0:0:
256,192,326335,1,0,0:0:0:0:
256,192,326393,1,0,0:0:0:0:
256,192,326451,1,8,0:0:0:0:
256,192,326566,1,0,0:0:0:0:
256,192,326682,1,8,0:0:0:0:
256,192,326739,1,8,0:0:0:0:
256,192,326797,1,0,0:0:0:0:
256,192,326855,1,0,0:0:0:0:
256,192,326912,1,8,0:0:0:0:
256,192,327028,1,8,0:0:0:0:
256,192,327143,1,0,0:0:0:0:
256,192,327374,1,8,0:0:0:0:
256,192,327489,1,0,0:0:0:0:
256,192,327547,1,8,0:0:0:0:
256,192,327605,1,0,0:0:0:0:
256,192,327720,1,0,0:0:0:0:
256,192,327835,1,8,0:0:0:0:
256,192,328066,1,0,0:0:0:0:
256,192,328182,1,0,0:0:0:0:
256,192,328239,1,0,0:0:0:0:
256,192,328297,1,8,0:0:0:0:
256,192,328412,1,0,0:0:0:0:
256,192,328528,1,8,0:0:0:0:
256,192,328585,1,8,0:0:0:0:
256,192,328643,1,8,0:0:0:0:
256,192,328759,1,8,0:0:0:0:
256,192,328874,1,8,0:0:0:0:
256,192,328989,5,4,0:0:0:0:
256,192,329220,1,8,0:0:0:0:
256,192,329335,1,0,0:0:0:0:
256,192,329451,1,8,0:0:0:0:
256,192,329508,1,8,0:0:0:0:
256,192,329566,1,0,0:0:0:0:
256,192,329681,1,8,0:0:0:0:
256,192,329912,1,0,0:0:0:0:
256,192,330028,1,0,0:0:0:0:
256,192,330085,1,0,0:0:0:0:
256,192,330143,1,8,0:0:0:0:
256,192,330258,1,0,0:0:0:0:
256,192,330374,1,0,0:0:0:0:
256,192,330431,1,0,0:0:0:0:
256,192,330489,1,0,0:0:0:0:
256,192,330604,1,8,0:0:0:0:
256,192,330835,1,0,0:0:0:0:
256,192,331066,1,8,0:0:0:0:
256,192,331181,1,8,0:0:0:0:
256,192,331297,1,0,0:0:0:0:
256,192,331354,1,0,0:0:0:0:
256,192,331412,1,0,0:0:0:0:
256,192,331528,1,8,0:0:0:0:
256,192,331758,1,0,0:0:0:0:
256,192,331874,1,0,0:0:0:0:
256,192,331931,1,0,0:0:0:0:
256,192,331989,1,8,0:0:0:0:
256,192,332104,1,0,0:0:0:0:
256,192,332220,1,8,0:0:0:0:
256,192,332278,1,8,0:0:0:0:
256,192,332335,1,0,0:0:0:0:
256,192,332393,1,0,0:0:0:0:
256,192,332451,1,8,0:0:0:0:
256,192,332681,1,4,0:0:0:0:
256,192,332912,1,8,0:0:0:0:
256,192,333027,1,0,0:0:0:0:
256,192,333143,1,8,0:0:0:0:
256,192,333200,1,8,0:0:0:0:
256,192,333258,1,0,0:0:0:0:
256,192,333373,1,8,0:0:0:0:
256,192,333604,1,0,0:0:0:0:
256,192,333720,1,0,0:0:0:0:
256,192,333777,1,0,0:0:0:0:
256,192,333835,1,8,0:0:0:0:
256,192,333950,1,0,0:0:0:0:
256,192,334066,1,0,0:0:0:0:
256,192,334123,1,0,0:0:0:0:
256,192,334181,1,0,0:0:0:0:
256,192,334296,1,8,0:0:0:0:
256,192,334528,1,0,0:0:0:0:
256,192,334758,1,8,0:0:0:0:
256,192,334874,1,0,0:0:0:0:
256,192,334989,1,8,0:0:0:0:
256,192,335047,1,8,0:0:0:0:
256,192,335104,1,0,0:0:0:0:
256,192,335220,1,8,0:0:0:0:
256,192,335335,1,0,0:0:0:0:
256,192,335451,1,8,0:0:0:0:
256,192,335508,1,0,0:0:0:0:
256,192,335566,1,8,0:0:0:0:
256,192,335624,1,8,0:0:0:0:
256,192,335681,1,0,0:0:0:0:
256,192,335797,1,8,0:0:0:0:
256,192,335912,1,0,0:0:0:0:
256,192,335970,1,0,0:0:0:0:
256,192,336028,1,8,0:0:0:0:
256,192,336085,1,8,0:0:0:0:
256,192,336143,1,0,0:0:0:0:
256,192,336258,1,8,0:0:0:0:
256,192,336374,1,4,0:0:0:0:
256,192,336604,1,8,0:0:0:0:
256,192,336720,1,0,0:0:0:0:
256,192,336778,1,0,0:0:0:0:
256,192,336835,1,0,0:0:0:0:
256,192,336951,1,0,0:0:0:0:
256,192,337066,1,8,0:0:0:0:
256,192,337297,1,0,0:0:0:0:
256,192,337528,1,8,0:0:0:0:
256,192,337643,1,0,0:0:0:0:
256,192,337701,1,0,0:0:0:0:
256,192,337758,1,0,0:0:0:0:
256,192,337874,1,0,0:0:0:0:
256,192,337989,1,8,0:0:0:0:
256,192,338047,1,0,0:0:0:0:
256,192,338104,1,8,0:0:0:0:
256,192,338220,1,0,0:0:0:0:
256,192,338451,1,8,0:0:0:0:
256,192,338566,1,0,0:0:0:0:
256,192,338624,1,8,0:0:0:0:
256,192,338681,1,0,0:0:0:0:
256,192,338797,1,0,0:0:0:0:
256,192,338912,1,8,0:0:0:0:
256,192,339143,1,8,0:0:0:0:
256,192,339201,1,8,0:0:0:0:
256,192,339259,1,0,0:0:0:0:
256,192,339374,1,0,0:0:0:0:
256,192,339489,1,8,0:0:0:0:
256,192,339547,1,8,0:0:0:0:
256,192,339604,1,8,0:0:0:0:
256,192,339720,1,8,0:0:0:0:
256,192,339835,1,0,0:0:0:0:
256,192,339951,1,8,0:0:0:0:
256,192,340066,1,0,0:0:0:0:
256,192,340297,1,8,0:0:0:0:
256,192,340412,1,8,0:0:0:0:
256,192,340470,1,8,0:0:0:0:
256,192,340528,1,0,0:0:0:0:
256,192,340643,1,0,0:0:0:0:
256,192,340758,1,8,0:0:0:0:
256,192,340989,1,0,0:0:0:0:
256,192,341104,1,0,0:0:0:0:
256,192,341162,1,0,0:0:0:0:
256,192,341220,1,8,0:0:0:0:
256,192,341335,1,0,0:0:0:0:
256,192,341451,1,8,0:0:0:0:
256,192,341508,1,8,0:0:0:0:
256,192,341566,1,0,0:0:0:0:
256,192,341624,1,0,0:0:0:0:
256,192,341681,1,8,0:0:0:0:
256,192,341797,1,8,0:0:0:0:
256,192,341912,1,0,0:0:0:0:
256,192,342143,1,8,0:0:0:0:
256,192,342258,1,0,0:0:0:0:
256,192,342316,1,8,0:0:0:0:
256,192,342374,1,0,0:0:0:0:
256,192,342489,1,0,0:0:0:0:
256,192,342604,1,8,0:0:0:0:
256,192,342835,1,0,0:0:0:0:
256,192,342951,1,8,0:0:0:0:
256,192,343008,1,0,0:0:0:0:
256,192,343066,1,8,0:0:0:0:
256,192,343182,1,0,0:0:0:0:
256,192,343297,1,8,0:0:0:0:
256,192,343355,1,8,0:0:0:0:
256,192,343412,1,0,0:0:0:0:
256,192,343470,1,0,0:0:0:0:
256,192,343528,1,8,0:0:0:0:
256,192,343643,1,8,0:0:0:0:
256,192,343759,1,4,0:0:0:0:
256,192,343909,12,0,347498,0:0:0:0:
