osu file format v14

[General]
AudioFilename: audio.mp3
AudioLeadIn: 0
PreviewTime: 28940
Countdown: 0
SampleSet: Soft
StackLeniency: 0.7
Mode: 0
LetterboxInBreaks: 0
WidescreenStoryboard: 1

[Editor]
DistanceSpacing: 1.3
BeatDivisor: 4
GridSize: 32
TimelineZoom: 1.5

[Metadata]
Title:Hanataba o Tsurugi ni
TitleUnicode:花束を剣に
Artist:Ariabl'eyeS
ArtistUnicode:Ariabl'eyeS
Creator:Esutarosa
Version:Insane
Source:
Tags:8th Mini Album -Concept Series Ⅱ- 響奏輪廻ローゼンレネット featured artist fa osu mpg mappers' guild Lyse Luna Rena gothic japanese ariableyes vocals vocalist classical intro symphonic Ryxliee Baack
BeatmapID:3152584
BeatmapSetID:1541201

[Difficulty]
HPDrainRate:5
CircleSize:4
OverallDifficulty:8
ApproachRate:8.5
SliderMultiplier:1.5
SliderTickRate:1

[Events]
//Background and Video events
0,0,"BG.jpg",0,0
//Break Periods
//Storyboard Layer 0 (Background)
//Storyboard Layer 1 (Fail)
//Storyboard Layer 2 (Pass)
//Storyboard Layer 3 (Foreground)
//Storyboard Layer 4 (Overlay)
//Storyboard Sound Samples

[TimingPoints]
1639,428.571428571429,4,2,2,60,1,0
1639,-125,4,2,2,60,0,0
8496,-111.111111111111,4,2,2,60,0,0
29067,-92.5925925925926,4,2,2,72,0,1
29496,-92.5925925925926,4,2,1,72,0,1
35924,-92.5925925925926,4,2,2,72,0,1
36353,-92.5925925925926,4,2,1,72,0,1
42781,-92.5925925925926,4,2,2,72,0,1
43210,-92.5925925925926,4,2,1,72,0,1
49639,-92.5925925925926,4,2,2,72,0,1
50067,-92.5925925925926,4,2,1,72,0,1
56496,-92.5925925925926,4,2,1,72,0,0
59924,-106.382978723404,4,2,2,72,0,1
60031,-106.382978723404,4,2,2,5,0,1
60353,-106.382978723404,4,2,2,72,0,1
60460,-106.382978723404,4,2,2,5,0,0

[Colours]
Combo1 : 124,63,72
Combo2 : 188,114,106

[HitObjects]
54,307,1639,6,0,P|88:287|111:281,1,60,2|0,3:3|0:3,0:0:0:0:
179,200,2067,2,0,P|167:171|121:159,1,60,2|0,3:3|0:3,0:0:0:0:
116,362,2496,1,0,0:3:0:0:
243,258,2710,1,0,0:3:0:0:
129,353,2924,1,0,0:3:0:0:
324,330,3139,1,2,3:3:0:0:
324,330,3353,6,0,P|354:337|389:353,1,60,2|0,3:3|0:3,0:0:0:0:
470,200,3781,2,0,P|442:211|413:218,1,60,2|0,3:3|0:3,0:0:0:0:
308,128,4210,2,0,P|321:94|349:70,2,60,0|0|0,0:3|0:3|0:3,0:0:0:0:
347,265,4853,1,0,0:3:0:0:
185,131,5067,6,0,P|202:167|216:206,1,60,2|0,3:3|0:3,0:0:0:0:
303,325,5496,2,0,P|314:297|327:270,1,60,2|0,3:3|0:3,0:0:0:0:
452,147,5924,1,0,0:3:0:0:
285,209,6139,1,0,0:3:0:0:
438,152,6353,1,0,0:3:0:0:
252,90,6567,1,2,3:3:0:0:
252,90,6781,6,0,P|272:55|299:46,1,60,2|0,3:3|0:3,0:0:0:0:
195,186,7210,2,0,P|154:186|133:167,1,60,2|0,3:3|0:3,0:0:0:0:
54,68,7639,2,0,P|73:38|85:12,2,60,0|0|0,0:3|0:3|0:3,0:0:0:0:
101,237,8281,1,0,0:3:0:0:
166,48,8496,6,0,P|180:81|192:116,1,67.4999979400635,4|0,3:2|0:3,0:0:0:0:
295,176,8924,2,0,P|320:154|319:115,1,67.4999979400635,2|0,3:3|0:3,0:0:0:0:
189,243,9353,2,0,P|173:277|164:314,1,67.4999979400635,0|0,0:3|0:3,0:0:0:0:
68,227,9781,1,0,0:3:0:0:
233,369,9996,1,2,3:3:0:0:
233,369,10210,6,0,P|259:353|294:339,1,67.4999979400635,2|0,3:3|0:3,0:0:0:0:
372,255,10639,2,0,P|398:271|433:285,1,67.4999979400635,2|0,3:3|0:3,0:0:0:0:
277,170,11067,1,0,0:3:0:0:
374,349,11281,1,0,0:3:0:0:
271,158,11496,1,0,0:3:0:0:
378,358,11710,1,0,0:3:0:0:
391,163,11924,6,0,P|416:138|454:133,1,67.4999979400635,2|0,3:3|0:3,0:0:0:0:
250,263,12353,2,0,P|217:255|194:231,1,67.4999979400635,2|0,3:3|0:3,0:0:0:0:
452,211,12781,2,0,P|432:245|419:280,1,67.4999979400635,0|0,0:3|0:3,0:0:0:0:
261,183,13210,1,0,0:3:0:0:
433,89,13424,1,2,3:3:0:0:
433,89,13639,6,0,P|409:62|371:60,1,67.4999979400635,2|0,3:3|0:3,0:0:0:0:
272,257,14067,2,0,P|304:251|325:225,1,67.4999979400635,2|0,3:3|0:3,0:0:0:0:
229,104,14496,1,0,0:3:0:0:
417,178,14710,1,0,0:3:0:0:
216,98,14924,1,0,0:3:0:0:
427,182,15139,1,0,0:3:0:0:
215,211,15353,6,0,P|183:227|151:249,1,67.4999979400635,4|0,3:2|0:3,0:0:0:0:
33,97,15781,2,0,P|63:111|91:130,1,67.4999979400635,2|0,3:3|0:3,0:0:0:0:
29,303,16210,2,0,P|13:264|1:241,1,67.4999979400635,0|0,0:3|0:3,0:0:0:0:
115,99,16639,1,0,0:3:0:0:
170,317,16853,1,2,3:3:0:0:
170,317,17067,6,0,P|213:295|237:288,1,67.4999979400635,2|0,3:3|0:3,0:0:0:0:
311,196,17496,2,0,P|292:167|240:174,1,67.4999979400635,2|0,3:3|0:3,0:0:0:0:
300,364,17924,1,0,0:3:0:0:
397,185,18139,1,0,0:3:0:0:
294,376,18353,1,0,0:3:0:0:
401,176,18567,1,0,0:3:0:0:
406,369,18781,6,0,P|441:361|460:330,1,67.4999979400635,2|0,3:3|0:3,0:0:0:0:
347,121,19210,2,0,P|314:127|294:153,1,67.4999979400635,2|0,3:3|0:3,0:0:0:0:
501,257,19639,2,0,P|491:221|477:185,1,67.4999979400635,0|0,0:3|0:3,0:0:0:0:
495,42,20067,1,0,0:3:0:0:
381,204,20281,1,2,3:3:0:0:
381,204,20496,6,0,P|347:229|314:228,1,67.4999979400635,2|0,3:3|0:3,0:0:0:0:
192,91,20924,2,0,P|230:107|246:137,1,67.4999979400635,2|0,3:3|0:3,0:0:0:0:
217,332,21353,1,0,0:3:0:0:
314,153,21567,1,0,0:3:0:0:
211,344,21781,1,0,0:3:0:0:
318,144,21996,1,0,0:3:0:0:
158,267,22210,6,0,P|130:256|89:251,1,67.4999979400635,4|0,3:2|0:3,0:0:0:0:
295,360,22639,2,0,P|325:348|359:343,1,67.4999979400635,2|0,3:3|0:3,0:0:0:0:
449,235,23067,2,0,P|435:211|384:211,1,67.4999979400635,0|0,0:3|0:3,0:0:0:0:
428,377,23496,1,0,0:3:0:0:
278,221,23710,1,2,3:3:0:0:
278,221,23924,6,0,P|289:185|306:152,1,67.4999979400635,2|0,3:3|0:3,0:0:0:0:
131,72,24353,2,0,P|145:102|155:134,1,67.4999979400635,2|0,3:3|0:3,0:0:0:0:
251,3,24781,1,0,0:3:0:0:
103,194,24996,1,0,0:3:0:0:
266,94,25210,1,0,0:3:0:0:
90,194,25424,1,0,0:3:0:0:
334,165,25639,6,0,P|361:189|365:225,1,67.4999979400635,2|0,3:3|0:3,0:0:0:0:
261,358,26067,2,0,P|268:322|297:301,1,67.4999979400635,2|0,3:3|0:3,0:0:0:0:
470,334,26496,2,0,P|435:345|402:330,1,67.4999979400635,0|0,0:3|0:3,0:0:0:0:
270,219,26924,1,0,0:3:0:0:
454,113,27139,1,2,3:3:0:0:
454,113,27353,6,0,P|430:86|392:84,1,67.4999979400635,2|0,3:3|0:3,0:0:0:0:
281,295,27781,2,0,P|316:287|337:255,1,67.4999979400635,2|0,3:3|0:3,0:0:0:0:
220,76,28210,1,0,0:3:0:0:
385,184,28424,1,0,0:3:0:0:
151,184,28639,1,0,0:3:0:0:
395,174,28853,1,0,0:3:0:0:
196,325,29067,6,0,B|157:315|157:315|152:310|152:310|113:300,1,81.0000019775391,4|0,1:0|0:2,0:0:0:0:
371,269,29496,2,0,B|410:259|410:259|415:254|415:254|447:245,1,81.0000019775391,2|0,1:2|0:2,0:0:0:0:
216,117,29924,1,0,0:2:0:0:
334,352,30139,1,0,0:2:0:0:
384,91,30353,1,0,0:2:0:0:
164,245,30567,1,2,1:2:0:0:
164,245,30781,6,0,P|199:271|250:258,1,81.0000019775391,2|0,1:2|0:2,0:0:0:0:
366,22,31210,2,0,P|325:39|311:89,1,81.0000019775391,2|0,1:2|0:2,0:0:0:0:
462,292,31639,1,0,0:2:0:0:
266,179,31853,1,0,0:2:0:0:
452,90,32067,1,0,0:2:0:0:
328,297,32281,1,0,0:2:0:0:
504,156,32496,6,0,P|463:138|417:129,1,81.0000019775391,2|0,1:2|0:2,0:0:0:0:
345,375,32924,2,0,P|384:365|421:349,1,81.0000019775391,2|0,1:2|0:2,0:0:0:0:
174,211,33353,2,0,P|187:252|196:293,1,81.0000019775391,0|0,0:2|0:2,0:0:0:0:
351,69,33781,1,0,0:2:0:0:
269,314,33996,1,2,1:2:0:0:
269,314,34210,6,0,P|310:319|341:286,1,81.0000019775391,2|0,1:2|0:2,0:0:0:0:
146,128,34639,2,0,P|108:141|94:177,1,81.0000019775391,2|0,1:2|0:2,0:0:0:0:
209,383,35067,1,0,0:2:0:0:
290,140,35281,1,0,0:2:0:0:
103,306,35496,1,0,0:2:0:0:
296,228,35710,1,0,0:2:0:0:
55,193,35924,6,0,B|32:159|32:159|58:111,1,81.0000019775391,4|0,1:0|0:2,0:0:0:0:
238,27,36353,2,0,B|257:62|257:62|234:96,1,81.0000019775391,2|0,1:2|0:2,0:0:0:0:
38,18,36781,1,0,0:2:0:0:
151,268,36996,1,0,0:2:0:0:
144,42,37210,1,0,0:2:0:0:
39,306,37424,1,2,1:2:0:0:
39,306,37639,6,0,P|61:337|113:338,1,81.0000019775391,2|0,1:2|0:2,0:0:0:0:
282,159,38067,2,0,P|244:162|217:207,1,81.0000019775391,2|0,1:2|0:2,0:0:0:0:
309,363,38496,1,0,0:2:0:0:
132,229,38710,1,0,0:2:0:0:
354,130,38924,1,0,0:2:0:0:
203,328,39139,1,0,0:2:0:0:
370,212,39353,6,0,P|410:190|452:188,1,81.0000019775391,2|0,1:2|0:2,0:0:0:0:
158,114,39781,2,0,P|123:93|83:89,1,81.0000019775391,2|0,1:2|0:2,0:0:0:0:
206,281,40210,2,0,P|248:268|274:232,1,81.0000019775391,0|0,0:2|0:2,0:0:0:0:
196,18,40639,1,0,0:2:0:0:
393,148,40853,1,2,1:2:0:0:
393,148,41067,6,0,P|432:139|469:112,1,81.0000019775391,2|0,1:2|0:2,0:0:0:0:
209,24,41496,2,0,P|232:64|248:115,1,81.0000019775391,2|0,1:2|0:2,0:0:0:0:
396,253,41924,1,0,0:2:0:0:
154,164,42139,1,0,0:2:0:0:
363,103,42353,1,0,0:2:0:0:
242,262,42567,1,0,0:2:0:0:
500,166,42781,6,0,B|484:203|484:203|480:206|480:206|462:248,1,81.0000019775391,4|0,1:0|0:2,0:0:0:0:
282,99,43210,2,0,B|267:66|267:66|263:63|263:63|247:26,1,81.0000019775391,2|0,1:2|0:2,0:0:0:0:
128,306,43639,1,0,0:2:0:0:
365,161,43853,1,0,0:2:0:0:
102,68,44067,1,0,0:2:0:0:
269,323,44281,1,2,1:2:0:0:
269,323,44496,6,0,P|307:312|334:268,1,81.0000019775391,2|0,1:2|0:2,0:0:0:0:
96,203,44924,2,0,P|116:248|130:293,1,81.0000019775391,2|0,1:2|0:2,0:0:0:0:
220,147,45353,1,0,0:2:0:0:
97,352,45567,1,0,0:2:0:0:
297,259,45781,1,0,0:2:0:0:
62,167,45996,1,0,0:2:0:0:
339,166,46210,6,0,P|355:127|382:76,1,81.0000019775391,2|0,1:2|0:2,0:0:0:0:
92,13,46639,2,0,P|110:49|125:86,1,81.0000019775391,2|0,1:2|0:2,0:0:0:0:
216,255,47067,2,0,P|183:296|129:281,1,81.0000019775391,0|0,0:2|0:2,0:0:0:0:
0,208,47496,1,0,0:2:0:0:
215,85,47710,1,2,1:2:0:0:
215,85,47924,6,0,P|196:123|179:170,1,81.0000019775391,2|0,1:2|0:2,0:0:0:0:
159,365,48353,2,0,P|202:341|246:331,1,81.0000019775391,2|0,1:2|0:2,0:0:0:0:
372,160,48781,1,0,0:2:0:0:
285,384,48996,1,0,0:2:0:0:
471,238,49210,1,0,0:2:0:0:
279,292,49424,1,0,0:2:0:0:
479,140,49639,6,0,B|460:104|460:104|413:93,1,81.0000019775391,4|0,1:0|0:2,0:0:0:0:
368,350,50067,2,0,B|407:340|407:340|426:304,1,81.0000019775391,2|0,1:2|0:2,0:0:0:0:
267,152,50496,1,0,0:2:0:0:
435,41,50710,1,0,0:2:0:0:
356,245,50924,1,0,0:2:0:0:
349,0,51139,1,2,1:2:0:0:
349,0,51353,6,0,P|310:13|265:37,1,81.0000019775391,2|0,1:2|0:2,0:0:0:0:
135,123,51781,2,0,P|98:105|60:91,1,81.0000019775391,2|0,1:2|0:2,0:0:0:0:
300,95,52210,1,0,0:2:0:0:
139,257,52424,1,0,0:2:0:0:
198,38,52639,1,0,0:2:0:0:
292,269,52853,1,0,0:2:0:0:
64,192,53067,6,0,P|101:158|146:163,1,81.0000019775391,2|0,1:2|0:2,0:0:0:0:
308,384,53496,2,0,P|268:378|242:348,1,81.0000019775391,2|0,1:2|0:2,0:0:0:0:
285,130,53924,1,0,0:2:0:0:
159,298,54139,1,0,0:2:0:0:
367,226,54353,1,0,0:2:0:0:
134,116,54567,1,2,1:2:0:0:
134,116,54781,6,0,P|172:129|218:153,1,81.0000019775391,2|0,1:2|0:2,0:0:0:0:
348,239,55210,2,0,P|384:221|422:207,1,81.0000019775391,2|0,1:2|0:2,0:0:0:0:
175,359,55639,1,0,0:2:0:0:
330,99,55853,1,0,0:2:0:0:
333,345,56067,1,0,0:2:0:0:
187,161,56281,1,0,0:2:0:0:
256,192,56496,12,0,59281,0:0:0:0:
435,19,59496,5,0,0:0:0:0:
420,43,59603,1,0,0:0:0:0:
407,68,59710,1,0,0:0:0:0:
397,95,59817,1,0,0:0:0:0:
387,122,59924,6,0,P|397:143|405:166,1,35.2499994621277,4|0,1:0|0:0,0:0:0:0:
198,74,60353,2,0,P|187:95|180:117,1,35.2499994621277,4|0,1:0|0:0,0:0:0:0:
