osu file format v14

[General]
AudioFilename: audio.mp3
AudioLeadIn: 0
PreviewTime: 28940
Countdown: 0
SampleSet: Soft
StackLeniency: 0.7
Mode: 0
LetterboxInBreaks: 0
WidescreenStoryboard: 0

[Editor]
DistanceSpacing: 0.9
BeatDivisor: 4
GridSize: 32
TimelineZoom: 1.5

[Metadata]
Title:Hanataba o Tsurugi ni
TitleUnicode:花束を剣に
Artist:Ariabl'eyeS
ArtistUnicode:Ariabl'eyeS
Creator:Esutarosa
Version:Hard
Source:
Tags:8th Mini Album -Concept Series Ⅱ- 響奏輪廻ローゼンレネット featured artist fa osu mpg mappers' guild Lyse Luna Rena gothic japanese ariableyes vocals vocalist classical intro symphonic Ryxliee Baack
BeatmapID:3150488
BeatmapSetID:1541201

[Difficulty]
HPDrainRate:4.5
CircleSize:3.8
OverallDifficulty:7
ApproachRate:8
SliderMultiplier:1.3
SliderTickRate:1

[Events]
//Background and Video events
0,0,"BG.jpg",0,0
//Break Periods
//Storyboard Layer 0 (Background)
//Storyboard Layer 1 (Fail)
//Storyboard Layer 2 (Pass)
//Storyboard Layer 3 (Foreground)
//Storyboard Layer 4 (Overlay)
//Storyboard Sound Samples

[TimingPoints]
1639,428.571428571429,4,2,2,60,1,0
1639,-125,4,2,2,60,0,0
8496,-111.111111111111,4,2,2,60,0,0
29067,-100,4,2,2,72,0,1
29496,-100,4,2,1,72,0,1
35924,-100,4,2,2,72,0,1
36353,-100,4,2,1,72,0,1
42781,-100,4,2,2,72,0,1
43210,-100,4,2,1,72,0,1
49639,-100,4,2,2,72,0,1
50067,-100,4,2,1,72,0,1
56496,-100,4,2,1,72,0,0
59924,-100,4,2,2,72,0,1
60139,-100,4,2,2,15,0,1
60353,-100,4,2,2,72,0,0
60567,-100,4,2,2,15,0,0

[Colours]
Combo1 : 124,63,72
Combo2 : 188,114,106

[HitObjects]
162,0,1639,6,0,P|143:27|131:51,1,52,2|0,3:3|0:3,0:0:0:0:
205,93,2067,2,0,P|217:70|232:49,1,52,2|0,3:3|0:3,0:0:0:0:
110,166,2496,2,0,P|122:197|131:228,2,52,0|0|0,0:3|0:3|0:3,0:0:0:0:
210,288,3139,1,2,3:3:0:0:
210,288,3353,6,0,P|235:275|277:265,1,52,2|0,3:3|0:3,0:0:0:0:
323,206,3781,2,0,P|348:218|445:235,1,104,2|0,3:3|0:3,0:0:0:0:
503,325,4424,2,0,P|497:299|482:278,2,52,0|0|0,0:3|0:3|0:3,0:0:0:0:
447,169,5067,6,0,P|455:141|469:106,1,52,2|0,3:3|0:3,0:0:0:0:
374,30,5496,2,0,P|382:54|390:79,1,52,2|0,3:3|0:3,0:0:0:0:
314,195,5924,2,0,P|288:189|270:160,2,52,0|0|0,0:3|0:3|0:3,0:0:0:0:
224,86,6567,1,2,3:3:0:0:
224,86,6781,6,0,P|194:99|172:115,1,52,2|0,3:3|0:3,0:0:0:0:
10,72,7210,2,0,P|33:82|100:132,1,104,2|0,3:3|0:3,0:0:0:0:
148,202,7853,2,0,P|134:225|123:248,2,52,0|0|0,0:3|0:3|0:3,0:0:0:0:
150,331,8496,6,0,P|176:351|204:348,1,58.4999982147217,4|0,3:2|0:3,0:0:0:0:
296,239,8924,2,0,P|265:251|254:277,1,58.4999982147217,2|0,3:3|0:3,0:0:0:0:
345,378,9353,2,0,P|376:371|406:351,2,58.4999982147217,0|0|0,0:3|0:3|0:3,0:0:0:0:
478,280,9996,1,2,3:3:0:0:
478,280,10210,6,0,P|470:252|456:216,1,58.4999982147217,2|0,3:3|0:3,0:0:0:0:
385,154,10639,2,0,P|393:126|446:30,1,116.999996429443,2|0,3:3|0:3,0:0:0:0:
297,209,11281,2,0,P|267:203|245:169,2,58.4999982147217,0|0|0,0:3|0:3|0:3,0:0:0:0:
149,147,11924,6,0,P|119:166|99:190,1,58.4999982147217,2|0,3:3|0:3,0:0:0:0:
45,123,12353,2,0,P|65:101|90:87,1,58.4999982147217,2|0,3:3|0:3,0:0:0:0:
212,10,12781,2,0,P|236:31|274:34,2,58.4999982147217,0|0|0,0:3|0:3|0:3,0:0:0:0:
325,109,13424,1,2,3:3:0:0:
325,109,13639,6,0,P|336:143|317:181,1,58.4999982147217,2|0,3:3|0:3,0:0:0:0:
258,241,14067,2,0,P|227:229|132:210,1,116.999996429443,2|0,3:3|0:3,0:0:0:0:
28,261,14710,2,0,P|43:236|68:223,2,58.4999982147217,0|0|0,0:3|0:3|0:3,0:0:0:0:
63,365,15353,6,0,P|89:356|122:351,1,58.4999982147217,4|0,3:2|0:3,0:0:0:0:
198,292,15781,2,0,P|225:301|254:305,1,58.4999982147217,2|0,3:3|0:3,0:0:0:0:
377,363,16210,2,0,P|404:341|404:305,2,58.4999982147217,0|0|0,0:3|0:3|0:3,0:0:0:0:
357,226,16853,1,2,3:3:0:0:
357,226,17067,6,0,P|364:197|380:161,1,58.4999982147217,2|0,3:3|0:3,0:0:0:0:
456,109,17496,2,0,P|449:80|397:-4,1,116.999996429443,2|0,3:3|0:3,0:0:0:0:
311,0,18139,2,0,P|285:20|256:25,2,58.4999982147217,0|0|0,0:3|0:3|0:3,0:0:0:0:
169,88,18781,6,0,P|151:114|159:148,1,58.4999982147217,2|0,3:3|0:3,0:0:0:0:
218,219,19210,2,0,P|253:221|281:232,1,58.4999982147217,2|0,3:3|0:3,0:0:0:0:
386,316,19639,2,0,P|422:295|433:262,2,58.4999982147217,0|0|0,0:3|0:3|0:3,0:0:0:0:
279,375,20281,1,2,3:3:0:0:
279,375,20496,6,0,P|237:354|210:351,1,58.4999982147217,2|0,3:3|0:3,0:0:0:0:
111,298,20924,2,0,P|139:290|209:233,1,116.999996429443,2|0,3:3|0:3,0:0:0:0:
58,362,21567,2,0,P|36:343|28:307,2,58.4999982147217,0|0|0,0:3|0:3|0:3,0:0:0:0:
6,221,22210,6,0,P|14:191|29:158,1,58.4999982147217,4|0,3:2|0:3,0:0:0:0:
104,193,22639,2,0,P|92:220|85:248,1,58.4999982147217,2|0,3:3|0:3,0:0:0:0:
208,117,23067,2,0,P|192:87|172:58,2,58.4999982147217,0|0|0,0:3|0:3|0:3,0:0:0:0:
288,195,23710,1,2,3:3:0:0:
288,195,23924,6,0,P|324:179|363:171,1,58.4999982147217,2|0,3:3|0:3,0:0:0:0:
399,97,24353,2,0,P|435:113|538:132,1,116.999996429443,2|0,3:3|0:3,0:0:0:0:
512,218,24996,2,0,P|493:241|482:268,2,58.4999982147217,0|0|0,0:3|0:3|0:3,0:0:0:0:
408,367,25639,6,0,P|379:365|352:342,1,58.4999982147217,2|0,3:3|0:3,0:0:0:0:
287,274,26067,2,0,P|258:276|231:299,1,58.4999982147217,2|0,3:3|0:3,0:0:0:0:
402,245,26496,2,0,P|418:221|416:187,2,58.4999982147217,0|0|0,0:3|0:3|0:3,0:0:0:0:
351,116,27139,1,2,3:3:0:0:
351,116,27353,6,0,P|325:98|290:92,1,58.4999982147217,2|0,3:3|0:3,0:0:0:0:
222,29,27781,2,0,P|196:47|105:50,1,116.999996429443,2|0,3:3|0:3,0:0:0:0:
30,151,28424,2,0,P|34:122|55:102,2,58.4999982147217,0|0|0,0:3|0:3|0:3,0:0:0:0:
99,274,29067,6,0,B|133:277|133:277|136:281|136:281|169:284,1,65,4|0,1:0|0:2,0:0:0:0:
255,208,29496,2,0,B|289:204|289:204|292:201|292:201|325:198,1,65,2|0,1:2|0:2,0:0:0:0:
423,249,29924,1,0,0:2:0:0:
388,326,30139,1,0,0:2:0:0:
472,320,30353,1,0,0:2:0:0:
334,254,30567,1,2,1:2:0:0:
334,254,30781,6,0,P|322:219|309:183,1,65,2|0,1:2|0:2,0:0:0:0:
426,97,31210,2,0,P|414:127|404:158,1,65,2|0,1:2|0:2,0:0:0:0:
319,37,31639,1,0,0:2:0:0:
241,70,31853,1,0,0:2:0:0:
237,154,32067,1,0,0:2:0:0:
163,195,32281,1,0,0:2:0:0:
44,200,32496,6,0,B|28:168|28:168|42:135,1,65,2|0,1:2|0:2,0:0:0:0:
132,69,32924,2,0,B|148:37|148:37|134:4,1,65,2|0,1:2|0:2,0:0:0:0:
237,154,33353,2,0,P|255:183|262:219,2,65,0|0|0,0:2|0:2|0:2,0:0:0:0:
345,304,33996,1,2,1:2:0:0:
345,304,34210,6,0,P|385:296|406:273,1,65,2|0,1:2|0:2,0:0:0:0:
512,244,34639,2,0,P|504:204|481:183,1,65,2|0,1:2|0:2,0:0:0:0:
403,102,35067,1,0,0:2:0:0:
322,76,35281,1,0,0:2:0:0:
301,158,35496,1,0,0:0:0:0:
382,194,35710,1,0,0:2:0:0:
382,194,35924,6,0,B|362:227|362:227|380:277,1,65,4|0,1:0|0:2,0:0:0:0:
512,342,36353,2,0,B|519:310|519:310|500:282,1,65,2|0,1:2|0:2,0:0:0:0:
388,375,36781,1,0,0:2:0:0:
304,361,36996,1,0,0:2:0:0:
357,295,37210,1,0,0:2:0:0:
260,198,37424,1,2,1:2:0:0:
260,198,37639,6,0,B|228:205|228:205|223:203|223:203|183:210,1,65,2|0,1:2|0:2,0:0:0:0:
112,292,38067,2,0,B|80:285|80:285|75:287|75:287|35:280,1,65,2|0,1:2|0:2,0:0:0:0:
0,166,38496,1,0,0:2:0:0:
47,95,38710,1,0,0:2:0:0:
130,109,38924,1,0,0:2:0:0:
180,41,39139,1,0,0:2:0:0:
293,0,39353,6,0,P|322:25|330:58,1,65,2|0,1:2|0:2,0:0:0:0:
265,194,39781,2,0,P|272:156|296:132,1,65,2|0,1:2|0:2,0:0:0:0:
424,76,40210,2,0,P|454:64|473:30,2,65,0|0|0,0:2|0:2|0:2,0:0:0:0:
344,197,40853,1,2,1:2:0:0:
344,197,41067,6,0,B|374:212|374:212|410:197,1,65,2|0,1:2|0:2,0:0:0:0:
495,288,41496,2,0,B|465:300|465:300|435:285,1,65,2|0,1:2|0:2,0:0:0:0:
332,355,41924,1,0,0:2:0:0:
257,377,42139,1,0,0:2:0:0:
272,294,42353,1,0,0:2:0:0:
364,271,42567,1,0,0:2:0:0:
364,271,42781,6,0,B|350:239|350:239|349:234|349:234|337:207,1,65,4|0,1:0|0:2,0:0:0:0:
264,141,43210,2,0,B|278:109|278:109|279:104|279:104|291:77,1,65,2|0,1:2|0:2,0:0:0:0:
390,23,43639,1,0,0:2:0:0:
469,51,43853,1,0,0:2:0:0:
404,105,44067,1,0,0:2:0:0:
484,222,44281,1,2,1:2:0:0:
484,222,44496,6,0,P|453:240|431:267,1,65,2|0,1:2|0:2,0:0:0:0:
379,362,44924,2,0,P|344:352|309:356,1,65,2|0,1:2|0:2,0:0:0:0:
220,284,45353,1,0,0:2:0:0:
141,314,45567,1,0,0:2:0:0:
80,254,45781,1,0,0:2:0:0:
101,172,45996,1,0,0:2:0:0:
218,82,46210,6,0,P|252:87|285:98,1,65,2|0,1:2|0:2,0:0:0:0:
410,0,46639,2,0,P|375:5|343:16,1,65,2|0,1:2|0:2,0:0:0:0:
385,161,47067,2,0,P|409:189|415:225,2,65,0|0|0,0:2|0:2|0:2,0:0:0:0:
367,316,47710,1,2,1:2:0:0:
367,316,47924,6,0,B|336:341|336:341|307:326,1,65,2|0,1:2|0:2,0:0:0:0:
206,206,48353,2,0,B|243:220|243:220|244:252,1,65,2|0,1:2|0:2,0:0:0:0:
186,365,48781,1,0,0:2:0:0:
104,374,48996,1,0,0:2:0:0:
136,296,49210,1,0,0:2:0:0:
226,280,49424,1,0,0:2:0:0:
226,280,49639,6,0,B|258:267|258:267|262:267|262:267|292:256,1,65,4|0,1:0|0:2,0:0:0:0:
365,190,50067,2,0,B|397:203|397:203|401:203|401:203|431:214,1,65,2|0,1:2|0:2,0:0:0:0:
499,305,50496,1,0,0:2:0:0:
442,367,50710,1,0,0:2:0:0:
411,288,50924,1,0,0:2:0:0:
266,255,51139,1,2,1:2:0:0:
266,255,51353,6,0,P|246:222|241:181,1,65,2|0,1:2|0:2,0:0:0:0:
147,130,51781,2,0,P|165:96|198:71,1,65,2|0,1:2|0:2,0:0:0:0:
282,17,52210,1,0,0:2:0:0:
348,69,52424,1,0,0:2:0:0:
426,35,52639,1,0,0:2:0:0:
495,82,52853,1,0,0:2:0:0:
446,190,53067,6,0,B|423:220|423:220|377:228,1,65,2|0,1:2|0:2,0:0:0:0:
310,165,53496,2,0,B|287:135|287:135|241:127,1,65,2|0,1:2|0:2,0:0:0:0:
136,203,53924,2,0,P|155:230|164:271,2,65,0|0|0,0:2|0:2|0:2,0:0:0:0:
40,144,54567,1,2,1:2:0:0:
40,144,54781,6,0,P|51:107|67:71,1,65,2|0,1:2|0:2,0:0:0:0:
0,252,55210,2,0,P|12:282|21:313,1,65,2|0,1:2|0:2,0:0:0:0:
124,371,55639,1,0,0:2:0:0:
194,324,55853,1,0,0:2:0:0:
115,292,56067,1,0,0:2:0:0:
224,211,56281,1,0,0:2:0:0:
256,192,56496,12,0,59281,0:0:0:0:
38,36,59496,6,0,L|50:68,3,32.5
71,101,59924,6,0,P|105:92|147:87,1,65,4|0,1:0|0:0,0:0:0:0:
195,30,60353,2,0,P|229:39|271:44,1,65,4|0,1:0|0:0,0:0:0:0:
